  0
SECTION
  2
HEADER
  9
$ACADVER
  1
AC1014
  9
$ACADMAINTVER
 70
     0
  9
$DWGCODEPAGE
  3
ANSI_1250
  9
$INSBASE
 10
0.0
 20
0.0
 30
0.0
  9
$EXTMIN
 10
486.041244
 20
0.0
 30
0.0
  9
$EXTMAX
 10
687.671651
 20
297.0
 30
0.0
  9
$LIMMIN
 10
0.0
 20
0.0
  9
$LIMMAX
 10
420.0
 20
297.0
  9
$ORTHOMODE
 70
     0
  9
$REGENMODE
 70
     1
  9
$FILLMODE
 70
     1
  9
$QTEXTMODE
 70
     0
  9
$MIRRTEXT
 70
     1
  9
$DRAGMODE
 70
     2
  9
$LTSCALE
 40
6.0
  9
$OSMODE
 70
     4
  9
$ATTMODE
 70
     1
  9
$TEXTSIZE
 40
3.5
  9
$TRACEWID
 40
0.05
  9
$TEXTSTYLE
  7
ITALIC
  9
$CLAYER
  8
WYMIARY
  9
$CELTYPE
  6
BYLAYER
  9
$CECOLOR
 62
     3
  9
$CELTSCALE
 40
1.0
  9
$DELOBJ
 70
     1
  9
$DISPSILH
 70
     0
  9
$DIMSCALE
 40
1.0
  9
$DIMASZ
 40
3.5
  9
$DIMEXO
 40
1.5
  9
$DIMDLI
 40
7.0
  9
$DIMRND
 40
0.0
  9
$DIMDLE
 40
0.0
  9
$DIMEXE
 40
1.5
  9
$DIMTP
 40
0.1
  9
$DIMTM
 40
0.0
  9
$DIMTXT
 40
1.8
  9
$DIMCEN
 40
-1.0
  9
$DIMTSZ
 40
0.0
  9
$DIMTOL
 70
     0
  9
$DIMLIM
 70
     0
  9
$DIMTIH
 70
     0
  9
$DIMTOH
 70
     0
  9
$DIMSE1
 70
     0
  9
$DIMSE2
 70
     0
  9
$DIMTAD
 70
     1
  9
$DIMZIN
 70
     0
  9
$DIMBLK
  1

  9
$DIMASO
 70
     1
  9
$DIMSHO
 70
     0
  9
$DIMPOST
  1

  9
$DIMAPOST
  1

  9
$DIMALT
 70
     0
  9
$DIMALTD
 70
     2
  9
$DIMALTF
 40
25.4
  9
$DIMLFAC
 40
1.0
  9
$DIMTOFL
 70
     0
  9
$DIMTVP
 40
0.0
  9
$DIMTIX
 70
     0
  9
$DIMSOXD
 70
     0
  9
$DIMSAH
 70
     0
  9
$DIMBLK1
  1

  9
$DIMBLK2
  1

  9
$DIMSTYLE
  2
STANDARD
  9
$DIMCLRD
 70
     0
  9
$DIMCLRE
 70
     0
  9
$DIMCLRT
 70
     0
  9
$DIMTFAC
 40
1.0
  9
$DIMGAP
 40
0.75
  9
$DIMJUST
 70
     0
  9
$DIMSD1
 70
     0
  9
$DIMSD2
 70
     0
  9
$DIMTOLJ
 70
     1
  9
$DIMTZIN
 70
     0
  9
$DIMALTZ
 70
     0
  9
$DIMALTTZ
 70
     0
  9
$DIMFIT
 70
     3
  9
$DIMUPT
 70
     0
  9
$DIMUNIT
 70
     2
  9
$DIMDEC
 70
     2
  9
$DIMTDEC
 70
     4
  9
$DIMALTU
 70
     2
  9
$DIMALTTD
 70
     2
  9
$DIMTXSTY
  7
STANDARD
  9
$DIMAUNIT
 70
     0
  9
$LUNITS
 70
     2
  9
$LUPREC
 70
     2
  9
$SKETCHINC
 40
0.1
  9
$FILLETRAD
 40
0.1
  9
$AUNITS
 70
     0
  9
$AUPREC
 70
     2
  9
$MENU
  1
ACAD
  9
$ELEVATION
 40
0.0
  9
$PELEVATION
 40
0.0
  9
$THICKNESS
 40
0.0
  9
$LIMCHECK
 70
     0
  9
$BLIPMODE
 70
     0
  9
$CHAMFERA
 40
0.0
  9
$CHAMFERB
 40
0.0
  9
$CHAMFERC
 40
0.0
  9
$CHAMFERD
 40
0.0
  9
$SKPOLY
 70
     0
  9
$TDCREATE
 40
2448721.399136690
  9
$TDUPDATE
 40
2454573.615097742
  9
$TDINDWG
 40
1.7832933333
  9
$TDUSRTIMER
 40
1.7832933333
  9
$USRTIMER
 70
     1
  9
$ANGBASE
 50
0.0
  9
$ANGDIR
 70
     0
  9
$PDMODE
 70
     0
  9
$PDSIZE
 40
0.0
  9
$PLINEWID
 40
0.5
  9
$COORDS
 70
     2
  9
$SPLFRAME
 70
     0
  9
$SPLINETYPE
 70
     6
  9
$SPLINESEGS
 70
     8
  9
$ATTDIA
 70
     0
  9
$ATTREQ
 70
     1
  9
$HANDLING
 70
     1
  9
$HANDSEED
  5
A296
  9
$SURFTAB1
 70
     6
  9
$SURFTAB2
 70
     6
  9
$SURFTYPE
 70
     6
  9
$SURFU
 70
     6
  9
$SURFV
 70
     6
  9
$UCSNAME
  2

  9
$UCSORG
 10
0.0
 20
0.0
 30
0.0
  9
$UCSXDIR
 10
1.0
 20
0.0
 30
0.0
  9
$UCSYDIR
 10
0.0
 20
1.0
 30
0.0
  9
$PUCSNAME
  2

  9
$PUCSORG
 10
0.0
 20
0.0
 30
0.0
  9
$PUCSXDIR
 10
1.0
 20
0.0
 30
0.0
  9
$PUCSYDIR
 10
0.0
 20
1.0
 30
0.0
  9
$USERI1
 70
     0
  9
$USERI2
 70
     0
  9
$USERI3
 70
     0
  9
$USERI4
 70
     0
  9
$USERI5
 70
     0
  9
$USERR1
 40
0.0
  9
$USERR2
 40
0.0
  9
$USERR3
 40
0.0
  9
$USERR4
 40
0.0
  9
$USERR5
 40
0.0
  9
$WORLDVIEW
 70
     1
  9
$SHADEDGE
 70
     3
  9
$SHADEDIF
 70
    70
  9
$TILEMODE
 70
     1
  9
$MAXACTVP
 70
    16
  9
$PINSBASE
 10
0.0
 20
0.0
 30
0.0
  9
$PLIMCHECK
 70
     0
  9
$PEXTMIN
 10
1.000000E+20
 20
1.000000E+20
 30
1.000000E+20
  9
$PEXTMAX
 10
-1.000000E+20
 20
-1.000000E+20
 30
-1.000000E+20
  9
$PLIMMIN
 10
0.0
 20
0.0
  9
$PLIMMAX
 10
12.0
 20
9.0
  9
$UNITMODE
 70
     0
  9
$VISRETAIN
 70
     0
  9
$PLINEGEN
 70
     0
  9
$PSLTSCALE
 70
     0
  9
$TREEDEPTH
 70
  3020
  9
$PICKSTYLE
 70
     1
  9
$CMLSTYLE
  2
STANDARD
  9
$CMLJUST
 70
     0
  9
$CMLSCALE
 40
1.0
  9
$PROXYGRAPHICS
 70
     1
  9
$MEASUREMENT
 70
     0
  0
ENDSEC
  0
SECTION
  2
CLASSES
  0
CLASS
  1
HATCH
  2
AcDbHatch
  3
"ACAD_SEDONA"
 90
        0
280
     0
281
     1
  0
CLASS
  1
LWPOLYLINE
  2
AcDbPolyline
  3
"AutoCAD"
 90
        0
280
     0
281
     1
  0
CLASS
  1
DICTIONARYVAR
  2
AcDbDictionaryVar
  3
"AutoCAD"
 90
        0
280
     0
281
     0
  0
ENDSEC
  0
SECTION
  2
TABLES
  0
TABLE
  2
VPORT
  5
8
100
AcDbSymbolTable
 70
     2
  0
VPORT
  5
A295
100
AcDbSymbolTableRecord
100
AcDbViewportTableRecord
  2
*ACTIVE
 70
     0
 10
0.0
 20
0.0
 11
1.0
 21
1.0
 12
586.854556
 22
148.500001
 13
0.0
 23
0.0
 14
1.0
 24
1.0
 15
5.0
 25
5.0
 16
0.0
 26
0.0
 36
1.0
 17
0.0
 27
0.0
 37
0.0
 40
300.883873
 41
2.008696
 42
50.0
 43
0.0
 44
0.0
 50
0.0
 51
0.0
 71
     0
 72
   200
 73
     1
 74
     0
 75
     0
 76
     0
 77
     0
 78
     0
  0
ENDTAB
  0
TABLE
  2
LTYPE
  5
5
100
AcDbSymbolTable
 70
     4
  0
LTYPE
  5
12
100
AcDbSymbolTableRecord
100
AcDbLinetypeTableRecord
  2
BYBLOCK
 70
     0
  3

 72
    65
 73
     0
 40
0.0
  0
LTYPE
  5
13
100
AcDbSymbolTableRecord
100
AcDbLinetypeTableRecord
  2
BYLAYER
 70
     0
  3

 72
    65
 73
     0
 40
0.0
  0
LTYPE
  5
14
100
AcDbSymbolTableRecord
100
AcDbLinetypeTableRecord
  2
CONTINUOUS
 70
     0
  3
Solid line
 72
    65
 73
     0
 40
0.0
  0
LTYPE
  5
1D
100
AcDbSymbolTableRecord
100
AcDbLinetypeTableRecord
  2
CENTER
 70
     0
  3
____ _ ____ _ ____ _ ____ _ ____ _ ____ _ ____
 72
    65
 73
     4
 40
2.0
 49
1.25
 74
     0
 49
-0.25
 74
     0
 49
0.25
 74
     0
 49
-0.25
 74
     0
  0
LTYPE
  5
1E
100
AcDbSymbolTableRecord
100
AcDbLinetypeTableRecord
  2
HIDDEN
 70
     0
  3
_ _ _ _ _ _ _ _ _ _ _ _ _ _ _ _ _ _ _ _ _ _ _
 72
    65
 73
     2
 40
0.375
 49
0.25
 74
     0
 49
-0.125
 74
     0
  0
LTYPE
  5
8093
100
AcDbSymbolTableRecord
100
AcDbLinetypeTableRecord
  2
PHANTOM
 70
     0
  3
Phantom ______  __  __  ______  __  __  ______
 72
    65
 73
     6
 40
12.7
 49
6.35
 74
     0
 49
-1.27
 74
     0
 49
1.27
 74
     0
 49
-1.27
 74
     0
 49
1.27
 74
     0
 49
-1.27
 74
     0
  0
ENDTAB
  0
TABLE
  2
LAYER
  5
2
100
AcDbSymbolTable
 70
     8
  0
LAYER
  5
F
100
AcDbSymbolTableRecord
100
AcDbLayerTableRecord
  2
0
 70
     0
 62
     7
  6
CONTINUOUS
  0
LAYER
  5
21
100
AcDbSymbolTableRecord
100
AcDbLayerTableRecord
  2
1
 70
     0
 62
     3
  6
CONTINUOUS
  0
LAYER
  5
22
100
AcDbSymbolTableRecord
100
AcDbLayerTableRecord
  2
2
 70
     0
 62
     6
  6
CONTINUOUS
  0
LAYER
  5
23
100
AcDbSymbolTableRecord
100
AcDbLayerTableRecord
  2
3
 70
     0
 62
     4
  6
HIDDEN
  0
LAYER
  5
24
100
AcDbSymbolTableRecord
100
AcDbLayerTableRecord
  2
OSIE
 70
     0
 62
     2
  6
CENTER
  0
LAYER
  5
25
100
AcDbSymbolTableRecord
100
AcDbLayerTableRecord
  2
WY
 70
     0
 62
     1
  6
CONTINUOUS
  0
LAYER
  5
26
100
AcDbSymbolTableRecord
100
AcDbLayerTableRecord
  2
DEFPOINTS
 70
     0
 62
     7
  6
CONTINUOUS
  0
LAYER
  5
464
100
AcDbSymbolTableRecord
100
AcDbLayerTableRecord
  2
WYMIARY
 70
     0
 62
     1
  6
CONTINUOUS
  0
ENDTAB
  0
TABLE
  2
STYLE
  5
3
100
AcDbSymbolTable
 70
     2
  0
STYLE
  5
10
100
AcDbSymbolTableRecord
100
AcDbTextStyleTableRecord
  2
STANDARD
 70
     0
 40
0.0
 41
1.0
 50
0.0
 71
     0
 42
6.0
  3
txt
  4

  0
STYLE
  5
1C
100
AcDbSymbolTableRecord
100
AcDbTextStyleTableRecord
  2
ITALIC
 70
     0
 40
0.0
 41
1.0
 50
15.0
 71
     0
 42
3.5
  3
simplex
  4

  0
ENDTAB
  0
TABLE
  2
VIEW
  5
6
100
AcDbSymbolTable
 70
     0
  0
ENDTAB
  0
TABLE
  2
UCS
  5
7
100
AcDbSymbolTable
 70
     0
  0
ENDTAB
  0
TABLE
  2
APPID
  5
9
100
AcDbSymbolTable
 70
     1
  0
APPID
  5
11
100
AcDbSymbolTableRecord
100
AcDbRegAppTableRecord
  2
ACAD
 70
     0
  0
ENDTAB
  0
TABLE
  2
DIMSTYLE
  5
A
100
AcDbSymbolTable
 70
     1
  0
DIMSTYLE
105
3B
102
{ACAD_REACTORS
330
9E62
330
9E63
330
9E8E
102
}
100
AcDbSymbolTableRecord
100
AcDbDimStyleTableRecord
  2
STANDARD
 70
     0
  3

  4

  5

  6

  7

 40
1.0
 41
3.5
 42
1.5
 43
7.0
 44
1.5
 45
0.0
 46
0.0
 47
0.1
 48
0.0
140
3.6
141
-1.0
142
0.0
143
25.4
144
1.0
145
0.0
146
1.0
147
1.5
 71
     0
 72
     0
 73
     0
 74
     0
 75
     0
 76
     0
 77
     1
 78
     0
170
     0
171
     2
172
     0
173
     0
174
     0
175
     0
176
     0
177
     0
178
     0
270
     2
271
     2
272
     4
273
     2
274
     2
340
10
275
     0
280
     0
281
     0
282
     0
283
     1
284
     0
285
     0
286
     0
287
     3
288
     0
  0
ENDTAB
  0
TABLE
  2
BLOCK_RECORD
  5
1
100
AcDbSymbolTable
 70
     9
  0
BLOCK_RECORD
  5
18
100
AcDbSymbolTableRecord
100
AcDbBlockTableRecord
  2
*MODEL_SPACE
  0
BLOCK_RECORD
  5
15
100
AcDbSymbolTableRecord
100
AcDbBlockTableRecord
  2
*PAPER_SPACE
  0
BLOCK_RECORD
  5
7EA0
100
AcDbSymbolTableRecord
100
AcDbBlockTableRecord
  2
A$C312173AA
  0
BLOCK_RECORD
  5
7F70
100
AcDbSymbolTableRecord
100
AcDbBlockTableRecord
  2
A$C54971FCD
  0
BLOCK_RECORD
  5
7FC9
100
AcDbSymbolTableRecord
100
AcDbBlockTableRecord
  2
A$C369D6037
  0
BLOCK_RECORD
  5
8081
100
AcDbSymbolTableRecord
100
AcDbBlockTableRecord
  2
A$C3D1C28BF
  0
BLOCK_RECORD
  5
9EFC
100
AcDbSymbolTableRecord
100
AcDbBlockTableRecord
  2
*D4
  0
BLOCK_RECORD
  5
9F08
100
AcDbSymbolTableRecord
100
AcDbBlockTableRecord
  2
*D5
  0
BLOCK_RECORD
  5
9F2D
100
AcDbSymbolTableRecord
100
AcDbBlockTableRecord
  2
*D6
  0
BLOCK_RECORD
  5
A220
100
AcDbSymbolTableRecord
100
AcDbBlockTableRecord
  2
A$C50DB4B56
  0
BLOCK_RECORD
  5
A224
100
AcDbSymbolTableRecord
100
AcDbBlockTableRecord
  2
A$C78346700
  0
ENDTAB
  0
ENDSEC
  0
SECTION
  2
BLOCKS
  0
BLOCK
  5
29
100
AcDbEntity
  8
0
100
AcDbBlockBegin
  2
*MODEL_SPACE
 70
     0
 10
0.0
 20
0.0
 30
0.0
  3
*MODEL_SPACE
  1

  0
ENDBLK
  5
2A
100
AcDbEntity
  8
0
100
AcDbBlockEnd
  0
BLOCK
  5
27
100
AcDbEntity
 67
     1
  8
0
100
AcDbBlockBegin
  2
*PAPER_SPACE
 70
     0
 10
0.0
 20
0.0
 30
0.0
  3
*PAPER_SPACE
  1

  0
ENDBLK
  5
28
100
AcDbEntity
 67
     1
  8
0
100
AcDbBlockEnd
  0
BLOCK
  5
7EAF
100
AcDbEntity
  8
0
100
AcDbBlockBegin
  2
A$C312173AA
 70
     0
 10
0.0
 20
0.0
 30
0.0
  3
A$C312173AA
  1

  0
HATCH
  5
7EA1
100
AcDbEntity
  8
1
100
AcDbHatch
 10
0.0
 20
0.0
 30
0.0
210
0.0
220
0.0
230
1.0
  2
SOLID
 70
     1
 71
     1
 91
        1
 92
        7
 72
     0
 73
     1
 93
        4
 10
2.724690422176706
 20
5.013136352600668
 10
5.058157912552363
 20
1.095673373491763
 10
5.076413282682712
 20
1.095673373491763
 10
7.382430158279476
 20
5.013136352600668
 97
        4
330
7EA6
330
7EAA
330
7EA5
330
7EA8
 75
     0
 76
     1
 47
0.057765
 98
        1
 10
5.461965
 20
4.283681
  0
HATCH
  5
7EA2
100
AcDbEntity
  8
1
100
AcDbHatch
 10
0.0
 20
0.0
 30
0.0
210
0.0
220
0.0
230
1.0
  2
SOLID
 70
     1
 71
     1
 91
        1
 92
        7
 72
     0
 73
     1
 93
        4
 10
2.724690422176706
 20
5.013136352600668
 10
5.058157912552363
 20
1.095673373491763
 10
5.076413282682712
 20
1.095673373491763
 10
7.382430158279476
 20
5.013136352600668
 97
        4
330
7EA4
330
7EA9
330
7EA3
330
7EA7
 75
     0
 76
     1
 47
0.057765
 98
        1
 10
5.461965
 20
4.283681
  0
LINE
  5
7EA3
102
{ACAD_REACTORS
330
7EA2
102
}
100
AcDbEntity
  8
1
100
AcDbLine
 10
7.376974
 20
1.095673
 30
0.0
 11
2.719445
 21
1.095673
 31
0.0
  0
LINE
  5
7EA4
102
{ACAD_REACTORS
330
7EA2
102
}
100
AcDbEntity
  8
1
100
AcDbLine
 10
2.716507
 20
5.013136
 30
0.0
 11
7.38243
 21
5.013136
 31
0.0
  0
LINE
  5
7EA5
102
{ACAD_REACTORS
330
7EA1
102
}
100
AcDbEntity
  8
1
100
AcDbLine
 10
7.376974
 20
1.095673
 30
0.0
 11
2.719445
 21
1.095673
 31
0.0
  0
LINE
  5
7EA6
102
{ACAD_REACTORS
330
7EA1
102
}
100
AcDbEntity
  8
1
100
AcDbLine
 10
2.716507
 20
5.013136
 30
0.0
 11
7.38243
 21
5.013136
 31
0.0
  0
LINE
  5
7EA7
102
{ACAD_REACTORS
330
7EA2
102
}
100
AcDbEntity
  8
1
100
AcDbLine
 10
7.38243
 20
5.013136
 30
0.0
 11
5.049469
 21
1.0499
 31
0.0
  0
LINE
  5
7EA8
102
{ACAD_REACTORS
330
7EA1
102
}
100
AcDbEntity
  8
1
100
AcDbLine
 10
7.38243
 20
5.013136
 30
0.0
 11
5.049469
 21
1.0499
 31
0.0
  0
LINE
  5
7EA9
102
{ACAD_REACTORS
330
7EA2
102
}
100
AcDbEntity
  8
1
100
AcDbLine
 10
5.048209
 20
1.112376
 30
0.0
 11
2.719445
 21
5.021942
 31
0.0
  0
LINE
  5
7EAA
102
{ACAD_REACTORS
330
7EA1
102
}
100
AcDbEntity
  8
1
100
AcDbLine
 10
5.048209
 20
1.112376
 30
0.0
 11
2.719445
 21
5.021942
 31
0.0
  0
LINE
  5
7EAB
100
AcDbEntity
  8
1
100
AcDbLine
 10
3.176777
 20
2.240563
 30
0.0
 11
1.859991
 21
0.714974
 31
0.0
  0
LINE
  5
7EAC
100
AcDbEntity
  8
1
100
AcDbLine
 10
1.935572
 20
2.29404
 30
0.0
 11
0.618786
 21
0.768452
 31
0.0
  0
HATCH
  5
7EAD
100
AcDbEntity
  8
1
100
AcDbHatch
 10
0.0
 20
0.0
 30
0.0
210
0.0
220
0.0
230
1.0
  2
SOLID
 70
     1
 71
     0
 91
        1
 92
        7
 72
     0
 73
     1
 93
        3
 10
2.13435432304297
 20
0.5079866047149438
 10
1.594971700028992
 20
0.9149117569309055
 10
1.241204476589189
 20
0.0000001052034975
 97
        0
 75
     0
 76
     1
 47
0.009825
 98
        1
 10
1.617082
 20
0.370646
  0
HATCH
  5
7EAE
100
AcDbEntity
  8
1
100
AcDbHatch
 10
0.0
 20
0.0
 30
0.0
210
0.0
220
0.0
230
1.0
  2
SOLID
 70
     1
 71
     0
 91
        1
 92
        7
 72
     0
 73
     1
 93
        3
 10
0.8931496793437361
 20
0.5614642425206
 10
0.3537670563297865
 20
0.9683893947365334
 10
-0.0000001671100733
 20
0.0534777430091538
 97
        0
 75
     0
 76
     1
 47
0.009825
 98
        1
 10
0.375878
 20
0.424123
  0
ENDBLK
  5
7EB0
100
AcDbEntity
  8
0
100
AcDbBlockEnd
  0
BLOCK
  5
7FC7
100
AcDbEntity
  8
0
100
AcDbBlockBegin
  2
A$C54971FCD
 70
     0
 10
0.0
 20
0.0
 30
0.0
  3
A$C54971FCD
  1

  0
LINE
  5
7F71
100
AcDbEntity
  8
1
100
AcDbLine
 10
6.05
 20
1.507465
 30
0.0
 11
5.82196
 21
3.612976
 31
0.0
  0
LINE
  5
7F72
100
AcDbEntity
  8
1
100
AcDbLine
 10
6.019458
 20
1.789458
 30
0.0
 11
6.11805
 21
3.55
 31
0.0
  0
LINE
  5
7F73
100
AcDbEntity
  8
1
100
AcDbLine
 10
4.65
 20
1.507465
 30
0.0
 11
4.878039
 21
3.612976
 31
0.0
  0
LINE
  5
7F74
100
AcDbEntity
  8
1
100
AcDbLine
 10
4.680541
 20
1.789458
 30
0.0
 11
4.581949
 21
3.55
 31
0.0
  0
LINE
  5
7F75
100
AcDbEntity
  8
OSIE
100
AcDbLine
 10
5.35
 20
3.35
 30
0.0
 11
5.35
 21
1.4
 31
0.0
  0
ARC
  5
7F76
100
AcDbEntity
  8
1
100
AcDbCircle
 10
5.35
 20
5.35
 30
0.0
 40
5.259241
100
AcDbArc
 50
205.906088
 51
334.093912
  0
ARC
  5
7F77
100
AcDbEntity
  8
1
100
AcDbCircle
 10
5.35
 20
5.35
 30
0.0
 40
3.622932
100
AcDbArc
 50
259.351483
 51
280.648517
  0
ARC
  5
7F78
100
AcDbEntity
  8
1
100
AcDbCircle
 10
5.35
 20
5.35
 30
0.0
 40
3.905775
100
AcDbArc
 50
259.675564
 51
280.324436
  0
LINE
  5
7F79
100
AcDbEntity
  8
1
100
AcDbLine
 10
4.65
 20
0.399243
 30
0.0
 11
4.65
 21
1.507465
 31
0.0
  0
LINE
  5
7F7A
100
AcDbEntity
  8
1
100
AcDbLine
 10
6.05
 20
0.399243
 30
0.0
 11
6.05
 21
1.507465
 31
0.0
  0
LINE
  5
7F7B
100
AcDbEntity
  8
OSIE
100
AcDbLine
 10
4.35
 20
5.35
 30
0.0
 11
6.35
 21
5.35
 31
0.0
  0
ARC
  5
7F7C
100
AcDbEntity
  8
1
100
AcDbCircle
 10
5.35
 20
5.35
 30
0.0
 40
1.8
100
AcDbArc
 50
74.79935
 51
105.20065
  0
ARC
  5
7F7D
100
AcDbEntity
  8
1
100
AcDbCircle
 10
5.35
 20
5.35
 30
0.0
 40
3.622932
100
AcDbArc
 50
79.351483
 51
100.648517
  0
ARC
  5
7F7E
100
AcDbEntity
  8
1
100
AcDbCircle
 10
5.35
 20
5.35
 30
0.0
 40
3.905775
100
AcDbArc
 50
79.675564
 51
100.324436
  0
ARC
  5
7F7F
100
AcDbEntity
  8
1
100
AcDbCircle
 10
5.35
 20
5.35
 30
0.0
 40
1.8
100
AcDbArc
 50
254.79935
 51
285.20065
  0
LINE
  5
7F80
100
AcDbEntity
  8
OSIE
 48
3.0
100
AcDbLine
 10
2.606298
 20
2.606299
 30
0.0
 11
8.093701
 21
8.093701
 31
0.0
  0
LINE
  5
7F81
100
AcDbEntity
  8
OSIE
 48
3.0
100
AcDbLine
 10
2.606298
 20
8.093701
 30
0.0
 11
8.093701
 21
2.606299
 31
0.0
  0
LINE
  5
7F82
100
AcDbEntity
  8
1
100
AcDbLine
 10
4.680541
 20
8.910542
 30
0.0
 11
4.581949
 21
7.15
 31
0.0
  0
LINE
  5
7F83
100
AcDbEntity
  8
1
100
AcDbLine
 10
4.65
 20
9.192535
 30
0.0
 11
4.878039
 21
7.087024
 31
0.0
  0
LINE
  5
7F84
100
AcDbEntity
  8
OSIE
100
AcDbLine
 10
5.35
 20
7.35
 30
0.0
 11
5.35
 21
9.3
 31
0.0
  0
LINE
  5
7F85
100
AcDbEntity
  8
1
100
AcDbLine
 10
3.55
 20
6.11805
 30
0.0
 11
4.295348
 21
6.404652
 31
0.0
  0
LINE
  5
7F86
100
AcDbEntity
  8
1
100
AcDbLine
 10
4.536087
 20
6.163912
 30
0.0
 11
4.878039
 21
7.087024
 31
0.0
  0
LINE
  5
7F87
100
AcDbEntity
  8
1
100
AcDbLine
 10
3.612975
 20
5.82196
 30
0.0
 11
4.536087
 21
6.163912
 31
0.0
  0
ARC
  5
7F88
100
AcDbEntity
  8
1
100
AcDbCircle
 10
5.35
 20
5.35
 30
0.0
 40
1.8
100
AcDbArc
 50
180.0
 51
195.20065
  0
LINE
  5
7F89
100
AcDbEntity
  8
1
100
AcDbLine
 10
3.612975
 20
5.82196
 30
0.0
 11
3.55
 21
6.11805
 31
0.0
  0
ARC
  5
7F8A
100
AcDbEntity
  8
1
100
AcDbCircle
 10
5.35
 20
5.35
 30
0.0
 40
1.8
100
AcDbArc
 50
164.79935
 51
180.0
  0
LINE
  5
7F8B
100
AcDbEntity
  8
1
100
AcDbLine
 10
4.295348
 20
6.404652
 30
0.0
 11
4.582681
 21
7.16307
 31
0.0
  0
LINE
  5
7F8C
100
AcDbEntity
  8
1
100
AcDbLine
 10
4.878039
 20
7.087024
 30
0.0
 11
4.581949
 21
7.15
 31
0.0
  0
ARC
  5
7F8D
100
AcDbEntity
  8
1
100
AcDbCircle
 10
5.35
 20
5.35
 30
0.0
 40
3.905775
100
AcDbArc
 50
180.0
 51
190.324436
  0
ARC
  5
7F8E
100
AcDbEntity
  8
1
100
AcDbCircle
 10
5.35
 20
5.35
 30
0.0
 40
3.905775
100
AcDbArc
 50
169.675564
 51
180.0
  0
ARC
  5
7F8F
100
AcDbEntity
  8
1
100
AcDbCircle
 10
5.35
 20
5.35
 30
0.0
 40
3.622932
100
AcDbArc
 50
180.0
 51
190.648517
  0
ARC
  5
7F90
100
AcDbEntity
  8
1
100
AcDbCircle
 10
5.35
 20
5.35
 30
0.0
 40
3.622932
100
AcDbArc
 50
169.351483
 51
180.0
  0
LINE
  5
7F91
100
AcDbEntity
  8
1
100
AcDbLine
 10
1.507465
 20
4.65
 30
0.0
 11
3.612975
 21
4.87804
 31
0.0
  0
LINE
  5
7F92
100
AcDbEntity
  8
1
100
AcDbLine
 10
1.507465
 20
6.05
 30
0.0
 11
3.612975
 21
5.82196
 31
0.0
  0
LINE
  5
7F93
100
AcDbEntity
  8
1
100
AcDbLine
 10
1.789458
 20
6.019459
 30
0.0
 11
3.55
 21
6.11805
 31
0.0
  0
LINE
  5
7F94
100
AcDbEntity
  8
OSIE
100
AcDbLine
 10
3.35
 20
5.35
 30
0.0
 11
1.4
 21
5.35
 31
0.0
  0
LINE
  5
7F95
100
AcDbEntity
  8
1
100
AcDbLine
 10
4.295348
 20
4.295348
 30
0.0
 11
4.582681
 21
3.53693
 31
0.0
  0
LINE
  5
7F96
100
AcDbEntity
  8
1
100
AcDbLine
 10
4.878039
 20
3.612976
 30
0.0
 11
4.581949
 21
3.55
 31
0.0
  0
LINE
  5
7F97
100
AcDbEntity
  8
1
100
AcDbLine
 10
4.536087
 20
4.536088
 30
0.0
 11
4.878039
 21
3.612976
 31
0.0
  0
LINE
  5
7F98
100
AcDbEntity
  8
1
100
AcDbLine
 10
3.55
 20
4.58195
 30
0.0
 11
4.295348
 21
4.295348
 31
0.0
  0
LINE
  5
7F99
100
AcDbEntity
  8
OSIE
100
AcDbLine
 10
5.35
 20
4.35
 30
0.0
 11
5.35
 21
6.35
 31
0.0
  0
LINE
  5
7F9A
100
AcDbEntity
  8
1
100
AcDbLine
 10
3.612975
 20
4.87804
 30
0.0
 11
4.536087
 21
4.536088
 31
0.0
  0
LINE
  5
7F9B
100
AcDbEntity
  8
1
100
AcDbLine
 10
1.789458
 20
4.680542
 30
0.0
 11
3.55
 21
4.58195
 31
0.0
  0
LINE
  5
7F9C
100
AcDbEntity
  8
1
100
AcDbLine
 10
3.612975
 20
4.87804
 30
0.0
 11
3.55
 21
4.58195
 31
0.0
  0
LINE
  5
7F9D
100
AcDbEntity
  8
1
100
AcDbLine
 10
4.65
 20
10.300758
 30
0.0
 11
4.65
 21
9.192535
 31
0.0
  0
LINE
  5
7F9E
100
AcDbEntity
  8
1
100
AcDbLine
 10
6.019458
 20
8.910542
 30
0.0
 11
6.11805
 21
7.15
 31
0.0
  0
LINE
  5
7F9F
100
AcDbEntity
  8
1
100
AcDbLine
 10
6.05
 20
9.192535
 30
0.0
 11
5.82196
 21
7.087024
 31
0.0
  0
ARC
  5
7FA0
100
AcDbEntity
  8
1
100
AcDbCircle
 10
5.35
 20
5.35
 30
0.0
 40
3.622932
100
AcDbArc
 50
349.351483
 51
360.0
  0
ARC
  5
7FA1
100
AcDbEntity
  8
1
100
AcDbCircle
 10
5.35
 20
5.35
 30
0.0
 40
3.905775
100
AcDbArc
 50
349.675564
 51
360.0
  0
ARC
  5
7FA2
100
AcDbEntity
  8
1
100
AcDbCircle
 10
5.35
 20
5.35
 30
0.0
 40
3.622932
100
AcDbArc
 50
0.0
 51
10.648517
  0
ARC
  5
7FA3
100
AcDbEntity
  8
1
100
AcDbCircle
 10
5.35
 20
5.35
 30
0.0
 40
3.905775
100
AcDbArc
 50
0.0
 51
10.324436
  0
LINE
  5
7FA4
100
AcDbEntity
  8
1
100
AcDbLine
 10
6.404651
 20
6.404652
 30
0.0
 11
7.16307
 21
6.117318
 31
0.0
  0
LINE
  5
7FA5
100
AcDbEntity
  8
1
100
AcDbLine
 10
5.82196
 20
7.087024
 30
0.0
 11
6.163912
 21
6.163912
 31
0.0
  0
LINE
  5
7FA6
100
AcDbEntity
  8
1
100
AcDbLine
 10
6.163912
 20
6.163912
 30
0.0
 11
7.087024
 21
5.82196
 31
0.0
  0
ARC
  5
7FA7
100
AcDbEntity
  8
1
100
AcDbCircle
 10
5.35
 20
5.35
 30
0.0
 40
1.8
100
AcDbArc
 50
344.79935
 51
360.0
  0
ARC
  5
7FA8
100
AcDbEntity
  8
1
100
AcDbCircle
 10
5.35
 20
5.35
 30
0.0
 40
1.8
100
AcDbArc
 50
0.0
 51
15.20065
  0
LINE
  5
7FA9
100
AcDbEntity
  8
1
100
AcDbLine
 10
7.087024
 20
5.82196
 30
0.0
 11
7.15
 21
6.11805
 31
0.0
  0
LINE
  5
7FAA
100
AcDbEntity
  8
1
100
AcDbLine
 10
6.11805
 20
7.15
 30
0.0
 11
6.404651
 21
6.404652
 31
0.0
  0
LINE
  5
7FAB
100
AcDbEntity
  8
1
100
AcDbLine
 10
5.82196
 20
7.087024
 30
0.0
 11
6.11805
 21
7.15
 31
0.0
  0
LINE
  5
7FAC
100
AcDbEntity
  8
1
100
AcDbLine
 10
6.11805
 20
3.55
 30
0.0
 11
6.404651
 21
4.295348
 31
0.0
  0
LINE
  5
7FAD
100
AcDbEntity
  8
1
100
AcDbLine
 10
5.82196
 20
3.612976
 30
0.0
 11
6.11805
 21
3.55
 31
0.0
  0
LINE
  5
7FAE
100
AcDbEntity
  8
1
100
AcDbLine
 10
5.82196
 20
3.612976
 30
0.0
 11
6.163912
 21
4.536088
 31
0.0
  0
LINE
  5
7FAF
100
AcDbEntity
  8
1
100
AcDbLine
 10
6.404651
 20
4.295348
 30
0.0
 11
7.16307
 21
4.582682
 31
0.0
  0
LINE
  5
7FB0
100
AcDbEntity
  8
1
100
AcDbLine
 10
6.163912
 20
4.536088
 30
0.0
 11
7.087024
 21
4.87804
 31
0.0
  0
LINE
  5
7FB1
100
AcDbEntity
  8
1
100
AcDbLine
 10
7.087024
 20
4.87804
 30
0.0
 11
7.15
 21
4.58195
 31
0.0
  0
LINE
  5
7FB2
100
AcDbEntity
  8
1
100
AcDbLine
 10
9.192535
 20
4.65
 30
0.0
 11
7.087024
 21
4.87804
 31
0.0
  0
LINE
  5
7FB3
100
AcDbEntity
  8
1
100
AcDbLine
 10
8.910542
 20
4.680542
 30
0.0
 11
7.15
 21
4.58195
 31
0.0
  0
LINE
  5
7FB4
100
AcDbEntity
  8
1
100
AcDbLine
 10
8.910542
 20
6.019459
 30
0.0
 11
7.15
 21
6.11805
 31
0.0
  0
LINE
  5
7FB5
100
AcDbEntity
  8
1
100
AcDbLine
 10
9.192535
 20
6.05
 30
0.0
 11
7.087024
 21
5.82196
 31
0.0
  0
LINE
  5
7FB6
100
AcDbEntity
  8
OSIE
100
AcDbLine
 10
7.35
 20
5.35
 30
0.0
 11
9.3
 21
5.35
 31
0.0
  0
LINE
  5
7FB7
100
AcDbEntity
  8
1
100
AcDbLine
 10
10.556845
 20
6.539065
 30
0.0
 11
10.660275
 21
5.948524
 31
0.0
  0
LINE
  5
7FB8
100
AcDbEntity
  8
1
100
AcDbLine
 10
10.15
 20
7.664915
 30
0.0
 11
10.385993
 21
7.113751
 31
0.0
  0
LINE
  5
7FB9
100
AcDbEntity
  8
1
100
AcDbLine
 10
10.385993
 20
7.113751
 30
0.0
 11
10.556845
 21
6.539065
 31
0.0
  0
LINE
  5
7FBA
100
AcDbEntity
  8
1
100
AcDbLine
 10
10.080746
 20
7.647749
 30
0.0
 11
10.15
 21
7.580424
 31
0.0
  0
LINE
  5
7FBB
100
AcDbEntity
  8
1
100
AcDbLine
 10
10.660275
 20
5.948524
 30
0.0
 11
10.694906
 21
5.35
 31
0.0
  0
LINE
  5
7FBC
100
AcDbEntity
  8
1
100
AcDbLine
 10
10.694906
 20
5.35
 30
0.0
 11
10.660275
 21
4.751477
 31
0.0
  0
LINE
  5
7FBD
100
AcDbEntity
  8
1
100
AcDbLine
 10
10.556845
 20
4.160935
 30
0.0
 11
10.385993
 21
3.58625
 31
0.0
  0
LINE
  5
7FBE
100
AcDbEntity
  8
1
100
AcDbLine
 10
10.385993
 20
3.58625
 30
0.0
 11
10.15
 21
3.035085
 31
0.0
  0
LINE
  5
7FBF
100
AcDbEntity
  8
1
100
AcDbLine
 10
10.080746
 20
3.052252
 30
0.0
 11
10.15
 21
3.119576
 31
0.0
  0
LINE
  5
7FC0
100
AcDbEntity
  8
1
100
AcDbLine
 10
10.660275
 20
4.751477
 30
0.0
 11
10.556845
 21
4.160935
 31
0.0
  0
LINE
  5
7FC1
100
AcDbEntity
  8
1
100
AcDbLine
 10
6.05
 20
10.300758
 30
0.0
 11
6.05
 21
9.192535
 31
0.0
  0
ARC
  5
7FC2
100
AcDbEntity
  8
1
100
AcDbCircle
 10
5.35
 20
5.35
 30
0.0
 40
5.0
100
AcDbArc
 50
0.0
 51
180.0
  0
CIRCLE
  5
7FC3
100
AcDbEntity
  8
1
100
AcDbCircle
 10
5.35
 20
5.35
 30
0.0
 40
5.35
  0
ARC
  5
7FC4
100
AcDbEntity
  8
1
100
AcDbCircle
 10
5.35
 20
5.35
 30
0.0
 40
5.0
100
AcDbArc
 50
180.0
 51
0.0
  0
ARC
  5
7FC5
100
AcDbEntity
  8
1
100
AcDbCircle
 10
5.35
 20
5.35
 30
0.0
 40
5.259241
100
AcDbArc
 50
25.906088
 51
154.093912
  0
LINE
  5
7FC6
100
AcDbEntity
  8
1
100
AcDbLine
 10
0.314006
 20
3.58625
 30
0.0
 11
0.143155
 21
4.160935
 31
0.0
  0
ENDBLK
  5
7FC8
100
AcDbEntity
  8
0
100
AcDbBlockEnd
  0
BLOCK
  5
7FCB
100
AcDbEntity
  8
0
100
AcDbBlockBegin
  2
A$C369D6037
 70
     0
 10
0.0
 20
0.0
 30
0.0
  3
A$C369D6037
  1

  0
INSERT
  5
7FCA
100
AcDbEntity
  8
1
100
AcDbBlockReference
  2
A$C312173AA
 10
0.0
 20
0.0
 30
0.0
  0
ENDBLK
  5
7FCC
100
AcDbEntity
  8
0
100
AcDbBlockEnd
  0
BLOCK
  5
8091
100
AcDbEntity
  8
0
 62
     3
100
AcDbBlockBegin
  2
A$C3D1C28BF
 70
     0
 10
0.0
 20
0.0
 30
0.0
  3
A$C3D1C28BF
  1

  0
LINE
  5
8082
100
AcDbEntity
  8
WYMIARY
 62
     3
100
AcDbLine
 10
60.772901
 20
28.671415
 30
0.0
 11
21.812605
 21
56.839707
 31
0.0
  0
LINE
  5
8083
100
AcDbEntity
  8
WYMIARY
 62
     3
100
AcDbLine
 10
87.562069
 20
22.937132
 30
0.0
 11
109.230664
 21
55.263482
 31
0.0
  0
LINE
  5
8084
100
AcDbEntity
  8
WYMIARY
 62
     3
100
AcDbLine
 10
73.784782
 20
19.496562
 30
0.0
 11
73.784782
 21
49.697118
 31
0.0
  0
LINE
  5
8085
100
AcDbEntity
  8
WYMIARY
 62
     3
100
AcDbLine
 10
88.327474
 20
0.0
 30
0.0
 11
149.559859
 21
49.697118
 31
0.0
  0
TEXT
  5
8086
100
AcDbEntity
  8
WY
 62
     3
100
AcDbText
 10
94.795662
 20
57.462112
 30
0.0
 40
2.0
  1
Description plate GZT4-0035
 51
15.0
  7
ITALIC
100
AcDbText
  0
TEXT
  5
8087
100
AcDbEntity
  8
WY
 62
     3
100
AcDbText
 10
94.795662
 20
60.76955
 30
0.0
 40
2.0
  1
Płytka do opisu GZT4-0035
 51
15.0
  7
ITALIC
100
AcDbText
  0
TEXT
  5
8088
100
AcDbEntity
  8
WY
 62
     3
100
AcDbText
 10
-0.000001
 20
58.652527
 30
0.0
 40
2.0
  1
Retainer / retractor clip GZT80-0040
 51
15.0
  7
ITALIC
100
AcDbText
  0
TEXT
  5
8089
100
AcDbEntity
  8
WY
 62
     3
100
AcDbText
 10
0.183542
 20
61.683112
 30
0.0
 40
2.0
  1
Obejma wyrzutnikowa GZT80-0040
 51
15.0
  7
ITALIC
100
AcDbText
  0
TEXT
  5
808A
100
AcDbEntity
  8
WY
 62
     3
100
AcDbText
 10
63.255465
 20
54.536716
 30
0.0
 40
2.0
  1
Przekaźnik R2
 51
15.0
  7
ITALIC
100
AcDbText
  0
TEXT
  5
808B
100
AcDbEntity
  8
WY
 62
     3
100
AcDbText
 10
63.255465
 20
51.229278
 30
0.0
 40
2.0
  1
Relay R2
 51
15.0
  7
ITALIC
100
AcDbText
  0
TEXT
  5
808C
100
AcDbEntity
  8
WY
 62
     3
100
AcDbText
 10
145.711378
 20
51.660487
 30
0.0
 40
2.0
  1
Socket GZM2
 51
15.0
  7
ITALIC
100
AcDbText
  0
TEXT
  5
808D
100
AcDbEntity
  8
WY
 62
     3
100
AcDbText
 10
145.711378
 20
54.967926
 30
0.0
 40
2.0
  1
Gniazdo GZM2
 51
15.0
  7
ITALIC
100
AcDbText
  0
TEXT
  5
808E
100
AcDbEntity
  8
WY
 62
     3
100
AcDbText
 10
0.97021
 20
41.467875
 30
0.0
 40
2.0
  1
Moduł typu M...
 51
15.0
  7
ITALIC
100
AcDbText
  0
LINE
  5
808F
100
AcDbEntity
  8
WYMIARY
 62
     3
100
AcDbLine
 10
45.273452
 20
9.557138
 30
0.0
 11
10.638884
 21
36.508268
 31
0.0
  0
TEXT
  5
8090
100
AcDbEntity
  8
WY
 62
     3
100
AcDbText
 10
0.97021
 20
38.160437
 30
0.0
 40
2.0
  1
Module type M...
 51
15.0
  7
ITALIC
100
AcDbText
  0
ENDBLK
  5
8092
100
AcDbEntity
  8
0
 62
     3
100
AcDbBlockEnd
  0
BLOCK
  5
A031
100
AcDbEntity
  8
0
100
AcDbBlockBegin
  2
*D4
 70
     1
 10
0.0
 20
0.0
 30
0.0
  3
*D4
  1

  0
LINE
  5
A032
100
AcDbEntity
  8
0
  6
BYBLOCK
 62
     0
100
AcDbLine
 10
631.904213
 20
247.994083
 30
0.0
 11
656.909333
 21
247.994083
 31
0.0
  0
LINE
  5
A033
100
AcDbEntity
  8
0
  6
BYBLOCK
 62
     0
100
AcDbLine
 10
631.904213
 20
160.994083
 30
0.0
 11
656.909333
 21
160.994083
 31
0.0
  0
LINE
  5
A034
100
AcDbEntity
  8
0
  6
BYBLOCK
 62
     0
100
AcDbLine
 10
655.409333
 20
244.494083
 30
0.0
 11
655.409333
 21
164.494083
 31
0.0
  0
SOLID
  5
A035
100
AcDbEntity
  8
0
  6
BYBLOCK
 62
     0
100
AcDbTrace
 10
654.825999
 20
244.494083
 30
0.0
 11
655.992666
 21
244.494083
 31
0.0
 12
655.409333
 22
247.994083
 32
0.0
 13
655.409333
 23
247.994083
 33
0.0
  0
SOLID
  5
A036
100
AcDbEntity
  8
0
  6
BYBLOCK
 62
     0
100
AcDbTrace
 10
654.825999
 20
164.494083
 30
0.0
 11
655.992666
 21
164.494083
 31
0.0
 12
655.409333
 22
160.994083
 32
0.0
 13
655.409333
 23
160.994083
 33
0.0
  0
MTEXT
  5
A037
100
AcDbEntity
  8
0
  6
BYBLOCK
 62
     0
100
AcDbMText
 10
652.109333
 20
204.494083
 30
0.0
 40
3.6
 41
0.0
 71
     5
 72
     1
  1
\A1;87.0
 11
0.0
 21
1.0
 31
0.0
  0
POINT
  5
A038
100
AcDbEntity
  8
DEFPOINTS
  6
BYBLOCK
 62
     0
100
AcDbPoint
 10
630.404213
 20
247.994083
 30
0.0
  0
POINT
  5
A039
100
AcDbEntity
  8
DEFPOINTS
  6
BYBLOCK
 62
     0
100
AcDbPoint
 10
630.404213
 20
160.994083
 30
0.0
  0
POINT
  5
A03A
100
AcDbEntity
  8
DEFPOINTS
  6
BYBLOCK
 62
     0
100
AcDbPoint
 10
655.409333
 20
160.994083
 30
0.0
  0
ENDBLK
  5
A03B
100
AcDbEntity
  8
0
100
AcDbBlockEnd
  0
BLOCK
  5
A03C
100
AcDbEntity
  8
0
100
AcDbBlockBegin
  2
*D5
 70
     1
 10
0.0
 20
0.0
 30
0.0
  3
*D5
  1

  0
LINE
  5
A03D
100
AcDbEntity
  8
0
  6
BYBLOCK
 62
     0
100
AcDbLine
 10
631.904213
 20
226.994083
 30
0.0
 11
639.800675
 21
226.994083
 31
0.0
  0
LINE
  5
A03E
100
AcDbEntity
  8
0
  6
BYBLOCK
 62
     0
100
AcDbLine
 10
631.904213
 20
181.994083
 30
0.0
 11
639.800675
 21
181.994083
 31
0.0
  0
LINE
  5
A03F
100
AcDbEntity
  8
0
  6
BYBLOCK
 62
     0
100
AcDbLine
 10
638.300675
 20
223.494083
 30
0.0
 11
638.300675
 21
185.494083
 31
0.0
  0
SOLID
  5
A040
100
AcDbEntity
  8
0
  6
BYBLOCK
 62
     0
100
AcDbTrace
 10
637.717342
 20
223.494083
 30
0.0
 11
638.884009
 21
223.494083
 31
0.0
 12
638.300675
 22
226.994083
 32
0.0
 13
638.300675
 23
226.994083
 33
0.0
  0
SOLID
  5
A041
100
AcDbEntity
  8
0
  6
BYBLOCK
 62
     0
100
AcDbTrace
 10
637.717342
 20
185.494083
 30
0.0
 11
638.884009
 21
185.494083
 31
0.0
 12
638.300675
 22
181.994083
 32
0.0
 13
638.300675
 23
181.994083
 33
0.0
  0
MTEXT
  5
A042
100
AcDbEntity
  8
0
  6
BYBLOCK
 62
     0
100
AcDbMText
 10
635.000675
 20
204.494083
 30
0.0
 40
3.6
 41
0.0
 71
     5
 72
     1
  1
\A1;45.0
 11
0.0
 21
1.0
 31
0.0
  0
POINT
  5
A043
100
AcDbEntity
  8
DEFPOINTS
  6
BYBLOCK
 62
     0
100
AcDbPoint
 10
630.404213
 20
226.994083
 30
0.0
  0
POINT
  5
A044
100
AcDbEntity
  8
DEFPOINTS
  6
BYBLOCK
 62
     0
100
AcDbPoint
 10
630.404213
 20
181.994083
 30
0.0
  0
POINT
  5
A045
100
AcDbEntity
  8
DEFPOINTS
  6
BYBLOCK
 62
     0
100
AcDbPoint
 10
638.300675
 20
181.994083
 30
0.0
  0
ENDBLK
  5
A046
100
AcDbEntity
  8
0
100
AcDbBlockEnd
  0
BLOCK
  5
A047
100
AcDbEntity
  8
0
100
AcDbBlockBegin
  2
*D6
 70
     1
 10
0.0
 20
0.0
 30
0.0
  3
*D6
  1

  0
LINE
  5
A048
100
AcDbEntity
  8
0
  6
BYBLOCK
 62
     0
100
AcDbLine
 10
612.904213
 20
249.494083
 30
0.0
 11
612.904213
 21
255.496743
 31
0.0
  0
LINE
  5
A049
100
AcDbEntity
  8
0
  6
BYBLOCK
 62
     0
100
AcDbLine
 10
630.404213
 20
249.494083
 30
0.0
 11
630.404213
 21
255.496743
 31
0.0
  0
LINE
  5
A04A
100
AcDbEntity
  8
0
  6
BYBLOCK
 62
     0
100
AcDbLine
 10
616.404213
 20
253.996743
 30
0.0
 11
626.904213
 21
253.996743
 31
0.0
  0
SOLID
  5
A04B
100
AcDbEntity
  8
0
  6
BYBLOCK
 62
     0
100
AcDbTrace
 10
616.404213
 20
254.580077
 30
0.0
 11
616.404213
 21
253.41341
 31
0.0
 12
612.904213
 22
253.996743
 32
0.0
 13
612.904213
 23
253.996743
 33
0.0
  0
SOLID
  5
A04C
100
AcDbEntity
  8
0
  6
BYBLOCK
 62
     0
100
AcDbTrace
 10
626.904213
 20
254.580077
 30
0.0
 11
626.904213
 21
253.41341
 31
0.0
 12
630.404213
 22
253.996743
 32
0.0
 13
630.404213
 23
253.996743
 33
0.0
  0
MTEXT
  5
A04D
100
AcDbEntity
  8
0
  6
BYBLOCK
 62
     0
100
AcDbMText
 10
621.654213
 20
257.296743
 30
0.0
 40
3.6
 41
0.0
 71
     5
 72
     1
  1
\A1;17.5
  0
POINT
  5
A04E
100
AcDbEntity
  8
DEFPOINTS
  6
BYBLOCK
 62
     0
100
AcDbPoint
 10
612.904213
 20
247.994083
 30
0.0
  0
POINT
  5
A04F
100
AcDbEntity
  8
DEFPOINTS
  6
BYBLOCK
 62
     0
100
AcDbPoint
 10
630.404213
 20
247.994083
 30
0.0
  0
POINT
  5
A050
100
AcDbEntity
  8
DEFPOINTS
  6
BYBLOCK
 62
     0
100
AcDbPoint
 10
630.404213
 20
253.996743
 30
0.0
  0
ENDBLK
  5
A051
100
AcDbEntity
  8
0
100
AcDbBlockEnd
  0
BLOCK
  5
A222
100
AcDbEntity
  8
0
 62
     3
100
AcDbBlockBegin
  2
A$C50DB4B56
 70
     0
 10
0.0
 20
0.0
 30
0.0
  3
A$C50DB4B56
  1

  0
TEXT
  5
A221
100
AcDbEntity
  8
1
100
AcDbText
 10
-0.153114
 20
1.333334
 30
0.0
 40
4.0
  1
Schemat połączeń / Connections diagram
 41
0.7
 51
15.0
  7
ITALIC
100
AcDbText
  0
ENDBLK
  5
A223
100
AcDbEntity
  8
0
 62
     3
100
AcDbBlockEnd
  0
BLOCK
  5
A226
100
AcDbEntity
  8
0
 62
     3
100
AcDbBlockBegin
  2
A$C78346700
 70
     0
 10
0.0
 20
0.0
 30
0.0
  3
A$C78346700
  1

  0
INSERT
  5
A225
100
AcDbEntity
  8
WYMIARY
 62
     3
100
AcDbBlockReference
  2
A$C50DB4B56
 10
0.0
 20
-0.000001
 30
0.0
  0
ENDBLK
  5
A227
100
AcDbEntity
  8
0
 62
     3
100
AcDbBlockEnd
  0
ENDSEC
  0
SECTION
  2
ENTITIES
  0
LINE
  5
2D2D
100
AcDbEntity
  8
WYMIARY
 62
     6
100
AcDbLine
 10
486.041244
 20
0.0
 30
0.0
 11
486.041244
 21
297.0
 31
0.0
  0
LINE
  5
2D2E
100
AcDbEntity
  8
WYMIARY
 62
     6
100
AcDbLine
 10
497.671651
 20
292.0
 30
0.0
 11
497.671651
 21
5.0
 31
0.0
  0
LINE
  5
2D34
100
AcDbEntity
  8
2
100
AcDbLine
 10
682.671651
 20
5.0
 30
0.0
 11
682.671651
 21
292.0
 31
0.0
  0
LINE
  5
2D35
100
AcDbEntity
  8
2
100
AcDbLine
 10
687.671651
 20
0.0
 30
0.0
 11
687.671651
 21
297.0
 31
0.0
  0
LINE
  5
2D36
100
AcDbEntity
  8
WY
  6
CONTINUOUS
 62
     3
100
AcDbLine
 10
682.671651
 20
19.689837
 30
0.0
 11
497.671651
 21
19.689837
 31
0.0
  0
LINE
  5
2D38
100
AcDbEntity
  8
2
100
AcDbLine
 10
497.671651
 20
5.0
 30
0.0
 11
682.671651
 21
5.0
 31
0.0
  0
LINE
  5
2D39
100
AcDbEntity
  8
2
 62
     6
100
AcDbLine
 10
497.671651
 20
0.0
 30
0.0
 11
687.671651
 21
0.0
 31
0.0
  0
LINE
  5
2D3A
100
AcDbEntity
  8
0
100
AcDbLine
 10
529.697667
 20
11.742481
 30
0.0
 11
528.795256
 21
11.742481
 31
0.0
1001
ACAD
1000
ASC_BOUNDS
1002
{
1070
    19
1002
}
  0
ELLIPSE
  5
2D3B
100
AcDbEntity
  8
0
100
AcDbEllipse
 10
529.697667
 20
11.742481
 30
0.0
 11
-1.203215696869327
 21
0.0000000000001967
 31
0.0
210
0.0
220
0.0
230
1.0
 40
0.958812
 41
-1.570796326794739
 42
0.0000000000001705
1001
ACAD
1000
ASC_BOUNDS
1002
{
1070
    19
1002
}
  0
TEXT
  5
2D3D
100
AcDbEntity
  8
1
100
AcDbText
 10
515.607578
 20
8.797457
 30
0.0
 40
5.0
  1
A4
 51
15.0
  7
ITALIC
100
AcDbText
  0
LINE
  5
2D40
100
AcDbEntity
  8
WYMIARY
 62
     6
100
AcDbLine
 10
497.671651
 20
0.0
 30
0.0
 11
486.041244
 21
0.0
 31
0.0
  0
TEXT
  5
2D42
100
AcDbEntity
  8
WY
100
AcDbText
 10
502.936765
 20
16.373844
 30
0.0
 40
2.0
  1
Skala
 51
15.0
  7
ITALIC
100
AcDbText
  0
TEXT
  5
2D43
100
AcDbEntity
  8
WY
100
AcDbText
 10
515.042219
 20
16.329369
 30
0.0
 40
2.0
  1
Format
 51
15.0
  7
ITALIC
100
AcDbText
  0
LINE
  5
2D44
100
AcDbEntity
  8
0
100
AcDbLine
 10
528.494452
 20
11.742481
 30
0.0
 11
528.795256
 21
11.742481
 31
0.0
1001
ACAD
1000
ASC_BOUNDS
1002
{
1070
    19
1002
}
  0
LINE
  5
2D45
100
AcDbEntity
  8
0
100
AcDbLine
 10
559.88722
 20
17.211264
 30
0.0
 11
559.88722
 21
9.015264
 31
0.0
  0
LINE
  5
2D46
100
AcDbEntity
  8
0
100
AcDbLine
 10
550.89322
 20
9.438264
 30
0.0
 11
550.89322
 21
7.416264
 31
0.0
  0
ARC
  5
2D47
100
AcDbEntity
  8
0
100
AcDbCircle
 10
551.5428
 20
9.724764
 30
0.0
 40
0.709955
100
AcDbArc
 50
203.80008
 51
272.051918
  0
LINE
  5
2D48
100
AcDbEntity
  8
0
100
AcDbLine
 10
549.34822
 20
7.416264
 30
0.0
 11
549.34822
 21
15.612264
 31
0.0
  0
ARC
  5
2D49
100
AcDbEntity
  8
0
100
AcDbCircle
 10
551.982126
 20
10.136416
 30
0.0
 40
1.128907
100
AcDbArc
 50
276.719576
 51
2.175194
  0
ARC
  5
2D4A
100
AcDbEntity
  8
0
100
AcDbCircle
 10
555.243059
 20
10.503572
 30
0.0
 40
1.488419
100
AcDbArc
 50
191.634268
 51
270.699113
  0
ARC
  5
2D4B
100
AcDbEntity
  8
0
100
AcDbCircle
 10
556.209381
 20
10.503572
 30
0.0
 40
1.488419
100
AcDbArc
 50
269.300887
 51
348.365732
  0
LINE
  5
2D4C
100
AcDbEntity
  8
0
100
AcDbLine
 10
558.34222
 20
9.015264
 30
0.0
 11
558.34222
 21
17.211264
 31
0.0
  0
ARC
  5
2D4D
100
AcDbEntity
  8
0
100
AcDbCircle
 10
545.056591
 20
10.472364
 30
0.0
 40
1.425319
100
AcDbArc
 50
269.703671
 51
350.465171
  0
ARC
  5
2D4E
100
AcDbEntity
  8
0
100
AcDbCircle
 10
544.201848
 20
10.472364
 30
0.0
 40
1.425319
100
AcDbArc
 50
189.534829
 51
270.296329
  0
LINE
  5
2D4F
100
AcDbEntity
  8
0
100
AcDbLine
 10
547.14922
 20
9.015264
 30
0.0
 11
547.14922
 21
17.211264
 31
0.0
  0
LINE
  5
2D50
100
AcDbEntity
  8
0
100
AcDbLine
 10
548.69422
 20
17.211264
 30
0.0
 11
548.69422
 21
9.015264
 31
0.0
  0
LINE
  5
2D51
100
AcDbEntity
  8
0
100
AcDbLine
 10
539.892236
 20
14.361264
 30
0.0
 11
539.903809
 21
9.015264
 31
0.0
  0
LINE
  5
2D52
100
AcDbEntity
  8
0
100
AcDbLine
 10
538.361694
 20
9.015264
 30
0.0
 11
538.361694
 21
15.60367
 31
0.0
1001
ACAD
1000
ASC_BOUNDS
1002
{
1070
    19
1002
}
  0
LINE
  5
2D53
100
AcDbEntity
  8
0
100
AcDbLine
 10
529.697667
 20
9.895061
 30
0.0
 11
529.697667
 21
8.185369
 31
0.0
1001
ACAD
1000
ASC_BOUNDS
1002
{
1070
    19
1002
}
  0
LINE
  5
2D54
100
AcDbEntity
  8
0
100
AcDbLine
 10
535.613478
 20
8.185369
 30
0.0
 11
535.613478
 21
11.742481
 31
0.0
1001
ACAD
1000
ASC_BOUNDS
1002
{
1070
    19
1002
}
  0
LINE
  5
2D55
100
AcDbEntity
  8
1
100
AcDbLine
 10
563.469863
 20
5.0
 30
0.0
 11
563.469863
 21
19.689837
 31
0.0
  0
LINE
  5
2D56
100
AcDbEntity
  8
0
100
AcDbLine
 10
530.499811
 20
7.416263
 30
0.0
 11
534.811334
 21
7.416263
 31
0.0
1001
ACAD
1000
ASC_BOUNDS
1002
{
1070
    19
1002
}
  0
ELLIPSE
  5
2D57
100
AcDbEntity
  8
0
100
AcDbEllipse
 10
530.499811
 20
8.185369
 30
0.0
 11
-0.8021437979128705
 21
0.0000000000000154
 31
0.0
210
0.0
220
0.0
230
1.0
 40
0.958812
 41
0.00000000000002
 42
1.570796326794914
1001
ACAD
1000
ASC_BOUNDS
1002
{
1070
    19
1002
}
  0
ELLIPSE
  5
2D58
100
AcDbEntity
  8
0
100
AcDbEllipse
 10
534.811334
 20
8.185369
 30
0.0
 11
0.8021437979128704
 21
0.0000000000001602
 31
0.0
210
0.0
220
0.0
230
1.0
 40
0.958812
 41
4.712388980384497
 42
6.283185307179378
1001
ACAD
1000
ASC_BOUNDS
1002
{
1070
    19
1002
}
  0
LINE
  5
2D59
100
AcDbEntity
  8
0
100
AcDbLine
 10
539.892236
 20
9.015264
 30
0.0
 11
539.903809
 21
9.022759
 31
0.0
  0
LINE
  5
2D5A
100
AcDbEntity
  8
0
100
AcDbLine
 10
538.361694
 20
9.015264
 30
0.0
 11
539.903809
 21
9.015264
 31
0.0
1001
ACAD
1000
ASC_BOUNDS
1002
{
1070
    19
1002
}
  0
LINE
  5
2D5B
100
AcDbEntity
  8
0
100
AcDbLine
 10
544.194477
 20
9.047064
 30
0.0
 11
545.04922
 21
9.047064
 31
0.0
  0
LINE
  5
2D5C
100
AcDbEntity
  8
0
100
AcDbLine
 10
550.89322
 20
7.416264
 30
0.0
 11
549.34822
 21
7.416264
 31
0.0
  0
LINE
  5
2D5D
100
AcDbEntity
  8
0
100
AcDbLine
 10
548.69422
 20
9.015264
 30
0.0
 11
547.14922
 21
9.015264
 31
0.0
  0
LINE
  5
2D5E
100
AcDbEntity
  8
0
100
AcDbLine
 10
551.576266
 20
9.015264
 30
0.0
 11
552.11422
 21
9.015264
 31
0.0
  0
LINE
  5
2D5F
100
AcDbEntity
  8
0
100
AcDbLine
 10
555.26122
 20
9.015264
 30
0.0
 11
556.19122
 21
9.015264
 31
0.0
  0
LINE
  5
2D60
100
AcDbEntity
  8
0
100
AcDbLine
 10
559.88722
 20
9.015264
 30
0.0
 11
558.34222
 21
9.015264
 31
0.0
  0
ARC
  5
2D61
100
AcDbEntity
  8
0
100
AcDbCircle
 10
545.056591
 20
14.17837
 30
0.0
 40
1.425319
100
AcDbArc
 50
9.534829
 51
90.296329
  0
LINE
  5
2D62
100
AcDbEntity
  8
0
100
AcDbLine
 10
546.46222
 20
11.81167
 30
0.0
 11
544.33822
 21
11.81167
 31
0.0
  0
LINE
  5
2D63
100
AcDbEntity
  8
0
100
AcDbLine
 10
545.01322
 20
11.13667
 30
0.0
 11
546.46222
 21
11.13667
 31
0.0
  0
LINE
  5
2D64
100
AcDbEntity
  8
0
100
AcDbLine
 10
529.697667
 20
13.461283
 30
0.0
 11
529.697667
 21
16.260974
 31
0.0
1001
ACAD
1000
ASC_BOUNDS
1002
{
1070
    19
1002
}
  0
ELLIPSE
  5
2D65
100
AcDbEntity
  8
0
100
AcDbEllipse
 10
532.630506
 20
15.17942
 30
0.0
 11
2.983077570132104
 21
0.0000000000002996
 31
0.0
210
0.0
220
0.0
230
1.0
 40
0.958812
 41
-1.562393163247347
 42
0.0084031635475457
1001
ACAD
1000
ASC_BOUNDS
1002
{
1070
    19
1002
}
  0
ELLIPSE
  5
2D66
100
AcDbEntity
  8
0
100
AcDbEllipse
 10
532.58733
 20
15.509539
 30
0.0
 11
-4.072692107280919
 21
0.0000000000000925
 31
0.0
210
0.0
220
0.0
230
1.0
 40
0.958812
 41
1.587553347046634
 42
2.408388587343224
1001
ACAD
1000
ASC_BOUNDS
1002
{
1070
    19
1002
}
  0
LINE
  5
2D67
100
AcDbEntity
  8
0
100
AcDbLine
 10
529.697667
 20
11.742481
 30
0.0
 11
529.697667
 21
11.034514
 31
0.0
1001
ACAD
1000
ASC_BOUNDS
1002
{
1070
    19
1002
}
  0
LINE
  5
2D68
100
AcDbEntity
  8
0
100
AcDbLine
 10
529.697667
 20
13.461283
 30
0.0
 11
529.697667
 21
12.896138
 31
0.0
1001
ACAD
1000
ASC_BOUNDS
1002
{
1070
    19
1002
}
  0
ELLIPSE
  5
2D69
100
AcDbEntity
  8
0
100
AcDbEllipse
 10
532.249598
 20
9.872487
 30
0.0
 11
2.960559210508897
 21
0.3570763225581005
 31
0.0
210
0.0
220
0.0
230
0.9999999999999998
 40
0.820999
 41
1.335209029023201
 42
2.503032872947537
1001
ACAD
1000
ASC_BOUNDS
1002
{
1070
    19
1002
}
  0
ELLIPSE
  5
2D6A
100
AcDbEntity
  8
0
100
AcDbEllipse
 10
532.480104
 20
8.937306
 30
0.0
 11
3.015746449176212
 21
0.7746519372140012
 31
0.0
210
0.0
220
0.0
230
1.0
 40
0.846775
 41
1.29973646820557
 42
2.479974117225238
1001
ACAD
1000
ASC_BOUNDS
1002
{
1070
    19
1002
}
  0
LINE
  5
2D6B
100
AcDbEntity
  8
0
100
AcDbLine
 10
536.816694
 20
12.896138
 30
0.0
 11
536.51589
 21
12.896138
 31
0.0
1001
ACAD
1000
ASC_BOUNDS
1002
{
1070
    19
1002
}
  0
LINE
  5
2D6C
100
AcDbEntity
  8
0
100
AcDbLine
 10
535.613478
 20
12.896138
 30
0.0
 11
536.51589
 21
12.896138
 31
0.0
1001
ACAD
1000
ASC_BOUNDS
1002
{
1070
    19
1002
}
  0
ELLIPSE
  5
2D6D
100
AcDbEntity
  8
0
100
AcDbEllipse
 10
535.613478
 20
12.896138
 30
0.0
 11
1.203215696869352
 21
0.0000000000000893
 31
0.0
210
0.0
220
0.0
230
1.0
 40
0.958812
 41
4.712388980384611
 42
6.283185307179508
1001
ACAD
1000
ASC_BOUNDS
1002
{
1070
    19
1002
}
  0
LINE
  5
2D6E
100
AcDbEntity
  8
0
100
AcDbLine
 10
530.499811
 20
17.030079
 30
0.0
 11
534.811334
 21
17.030079
 31
0.0
  0
ELLIPSE
  5
2D6F
100
AcDbEntity
  8
0
100
AcDbEllipse
 10
530.499811
 20
16.260974
 30
0.0
 11
0.8021437979128704
 21
0.000000000000038
 31
0.0
210
0.0
220
0.0
230
1.0
 40
0.958812
 41
1.570796326794851
 42
3.141592653589743
1001
ACAD
1000
ASC_BOUNDS
1002
{
1070
    19
1002
}
  0
LINE
  5
2D70
100
AcDbEntity
  8
0
100
AcDbLine
 10
535.613478
 20
15.155385
 30
0.0
 11
535.613478
 21
16.260974
 31
0.0
1001
ACAD
1000
ASC_BOUNDS
1002
{
1070
    19
1002
}
  0
ELLIPSE
  5
2D71
100
AcDbEntity
  8
0
100
AcDbEllipse
 10
534.811334
 20
16.260974
 30
0.0
 11
-0.8021437979128705
 21
0.000000000000038
 31
0.0
210
0.0
220
0.0
230
1.0
 40
0.958812
 41
3.141592653589842
 42
4.712388980384734
1001
ACAD
1000
ASC_BOUNDS
1002
{
1070
    19
1002
}
  0
ARC
  5
2D72
100
AcDbEntity
  8
0
100
AcDbCircle
 10
540.798894
 20
14.34127
 30
0.0
 40
1.377457
100
AcDbArc
 50
16.265061
 51
130.527299
  0
ARC
  5
2D73
100
AcDbEntity
  8
0
100
AcDbCircle
 10
544.201848
 20
14.17837
 30
0.0
 40
1.425319
100
AcDbArc
 50
89.703671
 51
170.465171
  0
LINE
  5
2D74
100
AcDbEntity
  8
0
100
AcDbLine
 10
540.911147
 20
12.93607
 30
0.0
 11
542.12122
 21
12.93607
 31
0.0
  0
LINE
  5
2D75
100
AcDbEntity
  8
0
100
AcDbLine
 10
540.578809
 20
12.93607
 30
0.0
 11
542.12122
 21
12.93607
 31
0.0
  0
ARC
  5
2D76
100
AcDbEntity
  8
0
100
AcDbCircle
 10
540.229736
 20
14.361264
 30
0.0
 40
0.3375
100
AcDbArc
 50
360.0
 51
180.0
  0
LINE
  5
2D77
100
AcDbEntity
  8
0
100
AcDbLine
 10
540.567236
 20
14.361264
 30
0.0
 11
540.578809
 21
12.93607
 31
0.0
  0
ARC
  5
2D78
100
AcDbEntity
  8
0
100
AcDbCircle
 10
544.67572
 20
14.361264
 30
0.0
 40
0.3375
100
AcDbArc
 50
360.0
 51
180.0
  0
LINE
  5
2D79
100
AcDbEntity
  8
0
100
AcDbLine
 10
544.33822
 20
11.81167
 30
0.0
 11
544.33822
 21
10.236264
 31
0.0
  0
LINE
  5
2D7A
100
AcDbEntity
  8
0
100
AcDbLine
 10
544.33822
 20
12.71167
 30
0.0
 11
545.01322
 21
12.71167
 31
0.0
  0
LINE
  5
2D7B
100
AcDbEntity
  8
0
100
AcDbLine
 10
545.01322
 20
11.13667
 30
0.0
 11
545.01322
 21
10.252764
 31
0.0
  0
LINE
  5
2D7C
100
AcDbEntity
  8
0
100
AcDbLine
 10
544.33822
 20
11.81167
 30
0.0
 11
544.33822
 21
10.252764
 31
0.0
  0
ARC
  5
2D7D
100
AcDbEntity
  8
0
100
AcDbCircle
 10
544.67572
 20
10.252764
 30
0.0
 40
0.3375
100
AcDbArc
 50
180.0
 51
0.0
  0
LINE
  5
2D7E
100
AcDbEntity
  8
0
100
AcDbLine
 10
545.01322
 20
14.361264
 30
0.0
 11
545.01322
 21
12.71167
 31
0.0
  0
LINE
  5
2D7F
100
AcDbEntity
  8
0
100
AcDbLine
 10
544.33822
 20
14.361264
 30
0.0
 11
544.33822
 21
12.71167
 31
0.0
  0
LINE
  5
2D80
100
AcDbEntity
  8
0
100
AcDbLine
 10
542.12122
 20
12.93607
 30
0.0
 11
542.12122
 21
14.72707
 31
0.0
1001
ACAD
1000
ASC_BOUNDS
1002
{
1070
    19
1002
}
  0
LINE
  5
2D81
100
AcDbEntity
  8
0
100
AcDbLine
 10
542.79622
 20
10.236264
 30
0.0
 11
542.79622
 21
14.41447
 31
0.0
  0
LINE
  5
2D82
100
AcDbEntity
  8
0
100
AcDbLine
 10
539.903809
 20
15.60367
 30
0.0
 11
539.903809
 21
15.38827
 31
0.0
  0
LINE
  5
2D83
100
AcDbEntity
  8
0
100
AcDbLine
 10
538.361694
 20
15.60367
 30
0.0
 11
539.903809
 21
15.60367
 31
0.0
1001
ACAD
1000
ASC_BOUNDS
1002
{
1070
    19
1002
}
  0
LINE
  5
2D84
100
AcDbEntity
  8
0
100
AcDbLine
 10
544.194477
 20
15.60367
 30
0.0
 11
545.04922
 21
15.60367
 31
0.0
  0
ARC
  5
2D85
100
AcDbEntity
  8
0
100
AcDbCircle
 10
555.243059
 20
14.124104
 30
0.0
 40
1.488419
100
AcDbArc
 50
89.300887
 51
168.365732
  0
ARC
  5
2D86
100
AcDbEntity
  8
0
100
AcDbCircle
 10
551.752247
 20
14.207365
 30
0.0
 40
1.409039
100
AcDbArc
 50
15.47255
 51
127.56454
  0
LINE
  5
2D87
100
AcDbEntity
  8
0
100
AcDbLine
 10
546.46222
 20
11.13667
 30
0.0
 11
546.46222
 21
10.236264
 31
0.0
  0
LINE
  5
2D88
100
AcDbEntity
  8
0
100
AcDbLine
 10
546.46222
 20
11.81167
 30
0.0
 11
546.46222
 21
14.41447
 31
0.0
  0
LINE
  5
2D89
100
AcDbEntity
  8
0
100
AcDbLine
 10
553.11022
 20
14.583264
 30
0.0
 11
553.11022
 21
10.179264
 31
0.0
  0
LINE
  5
2D8A
100
AcDbEntity
  8
0
100
AcDbLine
 10
551.56822
 20
14.361264
 30
0.0
 11
551.56822
 21
10.252764
 31
0.0
  0
LINE
  5
2D8B
100
AcDbEntity
  8
0
100
AcDbLine
 10
550.89322
 20
14.361264
 30
0.0
 11
550.89322
 21
10.252764
 31
0.0
  0
ARC
  5
2D8C
100
AcDbEntity
  8
0
100
AcDbCircle
 10
551.23072
 20
10.252764
 30
0.0
 40
0.3375
100
AcDbArc
 50
180.0
 51
0.0
  0
ARC
  5
2D8D
100
AcDbEntity
  8
0
100
AcDbCircle
 10
551.23072
 20
14.361264
 30
0.0
 40
0.3375
100
AcDbArc
 50
360.0
 51
180.0
  0
LINE
  5
2D8E
100
AcDbEntity
  8
0
100
AcDbLine
 10
549.34822
 20
15.612264
 30
0.0
 11
550.89322
 21
15.612264
 31
0.0
  0
LINE
  5
2D8F
100
AcDbEntity
  8
0
100
AcDbLine
 10
547.14922
 20
17.211264
 30
0.0
 11
548.69422
 21
17.211264
 31
0.0
  0
LINE
  5
2D90
100
AcDbEntity
  8
0
100
AcDbLine
 10
550.89322
 20
15.612264
 30
0.0
 11
550.89322
 21
15.324264
 31
0.0
  0
ARC
  5
2D91
100
AcDbEntity
  8
0
100
AcDbCircle
 10
556.209381
 20
14.124104
 30
0.0
 40
1.488419
100
AcDbArc
 50
11.634268
 51
90.699113
  0
LINE
  5
2D92
100
AcDbEntity
  8
0
100
AcDbLine
 10
557.66722
 20
14.424264
 30
0.0
 11
557.66722
 21
10.203412
 31
0.0
  0
ARC
  5
2D93
100
AcDbEntity
  8
0
100
AcDbCircle
 10
555.72622
 20
14.361264
 30
0.0
 40
0.3375
100
AcDbArc
 50
360.0
 51
180.0
  0
ARC
  5
2D94
100
AcDbEntity
  8
0
100
AcDbCircle
 10
555.72622
 20
10.252764
 30
0.0
 40
0.3375
100
AcDbArc
 50
180.0
 51
0.0
  0
LINE
  5
2D95
100
AcDbEntity
  8
0
100
AcDbLine
 10
555.38872
 20
14.361264
 30
0.0
 11
555.38872
 21
10.252764
 31
0.0
  0
LINE
  5
2D96
100
AcDbEntity
  8
0
100
AcDbLine
 10
556.06372
 20
14.361264
 30
0.0
 11
556.06372
 21
10.252764
 31
0.0
  0
LINE
  5
2D97
100
AcDbEntity
  8
0
100
AcDbLine
 10
553.78522
 20
10.203412
 30
0.0
 11
553.78522
 21
14.424264
 31
0.0
  0
LINE
  5
2D98
100
AcDbEntity
  8
0
100
AcDbLine
 10
555.26122
 20
15.612412
 30
0.0
 11
556.19122
 21
15.612412
 31
0.0
  0
LINE
  5
2D99
100
AcDbEntity
  8
0
100
AcDbLine
 10
558.34222
 20
17.211264
 30
0.0
 11
559.88722
 21
17.211264
 31
0.0
  0
TEXT
  5
2D9A
100
AcDbEntity
  8
WY
100
AcDbText
 10
564.417407
 20
11.60401
 30
0.0
 40
2.0
  1
02-01-2008
 51
15.0
  7
ITALIC
100
AcDbText
  0
TEXT
  5
2D9B
100
AcDbEntity
  8
WY
100
AcDbText
 10
568.848776
 20
16.149239
 30
0.0
 40
2.0
  1
Data
 51
15.0
  7
ITALIC
100
AcDbText
  0
LINE
  5
2D9E
100
AcDbEntity
  8
1
100
AcDbLine
 10
627.394234
 20
5.0
 30
0.0
 11
627.394234
 21
19.689837
 31
0.0
  0
TEXT
  5
2D9F
100
AcDbEntity
  8
WY
100
AcDbText
 10
629.585432
 20
16.599248
 30
0.0
 40
2.0
  1
Product type
 51
15.0
  7
ITALIC
100
AcDbText
  0
LINE
  5
2DF2
100
AcDbEntity
  8
2
100
AcDbLine
 10
682.671651
 20
292.0
 30
0.0
 11
497.671651
 21
292.0
 31
0.0
  0
LINE
  5
2DF3
100
AcDbEntity
  8
2
100
AcDbLine
 10
687.671651
 20
297.0
 30
0.0
 11
497.671651
 21
297.0
 31
0.0
  0
LINE
  5
2E74
100
AcDbEntity
  8
WYMIARY
 62
     6
100
AcDbLine
 10
497.671651
 20
297.0
 30
0.0
 11
486.041244
 21
297.0
 31
0.0
  0
MTEXT
  5
31F2
100
AcDbEntity
  8
WYMIARY
100
AcDbMText
 10
780.543201
 20
224.476865
 30
0.0
 40
3.5
 41
15.6
 71
     1
 72
     5
  1

  7
ITALIC
  0
TEXT
  5
478E
100
AcDbEntity
  8
1
100
AcDbText
 10
500.301985
 20
8.797457
 30
0.0
 40
5.0
  1
1:1
 51
15.0
  7
ITALIC
100
AcDbText
  0
LINE
  5
482F
100
AcDbEntity
  8
WYMIARY
 62
     6
100
AcDbLine
 10
687.671651
 20
0.0
 30
0.0
 11
687.671651
 21
297.0
 31
0.0
  0
LINE
  5
4AD7
100
AcDbEntity
  8
WYMIARY
 62
     3
100
AcDbLine
 10
512.671651
 20
19.689837
 30
0.0
 11
512.671651
 21
5.0
 31
0.0
  0
LINE
  5
4AD9
100
AcDbEntity
  8
WYMIARY
 62
     3
100
AcDbLine
 10
527.671651
 20
19.689837
 30
0.0
 11
527.671651
 21
5.0
 31
0.0
  0
LINE
  5
4ADA
100
AcDbEntity
  8
WYMIARY
 62
     3
100
AcDbLine
 10
586.373187
 20
19.689837
 30
0.0
 11
586.373187
 21
5.0
 31
0.0
  0
TEXT
  5
4ADB
100
AcDbEntity
  8
WY
100
AcDbText
 10
587.562196
 20
16.599248
 30
0.0
 40
2.0
  1
Draw. No.
 51
15.0
  7
ITALIC
100
AcDbText
  0
TEXT
  5
4ADF
100
AcDbEntity
  8
1
100
AcDbText
 10
587.057207
 20
9.064009
 30
0.0
 40
3.9
  1
TR-EM1P-UNI-01A
 41
0.7
 51
15.0
  7
ITALIC
100
AcDbText
  0
LINE
  5
4AE9
100
AcDbEntity
  8
WYMIARY
 62
     6
100
AcDbLine
 10
687.671651
 20
0.0
 30
0.0
 11
687.671651
 21
297.0
 31
0.0
  0
LINE
  5
6488
100
AcDbEntity
  8
WYMIARY
 62
     6
100
AcDbLine
 10
687.671651
 20
0.0
 30
0.0
 11
687.671651
 21
297.0
 31
0.0
  0
LINE
  5
648E
100
AcDbEntity
  8
2
100
AcDbLine
 10
687.671651
 20
0.0
 30
0.0
 11
687.671651
 21
297.0
 31
0.0
  0
LINE
  5
6CB6
100
AcDbEntity
  8
WYMIARY
 62
     6
100
AcDbLine
 10
687.671651
 20
0.0
 30
0.0
 11
687.671651
 21
297.0
 31
0.0
  0
LINE
  5
6CB8
100
AcDbEntity
  8
2
100
AcDbLine
 10
687.671651
 20
0.0
 30
0.0
 11
687.671651
 21
297.0
 31
0.0
  0
DIMENSION
  5
9E62
100
AcDbEntity
  8
WY
 62
     1
100
AcDbDimension
  2
*D4
 10
608.875622
 20
152.755297
 30
0.0
 11
605.575622
 21
196.255297
 31
0.0
 12
-46.533711
 22
-8.238786
 32
0.0
 70
    32
  3
STANDARD
100
AcDbAlignedDimension
 13
583.870502
 23
239.755297
 33
0.0
 14
583.870502
 24
152.755297
 34
0.0
 50
90.0
100
AcDbRotatedDimension
1001
ACAD
1000
DSTYLE
1002
{
1070
    40
1040
1.0
1070
   144
1040
1.0
1070
   271
1070
     1
1002
}
  0
DIMENSION
  5
9E63
100
AcDbEntity
  8
WY
 62
     1
100
AcDbDimension
  2
*D5
 10
591.766964
 20
173.755297
 30
0.0
 11
588.466964
 21
196.255297
 31
0.0
 12
-46.533711
 22
-8.238786
 32
0.0
 70
    32
  3
STANDARD
100
AcDbAlignedDimension
 13
583.870502
 23
218.755297
 33
0.0
 14
583.870502
 24
173.755297
 34
0.0
 50
90.0
100
AcDbRotatedDimension
1001
ACAD
1000
DSTYLE
1002
{
1070
    40
1040
1.0
1070
   144
1040
1.0
1070
   271
1070
     1
1002
}
  0
LINE
  5
9E64
100
AcDbEntity
  8
WY
 62
     3
100
AcDbLine
 10
566.370502
 20
239.755297
 30
0.0
 11
566.370502
 21
152.755297
 31
0.0
  0
LINE
  5
9E65
100
AcDbEntity
  8
WY
 62
     3
100
AcDbLine
 10
583.870502
 20
152.755297
 30
0.0
 11
583.870502
 21
239.755297
 31
0.0
  0
LINE
  5
9E6C
100
AcDbEntity
  8
WY
 62
     3
100
AcDbLine
 10
566.370502
 20
152.755297
 30
0.0
 11
583.870502
 21
152.755297
 31
0.0
  0
LINE
  5
9E6D
100
AcDbEntity
  8
WY
 62
     3
100
AcDbLine
 10
566.370502
 20
162.740685
 30
0.0
 11
583.870502
 21
162.740685
 31
0.0
  0
LINE
  5
9E6E
100
AcDbEntity
  8
WY
 62
     3
100
AcDbLine
 10
566.370502
 20
173.755297
 30
0.0
 11
583.870502
 21
173.755297
 31
0.0
  0
CIRCLE
  5
9E71
100
AcDbEntity
  8
WY
 62
     3
100
AcDbCircle
 10
579.006883
 20
167.90101
 30
0.0
 40
1.951882
  0
CIRCLE
  5
9E72
100
AcDbEntity
  8
WY
 62
     3
100
AcDbCircle
 10
573.144851
 20
167.90101
 30
0.0
 40
1.951882
  0
CIRCLE
  5
9E73
100
AcDbEntity
  8
WY
 62
     3
100
AcDbCircle
 10
570.10528
 20
158.159405
 30
0.0
 40
1.951882
  0
LINE
  5
9E74
100
AcDbEntity
  8
WY
 62
     3
100
AcDbLine
 10
575.00226
 20
157.190531
 30
0.0
 11
576.892145
 21
158.93677
 31
0.0
  0
LINE
  5
9E75
100
AcDbEntity
  8
WY
 62
     3
100
AcDbLine
 10
575.049507
 20
159.219944
 30
0.0
 11
576.939392
 21
157.143335
 31
0.0
  0
CIRCLE
  5
9E76
100
AcDbEntity
  8
WY
 62
     3
100
AcDbCircle
 10
575.967311
 20
158.159405
 30
0.0
 40
1.951882
  0
LINE
  5
9E77
100
AcDbEntity
  8
WY
 62
     3
100
AcDbLine
 10
569.096368
 20
157.048943
 30
0.0
 11
571.175242
 21
159.078357
 31
0.0
  0
LINE
  5
9E78
100
AcDbEntity
  8
WY
 62
     3
100
AcDbLine
 10
569.096368
 20
159.219944
 30
0.0
 11
570.986253
 21
157.001748
 31
0.0
  0
LINE
  5
9E7D
100
AcDbEntity
  8
WY
 62
     3
100
AcDbLine
 10
572.029148
 20
223.844864
 30
0.0
 11
574.065575
 21
225.657964
 31
0.0
  0
LINE
  5
9E7E
100
AcDbEntity
  8
WY
 62
     3
100
AcDbLine
 10
572.073418
 20
225.879073
 30
0.0
 11
574.154117
 21
223.712198
 31
0.0
  0
CIRCLE
  5
9E7F
100
AcDbEntity
  8
WY
 62
     3
100
AcDbCircle
 10
579.006883
 20
224.775877
 30
0.0
 40
1.951882
  0
CIRCLE
  5
9E80
100
AcDbEntity
  8
WY
 62
     3
100
AcDbCircle
 10
573.144851
 20
224.775877
 30
0.0
 40
1.951882
  0
LINE
  5
9E81
100
AcDbEntity
  8
WY
 62
     3
100
AcDbLine
 10
566.370502
 20
218.755297
 30
0.0
 11
583.870502
 21
218.755297
 31
0.0
  0
LWPOLYLINE
  5
9E82
100
AcDbEntity
  8
WY
 62
     3
100
AcDbPolyline
 90
        4
 70
     1
 43
0.0
 10
569.888165
 20
214.36584
 10
571.407951
 20
214.36584
 10
571.407951
 20
210.2452
 10
569.888165
 20
210.2452
  0
CIRCLE
  5
9E83
100
AcDbEntity
  8
WY
 62
     3
100
AcDbCircle
 10
578.138433
 20
212.197082
 30
0.0
 40
1.951882
  0
CIRCLE
  5
9E85
100
AcDbEntity
  8
WY
 62
     3
100
AcDbCircle
 10
578.138433
 20
204.606431
 30
0.0
 40
1.951882
  0
LINE
  5
9E86
100
AcDbEntity
  8
WY
 62
     3
100
AcDbLine
 10
566.370502
 20
229.755297
 30
0.0
 11
583.870502
 21
229.755297
 31
0.0
  0
LINE
  5
9E87
100
AcDbEntity
  8
WY
 62
     3
100
AcDbLine
 10
583.870502
 20
239.755297
 30
0.0
 11
566.370502
 21
239.755297
 31
0.0
  0
CIRCLE
  5
9E88
100
AcDbEntity
  8
WY
 62
     3
100
AcDbCircle
 10
570.10528
 20
234.318411
 30
0.0
 40
1.951882
  0
LINE
  5
9E89
100
AcDbEntity
  8
WY
 62
     3
100
AcDbLine
 10
574.862439
 20
233.26414
 30
0.0
 11
577.031677
 21
235.254129
 31
0.0
  0
LINE
  5
9E8A
100
AcDbEntity
  8
WY
 62
     3
100
AcDbLine
 10
574.950979
 20
235.51946
 30
0.0
 11
577.120219
 21
233.26414
 31
0.0
  0
CIRCLE
  5
9E8B
100
AcDbEntity
  8
WY
 62
     3
100
AcDbCircle
 10
575.967311
 20
234.318411
 30
0.0
 40
1.951882
  0
DIMENSION
  5
9E8E
100
AcDbEntity
  8
WY
 62
     1
100
AcDbDimension
  2
*D6
 10
583.870502
 20
245.757957
 30
0.0
 11
575.120502
 21
245.757957
 31
0.0
 12
-46.533711
 22
-8.238786
 32
0.0
 70
   160
  3
STANDARD
100
AcDbAlignedDimension
 13
566.370502
 23
239.755297
 33
0.0
 14
583.870502
 24
239.755297
 34
0.0
100
AcDbRotatedDimension
1001
ACAD
1000
DSTYLE
1002
{
1070
    40
1040
1.0
1070
   144
1040
1.0
1070
   271
1070
     1
1002
}
  0
TEXT
  5
A05E
100
AcDbEntity
  8
1
100
AcDbText
 10
633.357809
 20
9.064009
 30
0.0
 40
5.0
  1
TR-EM1P-UNI
 41
0.8
 51
15.0
  7
ITALIC
100
AcDbText
  0
TEXT
  5
A060
100
AcDbEntity
  8
1
100
AcDbText
 10
565.880495
 20
269.902635
 30
0.0
 40
5.0
  1
TR-EM1P-UNI
 41
0.8
 51
15.0
  7
ITALIC
100
AcDbText
  0
LINE
  5
A1C7
100
AcDbEntity
  8
WY
 62
     3
100
AcDbLine
 10
577.974248
 20
225.851281
 30
0.0
 11
580.054946
 21
223.684405
 31
0.0
  0
LINE
  5
A1C8
100
AcDbEntity
  8
WY
 62
     3
100
AcDbLine
 10
577.929977
 20
223.817071
 30
0.0
 11
579.966405
 21
225.630171
 31
0.0
  0
LINE
  5
A1C9
100
AcDbEntity
  8
WY
 62
     3
100
AcDbLine
 10
577.982216
 20
166.828734
 30
0.0
 11
579.919348
 21
168.95254
 31
0.0
  0
LINE
  5
A1CA
100
AcDbEntity
  8
WY
 62
     3
100
AcDbLine
 10
578.07671
 20
168.95254
 30
0.0
 11
579.919348
 21
166.875931
 31
0.0
  0
LWPOLYLINE
  5
A1CC
100
AcDbEntity
  8
WY
 62
     3
100
AcDbPolyline
 90
        4
 70
     1
 43
0.0
 10
569.888165
 20
180.933346
 10
571.407951
 20
180.933346
 10
571.407951
 20
176.812707
 10
569.888165
 20
176.812707
  0
CIRCLE
  5
A1CD
100
AcDbEntity
  8
WY
 62
     3
100
AcDbCircle
 10
578.138433
 20
178.764588
 30
0.0
 40
1.951882
  0
TEXT
  5
A1F4
100
AcDbEntity
  8
1
100
AcDbText
 10
574.553282
 20
236.423578
 30
0.0
 40
3.0
  1
15
 41
0.6
  7
ITALIC
100
AcDbText
  0
TEXT
  5
A1F5
100
AcDbEntity
  8
1
100
AcDbText
 10
577.141404
 20
219.493908
 30
0.0
 40
3.0
  1
B1
 41
0.6
  7
ITALIC
100
AcDbText
  0
TEXT
  5
A1F6
100
AcDbEntity
  8
1
100
AcDbText
 10
571.152988
 20
219.567818
 30
0.0
 40
3.0
  1
A1
 41
0.6
  7
ITALIC
100
AcDbText
  0
TEXT
  5
A1F7
100
AcDbEntity
  8
1
100
AcDbText
 10
577.304409
 20
162.950072
 30
0.0
 40
3.0
  1
A2
 41
0.6
  7
ITALIC
100
AcDbText
  0
TEXT
  5
A1F8
100
AcDbEntity
  8
1
100
AcDbText
 10
573.918531
 20
153.099003
 30
0.0
 40
3.0
  1
18
 41
0.6
  7
ITALIC
100
AcDbText
  0
TEXT
  5
A1F9
100
AcDbEntity
  8
1
100
AcDbText
 10
568.074769
 20
153.032647
 30
0.0
 40
3.0
  1
16
 41
0.6
  7
ITALIC
100
AcDbText
  0
LINE
  5
A1FC
100
AcDbEntity
  8
WYMIARY
 62
     3
100
AcDbLine
 10
579.462984
 20
211.550198
 30
0.0
 11
578.774583
 21
210.861456
 31
0.0
  0
LINE
  5
A1FE
100
AcDbEntity
  8
WYMIARY
 62
     3
100
AcDbLine
 10
579.535935
 20
212.941467
 30
0.0
 11
578.850049
 21
213.632714
 31
0.0
  0
LINE
  5
A1FF
100
AcDbEntity
  8
WYMIARY
 62
     3
100
AcDbLine
 10
577.500447
 20
213.513709
 30
0.0
 11
576.811363
 21
212.825649
 31
0.0
  0
LINE
  5
A200
100
AcDbEntity
  8
WYMIARY
 62
     3
100
AcDbLine
 10
576.811363
 20
212.825649
 30
0.0
 11
577.423016
 21
212.213693
 31
0.0
  0
LINE
  5
A201
100
AcDbEntity
  8
WYMIARY
 62
     3
100
AcDbLine
 10
577.500447
 20
213.513709
 30
0.0
 11
578.113525
 21
212.900326
 31
0.0
  0
LINE
  5
A202
100
AcDbEntity
  8
WYMIARY
 62
     3
100
AcDbLine
 10
576.439648
 20
211.235848
 30
0.0
 11
577.423016
 21
212.213693
 31
0.0
  0
LINE
  5
A203
100
AcDbEntity
  8
WYMIARY
 62
     3
100
AcDbLine
 10
577.117329
 20
210.533595
 30
0.0
 11
578.112258
 21
211.524109
 31
0.0
  0
LINE
  5
A204
100
AcDbEntity
  8
WYMIARY
 62
     3
100
AcDbLine
 10
576.439648
 20
211.235848
 30
0.0
 11
577.117329
 21
210.533595
 31
0.0
  0
LINE
  5
A205
100
AcDbEntity
  8
WYMIARY
 62
     3
100
AcDbLine
 10
578.112258
 20
211.524109
 30
0.0
 11
578.774583
 21
210.861456
 31
0.0
  0
LINE
  5
A206
100
AcDbEntity
  8
WYMIARY
 62
     3
100
AcDbLine
 10
578.802361
 20
212.211149
 30
0.0
 11
579.462984
 21
211.550198
 31
0.0
  0
LINE
  5
A207
100
AcDbEntity
  8
WYMIARY
 62
     3
100
AcDbLine
 10
578.113525
 20
212.900326
 30
0.0
 11
578.850049
 21
213.632714
 31
0.0
  0
LINE
  5
A208
100
AcDbEntity
  8
WYMIARY
 62
     3
100
AcDbLine
 10
578.802361
 20
212.211149
 30
0.0
 11
579.535935
 21
212.941467
 31
0.0
  0
LINE
  5
A209
100
AcDbEntity
  8
WYMIARY
 62
     3
100
AcDbLine
 10
577.117329
 20
202.942944
 30
0.0
 11
578.112258
 21
203.933457
 31
0.0
  0
LINE
  5
A20A
100
AcDbEntity
  8
WYMIARY
 62
     3
100
AcDbLine
 10
576.439648
 20
203.645196
 30
0.0
 11
577.423016
 21
204.623042
 31
0.0
  0
LINE
  5
A20B
100
AcDbEntity
  8
WYMIARY
 62
     3
100
AcDbLine
 10
578.802361
 20
204.620497
 30
0.0
 11
579.535935
 21
205.350816
 31
0.0
  0
LINE
  5
A20C
100
AcDbEntity
  8
WYMIARY
 62
     3
100
AcDbLine
 10
578.113525
 20
205.309675
 30
0.0
 11
578.850049
 21
206.042062
 31
0.0
  0
LINE
  5
A20D
100
AcDbEntity
  8
WYMIARY
 62
     3
100
AcDbLine
 10
578.802361
 20
204.620497
 30
0.0
 11
579.462984
 21
203.959547
 31
0.0
  0
LINE
  5
A20E
100
AcDbEntity
  8
WYMIARY
 62
     3
100
AcDbLine
 10
577.500447
 20
205.923057
 30
0.0
 11
578.113525
 21
205.309675
 31
0.0
  0
LINE
  5
A20F
100
AcDbEntity
  8
WYMIARY
 62
     3
100
AcDbLine
 10
578.112258
 20
203.933457
 30
0.0
 11
578.774583
 21
203.270804
 31
0.0
  0
LINE
  5
A210
100
AcDbEntity
  8
WYMIARY
 62
     3
100
AcDbLine
 10
576.811363
 20
205.234998
 30
0.0
 11
577.423016
 21
204.623042
 31
0.0
  0
LINE
  5
A211
100
AcDbEntity
  8
WYMIARY
 62
     3
100
AcDbLine
 10
576.439648
 20
203.645196
 30
0.0
 11
577.117329
 21
202.942944
 31
0.0
  0
LINE
  5
A212
100
AcDbEntity
  8
WYMIARY
 62
     3
100
AcDbLine
 10
577.500447
 20
205.923057
 30
0.0
 11
576.811363
 21
205.234998
 31
0.0
  0
LINE
  5
A213
100
AcDbEntity
  8
WYMIARY
 62
     3
100
AcDbLine
 10
579.535935
 20
205.350816
 30
0.0
 11
578.850049
 21
206.042062
 31
0.0
  0
LINE
  5
A214
100
AcDbEntity
  8
WYMIARY
 62
     3
100
AcDbLine
 10
579.462984
 20
203.959547
 30
0.0
 11
578.774583
 21
203.270804
 31
0.0
  0
LINE
  5
A283
100
AcDbEntity
  8
WYMIARY
 62
     3
100
AcDbLine
 10
577.500447
 20
180.081215
 30
0.0
 11
576.811363
 21
179.393156
 31
0.0
  0
LINE
  5
A284
100
AcDbEntity
  8
WYMIARY
 62
     3
100
AcDbLine
 10
576.811363
 20
179.393156
 30
0.0
 11
577.423016
 21
178.7812
 31
0.0
  0
LINE
  5
A285
100
AcDbEntity
  8
WYMIARY
 62
     3
100
AcDbLine
 10
578.112258
 20
178.091615
 30
0.0
 11
578.774583
 21
177.428962
 31
0.0
  0
LINE
  5
A286
100
AcDbEntity
  8
WYMIARY
 62
     3
100
AcDbLine
 10
577.500447
 20
180.081215
 30
0.0
 11
578.113525
 21
179.467833
 31
0.0
  0
LINE
  5
A287
100
AcDbEntity
  8
WYMIARY
 62
     3
100
AcDbLine
 10
578.113525
 20
179.467833
 30
0.0
 11
578.850049
 21
180.20022
 31
0.0
  0
LINE
  5
A288
100
AcDbEntity
  8
WYMIARY
 62
     3
100
AcDbLine
 10
576.439648
 20
177.803354
 30
0.0
 11
577.423016
 21
178.7812
 31
0.0
  0
LINE
  5
A289
100
AcDbEntity
  8
WYMIARY
 62
     3
100
AcDbLine
 10
577.117329
 20
177.101102
 30
0.0
 11
578.112258
 21
178.091615
 31
0.0
  0
LINE
  5
A28A
100
AcDbEntity
  8
WYMIARY
 62
     3
100
AcDbLine
 10
579.462984
 20
178.117705
 30
0.0
 11
578.774583
 21
177.428962
 31
0.0
  0
LINE
  5
A28B
100
AcDbEntity
  8
WYMIARY
 62
     3
100
AcDbLine
 10
579.535935
 20
179.508974
 30
0.0
 11
578.850049
 21
180.20022
 31
0.0
  0
LINE
  5
A28C
100
AcDbEntity
  8
WYMIARY
 62
     3
100
AcDbLine
 10
578.802361
 20
178.778655
 30
0.0
 11
579.462984
 21
178.117705
 31
0.0
  0
LINE
  5
A28D
100
AcDbEntity
  8
WYMIARY
 62
     3
100
AcDbLine
 10
578.802361
 20
178.778655
 30
0.0
 11
579.535935
 21
179.508974
 31
0.0
  0
LINE
  5
A28E
100
AcDbEntity
  8
WYMIARY
 62
     3
100
AcDbLine
 10
576.439648
 20
177.803354
 30
0.0
 11
577.117329
 21
177.101102
 31
0.0
  0
ENDSEC
  0
SECTION
  2
OBJECTS
  0
DICTIONARY
  5
C
100
AcDbDictionary
  3
ACAD_GROUP
350
D
  3
ACAD_MLINESTYLE
350
E
  3
ACDBVARIABLEDICTIONARY
350
C1B
  0
DICTIONARY
  5
D
102
{ACAD_REACTORS
330
C
102
}
100
AcDbDictionary
  0
DICTIONARY
  5
E
102
{ACAD_REACTORS
330
C
102
}
100
AcDbDictionary
  3
STANDARD
350
1B
  0
DICTIONARY
  5
C1B
102
{ACAD_REACTORS
330
C
102
}
100
AcDbDictionary
  3
SORTENTS
350
C1C
  0
MLINESTYLE
  5
1B
102
{ACAD_REACTORS
330
E
102
}
100
AcDbMlineStyle
  2
STANDARD
 70
     0
  3

 62
     0
 51
90.0
 52
90.0
 71
     2
 49
0.5
 62
   256
  6
BYLAYER
 49
-0.5
 62
   256
  6
BYLAYER
  0
DICTIONARYVAR
  5
C1C
102
{ACAD_REACTORS
330
C1B
102
}
100
DictionaryVariables
280
     0
  1
96
  0
ENDSEC
  0
EOF
