  0
SECTION
  2
HEADER
  9
$ACADVER
  1
AC1014
  9
$ACADMAINTVER
 70
     9
  9
$DWGCODEPAGE
  3
ANSI_1250
  9
$INSBASE
 10
0.0
 20
0.0
 30
0.0
  9
$EXTMIN
 10
486.041244
 20
0.0
 30
0.0
  9
$EXTMAX
 10
687.671651
 20
297.0
 30
0.0
  9
$LIMMIN
 10
0.0
 20
0.0
  9
$LIMMAX
 10
420.0
 20
297.0
  9
$ORTHOMODE
 70
     0
  9
$REGENMODE
 70
     1
  9
$FILLMODE
 70
     1
  9
$QTEXTMODE
 70
     0
  9
$MIRRTEXT
 70
     1
  9
$DRAGMODE
 70
     2
  9
$LTSCALE
 40
6.0
  9
$OSMODE
 70
 13247
  9
$ATTMODE
 70
     1
  9
$TEXTSIZE
 40
0.2
  9
$TRACEWID
 40
0.05
  9
$TEXTSTYLE
  7
ITALIC
  9
$CLAYER
  8
WY
  9
$CELTYPE
  6
BYLAYER
  9
$CECOLOR
 62
   256
  9
$CELTSCALE
 40
1.0
  9
$DELOBJ
 70
     1
  9
$DISPSILH
 70
     0
  9
$DIMSCALE
 40
1.0
  9
$DIMASZ
 40
2.5
  9
$DIMEXO
 40
1.5
  9
$DIMDLI
 40
7.0
  9
$DIMRND
 40
0.0
  9
$DIMDLE
 40
0.0
  9
$DIMEXE
 40
1.5
  9
$DIMTP
 40
0.1
  9
$DIMTM
 40
0.0
  9
$DIMTXT
 40
1.5
  9
$DIMCEN
 40
-1.0
  9
$DIMTSZ
 40
0.0
  9
$DIMTOL
 70
     0
  9
$DIMLIM
 70
     0
  9
$DIMTIH
 70
     0
  9
$DIMTOH
 70
     1
  9
$DIMSE1
 70
     0
  9
$DIMSE2
 70
     0
  9
$DIMTAD
 70
     1
  9
$DIMZIN
 70
     8
  9
$DIMBLK
  1

  9
$DIMASO
 70
     1
  9
$DIMSHO
 70
     0
  9
$DIMPOST
  1

  9
$DIMAPOST
  1

  9
$DIMALT
 70
     0
  9
$DIMALTD
 70
     2
  9
$DIMALTF
 40
25.4
  9
$DIMLFAC
 40
1.0
  9
$DIMTOFL
 70
     0
  9
$DIMTVP
 40
0.0
  9
$DIMTIX
 70
     1
  9
$DIMSOXD
 70
     0
  9
$DIMSAH
 70
     0
  9
$DIMBLK1
  1

  9
$DIMBLK2
  1

  9
$DIMSTYLE
  2
STANDARD
  9
$DIMCLRD
 70
     0
  9
$DIMCLRE
 70
     0
  9
$DIMCLRT
 70
     0
  9
$DIMTFAC
 40
1.0
  9
$DIMGAP
 40
0.75
  9
$DIMJUST
 70
     0
  9
$DIMSD1
 70
     0
  9
$DIMSD2
 70
     0
  9
$DIMTOLJ
 70
     1
  9
$DIMTZIN
 70
     8
  9
$DIMALTZ
 70
     0
  9
$DIMALTTZ
 70
     0
  9
$DIMFIT
 70
     4
  9
$DIMUPT
 70
     0
  9
$DIMUNIT
 70
     2
  9
$DIMDEC
 70
     2
  9
$DIMTDEC
 70
     4
  9
$DIMALTU
 70
     2
  9
$DIMALTTD
 70
     2
  9
$DIMTXSTY
  7
STANDARD
  9
$DIMAUNIT
 70
     0
  9
$LUNITS
 70
     2
  9
$LUPREC
 70
     2
  9
$SKETCHINC
 40
0.1
  9
$FILLETRAD
 40
0.1
  9
$AUNITS
 70
     0
  9
$AUPREC
 70
     2
  9
$MENU
  1
ACAD
  9
$ELEVATION
 40
0.0
  9
$PELEVATION
 40
0.0
  9
$THICKNESS
 40
0.0
  9
$LIMCHECK
 70
     0
  9
$CHAMFERA
 40
0.0
  9
$CHAMFERB
 40
0.0
  9
$CHAMFERC
 40
0.0
  9
$CHAMFERD
 40
0.0
  9
$SKPOLY
 70
     0
  9
$TDCREATE
 40
2448721.39913669
  9
$TDUPDATE
 40
2457541.349630579
  9
$TDINDWG
 40
1.592970706
  9
$TDUSRTIMER
 40
2457541.2618964
  9
$USRTIMER
 70
     1
  9
$ANGBASE
 50
0.0
  9
$ANGDIR
 70
     0
  9
$PDMODE
 70
     0
  9
$PDSIZE
 40
0.0
  9
$PLINEWID
 40
0.5
  9
$COORDS
 70
     1
  9
$SPLFRAME
 70
     0
  9
$SPLINETYPE
 70
     6
  9
$SPLINESEGS
 70
     8
  9
$ATTDIA
 70
     0
  9
$ATTREQ
 70
     1
  9
$HANDLING
 70
     1
  9
$HANDSEED
  5
1F82C
  9
$SURFTAB1
 70
     6
  9
$SURFTAB2
 70
     6
  9
$SURFTYPE
 70
     6
  9
$SURFU
 70
     6
  9
$SURFV
 70
     6
  9
$UCSNAME
  2

  9
$UCSORG
 10
0.0
 20
0.0
 30
0.0
  9
$UCSXDIR
 10
1.0
 20
0.0
 30
0.0
  9
$UCSYDIR
 10
0.0
 20
1.0
 30
0.0
  9
$PUCSNAME
  2

  9
$PUCSORG
 10
0.0
 20
0.0
 30
0.0
  9
$PUCSXDIR
 10
1.0
 20
0.0
 30
0.0
  9
$PUCSYDIR
 10
0.0
 20
1.0
 30
0.0
  9
$USERI1
 70
     0
  9
$USERI2
 70
     0
  9
$USERI3
 70
     0
  9
$USERI4
 70
     0
  9
$USERI5
 70
     0
  9
$USERR1
 40
0.0
  9
$USERR2
 40
0.0
  9
$USERR3
 40
0.0
  9
$USERR4
 40
0.0
  9
$USERR5
 40
0.0
  9
$WORLDVIEW
 70
     1
  9
$SHADEDGE
 70
     3
  9
$SHADEDIF
 70
    70
  9
$TILEMODE
 70
     1
  9
$MAXACTVP
 70
    16
  9
$PINSBASE
 10
0.0
 20
0.0
 30
0.0
  9
$PLIMCHECK
 70
     0
  9
$PEXTMIN
 10
1.000000000000000E+20
 20
1.000000000000000E+20
 30
1.000000000000000E+20
  9
$PEXTMAX
 10
-1.000000000000000E+20
 20
-1.000000000000000E+20
 30
-1.000000000000000E+20
  9
$PLIMMIN
 10
0.0
 20
0.0
  9
$PLIMMAX
 10
0.0
 20
0.0
  9
$UNITMODE
 70
     0
  9
$VISRETAIN
 70
     0
  9
$PLINEGEN
 70
     0
  9
$PSLTSCALE
 70
     0
  9
$TREEDEPTH
 70
  3020
  9
$PICKSTYLE
 70
     1
  9
$CMLSTYLE
  2
STANDARD
  9
$CMLJUST
 70
     0
  9
$CMLSCALE
 40
1.0
  9
$PROXYGRAPHICS
 70
     1
  9
$MEASUREMENT
 70
     0
  0
ENDSEC
  0
SECTION
  2
CLASSES
  0
CLASS
  1
HATCH
  2
AcDbHatch
  3
ObjectDBX Classes
 90
        0
280
     0
281
     1
  0
CLASS
  1
LWPOLYLINE
  2
AcDbPolyline
  3
ObjectDBX Classes
 90
        0
280
     0
281
     1
  0
CLASS
  1
DICTIONARYVAR
  2
AcDbDictionaryVar
  3
ObjectDBX Classes
 90
        0
280
     0
281
     0
  0
CLASS
  1
XRECORD
  2
AcDbXrecord
  3
ObjectDBX Classes
 90
        0
280
     0
281
     0
  0
CLASS
  1
SCALE
  2
AcDbScale
  3
ObjectDBX Classes
 90
     1153
280
     0
281
     0
  0
CLASS
  1
VISUALSTYLE
  2
AcDbVisualStyle
  3
ObjectDBX Classes
 90
     4095
280
     0
281
     0
  0
CLASS
  1
MATERIAL
  2
AcDbMaterial
  3
ObjectDBX Classes
 90
     1153
280
     0
281
     0
  0
CLASS
  1
TABLESTYLE
  2
AcDbTableStyle
  3
ObjectDBX Classes
 90
     4095
280
     0
281
     0
  0
CLASS
  1
MLEADERSTYLE
  2
AcDbMLeaderStyle
  3
ACDB_MLEADERSTYLE_CLASS
 90
     4095
280
     0
281
     0
  0
CLASS
  1
SUN
  2
AcDbSun
  3
SCENEOE
 90
     1153
280
     0
281
     0
  0
CLASS
  1
RASTERVARIABLES
  2
AcDbRasterVariables
  3
ISM
 90
        0
280
     0
281
     0
  0
CLASS
  1
DIMASSOC
  2
AcDbDimAssoc
  3
"AcDbDimAssoc|Product Desc:     AcDim ARX App For Dimension|Company:          Autodesk, Inc.|WEB Address:      www.autodesk.com"
 90
        0
280
     0
281
     0
  0
CLASS
  1
ACDBDICTIONARYWDFLT
  2
AcDbDictionaryWithDefault
  3
ObjectDBX Classes
 90
        0
280
     0
281
     0
  0
ENDSEC
  0
SECTION
  2
TABLES
  0
TABLE
  2
VPORT
  5
8
330
0
100
AcDbSymbolTable
 70
     1
  0
VPORT
  5
F0F7
330
8
100
AcDbSymbolTableRecord
100
AcDbViewportTableRecord
  2
*ACTIVE
 70
     0
 10
0.0
 20
0.0
 11
1.0
 21
1.0
 12
395.7850931426333
 22
503.3540253583411
 13
0.0
 23
0.0
 14
1.0
 24
1.0
 15
5.0
 25
5.0
 16
0.0
 26
0.0
 36
1.0
 17
191.0713543573668
 27
-354.8540253583411
 37
0.0
 40
302.94
 41
2.811127379209371
 42
50.0
 43
0.0
 44
0.0
 50
0.0
 51
0.0
 71
    16
 72
   200
 73
     1
 74
     0
 75
     0
 76
     0
 77
     0
 78
     0
  0
ENDTAB
  0
TABLE
  2
LTYPE
  5
5
330
0
100
AcDbSymbolTable
 70
     5
  0
LTYPE
  5
12
330
5
100
AcDbSymbolTableRecord
100
AcDbLinetypeTableRecord
  2
BYBLOCK
 70
     0
  3

 72
    65
 73
     0
 40
0.0
  0
LTYPE
  5
13
330
5
100
AcDbSymbolTableRecord
100
AcDbLinetypeTableRecord
  2
BYLAYER
 70
     0
  3

 72
    65
 73
     0
 40
0.0
  0
LTYPE
  5
14
330
5
100
AcDbSymbolTableRecord
100
AcDbLinetypeTableRecord
  2
CONTINUOUS
 70
     0
  3
Solid line
 72
    65
 73
     0
 40
0.0
  0
LTYPE
  5
1D
330
5
100
AcDbSymbolTableRecord
100
AcDbLinetypeTableRecord
  2
CENTER
 70
     0
  3
____ _ ____ _ ____ _ ____ _ ____ _ ____ _ ____
 72
    65
 73
     4
 40
2.0
 49
1.25
 74
     0
 49
-0.25
 74
     0
 49
0.25
 74
     0
 49
-0.25
 74
     0
  0
LTYPE
  5
1E
330
5
100
AcDbSymbolTableRecord
100
AcDbLinetypeTableRecord
  2
HIDDEN
 70
     0
  3
_ _ _ _ _ _ _ _ _ _ _ _ _ _ _ _ _ _ _ _ _ _ _
 72
    65
 73
     2
 40
0.375
 49
0.25
 74
     0
 49
-0.125
 74
     0
  0
LTYPE
  5
8093
330
5
100
AcDbSymbolTableRecord
100
AcDbLinetypeTableRecord
  2
PHANTOM
 70
     0
  3
Phantom ______  __  __  ______  __  __  ______
 72
    65
 73
     6
 40
12.7
 49
6.35
 74
     0
 49
-1.27
 74
     0
 49
1.27
 74
     0
 49
-1.27
 74
     0
 49
1.27
 74
     0
 49
-1.27
 74
     0
  0
LTYPE
  5
1187C
330
5
100
AcDbSymbolTableRecord
100
AcDbLinetypeTableRecord
  2
CENTERX2
 70
     0
  3
Center (2x) ________  __  ________  __  _____
 72
    65
 73
     4
 40
20.32
 49
12.7
 74
     0
 49
-2.54
 74
     0
 49
2.54
 74
     0
 49
-2.54
 74
     0
  0
ENDTAB
  0
TABLE
  2
LAYER
  5
2
102
{ACAD_XDICTIONARY
360
13241
102
}
330
0
100
AcDbSymbolTable
 70
     8
  0
LAYER
  5
F
330
2
100
AcDbSymbolTableRecord
100
AcDbLayerTableRecord
  2
0
 70
     0
 62
     7
  6
CONTINUOUS
  0
LAYER
  5
21
330
2
100
AcDbSymbolTableRecord
100
AcDbLayerTableRecord
  2
1
 70
     0
 62
     3
  6
CONTINUOUS
  0
LAYER
  5
22
330
2
100
AcDbSymbolTableRecord
100
AcDbLayerTableRecord
  2
2
 70
     0
 62
     6
  6
CONTINUOUS
  0
LAYER
  5
23
330
2
100
AcDbSymbolTableRecord
100
AcDbLayerTableRecord
  2
3
 70
     0
 62
     4
  6
HIDDEN
  0
LAYER
  5
24
330
2
100
AcDbSymbolTableRecord
100
AcDbLayerTableRecord
  2
OSIE
 70
     0
 62
     2
  6
CENTER
  0
LAYER
  5
25
330
2
100
AcDbSymbolTableRecord
100
AcDbLayerTableRecord
  2
WY
 70
     0
 62
     1
  6
CONTINUOUS
  0
LAYER
  5
26
330
2
100
AcDbSymbolTableRecord
100
AcDbLayerTableRecord
  2
DEFPOINTS
 70
     0
 62
     7
  6
CONTINUOUS
  0
LAYER
  5
464
330
2
100
AcDbSymbolTableRecord
100
AcDbLayerTableRecord
  2
WYMIARY
 70
     0
 62
     1
  6
CONTINUOUS
  0
ENDTAB
  0
TABLE
  2
STYLE
  5
3
330
0
100
AcDbSymbolTable
 70
     4
  0
STYLE
  5
10
330
3
100
AcDbSymbolTableRecord
100
AcDbTextStyleTableRecord
  2
STANDARD
 70
     0
 40
0.0
 41
1.0
 50
0.0
 71
     0
 42
6.0
  3
txt
  4

  0
STYLE
  5
1C
330
3
100
AcDbSymbolTableRecord
100
AcDbTextStyleTableRecord
  2
ITALIC
 70
     0
 40
0.0
 41
1.0
 50
15.0
 71
     0
 42
0.2
  3
simplex
  4

  0
STYLE
  5
C512
330
3
100
AcDbSymbolTableRecord
100
AcDbTextStyleTableRecord
  2
SLDTEXTSTYLE2
 70
     0
 40
0.0
 41
0.7
 50
0.0
 71
     0
 42
0.2
  3
TXT
  4

  0
STYLE
  5
C513
330
3
100
AcDbSymbolTableRecord
100
AcDbTextStyleTableRecord
  2
SLDTEXTSTYLE6
 70
     0
 40
0.0
 41
0.605
 50
0.0
 71
     0
 42
0.2
  3
TXT
  4

  0
ENDTAB
  0
TABLE
  2
VIEW
  5
6
330
0
100
AcDbSymbolTable
 70
     0
  0
ENDTAB
  0
TABLE
  2
UCS
  5
7
330
0
100
AcDbSymbolTable
 70
     0
  0
ENDTAB
  0
TABLE
  2
APPID
  5
9
330
0
100
AcDbSymbolTable
 70
     7
  0
APPID
  5
11
330
9
100
AcDbSymbolTableRecord
100
AcDbRegAppTableRecord
  2
ACAD
 70
     0
  0
APPID
  5
14E88
330
9
100
AcDbSymbolTableRecord
100
AcDbRegAppTableRecord
  2
ACAD_DSTYLE_DIMRADIAL_EXTE
 70
     0
  0
APPID
  5
17475
330
9
100
AcDbSymbolTableRecord
100
AcDbRegAppTableRecord
  2
ACAD_DSTYLE_DIMRADIAL_EXT0
 70
     0
  0
APPID
  5
1C4D0
330
9
100
AcDbSymbolTableRecord
100
AcDbRegAppTableRecord
  2
ACAD_DSTYLE_DIMRADIAL_EXT1
 70
     0
  0
APPID
  5
1D830
330
9
100
AcDbSymbolTableRecord
100
AcDbRegAppTableRecord
  2
ACAD_DSTYLE_DIMRADIAL_EXT2
 70
     0
  0
APPID
  5
1DF7B
330
9
100
AcDbSymbolTableRecord
100
AcDbRegAppTableRecord
  2
ACAD_DSTYLE_DIMRADIAL_EXT3
 70
     0
  0
APPID
  5
1E554
330
9
100
AcDbSymbolTableRecord
100
AcDbRegAppTableRecord
  2
ACAD_DSTYLE_DIMRADIAL_EXT4
 70
     0
  0
ENDTAB
  0
TABLE
  2
DIMSTYLE
  5
A
330
0
100
AcDbSymbolTable
 70
     2
  0
DIMSTYLE
105
3B
102
{ACAD_REACTORS
330
1F719
330
1F71A
330
1F71B
330
1F73E
330
1F75E
330
1F770
330
1F77F
330
1F78E
330
1F79E
330
1F7AE
330
1F7BD
330
1F7CF
102
}
330
A
100
AcDbSymbolTableRecord
100
AcDbDimStyleTableRecord
  2
STANDARD
 70
     0
  3

  4

  5

  6

  7

 40
1.0
 41
3.5
 42
1.5
 43
7.0
 44
1.5
 45
0.0
 46
0.0
 47
0.1
 48
0.0
140
3.6
141
-1.0
142
0.0
143
25.4
144
1.0
145
0.0
146
1.0
147
1.5
 71
     0
 72
     0
 73
     0
 74
     0
 75
     0
 76
     0
 77
     1
 78
     0
170
     0
171
     2
172
     0
173
     0
174
     0
175
     0
176
     0
177
     0
178
     0
270
     2
271
     2
272
     4
273
     2
274
     2
340
10
275
     0
280
     0
281
     0
282
     0
283
     1
284
     0
285
     0
286
     0
287
     3
288
     0
  0
DIMSTYLE
105
1187D
330
A
100
AcDbSymbolTableRecord
100
AcDbDimStyleTableRecord
  2
ISO-25
 70
     0
  3

  4

  5

  6

  7

 40
1.0
 41
2.5
 42
0.625
 43
3.75
 44
1.25
 45
0.0
 46
0.0
 47
0.0
 48
0.0
140
2.5
141
2.5
142
0.0
143
0.03937007874016
144
1.0
145
0.0
146
1.0
147
0.625
 71
     0
 72
     0
 73
     0
 74
     0
 75
     0
 76
     0
 77
     1
 78
     8
170
     0
171
     3
172
     1
173
     0
174
     0
175
     0
176
     0
177
     0
178
     0
270
     2
271
     2
272
     2
273
     2
274
     3
340
10
275
     0
280
     0
281
     0
282
     0
283
     0
284
     8
285
     0
286
     0
287
     3
288
     0
  0
ENDTAB
  0
TABLE
  2
BLOCK_RECORD
  5
1
330
0
100
AcDbSymbolTable
 70
   229
  0
BLOCK_RECORD
  5
18
330
1
100
AcDbSymbolTableRecord
100
AcDbBlockTableRecord
  2
*MODEL_SPACE
  0
BLOCK_RECORD
  5
15
330
1
100
AcDbSymbolTableRecord
100
AcDbBlockTableRecord
  2
*PAPER_SPACE
  0
BLOCK_RECORD
  5
7EA0
330
1
100
AcDbSymbolTableRecord
100
AcDbBlockTableRecord
  2
A$C312173AA
  0
BLOCK_RECORD
  5
C4F7
330
1
100
AcDbSymbolTableRecord
100
AcDbBlockTableRecord
  2
_DOT
  0
BLOCK_RECORD
  5
13341
330
1
100
AcDbSymbolTableRecord
100
AcDbBlockTableRecord
  2
_NONE
  0
BLOCK_RECORD
  5
13346
330
1
100
AcDbSymbolTableRecord
100
AcDbBlockTableRecord
  2
_OBLIQUE
  0
BLOCK_RECORD
  5
1357A
330
1
100
AcDbSymbolTableRecord
100
AcDbBlockTableRecord
  2
SW_CENTERMARKSYMBOL_0
  0
BLOCK_RECORD
  5
13586
330
1
100
AcDbSymbolTableRecord
100
AcDbBlockTableRecord
  2
SW_CENTERMARKSYMBOL_1
  0
BLOCK_RECORD
  5
13592
330
1
100
AcDbSymbolTableRecord
100
AcDbBlockTableRecord
  2
SW_CENTERMARKSYMBOL_2
  0
BLOCK_RECORD
  5
140D3
330
1
100
AcDbSymbolTableRecord
100
AcDbBlockTableRecord
  2
SW_CENTERMARKSYMBOL_3
  0
BLOCK_RECORD
  5
140DF
330
1
100
AcDbSymbolTableRecord
100
AcDbBlockTableRecord
  2
SW_CENTERMARKSYMBOL_4
  0
BLOCK_RECORD
  5
140EB
330
1
100
AcDbSymbolTableRecord
100
AcDbBlockTableRecord
  2
SW_CENTERMARKSYMBOL_5
  0
BLOCK_RECORD
  5
140F7
330
1
100
AcDbSymbolTableRecord
100
AcDbBlockTableRecord
  2
SW_CENTERMARKSYMBOL_6
  0
BLOCK_RECORD
  5
14103
330
1
100
AcDbSymbolTableRecord
100
AcDbBlockTableRecord
  2
SW_CENTERMARKSYMBOL_7
  0
BLOCK_RECORD
  5
1410F
330
1
100
AcDbSymbolTableRecord
100
AcDbBlockTableRecord
  2
SW_CENTERMARKSYMBOL_8
  0
BLOCK_RECORD
  5
1411B
330
1
100
AcDbSymbolTableRecord
100
AcDbBlockTableRecord
  2
SW_CENTERMARKSYMBOL_9
  0
BLOCK_RECORD
  5
17418
330
1
100
AcDbSymbolTableRecord
100
AcDbBlockTableRecord
  2
_ARCHTICK
  0
BLOCK_RECORD
  5
1741C
330
1
100
AcDbSymbolTableRecord
100
AcDbBlockTableRecord
  2
_INTEGRAL
  0
BLOCK_RECORD
  5
1F71C
330
1
100
AcDbSymbolTableRecord
100
AcDbBlockTableRecord
  2
*D216
  0
BLOCK_RECORD
  5
1F728
330
1
100
AcDbSymbolTableRecord
100
AcDbBlockTableRecord
  2
*D217
  0
BLOCK_RECORD
  5
1F732
330
1
100
AcDbSymbolTableRecord
100
AcDbBlockTableRecord
  2
*D218
  0
BLOCK_RECORD
  5
1F741
330
1
100
AcDbSymbolTableRecord
100
AcDbBlockTableRecord
  2
*D219
  0
BLOCK_RECORD
  5
1F750
330
1
100
AcDbSymbolTableRecord
100
AcDbBlockTableRecord
  2
*D220
  0
BLOCK_RECORD
  5
1F761
330
1
100
AcDbSymbolTableRecord
100
AcDbBlockTableRecord
  2
*D221
  0
BLOCK_RECORD
  5
1F773
330
1
100
AcDbSymbolTableRecord
100
AcDbBlockTableRecord
  2
*D222
  0
BLOCK_RECORD
  5
1F782
330
1
100
AcDbSymbolTableRecord
100
AcDbBlockTableRecord
  2
*D223
  0
BLOCK_RECORD
  5
1F791
330
1
100
AcDbSymbolTableRecord
100
AcDbBlockTableRecord
  2
*D224
  0
BLOCK_RECORD
  5
1F7A1
330
1
100
AcDbSymbolTableRecord
100
AcDbBlockTableRecord
  2
*D225
  0
BLOCK_RECORD
  5
1F7B1
330
1
100
AcDbSymbolTableRecord
100
AcDbBlockTableRecord
  2
*D226
  0
BLOCK_RECORD
  5
1F7C0
330
1
100
AcDbSymbolTableRecord
100
AcDbBlockTableRecord
  2
*D227
  0
BLOCK_RECORD
  5
1F7D2
330
1
100
AcDbSymbolTableRecord
100
AcDbBlockTableRecord
  2
*D228
  0
ENDTAB
  0
ENDSEC
  0
SECTION
  2
BLOCKS
  0
BLOCK
  5
29
330
18
100
AcDbEntity
  8
0
100
AcDbBlockBegin
  2
*MODEL_SPACE
 70
     0
 10
0.0
 20
0.0
 30
0.0
  3
*MODEL_SPACE
  1

  0
ENDBLK
  5
2A
330
18
100
AcDbEntity
  8
0
100
AcDbBlockEnd
  0
BLOCK
  5
27
330
15
100
AcDbEntity
 67
     1
  8
0
100
AcDbBlockBegin
  2
*PAPER_SPACE
 70
     0
 10
0.0
 20
0.0
 30
0.0
  3
*PAPER_SPACE
  1

  0
ENDBLK
  5
28
330
15
100
AcDbEntity
 67
     1
  8
0
100
AcDbBlockEnd
  0
BLOCK
  5
7EAF
330
7EA0
100
AcDbEntity
  8
0
100
AcDbBlockBegin
  2
A$C312173AA
 70
     0
 10
0.0
 20
0.0
 30
0.0
  3
A$C312173AA
  1
A$C312173AA
  0
HATCH
  5
7EA1
330
7EA0
100
AcDbEntity
  8
1
100
AcDbHatch
 10
0.0
 20
0.0
 30
0.0
210
0.0
220
0.0
230
1.0
  2
SOLID
 70
     1
 71
     1
 91
        1
 92
        7
 72
     0
 73
     1
 93
        4
 10
2.724690422176706
 20
5.013136352600668
 10
5.058157912552363
 20
1.095673373491763
 10
5.076413282682712
 20
1.095673373491763
 10
7.382430158279476
 20
5.013136352600668
 97
        4
330
7EA6
330
7EAA
330
7EA5
330
7EA8
 75
     0
 76
     1
 47
0.057765
 98
        1
 10
5.461965
 20
4.283681
  0
HATCH
  5
7EA2
330
7EA0
100
AcDbEntity
  8
1
100
AcDbHatch
 10
0.0
 20
0.0
 30
0.0
210
0.0
220
0.0
230
1.0
  2
SOLID
 70
     1
 71
     1
 91
        1
 92
        7
 72
     0
 73
     1
 93
        4
 10
2.724690422176706
 20
5.013136352600668
 10
5.058157912552363
 20
1.095673373491763
 10
5.076413282682712
 20
1.095673373491763
 10
7.382430158279476
 20
5.013136352600668
 97
        4
330
7EA4
330
7EA9
330
7EA3
330
7EA7
 75
     0
 76
     1
 47
0.057765
 98
        1
 10
5.461965
 20
4.283681
  0
LINE
  5
7EA3
102
{ACAD_REACTORS
330
7EA2
102
}
330
7EA0
100
AcDbEntity
  8
1
100
AcDbLine
 10
7.376974
 20
1.095673
 30
0.0
 11
2.719445
 21
1.095673
 31
0.0
  0
LINE
  5
7EA4
102
{ACAD_REACTORS
330
7EA2
102
}
330
7EA0
100
AcDbEntity
  8
1
100
AcDbLine
 10
2.716507
 20
5.013136
 30
0.0
 11
7.38243
 21
5.013136
 31
0.0
  0
LINE
  5
7EA5
102
{ACAD_REACTORS
330
7EA1
102
}
330
7EA0
100
AcDbEntity
  8
1
100
AcDbLine
 10
7.376974
 20
1.095673
 30
0.0
 11
2.719445
 21
1.095673
 31
0.0
  0
LINE
  5
7EA6
102
{ACAD_REACTORS
330
7EA1
102
}
330
7EA0
100
AcDbEntity
  8
1
100
AcDbLine
 10
2.716507
 20
5.013136
 30
0.0
 11
7.38243
 21
5.013136
 31
0.0
  0
LINE
  5
7EA7
102
{ACAD_REACTORS
330
7EA2
102
}
330
7EA0
100
AcDbEntity
  8
1
100
AcDbLine
 10
7.38243
 20
5.013136
 30
0.0
 11
5.049469
 21
1.0499
 31
0.0
  0
LINE
  5
7EA8
102
{ACAD_REACTORS
330
7EA1
102
}
330
7EA0
100
AcDbEntity
  8
1
100
AcDbLine
 10
7.38243
 20
5.013136
 30
0.0
 11
5.049469
 21
1.0499
 31
0.0
  0
LINE
  5
7EA9
102
{ACAD_REACTORS
330
7EA2
102
}
330
7EA0
100
AcDbEntity
  8
1
100
AcDbLine
 10
5.048209
 20
1.112376
 30
0.0
 11
2.719445
 21
5.021942
 31
0.0
  0
LINE
  5
7EAA
102
{ACAD_REACTORS
330
7EA1
102
}
330
7EA0
100
AcDbEntity
  8
1
100
AcDbLine
 10
5.048209
 20
1.112376
 30
0.0
 11
2.719445
 21
5.021942
 31
0.0
  0
LINE
  5
7EAB
330
7EA0
100
AcDbEntity
  8
1
100
AcDbLine
 10
3.176777
 20
2.240563
 30
0.0
 11
1.859991
 21
0.714974
 31
0.0
  0
LINE
  5
7EAC
330
7EA0
100
AcDbEntity
  8
1
100
AcDbLine
 10
1.935572
 20
2.29404
 30
0.0
 11
0.618786
 21
0.768452
 31
0.0
  0
HATCH
  5
7EAD
330
7EA0
100
AcDbEntity
  8
1
100
AcDbHatch
 10
0.0
 20
0.0
 30
0.0
210
0.0
220
0.0
230
1.0
  2
SOLID
 70
     1
 71
     0
 91
        1
 92
        7
 72
     0
 73
     1
 93
        3
 10
2.13435432304297
 20
0.5079866047149438
 10
1.594971700028992
 20
0.9149117569309055
 10
1.241204476589189
 20
0.0000001052034975
 97
        0
 75
     0
 76
     1
 47
0.009825
 98
        1
 10
1.617082
 20
0.370646
  0
HATCH
  5
7EAE
330
7EA0
100
AcDbEntity
  8
1
100
AcDbHatch
 10
0.0
 20
0.0
 30
0.0
210
0.0
220
0.0
230
1.0
  2
SOLID
 70
     1
 71
     0
 91
        1
 92
        7
 72
     0
 73
     1
 93
        3
 10
0.8931496793437361
 20
0.5614642425206
 10
0.3537670563297865
 20
0.9683893947365334
 10
-0.0000001671100733
 20
0.0534777430091538
 97
        0
 75
     0
 76
     1
 47
0.009825
 98
        1
 10
0.375878
 20
0.424123
  0
ENDBLK
  5
7EB0
330
7EA0
100
AcDbEntity
  8
0
100
AcDbBlockEnd
  0
BLOCK
  5
C4FC
330
C4F7
100
AcDbEntity
  8
0
100
AcDbBlockBegin
  2
_DOT
 70
     0
 10
0.0
 20
0.0
 30
0.0
  3
_DOT
  1
_DOT
  0
LWPOLYLINE
  5
C4F8
330
C4F7
100
AcDbEntity
  8
0
  6
BYBLOCK
 62
     0
100
AcDbPolyline
 90
        2
 70
     1
 43
0.5
 10
-0.25
 20
0.0
 42
1.0
 10
0.25
 20
0.0
 42
1.0
  0
LINE
  5
C4F9
330
C4F7
100
AcDbEntity
  8
0
  6
BYBLOCK
 62
     0
100
AcDbLine
 10
-0.5
 20
0.0
 30
0.0
 11
-1.0
 21
0.0
 31
0.0
  0
ENDBLK
  5
C4FD
330
C4F7
100
AcDbEntity
  8
0
100
AcDbBlockEnd
  0
BLOCK
  5
13342
330
13341
100
AcDbEntity
  8
0
100
AcDbBlockBegin
  2
_NONE
 70
     0
 10
0.0
 20
0.0
 30
0.0
  3
_NONE
  1
_NONE
  0
ENDBLK
  5
13343
330
13341
100
AcDbEntity
  8
0
100
AcDbBlockEnd
  0
BLOCK
  5
13347
330
13346
100
AcDbEntity
  8
0
100
AcDbBlockBegin
  2
_OBLIQUE
 70
     0
 10
0.0
 20
0.0
 30
0.0
  3
_OBLIQUE
  1
_OBLIQUE
  0
LINE
  5
13349
330
13346
100
AcDbEntity
  8
0
  6
BYBLOCK
 62
     0
100
AcDbLine
 10
-0.5
 20
-0.5
 30
0.0
 11
0.5
 21
0.5
 31
0.0
  0
ENDBLK
  5
13348
330
13346
100
AcDbEntity
  8
0
100
AcDbBlockEnd
  0
BLOCK
  5
1357B
330
1357A
100
AcDbEntity
  8
0
100
AcDbBlockBegin
  2
SW_CENTERMARKSYMBOL_0
 70
     0
 10
0.0
 20
0.0
 30
0.0
  3
SW_CENTERMARKSYMBOL_0
  1
SW_CENTERMARKSYMBOL_0
  0
LINE
  5
1357C
330
1357A
100
AcDbEntity
  8
0
  6
CONTINUOUS
 62
     0
100
AcDbLine
 10
0.0
 20
0.0
 30
0.0
 11
0.0
 21
2.500000000000002
 31
0.0
  0
LINE
  5
1357D
330
1357A
100
AcDbEntity
  8
0
  6
CONTINUOUS
 62
     0
100
AcDbLine
 10
0.0
 20
0.0
 30
0.0
 11
-2.500000000000002
 21
0.0
 31
0.0
  0
LINE
  5
1357E
330
1357A
100
AcDbEntity
  8
0
  6
CONTINUOUS
 62
     0
100
AcDbLine
 10
0.0
 20
0.0
 30
0.0
 11
0.0
 21
-2.500000000000002
 31
0.0
  0
LINE
  5
1357F
330
1357A
100
AcDbEntity
  8
0
  6
CONTINUOUS
 62
     0
100
AcDbLine
 10
0.0
 20
0.0
 30
0.0
 11
2.500000000000002
 21
0.0
 31
0.0
  0
LINE
  5
13580
330
1357A
100
AcDbEntity
  8
0
  6
CONTINUOUS
 62
     0
100
AcDbLine
 10
0.0
 20
2.500000000000002
 30
0.0
 11
0.0
 21
3.099999999999992
 31
0.0
  0
LINE
  5
13581
330
1357A
100
AcDbEntity
  8
0
  6
CONTINUOUS
 62
     0
100
AcDbLine
 10
-2.500000000000002
 20
0.0
 30
0.0
 11
-3.100000000000005
 21
0.0
 31
0.0
  0
LINE
  5
13582
330
1357A
100
AcDbEntity
  8
0
  6
CONTINUOUS
 62
     0
100
AcDbLine
 10
0.0
 20
-2.500000000000002
 30
0.0
 11
0.0
 21
-3.099999999999992
 31
0.0
  0
LINE
  5
13583
330
1357A
100
AcDbEntity
  8
0
  6
CONTINUOUS
 62
     0
100
AcDbLine
 10
2.500000000000002
 20
0.0
 30
0.0
 11
3.099999999999992
 21
0.0
 31
0.0
  0
ENDBLK
  5
13584
330
1357A
100
AcDbEntity
  8
0
100
AcDbBlockEnd
  0
BLOCK
  5
13587
330
13586
100
AcDbEntity
  8
0
100
AcDbBlockBegin
  2
SW_CENTERMARKSYMBOL_1
 70
     0
 10
0.0
 20
0.0
 30
0.0
  3
SW_CENTERMARKSYMBOL_1
  1
SW_CENTERMARKSYMBOL_1
  0
LINE
  5
13588
330
13586
100
AcDbEntity
  8
0
  6
CONTINUOUS
 62
     0
100
AcDbLine
 10
0.0
 20
0.0
 30
0.0
 11
0.0
 21
2.500000000000002
 31
0.0
  0
LINE
  5
13589
330
13586
100
AcDbEntity
  8
0
  6
CONTINUOUS
 62
     0
100
AcDbLine
 10
0.0
 20
0.0
 30
0.0
 11
-2.500000000000002
 21
0.0
 31
0.0
  0
LINE
  5
1358A
330
13586
100
AcDbEntity
  8
0
  6
CONTINUOUS
 62
     0
100
AcDbLine
 10
0.0
 20
0.0
 30
0.0
 11
0.0
 21
-2.500000000000002
 31
0.0
  0
LINE
  5
1358B
330
13586
100
AcDbEntity
  8
0
  6
CONTINUOUS
 62
     0
100
AcDbLine
 10
0.0
 20
0.0
 30
0.0
 11
2.500000000000002
 21
0.0
 31
0.0
  0
LINE
  5
1358C
330
13586
100
AcDbEntity
  8
0
  6
CONTINUOUS
 62
     0
100
AcDbLine
 10
0.0
 20
2.500000000000002
 30
0.0
 11
0.0
 21
3.099999999999992
 31
0.0
  0
LINE
  5
1358D
330
13586
100
AcDbEntity
  8
0
  6
CONTINUOUS
 62
     0
100
AcDbLine
 10
-2.500000000000002
 20
0.0
 30
0.0
 11
-3.100000000000005
 21
0.0
 31
0.0
  0
LINE
  5
1358E
330
13586
100
AcDbEntity
  8
0
  6
CONTINUOUS
 62
     0
100
AcDbLine
 10
0.0
 20
-2.500000000000002
 30
0.0
 11
0.0
 21
-3.099999999999992
 31
0.0
  0
LINE
  5
1358F
330
13586
100
AcDbEntity
  8
0
  6
CONTINUOUS
 62
     0
100
AcDbLine
 10
2.500000000000002
 20
0.0
 30
0.0
 11
3.099999999999992
 21
0.0
 31
0.0
  0
ENDBLK
  5
13590
330
13586
100
AcDbEntity
  8
0
100
AcDbBlockEnd
  0
BLOCK
  5
13593
330
13592
100
AcDbEntity
  8
0
100
AcDbBlockBegin
  2
SW_CENTERMARKSYMBOL_2
 70
     0
 10
0.0
 20
0.0
 30
0.0
  3
SW_CENTERMARKSYMBOL_2
  1
SW_CENTERMARKSYMBOL_2
  0
LINE
  5
13594
330
13592
100
AcDbEntity
  8
0
  6
CONTINUOUS
 62
     0
100
AcDbLine
 10
0.0
 20
0.0
 30
0.0
 11
0.0
 21
2.500000000000002
 31
0.0
  0
LINE
  5
13595
330
13592
100
AcDbEntity
  8
0
  6
CONTINUOUS
 62
     0
100
AcDbLine
 10
0.0
 20
0.0
 30
0.0
 11
-2.500000000000002
 21
0.0
 31
0.0
  0
LINE
  5
13596
330
13592
100
AcDbEntity
  8
0
  6
CONTINUOUS
 62
     0
100
AcDbLine
 10
0.0
 20
0.0
 30
0.0
 11
0.0
 21
-2.500000000000002
 31
0.0
  0
LINE
  5
13597
330
13592
100
AcDbEntity
  8
0
  6
CONTINUOUS
 62
     0
100
AcDbLine
 10
0.0
 20
0.0
 30
0.0
 11
2.500000000000002
 21
0.0
 31
0.0
  0
LINE
  5
13598
330
13592
100
AcDbEntity
  8
0
  6
CONTINUOUS
 62
     0
100
AcDbLine
 10
0.0
 20
2.500000000000002
 30
0.0
 11
0.0
 21
3.049999999999997
 31
0.0
  0
LINE
  5
13599
330
13592
100
AcDbEntity
  8
0
  6
CONTINUOUS
 62
     0
100
AcDbLine
 10
-2.500000000000002
 20
0.0
 30
0.0
 11
-3.050000000000011
 21
0.0
 31
0.0
  0
LINE
  5
1359A
330
13592
100
AcDbEntity
  8
0
  6
CONTINUOUS
 62
     0
100
AcDbLine
 10
0.0
 20
-2.500000000000002
 30
0.0
 11
0.0
 21
-3.049999999999997
 31
0.0
  0
LINE
  5
1359B
330
13592
100
AcDbEntity
  8
0
  6
CONTINUOUS
 62
     0
100
AcDbLine
 10
2.500000000000002
 20
0.0
 30
0.0
 11
3.049999999999997
 21
0.0
 31
0.0
  0
ENDBLK
  5
1359C
330
13592
100
AcDbEntity
  8
0
100
AcDbBlockEnd
  0
BLOCK
  5
140D4
330
140D3
100
AcDbEntity
  8
0
100
AcDbBlockBegin
  2
SW_CENTERMARKSYMBOL_3
 70
     0
 10
0.0
 20
0.0
 30
0.0
  3
SW_CENTERMARKSYMBOL_3
  1
SW_CENTERMARKSYMBOL_3
  0
LINE
  5
140D5
330
140D3
100
AcDbEntity
  8
0
  6
CONTINUOUS
 62
     0
100
AcDbLine
 10
0.0
 20
0.0
 30
0.0
 11
0.0
 21
2.500000000000002
 31
0.0
  0
LINE
  5
140D6
330
140D3
100
AcDbEntity
  8
0
  6
CONTINUOUS
 62
     0
100
AcDbLine
 10
0.0
 20
0.0
 30
0.0
 11
-2.500000000000002
 21
0.0
 31
0.0
  0
LINE
  5
140D7
330
140D3
100
AcDbEntity
  8
0
  6
CONTINUOUS
 62
     0
100
AcDbLine
 10
0.0
 20
0.0
 30
0.0
 11
0.0
 21
-2.500000000000002
 31
0.0
  0
LINE
  5
140D8
330
140D3
100
AcDbEntity
  8
0
  6
CONTINUOUS
 62
     0
100
AcDbLine
 10
0.0
 20
0.0
 30
0.0
 11
2.500000000000002
 21
0.0
 31
0.0
  0
LINE
  5
140D9
330
140D3
100
AcDbEntity
  8
0
  6
CONTINUOUS
 62
     0
100
AcDbLine
 10
0.0
 20
2.500000000000002
 30
0.0
 11
0.0
 21
4.994484940947341
 31
0.0
  0
LINE
  5
140DA
330
140D3
100
AcDbEntity
  8
0
  6
CONTINUOUS
 62
     0
100
AcDbLine
 10
-2.500000000000002
 20
0.0
 30
0.0
 11
-4.994484940947341
 21
0.0
 31
0.0
  0
LINE
  5
140DB
330
140D3
100
AcDbEntity
  8
0
  6
CONTINUOUS
 62
     0
100
AcDbLine
 10
0.0
 20
-2.500000000000002
 30
0.0
 11
0.0
 21
-4.994484940947369
 31
0.0
  0
LINE
  5
140DC
330
140D3
100
AcDbEntity
  8
0
  6
CONTINUOUS
 62
     0
100
AcDbLine
 10
2.500000000000002
 20
0.0
 30
0.0
 11
4.994484940947369
 21
0.0
 31
0.0
  0
ENDBLK
  5
140DD
330
140D3
100
AcDbEntity
  8
0
100
AcDbBlockEnd
  0
BLOCK
  5
140E0
330
140DF
100
AcDbEntity
  8
0
100
AcDbBlockBegin
  2
SW_CENTERMARKSYMBOL_4
 70
     0
 10
0.0
 20
0.0
 30
0.0
  3
SW_CENTERMARKSYMBOL_4
  1
SW_CENTERMARKSYMBOL_4
  0
LINE
  5
140E1
330
140DF
100
AcDbEntity
  8
0
  6
CONTINUOUS
 62
     0
100
AcDbLine
 10
0.0
 20
0.0
 30
0.0
 11
0.0
 21
2.500000000000002
 31
0.0
  0
LINE
  5
140E2
330
140DF
100
AcDbEntity
  8
0
  6
CONTINUOUS
 62
     0
100
AcDbLine
 10
0.0
 20
0.0
 30
0.0
 11
-2.500000000000002
 21
0.0
 31
0.0
  0
LINE
  5
140E3
330
140DF
100
AcDbEntity
  8
0
  6
CONTINUOUS
 62
     0
100
AcDbLine
 10
0.0
 20
0.0
 30
0.0
 11
0.0
 21
-2.500000000000002
 31
0.0
  0
LINE
  5
140E4
330
140DF
100
AcDbEntity
  8
0
  6
CONTINUOUS
 62
     0
100
AcDbLine
 10
0.0
 20
0.0
 30
0.0
 11
2.500000000000002
 21
0.0
 31
0.0
  0
LINE
  5
140E5
330
140DF
100
AcDbEntity
  8
0
  6
CONTINUOUS
 62
     0
100
AcDbLine
 10
0.0
 20
5.000000000000004
 30
0.0
 11
0.0
 21
5.148285779730477
 31
0.0
  0
LINE
  5
140E6
330
140DF
100
AcDbEntity
  8
0
  6
CONTINUOUS
 62
     0
100
AcDbLine
 10
-5.000000000000004
 20
0.0
 30
0.0
 11
-5.14828577973045
 21
0.0
 31
0.0
  0
LINE
  5
140E7
330
140DF
100
AcDbEntity
  8
0
  6
CONTINUOUS
 62
     0
100
AcDbLine
 10
0.0
 20
-4.999999999999977
 30
0.0
 11
0.0
 21
-5.14828577973045
 31
0.0
  0
LINE
  5
140E8
330
140DF
100
AcDbEntity
  8
0
  6
CONTINUOUS
 62
     0
100
AcDbLine
 10
5.000000000000004
 20
0.0
 30
0.0
 11
5.148285779730477
 21
0.0
 31
0.0
  0
ENDBLK
  5
140E9
330
140DF
100
AcDbEntity
  8
0
100
AcDbBlockEnd
  0
BLOCK
  5
140EC
330
140EB
100
AcDbEntity
  8
0
100
AcDbBlockBegin
  2
SW_CENTERMARKSYMBOL_5
 70
     0
 10
0.0
 20
0.0
 30
0.0
  3
SW_CENTERMARKSYMBOL_5
  1
SW_CENTERMARKSYMBOL_5
  0
LINE
  5
140ED
330
140EB
100
AcDbEntity
  8
0
  6
CONTINUOUS
 62
     0
100
AcDbLine
 10
0.0
 20
0.0
 30
0.0
 11
0.0
 21
2.500000000000002
 31
0.0
  0
LINE
  5
140EE
330
140EB
100
AcDbEntity
  8
0
  6
CONTINUOUS
 62
     0
100
AcDbLine
 10
0.0
 20
0.0
 30
0.0
 11
-2.500000000000002
 21
0.0
 31
0.0
  0
LINE
  5
140EF
330
140EB
100
AcDbEntity
  8
0
  6
CONTINUOUS
 62
     0
100
AcDbLine
 10
0.0
 20
0.0
 30
0.0
 11
0.0
 21
-2.499999999999974
 31
0.0
  0
LINE
  5
140F0
330
140EB
100
AcDbEntity
  8
0
  6
CONTINUOUS
 62
     0
100
AcDbLine
 10
0.0
 20
0.0
 30
0.0
 11
2.500000000000002
 21
0.0
 31
0.0
  0
LINE
  5
140F1
330
140EB
100
AcDbEntity
  8
0
  6
CONTINUOUS
 62
     0
100
AcDbLine
 10
0.0
 20
2.500000000000002
 30
0.0
 11
0.0
 21
4.994484940947369
 31
0.0
  0
LINE
  5
140F2
330
140EB
100
AcDbEntity
  8
0
  6
CONTINUOUS
 62
     0
100
AcDbLine
 10
-2.500000000000002
 20
0.0
 30
0.0
 11
-4.994484940947341
 21
0.0
 31
0.0
  0
LINE
  5
140F3
330
140EB
100
AcDbEntity
  8
0
  6
CONTINUOUS
 62
     0
100
AcDbLine
 10
0.0
 20
-2.499999999999974
 30
0.0
 11
0.0
 21
-4.994484940947341
 31
0.0
  0
LINE
  5
140F4
330
140EB
100
AcDbEntity
  8
0
  6
CONTINUOUS
 62
     0
100
AcDbLine
 10
2.500000000000002
 20
0.0
 30
0.0
 11
4.994484940947369
 21
0.0
 31
0.0
  0
ENDBLK
  5
140F5
330
140EB
100
AcDbEntity
  8
0
100
AcDbBlockEnd
  0
BLOCK
  5
140F8
330
140F7
100
AcDbEntity
  8
0
100
AcDbBlockBegin
  2
SW_CENTERMARKSYMBOL_6
 70
     0
 10
0.0
 20
0.0
 30
0.0
  3
SW_CENTERMARKSYMBOL_6
  1
SW_CENTERMARKSYMBOL_6
  0
LINE
  5
140F9
330
140F7
100
AcDbEntity
  8
0
  6
CONTINUOUS
 62
     0
100
AcDbLine
 10
0.0
 20
0.0
 30
0.0
 11
0.0
 21
2.500000000000002
 31
0.0
  0
LINE
  5
140FA
330
140F7
100
AcDbEntity
  8
0
  6
CONTINUOUS
 62
     0
100
AcDbLine
 10
0.0
 20
0.0
 30
0.0
 11
-2.500000000000002
 21
0.0
 31
0.0
  0
LINE
  5
140FB
330
140F7
100
AcDbEntity
  8
0
  6
CONTINUOUS
 62
     0
100
AcDbLine
 10
0.0
 20
0.0
 30
0.0
 11
0.0
 21
-2.500000000000002
 31
0.0
  0
LINE
  5
140FC
330
140F7
100
AcDbEntity
  8
0
  6
CONTINUOUS
 62
     0
100
AcDbLine
 10
0.0
 20
0.0
 30
0.0
 11
2.500000000000002
 21
0.0
 31
0.0
  0
LINE
  5
140FD
330
140F7
100
AcDbEntity
  8
0
  6
CONTINUOUS
 62
     0
100
AcDbLine
 10
0.0
 20
5.000000000000004
 30
0.0
 11
0.0
 21
5.148285779730005
 31
0.0
  0
LINE
  5
140FE
330
140F7
100
AcDbEntity
  8
0
  6
CONTINUOUS
 62
     0
100
AcDbLine
 10
-5.000000000000004
 20
0.0
 30
0.0
 11
-5.148285779730005
 21
0.0
 31
0.0
  0
LINE
  5
140FF
330
140F7
100
AcDbEntity
  8
0
  6
CONTINUOUS
 62
     0
100
AcDbLine
 10
0.0
 20
-5.000000000000004
 30
0.0
 11
0.0
 21
-5.148285779730005
 31
0.0
  0
LINE
  5
14100
330
140F7
100
AcDbEntity
  8
0
  6
CONTINUOUS
 62
     0
100
AcDbLine
 10
5.000000000000004
 20
0.0
 30
0.0
 11
5.148285779730005
 21
0.0
 31
0.0
  0
ENDBLK
  5
14101
330
140F7
100
AcDbEntity
  8
0
100
AcDbBlockEnd
  0
BLOCK
  5
14104
330
14103
100
AcDbEntity
  8
0
100
AcDbBlockBegin
  2
SW_CENTERMARKSYMBOL_7
 70
     0
 10
0.0
 20
0.0
 30
0.0
  3
SW_CENTERMARKSYMBOL_7
  1
SW_CENTERMARKSYMBOL_7
  0
LINE
  5
14105
330
14103
100
AcDbEntity
  8
0
  6
CONTINUOUS
 62
     0
100
AcDbLine
 10
0.0
 20
0.0
 30
0.0
 11
0.0
 21
2.500000000000002
 31
0.0
  0
LINE
  5
14106
330
14103
100
AcDbEntity
  8
0
  6
CONTINUOUS
 62
     0
100
AcDbLine
 10
0.0
 20
0.0
 30
0.0
 11
-2.500000000000002
 21
0.0
 31
0.0
  0
LINE
  5
14107
330
14103
100
AcDbEntity
  8
0
  6
CONTINUOUS
 62
     0
100
AcDbLine
 10
0.0
 20
0.0
 30
0.0
 11
0.0
 21
-2.500000000000002
 31
0.0
  0
LINE
  5
14108
330
14103
100
AcDbEntity
  8
0
  6
CONTINUOUS
 62
     0
100
AcDbLine
 10
0.0
 20
0.0
 30
0.0
 11
2.500000000000002
 21
0.0
 31
0.0
  0
LINE
  5
14109
330
14103
100
AcDbEntity
  8
0
  6
CONTINUOUS
 62
     0
100
AcDbLine
 10
0.0
 20
2.500000000000002
 30
0.0
 11
0.0
 21
4.396509385747454
 31
0.0
  0
LINE
  5
1410A
330
14103
100
AcDbEntity
  8
0
  6
CONTINUOUS
 62
     0
100
AcDbLine
 10
-2.500000000000002
 20
0.0
 30
0.0
 11
-4.396509385747454
 21
0.0
 31
0.0
  0
LINE
  5
1410B
330
14103
100
AcDbEntity
  8
0
  6
CONTINUOUS
 62
     0
100
AcDbLine
 10
0.0
 20
-2.500000000000002
 30
0.0
 11
0.0
 21
-4.396509385747454
 31
0.0
  0
LINE
  5
1410C
330
14103
100
AcDbEntity
  8
0
  6
CONTINUOUS
 62
     0
100
AcDbLine
 10
2.500000000000002
 20
0.0
 30
0.0
 11
4.396509385747454
 21
0.0
 31
0.0
  0
ENDBLK
  5
1410D
330
14103
100
AcDbEntity
  8
0
100
AcDbBlockEnd
  0
BLOCK
  5
14110
330
1410F
100
AcDbEntity
  8
0
100
AcDbBlockBegin
  2
SW_CENTERMARKSYMBOL_8
 70
     0
 10
0.0
 20
0.0
 30
0.0
  3
SW_CENTERMARKSYMBOL_8
  1
SW_CENTERMARKSYMBOL_8
  0
LINE
  5
14111
330
1410F
100
AcDbEntity
  8
0
  6
CONTINUOUS
 62
     0
100
AcDbLine
 10
0.0
 20
0.0
 30
0.0
 11
0.0
 21
2.500000000000002
 31
0.0
  0
LINE
  5
14112
330
1410F
100
AcDbEntity
  8
0
  6
CONTINUOUS
 62
     0
100
AcDbLine
 10
0.0
 20
0.0
 30
0.0
 11
-2.499999999999988
 21
0.0
 31
0.0
  0
LINE
  5
14113
330
1410F
100
AcDbEntity
  8
0
  6
CONTINUOUS
 62
     0
100
AcDbLine
 10
0.0
 20
0.0
 30
0.0
 11
0.0
 21
-2.499999999999974
 31
0.0
  0
LINE
  5
14114
330
1410F
100
AcDbEntity
  8
0
  6
CONTINUOUS
 62
     0
100
AcDbLine
 10
0.0
 20
0.0
 30
0.0
 11
2.500000000000002
 21
0.0
 31
0.0
  0
LINE
  5
14115
330
1410F
100
AcDbEntity
  8
0
  6
CONTINUOUS
 62
     0
100
AcDbLine
 10
0.0
 20
2.500000000000002
 30
0.0
 11
0.0
 21
4.396509385855424
 31
0.0
  0
LINE
  5
14116
330
1410F
100
AcDbEntity
  8
0
  6
CONTINUOUS
 62
     0
100
AcDbLine
 10
-2.499999999999988
 20
0.0
 30
0.0
 11
-4.39650938585541
 21
0.0
 31
0.0
  0
LINE
  5
14117
330
1410F
100
AcDbEntity
  8
0
  6
CONTINUOUS
 62
     0
100
AcDbLine
 10
0.0
 20
-2.499999999999974
 30
0.0
 11
0.0
 21
-4.396509385855396
 31
0.0
  0
LINE
  5
14118
330
1410F
100
AcDbEntity
  8
0
  6
CONTINUOUS
 62
     0
100
AcDbLine
 10
2.500000000000002
 20
0.0
 30
0.0
 11
4.39650938585541
 21
0.0
 31
0.0
  0
ENDBLK
  5
14119
330
1410F
100
AcDbEntity
  8
0
100
AcDbBlockEnd
  0
BLOCK
  5
1411C
330
1411B
100
AcDbEntity
  8
0
100
AcDbBlockBegin
  2
SW_CENTERMARKSYMBOL_9
 70
     0
 10
0.0
 20
0.0
 30
0.0
  3
SW_CENTERMARKSYMBOL_9
  1
SW_CENTERMARKSYMBOL_9
  0
LINE
  5
1411D
330
1411B
100
AcDbEntity
  8
0
  6
CONTINUOUS
 62
     0
100
AcDbLine
 10
0.0
 20
0.0
 30
0.0
 11
0.0
 21
2.500000000000002
 31
0.0
  0
LINE
  5
1411E
330
1411B
100
AcDbEntity
  8
0
  6
CONTINUOUS
 62
     0
100
AcDbLine
 10
0.0
 20
0.0
 30
0.0
 11
-2.500000000000002
 21
0.0
 31
0.0
  0
LINE
  5
1411F
330
1411B
100
AcDbEntity
  8
0
  6
CONTINUOUS
 62
     0
100
AcDbLine
 10
0.0
 20
0.0
 30
0.0
 11
0.0
 21
-2.500000000000002
 31
0.0
  0
LINE
  5
14120
330
1411B
100
AcDbEntity
  8
0
  6
CONTINUOUS
 62
     0
100
AcDbLine
 10
0.0
 20
0.0
 30
0.0
 11
2.500000000000002
 21
0.0
 31
0.0
  0
LINE
  5
14121
330
1411B
100
AcDbEntity
  8
0
  6
CONTINUOUS
 62
     0
100
AcDbLine
 10
0.0
 20
2.500000000000002
 30
0.0
 11
0.0
 21
4.700000000000787
 31
0.0
  0
LINE
  5
14122
330
1411B
100
AcDbEntity
  8
0
  6
CONTINUOUS
 62
     0
100
AcDbLine
 10
-2.500000000000002
 20
0.0
 30
0.0
 11
-4.7000000000008
 21
0.0
 31
0.0
  0
LINE
  5
14123
330
1411B
100
AcDbEntity
  8
0
  6
CONTINUOUS
 62
     0
100
AcDbLine
 10
0.0
 20
-2.500000000000002
 30
0.0
 11
0.0
 21
-4.700000000000815
 31
0.0
  0
LINE
  5
14124
330
1411B
100
AcDbEntity
  8
0
  6
CONTINUOUS
 62
     0
100
AcDbLine
 10
2.500000000000002
 20
0.0
 30
0.0
 11
4.7000000000008
 21
0.0
 31
0.0
  0
ENDBLK
  5
14125
330
1411B
100
AcDbEntity
  8
0
100
AcDbBlockEnd
  0
BLOCK
  5
17419
330
17418
100
AcDbEntity
  8
0
100
AcDbBlockBegin
  2
_ARCHTICK
 70
     0
 10
0.0
 20
0.0
 30
0.0
  3
_ARCHTICK
  1
_ARCHTICK
  0
LWPOLYLINE
  5
1741B
330
17418
100
AcDbEntity
  8
0
  6
BYBLOCK
 62
     0
100
AcDbPolyline
 90
        2
 70
     0
 43
0.15
 10
-0.5
 20
-0.5
 10
0.5
 20
0.5
  0
ENDBLK
  5
1741A
330
17418
100
AcDbEntity
  8
0
100
AcDbBlockEnd
  0
BLOCK
  5
1741D
330
1741C
100
AcDbEntity
  8
0
100
AcDbBlockBegin
  2
_INTEGRAL
 70
     0
 10
0.0
 20
0.0
 30
0.0
  3
_INTEGRAL
  1
_INTEGRAL
  0
ARC
  5
1741F
330
1741C
100
AcDbEntity
  8
0
  6
BYBLOCK
 62
     0
100
AcDbCircle
 10
0.444888
 20
-0.091335
 30
0.0
 40
0.4541666700000001
100
AcDbArc
 50
102.0
 51
168.0
  0
ARC
  5
17420
330
1741C
100
AcDbEntity
  8
0
  6
BYBLOCK
 62
     0
100
AcDbCircle
 10
-0.444888
 20
0.091335
 30
0.0
 40
0.4541666700000001
100
AcDbArc
 50
281.9999999999999
 51
348.0
  0
ENDBLK
  5
1741E
330
1741C
100
AcDbEntity
  8
0
100
AcDbBlockEnd
  0
BLOCK
  5
1F71D
330
1F71C
100
AcDbEntity
  8
0
100
AcDbBlockBegin
  2
*D216
 70
     1
 10
0.0
 20
0.0
 30
0.0
  3
*D216
  1
*D216
  0
LINE
  5
1F71F
330
1F71C
100
AcDbEntity
  8
WY
 62
     0
100
AcDbLine
 10
635.5798433643872
 20
153.0942472421532
 30
0.0
 11
645.4394059858033
 21
153.0942472421532
 31
0.0
  0
LINE
  5
1F720
330
1F71C
100
AcDbEntity
  8
WY
 62
     0
100
AcDbLine
 10
635.5798433643872
 20
148.9942467563754
 30
0.0
 11
645.4394059858033
 21
148.9942467563754
 31
0.0
  0
LINE
  5
1F721
330
1F71C
100
AcDbEntity
  8
WY
 62
     0
100
AcDbLine
 10
643.9394059858033
 20
151.0942472421532
 30
0.0
 11
643.9394059858033
 21
148.9942467563754
 31
0.0
  0
SOLID
  5
1F722
330
1F71C
100
AcDbEntity
  8
WY
 62
     0
100
AcDbTrace
 10
644.2727393191367
 20
151.0942472421532
 30
0.0
 11
643.60607265247
 21
151.0942472421532
 31
0.0
 12
643.9394059858033
 22
153.0942472421532
 32
0.0
 13
643.9394059858033
 23
153.0942472421532
 33
0.0
  0
INSERT
  5
1F723
330
1F71C
100
AcDbEntity
  8
WY
 62
     0
100
AcDbBlockReference
  2
_OBLIQUE
 10
643.9394059858033
 20
148.9942467563754
 30
0.0
 41
2.0
 42
2.0
 43
2.0
 50
270.0
  0
MTEXT
  5
1F724
330
1F71C
100
AcDbEntity
  8
WY
 62
     0
100
AcDbMText
 10
642.4394059858033
 20
151.0442469992643
 30
0.0
 40
1.5
 41
0.0
 71
     5
 72
     1
  1
\A1;4.1
 11
0.0
 21
1.0
 31
0.0
  0
POINT
  5
1F725
330
1F71C
100
AcDbEntity
  8
DEFPOINTS
 62
     0
100
AcDbPoint
 10
634.0798433643872
 20
153.0942472421532
 30
0.0
  0
POINT
  5
1F726
330
1F71C
100
AcDbEntity
  8
DEFPOINTS
 62
     0
100
AcDbPoint
 10
634.0798433643872
 20
148.9942467563754
 30
0.0
  0
POINT
  5
1F727
330
1F71C
100
AcDbEntity
  8
DEFPOINTS
 62
     0
100
AcDbPoint
 10
643.9394059858033
 20
148.9942467563754
 30
0.0
  0
ENDBLK
  5
1F71E
330
1F71C
100
AcDbEntity
  8
0
100
AcDbBlockEnd
  0
BLOCK
  5
1F729
330
1F728
100
AcDbEntity
  8
0
100
AcDbBlockBegin
  2
*D217
 70
     1
 10
0.0
 20
0.0
 30
0.0
  3
*D217
  1
*D217
  0
LINE
  5
1F72B
330
1F728
100
AcDbEntity
  8
WY
 62
     0
100
AcDbLine
 10
635.5798433643872
 20
142.694247213841
 30
0.0
 11
645.4394059858033
 21
142.694247213841
 31
0.0
  0
LINE
  5
1F72C
330
1F728
100
AcDbEntity
  8
WY
 62
     0
100
AcDbLine
 10
635.5798433643872
 20
148.9942467563754
 30
0.0
 11
645.4394059858033
 21
148.9942467563754
 31
0.0
  0
LINE
  5
1F72D
330
1F728
100
AcDbEntity
  8
WY
 62
     0
100
AcDbLine
 10
643.9394059858033
 20
142.694247213841
 30
0.0
 11
643.9394059858033
 21
148.9942467563754
 31
0.0
  0
MTEXT
  5
1F72E
330
1F728
100
AcDbEntity
  8
WY
 62
     0
100
AcDbMText
 10
642.4394059858033
 20
145.8442469851082
 30
0.0
 40
1.5
 41
0.0
 71
     5
 72
     1
  1
\A1;6.3
 11
0.0
 21
1.0
 31
0.0
  0
POINT
  5
1F72F
330
1F728
100
AcDbEntity
  8
DEFPOINTS
 62
     0
100
AcDbPoint
 10
634.0798433643872
 20
142.694247213841
 30
0.0
  0
POINT
  5
1F730
330
1F728
100
AcDbEntity
  8
DEFPOINTS
 62
     0
100
AcDbPoint
 10
634.0798433643872
 20
148.9942467563754
 30
0.0
  0
POINT
  5
1F731
330
1F728
100
AcDbEntity
  8
DEFPOINTS
 62
     0
100
AcDbPoint
 10
643.9394059858033
 20
148.9942467563754
 30
0.0
  0
ENDBLK
  5
1F72A
330
1F728
100
AcDbEntity
  8
0
100
AcDbBlockEnd
  0
BLOCK
  5
1F733
330
1F732
100
AcDbEntity
  8
0
100
AcDbBlockBegin
  2
*D218
 70
     1
 10
0.0
 20
0.0
 30
0.0
  3
*D218
  1
*D218
  0
LINE
  5
1F735
330
1F732
100
AcDbEntity
  8
WY
 62
     0
100
AcDbLine
 10
635.4411521721436
 20
136.3942481369679
 30
0.0
 11
645.4394059858033
 21
136.3942481369679
 31
0.0
  0
LINE
  5
1F736
330
1F732
100
AcDbEntity
  8
WY
 62
     0
100
AcDbLine
 10
635.5798433643872
 20
142.694247213841
 30
0.0
 11
645.4394059858033
 21
142.694247213841
 31
0.0
  0
LINE
  5
1F737
330
1F732
100
AcDbEntity
  8
WY
 62
     0
100
AcDbLine
 10
643.9394059858033
 20
138.3942481369679
 30
0.0
 11
643.9394059858033
 21
142.694247213841
 31
0.0
  0
SOLID
  5
1F738
330
1F732
100
AcDbEntity
  8
WY
 62
     0
100
AcDbTrace
 10
643.60607265247
 20
138.3942481369679
 30
0.0
 11
644.2727393191367
 21
138.3942481369679
 31
0.0
 12
643.9394059858033
 22
136.3942481369679
 32
0.0
 13
643.9394059858033
 23
136.3942481369679
 33
0.0
  0
INSERT
  5
1F739
330
1F732
100
AcDbEntity
  8
WY
 62
     0
100
AcDbBlockReference
  2
_OBLIQUE
 10
643.9394059858033
 20
142.694247213841
 30
0.0
 41
2.0
 42
2.0
 43
2.0
 50
90.0
  0
MTEXT
  5
1F73A
330
1F732
100
AcDbEntity
  8
WY
 62
     0
100
AcDbMText
 10
642.4394059858033
 20
139.5442472097432
 30
0.0
 40
1.5
 41
0.0
 71
     5
 72
     1
  1
\A1;6.3
 11
0.0
 21
1.0
 31
0.0
  0
POINT
  5
1F73B
330
1F732
100
AcDbEntity
  8
DEFPOINTS
 62
     0
100
AcDbPoint
 10
633.9411521721436
 20
136.3942481369679
 30
0.0
  0
POINT
  5
1F73C
330
1F732
100
AcDbEntity
  8
DEFPOINTS
 62
     0
100
AcDbPoint
 10
634.0798433643872
 20
142.694247213841
 30
0.0
  0
POINT
  5
1F73D
330
1F732
100
AcDbEntity
  8
DEFPOINTS
 62
     0
100
AcDbPoint
 10
643.9394059858033
 20
142.694247213841
 30
0.0
  0
ENDBLK
  5
1F734
330
1F732
100
AcDbEntity
  8
0
100
AcDbBlockEnd
  0
BLOCK
  5
1F742
330
1F741
100
AcDbEntity
  8
0
100
AcDbBlockBegin
  2
*D219
 70
     1
 10
0.0
 20
0.0
 30
0.0
  3
*D219
  1
*D219
  0
LINE
  5
1F744
330
1F741
100
AcDbEntity
  8
WY
 62
     0
100
AcDbLine
 10
617.9669438233719
 20
129.6275632207993
 30
0.0
 11
617.9669438233719
 21
117.1882847328856
 31
0.0
  0
LINE
  5
1F745
330
1F741
100
AcDbEntity
  8
WY
 62
     0
100
AcDbLine
 10
631.1669437518464
 20
129.6275632207993
 30
0.0
 11
631.1669437518464
 21
117.1882847328856
 31
0.0
  0
LINE
  5
1F746
330
1F741
100
AcDbEntity
  8
WY
 62
     0
100
AcDbLine
 10
619.9669438233719
 20
118.6882847328856
 30
0.0
 11
629.1669437518464
 21
118.6882847328856
 31
0.0
  0
SOLID
  5
1F747
330
1F741
100
AcDbEntity
  8
WY
 62
     0
100
AcDbTrace
 10
619.9669438233719
 20
119.021618066219
 30
0.0
 11
619.9669438233719
 21
118.3549513995523
 31
0.0
 12
617.9669438233719
 22
118.6882847328856
 32
0.0
 13
617.9669438233719
 23
118.6882847328856
 33
0.0
  0
SOLID
  5
1F748
330
1F741
100
AcDbEntity
  8
WY
 62
     0
100
AcDbTrace
 10
629.1669437518464
 20
118.3549513995523
 30
0.0
 11
629.1669437518464
 21
119.021618066219
 31
0.0
 12
631.1669437518464
 22
118.6882847328856
 32
0.0
 13
631.1669437518464
 23
118.6882847328856
 33
0.0
  0
MTEXT
  5
1F749
330
1F741
100
AcDbEntity
  8
WY
 62
     0
100
AcDbMText
 10
624.5669437876091
 20
120.1882847328856
 30
0.0
 40
1.5
 41
0.0
 71
     5
 72
     1
  1
\A1;13.2
  0
POINT
  5
1F74A
330
1F741
100
AcDbEntity
  8
DEFPOINTS
 62
     0
100
AcDbPoint
 10
617.9669438233719
 20
131.1275632207993
 30
0.0
  0
POINT
  5
1F74B
330
1F741
100
AcDbEntity
  8
DEFPOINTS
 62
     0
100
AcDbPoint
 10
631.1669437518464
 20
131.1275632207993
 30
0.0
  0
POINT
  5
1F74C
330
1F741
100
AcDbEntity
  8
DEFPOINTS
 62
     0
100
AcDbPoint
 10
631.1669437518464
 20
118.6882847328856
 30
0.0
  0
ENDBLK
  5
1F743
330
1F741
100
AcDbEntity
  8
0
100
AcDbBlockEnd
  0
BLOCK
  5
1F751
330
1F750
100
AcDbEntity
  8
0
100
AcDbBlockBegin
  2
*D220
 70
     1
 10
0.0
 20
0.0
 30
0.0
  3
*D220
  1
*D220
  0
LINE
  5
1F753
330
1F750
100
AcDbEntity
  8
WY
 62
     0
100
AcDbLine
 10
622.3669447308527
 20
138.7361469707522
 30
0.0
 11
622.3669447308527
 21
121.4745426149692
 31
0.0
  0
LINE
  5
1F754
330
1F750
100
AcDbEntity
  8
WY
 62
     0
100
AcDbLine
 10
626.7669447070108
 20
138.7361469707522
 30
0.0
 11
626.7669447070108
 21
121.4745426149692
 31
0.0
  0
LINE
  5
1F755
330
1F750
100
AcDbEntity
  8
WY
 62
     0
100
AcDbLine
 10
622.3669447308527
 20
122.9745426149692
 30
0.0
 11
626.7669447070108
 21
122.9745426149692
 31
0.0
  0
LINE
  5
1F756
330
1F750
100
AcDbEntity
  8
WY
 62
     0
100
AcDbLine
 10
620.3669447308527
 20
122.9745426149692
 30
0.0
 11
618.3669447308527
 21
122.9745426149692
 31
0.0
  0
LINE
  5
1F757
330
1F750
100
AcDbEntity
  8
WY
 62
     0
100
AcDbLine
 10
628.7669447070108
 20
122.9745426149692
 30
0.0
 11
630.7669447070108
 21
122.9745426149692
 31
0.0
  0
SOLID
  5
1F758
330
1F750
100
AcDbEntity
  8
WY
 62
     0
100
AcDbTrace
 10
620.3669447308527
 20
122.6412092816358
 30
0.0
 11
620.3669447308527
 21
123.3078759483025
 31
0.0
 12
622.3669447308527
 22
122.9745426149692
 32
0.0
 13
622.3669447308527
 23
122.9745426149692
 33
0.0
  0
SOLID
  5
1F759
330
1F750
100
AcDbEntity
  8
WY
 62
     0
100
AcDbTrace
 10
628.7669447070108
 20
123.3078759483025
 30
0.0
 11
628.7669447070108
 21
122.6412092816358
 31
0.0
 12
626.7669447070108
 22
122.9745426149692
 32
0.0
 13
626.7669447070108
 23
122.9745426149692
 33
0.0
  0
MTEXT
  5
1F75A
330
1F750
100
AcDbEntity
  8
WY
 62
     0
100
AcDbMText
 10
624.5669447189317
 20
124.4745426149692
 30
0.0
 40
1.5
 41
0.0
 71
     5
 72
     1
  1
\A1;4.4
  0
POINT
  5
1F75B
330
1F750
100
AcDbEntity
  8
DEFPOINTS
 62
     0
100
AcDbPoint
 10
622.3669447308527
 20
140.2361469707522
 30
0.0
  0
POINT
  5
1F75C
330
1F750
100
AcDbEntity
  8
DEFPOINTS
 62
     0
100
AcDbPoint
 10
626.7669447070108
 20
140.2361469707522
 30
0.0
  0
POINT
  5
1F75D
330
1F750
100
AcDbEntity
  8
DEFPOINTS
 62
     0
100
AcDbPoint
 10
626.7669447070108
 20
122.9745426149692
 30
0.0
  0
ENDBLK
  5
1F752
330
1F750
100
AcDbEntity
  8
0
100
AcDbBlockEnd
  0
BLOCK
  5
1F762
330
1F761
100
AcDbEntity
  8
0
100
AcDbBlockBegin
  2
*D221
 70
     1
 10
0.0
 20
0.0
 30
0.0
  3
*D221
  1
*D221
  0
LINE
  5
1F764
330
1F761
100
AcDbEntity
  8
WY
 62
     0
100
AcDbLine
 10
573.7153954523325
 20
152.1317477130299
 30
0.0
 11
581.5101633119701
 21
152.1317477130299
 31
0.0
  0
LINE
  5
1F765
330
1F761
100
AcDbEntity
  8
WY
 62
     0
100
AcDbLine
 10
573.7153954523325
 20
151.8817472063904
 30
0.0
 11
581.5101633119701
 21
151.8817472063904
 31
0.0
  0
LINE
  5
1F766
330
1F761
100
AcDbEntity
  8
WY
 62
     0
100
AcDbLine
 10
580.0101633119701
 20
151.8817472063904
 30
0.0
 11
580.0101633119701
 21
141.1317472063904
 31
0.0
  0
LINE
  5
1F767
330
1F761
100
AcDbEntity
  8
WY
 62
     0
100
AcDbLine
 10
580.0101633119701
 20
152.1317477130299
 30
0.0
 11
580.0101633119701
 21
151.8817472063904
 31
0.0
  0
LINE
  5
1F768
330
1F761
100
AcDbEntity
  8
WY
 62
     0
100
AcDbLine
 10
580.0101633119701
 20
154.1317477130299
 30
0.0
 11
580.0101633119701
 21
156.1317477130299
 31
0.0
  0
LINE
  5
1F769
330
1F761
100
AcDbEntity
  8
WY
 62
     0
100
AcDbLine
 10
580.0101633119701
 20
149.8817472063904
 30
0.0
 11
580.0101633119701
 21
147.8817472063904
 31
0.0
  0
SOLID
  5
1F76A
330
1F761
100
AcDbEntity
  8
WY
 62
     0
100
AcDbTrace
 10
579.6768299786368
 20
154.1317477130299
 30
0.0
 11
580.3434966453035
 21
154.1317477130299
 31
0.0
 12
580.0101633119701
 22
152.1317477130299
 32
0.0
 13
580.0101633119701
 23
152.1317477130299
 33
0.0
  0
SOLID
  5
1F76B
330
1F761
100
AcDbEntity
  8
WY
 62
     0
100
AcDbTrace
 10
580.3434966453035
 20
149.8817472063904
 30
0.0
 11
579.6768299786368
 21
149.8817472063904
 31
0.0
 12
580.0101633119701
 22
151.8817472063904
 32
0.0
 13
580.0101633119701
 23
151.8817472063904
 33
0.0
  0
MTEXT
  5
1F76C
330
1F761
100
AcDbEntity
  8
WY
 62
     0
100
AcDbMText
 10
578.5101633119701
 20
144.0067472063904
 30
0.0
 40
1.5
 41
0.0
 71
     5
 72
     1
  1
\A1;0.25
 11
0.0
 21
1.0
 31
0.0
  0
POINT
  5
1F76D
330
1F761
100
AcDbEntity
  8
DEFPOINTS
 62
     0
100
AcDbPoint
 10
572.2153954523325
 20
152.1317477130299
 30
0.0
  0
POINT
  5
1F76E
330
1F761
100
AcDbEntity
  8
DEFPOINTS
 62
     0
100
AcDbPoint
 10
572.2153954523325
 20
151.8817472063904
 30
0.0
  0
POINT
  5
1F76F
330
1F761
100
AcDbEntity
  8
DEFPOINTS
 62
     0
100
AcDbPoint
 10
580.0101633119701
 20
151.8817472063904
 30
0.0
  0
ENDBLK
  5
1F763
330
1F761
100
AcDbEntity
  8
0
100
AcDbBlockEnd
  0
BLOCK
  5
1F774
330
1F773
100
AcDbEntity
  8
0
100
AcDbBlockBegin
  2
*D222
 70
     1
 10
0.0
 20
0.0
 30
0.0
  3
*D222
  1
*D222
  0
LINE
  5
1F776
330
1F773
100
AcDbEntity
  8
WY
 62
     0
100
AcDbLine
 10
564.7653952891648
 20
131.1317465991681
 30
0.0
 11
585.58807838556
 21
131.1317465991681
 31
0.0
  0
LINE
  5
1F777
330
1F773
100
AcDbEntity
  8
WY
 62
     0
100
AcDbLine
 10
564.7653952891648
 20
156.5317476891881
 30
0.0
 11
585.58807838556
 21
156.5317476891881
 31
0.0
  0
LINE
  5
1F778
330
1F773
100
AcDbEntity
  8
WY
 62
     0
100
AcDbLine
 10
584.08807838556
 20
133.1317465991681
 30
0.0
 11
584.08807838556
 21
154.5317476891881
 31
0.0
  0
SOLID
  5
1F779
330
1F773
100
AcDbEntity
  8
WY
 62
     0
100
AcDbTrace
 10
583.7547450522267
 20
133.1317465991681
 30
0.0
 11
584.4214117188934
 21
133.1317465991681
 31
0.0
 12
584.08807838556
 22
131.1317465991681
 32
0.0
 13
584.08807838556
 23
131.1317465991681
 33
0.0
  0
SOLID
  5
1F77A
330
1F773
100
AcDbEntity
  8
WY
 62
     0
100
AcDbTrace
 10
584.4214117188934
 20
154.5317476891881
 30
0.0
 11
583.7547450522267
 21
154.5317476891881
 31
0.0
 12
584.08807838556
 22
156.5317476891881
 32
0.0
 13
584.08807838556
 23
156.5317476891881
 33
0.0
  0
MTEXT
  5
1F77B
330
1F773
100
AcDbEntity
  8
WY
 62
     0
100
AcDbMText
 10
582.58807838556
 20
143.8317471441781
 30
0.0
 40
1.5
 41
0.0
 71
     5
 72
     1
  1
\A1;25.4
 11
0.0
 21
1.0
 31
0.0
  0
POINT
  5
1F77C
330
1F773
100
AcDbEntity
  8
DEFPOINTS
 62
     0
100
AcDbPoint
 10
563.2653952891648
 20
131.1317465991681
 30
0.0
  0
POINT
  5
1F77D
330
1F773
100
AcDbEntity
  8
DEFPOINTS
 62
     0
100
AcDbPoint
 10
563.2653952891648
 20
156.5317476891881
 30
0.0
  0
POINT
  5
1F77E
330
1F773
100
AcDbEntity
  8
DEFPOINTS
 62
     0
100
AcDbPoint
 10
584.08807838556
 20
156.5317476891881
 30
0.0
  0
ENDBLK
  5
1F775
330
1F773
100
AcDbEntity
  8
0
100
AcDbBlockEnd
  0
BLOCK
  5
1F783
330
1F782
100
AcDbEntity
  8
0
100
AcDbBlockBegin
  2
*D223
 70
     1
 10
0.0
 20
0.0
 30
0.0
  3
*D223
  1
*D223
  0
LINE
  5
1F785
330
1F782
100
AcDbEntity
  8
WY
 62
     0
100
AcDbLine
 10
552.7653952109337
 20
158.6317459844952
 30
0.0
 11
542.2449884821768
 21
158.6317459844952
 31
0.0
  0
LINE
  5
1F786
330
1F782
100
AcDbEntity
  8
WY
 62
     0
100
AcDbLine
 10
552.7653952109337
 20
129.0317466740464
 30
0.0
 11
542.2449884821768
 21
129.0317466740464
 31
0.0
  0
LINE
  5
1F787
330
1F782
100
AcDbEntity
  8
WY
 62
     0
100
AcDbLine
 10
543.7449884821768
 20
156.6317459844952
 30
0.0
 11
543.7449884821768
 21
131.0317466740464
 31
0.0
  0
SOLID
  5
1F788
330
1F782
100
AcDbEntity
  8
WY
 62
     0
100
AcDbTrace
 10
544.0783218155102
 20
156.6317459844952
 30
0.0
 11
543.4116551488435
 21
156.6317459844952
 31
0.0
 12
543.7449884821768
 22
158.6317459844952
 32
0.0
 13
543.7449884821768
 23
158.6317459844952
 33
0.0
  0
SOLID
  5
1F789
330
1F782
100
AcDbEntity
  8
WY
 62
     0
100
AcDbTrace
 10
543.4116551488435
 20
131.0317466740464
 30
0.0
 11
544.0783218155102
 21
131.0317466740464
 31
0.0
 12
543.7449884821768
 22
129.0317466740464
 32
0.0
 13
543.7449884821768
 23
129.0317466740464
 33
0.0
  0
MTEXT
  5
1F78A
330
1F782
100
AcDbEntity
  8
WY
 62
     0
100
AcDbMText
 10
542.2449884821768
 20
143.8317463292708
 30
0.0
 40
1.5
 41
0.0
 71
     5
 72
     1
  1
\A1;29.6
 11
0.0
 21
1.0
 31
0.0
  0
POINT
  5
1F78B
330
1F782
100
AcDbEntity
  8
DEFPOINTS
 62
     0
100
AcDbPoint
 10
554.2653952109337
 20
158.6317459844952
 30
0.0
  0
POINT
  5
1F78C
330
1F782
100
AcDbEntity
  8
DEFPOINTS
 62
     0
100
AcDbPoint
 10
554.2653952109337
 20
129.0317466740464
 30
0.0
  0
POINT
  5
1F78D
330
1F782
100
AcDbEntity
  8
DEFPOINTS
 62
     0
100
AcDbPoint
 10
543.7449884821768
 20
129.0317466740464
 30
0.0
  0
ENDBLK
  5
1F784
330
1F782
100
AcDbEntity
  8
0
100
AcDbBlockEnd
  0
BLOCK
  5
1F792
330
1F791
100
AcDbEntity
  8
0
100
AcDbBlockBegin
  2
*D224
 70
     1
 10
0.0
 20
0.0
 30
0.0
  3
*D224
  1
*D224
  0
LINE
  5
1F794
330
1F791
100
AcDbEntity
  8
WY
 62
     0
100
AcDbLine
 10
554.2653952109337
 20
127.5317466740464
 30
0.0
 11
554.2653952109337
 21
118.6246527268932
 31
0.0
  0
LINE
  5
1F795
330
1F791
100
AcDbEntity
  8
WY
 62
     0
100
AcDbLine
 10
557.265395702672
 20
127.5317466740464
 30
0.0
 11
557.265395702672
 21
118.6246527268932
 31
0.0
  0
LINE
  5
1F796
330
1F791
100
AcDbEntity
  8
WY
 62
     0
100
AcDbLine
 10
554.2653952109337
 20
120.1246527268932
 30
0.0
 11
557.265395702672
 21
120.1246527268932
 31
0.0
  0
LINE
  5
1F797
330
1F791
100
AcDbEntity
  8
WY
 62
     0
100
AcDbLine
 10
552.2653952109337
 20
120.1246527268932
 30
0.0
 11
550.2653952109337
 21
120.1246527268932
 31
0.0
  0
LINE
  5
1F798
330
1F791
100
AcDbEntity
  8
WY
 62
     0
100
AcDbLine
 10
559.265395702672
 20
120.1246527268932
 30
0.0
 11
561.265395702672
 21
120.1246527268932
 31
0.0
  0
SOLID
  5
1F799
330
1F791
100
AcDbEntity
  8
WY
 62
     0
100
AcDbTrace
 10
552.2653952109337
 20
119.7913193935599
 30
0.0
 11
552.2653952109337
 21
120.4579860602265
 31
0.0
 12
554.2653952109337
 22
120.1246527268932
 32
0.0
 13
554.2653952109337
 23
120.1246527268932
 33
0.0
  0
SOLID
  5
1F79A
330
1F791
100
AcDbEntity
  8
WY
 62
     0
100
AcDbTrace
 10
559.265395702672
 20
120.4579860602265
 30
0.0
 11
559.265395702672
 21
119.7913193935599
 31
0.0
 12
557.265395702672
 22
120.1246527268932
 32
0.0
 13
557.265395702672
 23
120.1246527268932
 33
0.0
  0
MTEXT
  5
1F79B
330
1F791
100
AcDbEntity
  8
WY
 62
     0
100
AcDbMText
 10
555.7653954568028
 20
121.6246527268932
 30
0.0
 40
1.5
 41
0.0
 71
     5
 72
     1
  1
\A1;3
  0
POINT
  5
1F79C
330
1F791
100
AcDbEntity
  8
DEFPOINTS
 62
     0
100
AcDbPoint
 10
554.2653952109337
 20
129.0317466740464
 30
0.0
  0
POINT
  5
1F79D
330
1F791
100
AcDbEntity
  8
DEFPOINTS
 62
     0
100
AcDbPoint
 10
557.265395702672
 20
129.0317466740464
 30
0.0
  0
POINT
  5
1F7AD
330
1F791
100
AcDbEntity
  8
DEFPOINTS
 62
     0
100
AcDbPoint
 10
557.265395702672
 20
120.1246527268932
 30
0.0
  0
ENDBLK
  5
1F793
330
1F791
100
AcDbEntity
  8
0
100
AcDbBlockEnd
  0
BLOCK
  5
1F7A2
330
1F7A1
100
AcDbEntity
  8
0
100
AcDbBlockBegin
  2
*D225
 70
     1
 10
0.0
 20
0.0
 30
0.0
  3
*D225
  1
*D225
  0
LINE
  5
1F7A4
330
1F7A1
100
AcDbEntity
  8
WY
 62
     0
100
AcDbLine
 10
554.2653952109337
 20
127.5317466740464
 30
0.0
 11
554.2653952109337
 21
113.5825050848164
 31
0.0
  0
LINE
  5
1F7A5
330
1F7A1
100
AcDbEntity
  8
WY
 62
     0
100
AcDbLine
 10
564.7653953022033
 20
131.0317470149105
 30
0.0
 11
564.7653953022033
 21
113.5825050848164
 31
0.0
  0
LINE
  5
1F7A6
330
1F7A1
100
AcDbEntity
  8
WY
 62
     0
100
AcDbLine
 10
556.2653952109337
 20
115.0825050848164
 30
0.0
 11
562.7653953022033
 21
115.0825050848164
 31
0.0
  0
SOLID
  5
1F7A7
330
1F7A1
100
AcDbEntity
  8
WY
 62
     0
100
AcDbTrace
 10
556.2653952109337
 20
115.4158384181497
 30
0.0
 11
556.2653952109337
 21
114.749171751483
 31
0.0
 12
554.2653952109337
 22
115.0825050848164
 32
0.0
 13
554.2653952109337
 23
115.0825050848164
 33
0.0
  0
SOLID
  5
1F7A8
330
1F7A1
100
AcDbEntity
  8
WY
 62
     0
100
AcDbTrace
 10
562.7653953022033
 20
114.749171751483
 30
0.0
 11
562.7653953022033
 21
115.4158384181497
 31
0.0
 12
564.7653953022033
 22
115.0825050848164
 32
0.0
 13
564.7653953022033
 23
115.0825050848164
 33
0.0
  0
MTEXT
  5
1F7A9
330
1F7A1
100
AcDbEntity
  8
WY
 62
     0
100
AcDbMText
 10
559.5153952565685
 20
116.5825050848164
 30
0.0
 40
1.5
 41
0.0
 71
     5
 72
     1
  1
\A1;10.5
  0
POINT
  5
1F7AA
330
1F7A1
100
AcDbEntity
  8
DEFPOINTS
 62
     0
100
AcDbPoint
 10
554.2653952109337
 20
129.0317466740464
 30
0.0
  0
POINT
  5
1F7AB
330
1F7A1
100
AcDbEntity
  8
DEFPOINTS
 62
     0
100
AcDbPoint
 10
564.7653953022033
 20
132.5317470149105
 30
0.0
  0
POINT
  5
1F7AC
330
1F7A1
100
AcDbEntity
  8
DEFPOINTS
 62
     0
100
AcDbPoint
 10
564.7653953022033
 20
115.0825050848164
 30
0.0
  0
ENDBLK
  5
1F7A3
330
1F7A1
100
AcDbEntity
  8
0
100
AcDbBlockEnd
  0
BLOCK
  5
1F7B2
330
1F7B1
100
AcDbEntity
  8
0
100
AcDbBlockBegin
  2
*D226
 70
     1
 10
0.0
 20
0.0
 30
0.0
  3
*D226
  1
*D226
  0
LINE
  5
1F7B4
330
1F7B1
100
AcDbEntity
  8
WY
 62
     0
100
AcDbLine
 10
613.8169462164984
 20
212.2516616579112
 30
0.0
 11
613.8169462164984
 21
193.6476194293421
 31
0.0
  0
LINE
  5
1F7B5
330
1F7B1
100
AcDbEntity
  8
WY
 62
     0
100
AcDbLine
 10
635.3169450840102
 20
212.2516616579112
 30
0.0
 11
635.3169450840102
 21
193.6476194293421
 31
0.0
  0
LINE
  5
1F7B6
330
1F7B1
100
AcDbEntity
  8
WY
 62
     0
100
AcDbLine
 10
615.8169462164984
 20
195.1476194293421
 30
0.0
 11
633.3169450840102
 21
195.1476194293421
 31
0.0
  0
SOLID
  5
1F7B7
330
1F7B1
100
AcDbEntity
  8
WY
 62
     0
100
AcDbTrace
 10
615.8169462164984
 20
195.4809527626755
 30
0.0
 11
615.8169462164984
 21
194.8142860960088
 31
0.0
 12
613.8169462164984
 22
195.1476194293421
 32
0.0
 13
613.8169462164984
 23
195.1476194293421
 33
0.0
  0
SOLID
  5
1F7B8
330
1F7B1
100
AcDbEntity
  8
WY
 62
     0
100
AcDbTrace
 10
633.3169450840102
 20
194.8142860960088
 30
0.0
 11
633.3169450840102
 21
195.4809527626755
 31
0.0
 12
635.3169450840102
 22
195.1476194293421
 32
0.0
 13
635.3169450840102
 23
195.1476194293421
 33
0.0
  0
MTEXT
  5
1F7B9
330
1F7B1
100
AcDbEntity
  8
WY
 62
     0
100
AcDbMText
 10
624.5669456502543
 20
196.6476194293421
 30
0.0
 40
1.5
 41
0.0
 71
     5
 72
     1
  1
\A1;21.5
  0
POINT
  5
1F7BA
330
1F7B1
100
AcDbEntity
  8
DEFPOINTS
 62
     0
100
AcDbPoint
 10
613.8169462164984
 20
213.7516616579112
 30
0.0
  0
POINT
  5
1F7BB
330
1F7B1
100
AcDbEntity
  8
DEFPOINTS
 62
     0
100
AcDbPoint
 10
635.3169450840102
 20
213.7516616579112
 30
0.0
  0
POINT
  5
1F7BC
330
1F7B1
100
AcDbEntity
  8
DEFPOINTS
 62
     0
100
AcDbPoint
 10
635.3169450840102
 20
195.1476194293421
 30
0.0
  0
ENDBLK
  5
1F7B3
330
1F7B1
100
AcDbEntity
  8
0
100
AcDbBlockEnd
  0
BLOCK
  5
1F7C1
330
1F7C0
100
AcDbEntity
  8
0
100
AcDbBlockBegin
  2
*D227
 70
     1
 10
0.0
 20
0.0
 30
0.0
  3
*D227
  1
*D227
  0
LINE
  5
1F7C3
330
1F7C0
100
AcDbEntity
  8
WY
 62
     0
100
AcDbLine
 10
616.841944851718
 20
204.4266615991601
 30
0.0
 11
616.841944851718
 21
197.641000361867
 31
0.0
  0
LINE
  5
1F7C4
330
1F7C0
100
AcDbEntity
  8
WY
 62
     0
100
AcDbLine
 10
619.0919461032496
 20
204.4266616791454
 30
0.0
 11
619.0919461032496
 21
197.641000361867
 31
0.0
  0
LINE
  5
1F7C5
330
1F7C0
100
AcDbEntity
  8
WY
 62
     0
100
AcDbLine
 10
619.0919461032496
 20
199.141000361867
 30
0.0
 11
632.0919461032496
 21
199.141000361867
 31
0.0
  0
LINE
  5
1F7C6
330
1F7C0
100
AcDbEntity
  8
WY
 62
     0
100
AcDbLine
 10
616.841944851718
 20
199.141000361867
 30
0.0
 11
619.0919461032496
 21
199.141000361867
 31
0.0
  0
LINE
  5
1F7C7
330
1F7C0
100
AcDbEntity
  8
WY
 62
     0
100
AcDbLine
 10
614.841944851718
 20
199.141000361867
 30
0.0
 11
612.841944851718
 21
199.141000361867
 31
0.0
  0
LINE
  5
1F7C8
330
1F7C0
100
AcDbEntity
  8
WY
 62
     0
100
AcDbLine
 10
621.0919461032496
 20
199.141000361867
 30
0.0
 11
623.0919461032496
 21
199.141000361867
 31
0.0
  0
SOLID
  5
1F7C9
330
1F7C0
100
AcDbEntity
  8
WY
 62
     0
100
AcDbTrace
 10
614.841944851718
 20
198.8076670285337
 30
0.0
 11
614.841944851718
 21
199.4743336952004
 31
0.0
 12
616.841944851718
 22
199.141000361867
 32
0.0
 13
616.841944851718
 23
199.141000361867
 33
0.0
  0
SOLID
  5
1F7CA
330
1F7C0
100
AcDbEntity
  8
WY
 62
     0
100
AcDbTrace
 10
621.0919461032496
 20
199.4743336952004
 30
0.0
 11
621.0919461032496
 21
198.8076670285337
 31
0.0
 12
619.0919461032496
 22
199.141000361867
 32
0.0
 13
619.0919461032496
 23
199.141000361867
 33
0.0
  0
MTEXT
  5
1F7CB
330
1F7C0
100
AcDbEntity
  8
WY
 62
     0
100
AcDbMText
 10
627.5919461032496
 20
200.766000361867
 30
0.0
 40
1.5
 41
0.0
 71
     5
 72
     1
  1
\A1;2.3-0,1
  0
POINT
  5
1F7CC
330
1F7C0
100
AcDbEntity
  8
DEFPOINTS
 62
     0
100
AcDbPoint
 10
616.841944851718
 20
205.9266615991601
 30
0.0
  0
POINT
  5
1F7CD
330
1F7C0
100
AcDbEntity
  8
DEFPOINTS
 62
     0
100
AcDbPoint
 10
619.0919461032496
 20
205.9266616791454
 30
0.0
  0
POINT
  5
1F7CE
330
1F7C0
100
AcDbEntity
  8
DEFPOINTS
 62
     0
100
AcDbPoint
 10
619.0919461032496
 20
199.141000361867
 30
0.0
  0
ENDBLK
  5
1F7C2
330
1F7C0
100
AcDbEntity
  8
0
100
AcDbBlockEnd
  0
BLOCK
  5
1F7D3
330
1F7D2
100
AcDbEntity
  8
0
100
AcDbBlockBegin
  2
*D228
 70
     1
 10
0.0
 20
0.0
 30
0.0
  3
*D228
  1
*D228
  0
LINE
  5
1F7D5
330
1F7D2
100
AcDbEntity
  8
WY
 62
     0
100
AcDbLine
 10
554.2653952109337
 20
127.5317466740464
 30
0.0
 11
554.2653952109337
 21
108.2333801770403
 31
0.0
  0
LINE
  5
1F7D6
330
1F7D2
100
AcDbEntity
  8
WY
 62
     0
100
AcDbLine
 10
572.2153954523325
 20
133.6817467042213
 30
0.0
 11
572.2153954523325
 21
108.2333801770403
 31
0.0
  0
LINE
  5
1F7D7
330
1F7D2
100
AcDbEntity
  8
WY
 62
     0
100
AcDbLine
 10
556.7653952109337
 20
109.7333801770403
 30
0.0
 11
569.7153954523325
 21
109.7333801770403
 31
0.0
  0
SOLID
  5
1F7D8
330
1F7D2
100
AcDbEntity
  8
WY
 62
     0
100
AcDbTrace
 10
556.7653952109337
 20
110.150046843707
 30
0.0
 11
556.7653952109337
 21
109.3167135103737
 31
0.0
 12
554.2653952109337
 22
109.7333801770403
 32
0.0
 13
554.2653952109337
 23
109.7333801770403
 33
0.0
  0
SOLID
  5
1F7D9
330
1F7D2
100
AcDbEntity
  8
WY
 62
     0
100
AcDbTrace
 10
569.7153954523325
 20
109.3167135103737
 30
0.0
 11
569.7153954523325
 21
110.150046843707
 31
0.0
 12
572.2153954523325
 22
109.7333801770403
 32
0.0
 13
572.2153954523325
 23
109.7333801770403
 33
0.0
  0
MTEXT
  5
1F7DA
330
1F7D2
100
AcDbEntity
  8
WY
 62
     0
100
AcDbMText
 10
563.2403953316331
 20
111.2333801770403
 30
0.0
 40
1.5
 41
0.0
 71
     5
 72
     1
  1
\A1;18%%p0.25
  0
POINT
  5
1F7DB
330
1F7D2
100
AcDbEntity
  8
DEFPOINTS
 62
     0
100
AcDbPoint
 10
554.2653952109337
 20
129.0317466740464
 30
0.0
  0
POINT
  5
1F7DC
330
1F7D2
100
AcDbEntity
  8
DEFPOINTS
 62
     0
100
AcDbPoint
 10
572.2153954523325
 20
135.1817467042213
 30
0.0
  0
POINT
  5
1F7DD
330
1F7D2
100
AcDbEntity
  8
DEFPOINTS
 62
     0
100
AcDbPoint
 10
572.2153954523325
 20
109.7333801770403
 30
0.0
  0
ENDBLK
  5
1F7D4
330
1F7D2
100
AcDbEntity
  8
0
100
AcDbBlockEnd
  0
ENDSEC
  0
SECTION
  2
ENTITIES
  0
LINE
  5
2D2D
330
18
100
AcDbEntity
  8
WYMIARY
 62
     6
100
AcDbLine
 10
486.041244
 20
0.0
 30
0.0
 11
486.041244
 21
297.0
 31
0.0
  0
LINE
  5
2D2E
330
18
100
AcDbEntity
  8
WYMIARY
 62
     6
100
AcDbLine
 10
497.671651
 20
292.0
 30
0.0
 11
497.671651
 21
5.0
 31
0.0
  0
LINE
  5
2D34
330
18
100
AcDbEntity
  8
2
100
AcDbLine
 10
682.671651
 20
5.0
 30
0.0
 11
682.671651
 21
292.0
 31
0.0
  0
LINE
  5
2D35
330
18
100
AcDbEntity
  8
2
100
AcDbLine
 10
687.671651
 20
0.0
 30
0.0
 11
687.671651
 21
297.0
 31
0.0
  0
LINE
  5
2D36
330
18
100
AcDbEntity
  8
WY
  6
CONTINUOUS
 62
     3
100
AcDbLine
 10
682.671651
 20
19.689837
 30
0.0
 11
497.671651
 21
19.689837
 31
0.0
  0
LINE
  5
2D38
330
18
100
AcDbEntity
  8
2
100
AcDbLine
 10
497.671651
 20
5.0
 30
0.0
 11
682.671651
 21
5.0
 31
0.0
  0
LINE
  5
2D39
330
18
100
AcDbEntity
  8
2
 62
     6
100
AcDbLine
 10
497.671651
 20
0.0
 30
0.0
 11
687.671651
 21
0.0
 31
0.0
  0
LINE
  5
2D3A
330
18
100
AcDbEntity
  8
0
100
AcDbLine
 10
529.697667
 20
11.742481
 30
0.0
 11
528.795256
 21
11.742481
 31
0.0
  0
ELLIPSE
  5
2D3B
330
18
100
AcDbEntity
  8
0
100
AcDbEllipse
 10
529.697667
 20
11.742481
 30
0.0
 11
-1.203215696869327
 21
1.967000000000000E-13
 31
0.0
210
0.0
220
0.0
230
1.0
 40
0.958812
 41
-1.570796326794739
 42
0.0000000000001705
  0
TEXT
  5
2D3D
330
18
100
AcDbEntity
  8
1
100
AcDbText
 10
515.607578
 20
8.797457
 30
0.0
 40
5.0
  1
A4
 51
15.0
  7
ITALIC
100
AcDbText
  0
LINE
  5
2D40
330
18
100
AcDbEntity
  8
WYMIARY
 62
     6
100
AcDbLine
 10
497.671651
 20
0.0
 30
0.0
 11
486.041244
 21
0.0
 31
0.0
  0
TEXT
  5
2D42
330
18
100
AcDbEntity
  8
WY
100
AcDbText
 10
502.936765
 20
16.373844
 30
0.0
 40
2.0
  1
Skala
 51
15.0
  7
ITALIC
100
AcDbText
  0
TEXT
  5
2D43
330
18
100
AcDbEntity
  8
WY
100
AcDbText
 10
515.042219
 20
16.329369
 30
0.0
 40
2.0
  1
Format
 51
15.0
  7
ITALIC
100
AcDbText
  0
LINE
  5
2D44
330
18
100
AcDbEntity
  8
0
100
AcDbLine
 10
528.494452
 20
11.742481
 30
0.0
 11
528.795256
 21
11.742481
 31
0.0
  0
LINE
  5
2D45
330
18
100
AcDbEntity
  8
0
100
AcDbLine
 10
559.88722
 20
17.211264
 30
0.0
 11
559.88722
 21
9.015264
 31
0.0
  0
LINE
  5
2D46
330
18
100
AcDbEntity
  8
0
100
AcDbLine
 10
550.89322
 20
9.438264
 30
0.0
 11
550.89322
 21
7.416264
 31
0.0
  0
ARC
  5
2D47
330
18
100
AcDbEntity
  8
0
100
AcDbCircle
 10
551.5428
 20
9.724764
 30
0.0
 40
0.709955
100
AcDbArc
 50
203.80008
 51
272.051918
  0
LINE
  5
2D48
330
18
100
AcDbEntity
  8
0
100
AcDbLine
 10
549.34822
 20
7.416264
 30
0.0
 11
549.34822
 21
15.612264
 31
0.0
  0
ARC
  5
2D49
330
18
100
AcDbEntity
  8
0
100
AcDbCircle
 10
551.982126
 20
10.136416
 30
0.0
 40
1.128907
100
AcDbArc
 50
276.719576
 51
2.175194
  0
ARC
  5
2D4A
330
18
100
AcDbEntity
  8
0
100
AcDbCircle
 10
555.243059
 20
10.503572
 30
0.0
 40
1.488419
100
AcDbArc
 50
191.634268
 51
270.699113
  0
ARC
  5
2D4B
330
18
100
AcDbEntity
  8
0
100
AcDbCircle
 10
556.209381
 20
10.503572
 30
0.0
 40
1.488419
100
AcDbArc
 50
269.300887
 51
348.365732
  0
LINE
  5
2D4C
330
18
100
AcDbEntity
  8
0
100
AcDbLine
 10
558.34222
 20
9.015264
 30
0.0
 11
558.34222
 21
17.211264
 31
0.0
  0
ARC
  5
2D4D
330
18
100
AcDbEntity
  8
0
100
AcDbCircle
 10
545.056591
 20
10.472364
 30
0.0
 40
1.425319
100
AcDbArc
 50
269.703671
 51
350.465171
  0
ARC
  5
2D4E
330
18
100
AcDbEntity
  8
0
100
AcDbCircle
 10
544.201848
 20
10.472364
 30
0.0
 40
1.425319
100
AcDbArc
 50
189.534829
 51
270.2963290000001
  0
LINE
  5
2D4F
330
18
100
AcDbEntity
  8
0
100
AcDbLine
 10
547.14922
 20
9.015264
 30
0.0
 11
547.14922
 21
17.211264
 31
0.0
  0
LINE
  5
2D50
330
18
100
AcDbEntity
  8
0
100
AcDbLine
 10
548.69422
 20
17.211264
 30
0.0
 11
548.69422
 21
9.015264
 31
0.0
  0
LINE
  5
2D51
330
18
100
AcDbEntity
  8
0
100
AcDbLine
 10
539.892236
 20
14.361264
 30
0.0
 11
539.903809
 21
9.015264
 31
0.0
  0
LINE
  5
2D52
330
18
100
AcDbEntity
  8
0
100
AcDbLine
 10
538.361694
 20
9.015264
 30
0.0
 11
538.361694
 21
15.60367
 31
0.0
  0
LINE
  5
2D53
330
18
100
AcDbEntity
  8
0
100
AcDbLine
 10
529.697667
 20
9.895061
 30
0.0
 11
529.697667
 21
8.185369
 31
0.0
  0
LINE
  5
2D54
330
18
100
AcDbEntity
  8
0
100
AcDbLine
 10
535.613478
 20
8.185369
 30
0.0
 11
535.613478
 21
11.742481
 31
0.0
  0
LINE
  5
2D55
330
18
100
AcDbEntity
  8
1
100
AcDbLine
 10
563.469863
 20
5.0
 30
0.0
 11
563.469863
 21
19.689837
 31
0.0
  0
LINE
  5
2D56
330
18
100
AcDbEntity
  8
0
100
AcDbLine
 10
530.499811
 20
7.416263
 30
0.0
 11
534.811334
 21
7.416263
 31
0.0
  0
ELLIPSE
  5
2D57
330
18
100
AcDbEntity
  8
0
100
AcDbEllipse
 10
530.499811
 20
8.185369
 30
0.0
 11
-0.8021437979128705
 21
1.540000000000000E-14
 31
0.0
210
0.0
220
0.0
230
1.0
 40
0.958812
 41
0.00000000000002
 42
1.570796326794914
  0
ELLIPSE
  5
2D58
330
18
100
AcDbEntity
  8
0
100
AcDbEllipse
 10
534.811334
 20
8.185369
 30
0.0
 11
0.8021437979128704
 21
1.602000000000000E-13
 31
0.0
210
0.0
220
0.0
230
1.0
 40
0.958812
 41
4.712388980384497
 42
6.283185307179378
  0
LINE
  5
2D59
330
18
100
AcDbEntity
  8
0
100
AcDbLine
 10
539.892236
 20
9.015264
 30
0.0
 11
539.903809
 21
9.022759
 31
0.0
  0
LINE
  5
2D5A
330
18
100
AcDbEntity
  8
0
100
AcDbLine
 10
538.361694
 20
9.015264
 30
0.0
 11
539.903809
 21
9.015264
 31
0.0
  0
LINE
  5
2D5B
330
18
100
AcDbEntity
  8
0
100
AcDbLine
 10
544.194477
 20
9.047064
 30
0.0
 11
545.04922
 21
9.047064
 31
0.0
  0
LINE
  5
2D5C
330
18
100
AcDbEntity
  8
0
100
AcDbLine
 10
550.89322
 20
7.416264
 30
0.0
 11
549.34822
 21
7.416264
 31
0.0
  0
LINE
  5
2D5D
330
18
100
AcDbEntity
  8
0
100
AcDbLine
 10
548.69422
 20
9.015264
 30
0.0
 11
547.14922
 21
9.015264
 31
0.0
  0
LINE
  5
2D5E
330
18
100
AcDbEntity
  8
0
100
AcDbLine
 10
551.576266
 20
9.015264
 30
0.0
 11
552.11422
 21
9.015264
 31
0.0
  0
LINE
  5
2D5F
330
18
100
AcDbEntity
  8
0
100
AcDbLine
 10
555.26122
 20
9.015264
 30
0.0
 11
556.19122
 21
9.015264
 31
0.0
  0
LINE
  5
2D60
330
18
100
AcDbEntity
  8
0
100
AcDbLine
 10
559.88722
 20
9.015264
 30
0.0
 11
558.34222
 21
9.015264
 31
0.0
  0
ARC
  5
2D61
330
18
100
AcDbEntity
  8
0
100
AcDbCircle
 10
545.056591
 20
14.17837
 30
0.0
 40
1.425319
100
AcDbArc
 50
9.534829000000002
 51
90.296329
  0
LINE
  5
2D62
330
18
100
AcDbEntity
  8
0
100
AcDbLine
 10
546.46222
 20
11.81167
 30
0.0
 11
544.33822
 21
11.81167
 31
0.0
  0
LINE
  5
2D63
330
18
100
AcDbEntity
  8
0
100
AcDbLine
 10
545.01322
 20
11.13667
 30
0.0
 11
546.46222
 21
11.13667
 31
0.0
  0
LINE
  5
2D64
330
18
100
AcDbEntity
  8
0
100
AcDbLine
 10
529.697667
 20
13.461283
 30
0.0
 11
529.697667
 21
16.260974
 31
0.0
  0
ELLIPSE
  5
2D65
330
18
100
AcDbEntity
  8
0
100
AcDbEllipse
 10
532.630506
 20
15.17942
 30
0.0
 11
2.983077570132104
 21
2.996000000000000E-13
 31
0.0
210
0.0
220
0.0
230
1.0
 40
0.9588119999999999
 41
-1.562393163247347
 42
0.0084031635475457
  0
ELLIPSE
  5
2D66
330
18
100
AcDbEntity
  8
0
100
AcDbEllipse
 10
532.58733
 20
15.509539
 30
0.0
 11
-4.072692107280919
 21
9.250000000000000E-14
 31
0.0
210
0.0
220
0.0
230
1.0
 40
0.958812
 41
1.587553347046634
 42
2.408388587343224
  0
LINE
  5
2D67
330
18
100
AcDbEntity
  8
0
100
AcDbLine
 10
529.697667
 20
11.742481
 30
0.0
 11
529.697667
 21
11.034514
 31
0.0
  0
LINE
  5
2D68
330
18
100
AcDbEntity
  8
0
100
AcDbLine
 10
529.697667
 20
13.461283
 30
0.0
 11
529.697667
 21
12.896138
 31
0.0
  0
ELLIPSE
  5
2D69
330
18
100
AcDbEntity
  8
0
100
AcDbEllipse
 10
532.249598
 20
9.872487
 30
0.0
 11
2.960559210508897
 21
0.3570763225581005
 31
0.0
210
0.0
220
0.0
230
1.0
 40
0.820999
 41
1.335209029023201
 42
2.503032872947537
  0
ELLIPSE
  5
2D6A
330
18
100
AcDbEntity
  8
0
100
AcDbEllipse
 10
532.480104
 20
8.937306
 30
0.0
 11
3.015746449176215
 21
0.7746519372140024
 31
0.0
210
0.0
220
0.0
230
1.0
 40
0.8467750000000003
 41
1.29973646820557
 42
2.479974117225238
  0
LINE
  5
2D6B
330
18
100
AcDbEntity
  8
0
100
AcDbLine
 10
536.816694
 20
12.896138
 30
0.0
 11
536.51589
 21
12.896138
 31
0.0
  0
LINE
  5
2D6C
330
18
100
AcDbEntity
  8
0
100
AcDbLine
 10
535.613478
 20
12.896138
 30
0.0
 11
536.51589
 21
12.896138
 31
0.0
  0
ELLIPSE
  5
2D6D
330
18
100
AcDbEntity
  8
0
100
AcDbEllipse
 10
535.613478
 20
12.896138
 30
0.0
 11
1.203215696869352
 21
8.930000000000000E-14
 31
0.0
210
0.0
220
0.0
230
1.0
 40
0.9588119999999999
 41
4.712388980384611
 42
6.283185307179508
  0
LINE
  5
2D6E
330
18
100
AcDbEntity
  8
0
100
AcDbLine
 10
530.499811
 20
17.030079
 30
0.0
 11
534.811334
 21
17.030079
 31
0.0
  0
ELLIPSE
  5
2D6F
330
18
100
AcDbEntity
  8
0
100
AcDbEllipse
 10
530.499811
 20
16.260974
 30
0.0
 11
0.8021437979128704
 21
3.800000000000000E-14
 31
0.0
210
0.0
220
0.0
230
1.0
 40
0.958812
 41
1.570796326794851
 42
3.141592653589743
  0
LINE
  5
2D70
330
18
100
AcDbEntity
  8
0
100
AcDbLine
 10
535.613478
 20
15.155385
 30
0.0
 11
535.613478
 21
16.260974
 31
0.0
  0
ELLIPSE
  5
2D71
330
18
100
AcDbEntity
  8
0
100
AcDbEllipse
 10
534.811334
 20
16.260974
 30
0.0
 11
-0.8021437979128705
 21
3.800000000000000E-14
 31
0.0
210
0.0
220
0.0
230
1.0
 40
0.958812
 41
3.141592653589842
 42
4.712388980384734
  0
ARC
  5
2D72
330
18
100
AcDbEntity
  8
0
100
AcDbCircle
 10
540.798894
 20
14.34127
 30
0.0
 40
1.377457
100
AcDbArc
 50
16.265061
 51
130.527299
  0
ARC
  5
2D73
330
18
100
AcDbEntity
  8
0
100
AcDbCircle
 10
544.201848
 20
14.17837
 30
0.0
 40
1.425319
100
AcDbArc
 50
89.703671
 51
170.465171
  0
LINE
  5
2D74
330
18
100
AcDbEntity
  8
0
100
AcDbLine
 10
540.911147
 20
12.93607
 30
0.0
 11
542.12122
 21
12.93607
 31
0.0
  0
LINE
  5
2D75
330
18
100
AcDbEntity
  8
0
100
AcDbLine
 10
540.578809
 20
12.93607
 30
0.0
 11
542.12122
 21
12.93607
 31
0.0
  0
ARC
  5
2D76
330
18
100
AcDbEntity
  8
0
100
AcDbCircle
 10
540.229736
 20
14.361264
 30
0.0
 40
0.3375
100
AcDbArc
 50
360.0
 51
180.0
  0
LINE
  5
2D77
330
18
100
AcDbEntity
  8
0
100
AcDbLine
 10
540.567236
 20
14.361264
 30
0.0
 11
540.578809
 21
12.93607
 31
0.0
  0
ARC
  5
2D78
330
18
100
AcDbEntity
  8
0
100
AcDbCircle
 10
544.67572
 20
14.361264
 30
0.0
 40
0.3375
100
AcDbArc
 50
360.0
 51
180.0
  0
LINE
  5
2D79
330
18
100
AcDbEntity
  8
0
100
AcDbLine
 10
544.33822
 20
11.81167
 30
0.0
 11
544.33822
 21
10.236264
 31
0.0
  0
LINE
  5
2D7A
330
18
100
AcDbEntity
  8
0
100
AcDbLine
 10
544.33822
 20
12.71167
 30
0.0
 11
545.01322
 21
12.71167
 31
0.0
  0
LINE
  5
2D7B
330
18
100
AcDbEntity
  8
0
100
AcDbLine
 10
545.01322
 20
11.13667
 30
0.0
 11
545.01322
 21
10.252764
 31
0.0
  0
LINE
  5
2D7C
330
18
100
AcDbEntity
  8
0
100
AcDbLine
 10
544.33822
 20
11.81167
 30
0.0
 11
544.33822
 21
10.252764
 31
0.0
  0
ARC
  5
2D7D
330
18
100
AcDbEntity
  8
0
100
AcDbCircle
 10
544.67572
 20
10.252764
 30
0.0
 40
0.3375
100
AcDbArc
 50
180.0
 51
0.0
  0
LINE
  5
2D7E
330
18
100
AcDbEntity
  8
0
100
AcDbLine
 10
545.01322
 20
14.361264
 30
0.0
 11
545.01322
 21
12.71167
 31
0.0
  0
LINE
  5
2D7F
330
18
100
AcDbEntity
  8
0
100
AcDbLine
 10
544.33822
 20
14.361264
 30
0.0
 11
544.33822
 21
12.71167
 31
0.0
  0
LINE
  5
2D80
330
18
100
AcDbEntity
  8
0
100
AcDbLine
 10
542.12122
 20
12.93607
 30
0.0
 11
542.12122
 21
14.72707
 31
0.0
  0
LINE
  5
2D81
330
18
100
AcDbEntity
  8
0
100
AcDbLine
 10
542.79622
 20
10.236264
 30
0.0
 11
542.79622
 21
14.41447
 31
0.0
  0
LINE
  5
2D82
330
18
100
AcDbEntity
  8
0
100
AcDbLine
 10
539.903809
 20
15.60367
 30
0.0
 11
539.903809
 21
15.38827
 31
0.0
  0
LINE
  5
2D83
330
18
100
AcDbEntity
  8
0
100
AcDbLine
 10
538.361694
 20
15.60367
 30
0.0
 11
539.903809
 21
15.60367
 31
0.0
  0
LINE
  5
2D84
330
18
100
AcDbEntity
  8
0
100
AcDbLine
 10
544.194477
 20
15.60367
 30
0.0
 11
545.04922
 21
15.60367
 31
0.0
  0
ARC
  5
2D85
330
18
100
AcDbEntity
  8
0
100
AcDbCircle
 10
555.243059
 20
14.124104
 30
0.0
 40
1.488419
100
AcDbArc
 50
89.300887
 51
168.365732
  0
ARC
  5
2D86
330
18
100
AcDbEntity
  8
0
100
AcDbCircle
 10
551.752247
 20
14.207365
 30
0.0
 40
1.409039
100
AcDbArc
 50
15.47255
 51
127.56454
  0
LINE
  5
2D87
330
18
100
AcDbEntity
  8
0
100
AcDbLine
 10
546.46222
 20
11.13667
 30
0.0
 11
546.46222
 21
10.236264
 31
0.0
  0
LINE
  5
2D88
330
18
100
AcDbEntity
  8
0
100
AcDbLine
 10
546.46222
 20
11.81167
 30
0.0
 11
546.46222
 21
14.41447
 31
0.0
  0
LINE
  5
2D89
330
18
100
AcDbEntity
  8
0
100
AcDbLine
 10
553.11022
 20
14.583264
 30
0.0
 11
553.11022
 21
10.179264
 31
0.0
  0
LINE
  5
2D8A
330
18
100
AcDbEntity
  8
0
100
AcDbLine
 10
551.56822
 20
14.361264
 30
0.0
 11
551.56822
 21
10.252764
 31
0.0
  0
LINE
  5
2D8B
330
18
100
AcDbEntity
  8
0
100
AcDbLine
 10
550.89322
 20
14.361264
 30
0.0
 11
550.89322
 21
10.252764
 31
0.0
  0
ARC
  5
2D8C
330
18
100
AcDbEntity
  8
0
100
AcDbCircle
 10
551.23072
 20
10.252764
 30
0.0
 40
0.3375
100
AcDbArc
 50
180.0
 51
0.0
  0
ARC
  5
2D8D
330
18
100
AcDbEntity
  8
0
100
AcDbCircle
 10
551.23072
 20
14.361264
 30
0.0
 40
0.3375
100
AcDbArc
 50
360.0
 51
180.0
  0
LINE
  5
2D8E
330
18
100
AcDbEntity
  8
0
100
AcDbLine
 10
549.34822
 20
15.612264
 30
0.0
 11
550.89322
 21
15.612264
 31
0.0
  0
LINE
  5
2D8F
330
18
100
AcDbEntity
  8
0
100
AcDbLine
 10
547.14922
 20
17.211264
 30
0.0
 11
548.69422
 21
17.211264
 31
0.0
  0
LINE
  5
2D90
330
18
100
AcDbEntity
  8
0
100
AcDbLine
 10
550.89322
 20
15.612264
 30
0.0
 11
550.89322
 21
15.324264
 31
0.0
  0
ARC
  5
2D91
330
18
100
AcDbEntity
  8
0
100
AcDbCircle
 10
556.209381
 20
14.124104
 30
0.0
 40
1.488419
100
AcDbArc
 50
11.634268
 51
90.699113
  0
LINE
  5
2D92
330
18
100
AcDbEntity
  8
0
100
AcDbLine
 10
557.66722
 20
14.424264
 30
0.0
 11
557.66722
 21
10.203412
 31
0.0
  0
ARC
  5
2D93
330
18
100
AcDbEntity
  8
0
100
AcDbCircle
 10
555.72622
 20
14.361264
 30
0.0
 40
0.3375
100
AcDbArc
 50
360.0
 51
180.0
  0
ARC
  5
2D94
330
18
100
AcDbEntity
  8
0
100
AcDbCircle
 10
555.72622
 20
10.252764
 30
0.0
 40
0.3375
100
AcDbArc
 50
180.0
 51
0.0
  0
LINE
  5
2D95
330
18
100
AcDbEntity
  8
0
100
AcDbLine
 10
555.38872
 20
14.361264
 30
0.0
 11
555.38872
 21
10.252764
 31
0.0
  0
LINE
  5
2D96
330
18
100
AcDbEntity
  8
0
100
AcDbLine
 10
556.06372
 20
14.361264
 30
0.0
 11
556.06372
 21
10.252764
 31
0.0
  0
LINE
  5
2D97
330
18
100
AcDbEntity
  8
0
100
AcDbLine
 10
553.78522
 20
10.203412
 30
0.0
 11
553.78522
 21
14.424264
 31
0.0
  0
LINE
  5
2D98
330
18
100
AcDbEntity
  8
0
100
AcDbLine
 10
555.26122
 20
15.612412
 30
0.0
 11
556.19122
 21
15.612412
 31
0.0
  0
LINE
  5
2D99
330
18
100
AcDbEntity
  8
0
100
AcDbLine
 10
558.34222
 20
17.211264
 30
0.0
 11
559.88722
 21
17.211264
 31
0.0
  0
TEXT
  5
2D9A
330
18
100
AcDbEntity
  8
WY
100
AcDbText
 10
564.417407
 20
11.60401
 30
0.0
 40
1.999999999999999
  1
01-06-2016
 41
1.000000000000001
 51
15.0
  7
ITALIC
100
AcDbText
  0
TEXT
  5
2D9B
330
18
100
AcDbEntity
  8
WY
100
AcDbText
 10
568.848776
 20
16.149239
 30
0.0
 40
2.0
  1
Data
 51
15.0
  7
ITALIC
100
AcDbText
  0
TEXT
  5
2D9D
330
18
100
AcDbEntity
  8
1
100
AcDbText
 10
637.422754
 20
9.064009
 30
0.0
 40
5.0
  1
SU4/2L
 41
0.8
 51
15.0
  7
ITALIC
100
AcDbText
  0
LINE
  5
2D9E
330
18
100
AcDbEntity
  8
1
100
AcDbLine
 10
627.394234
 20
5.0
 30
0.0
 11
627.394234
 21
19.689837
 31
0.0
  0
TEXT
  5
2D9F
330
18
100
AcDbEntity
  8
WY
100
AcDbText
 10
629.585432
 20
16.599248
 30
0.0
 40
2.0
  1
Product type
 51
15.0
  7
ITALIC
100
AcDbText
  0
LINE
  5
2DF2
330
18
100
AcDbEntity
  8
2
100
AcDbLine
 10
682.671651
 20
292.0
 30
0.0
 11
497.671651
 21
292.0
 31
0.0
  0
LINE
  5
2DF3
330
18
100
AcDbEntity
  8
2
100
AcDbLine
 10
687.671651
 20
297.0
 30
0.0
 11
497.671651
 21
297.0
 31
0.0
  0
LINE
  5
2E74
330
18
100
AcDbEntity
  8
WYMIARY
 62
     6
100
AcDbLine
 10
497.671651
 20
297.0
 30
0.0
 11
486.041244
 21
297.0
 31
0.0
  0
MTEXT
  5
31F2
330
18
100
AcDbEntity
  8
WYMIARY
100
AcDbMText
 10
780.543201
 20
224.476865
 30
0.0
 40
3.5
 41
15.6
 71
     1
 72
     5
  1

  7
ITALIC
  0
TEXT
  5
478E
330
18
100
AcDbEntity
  8
1
100
AcDbText
 10
500.301985
 20
8.797457
 30
0.0
 40
5.0
  1
1:1
 51
15.0
  7
ITALIC
100
AcDbText
  0
LINE
  5
482F
330
18
100
AcDbEntity
  8
WYMIARY
 62
     6
100
AcDbLine
 10
687.671651
 20
0.0
 30
0.0
 11
687.671651
 21
297.0
 31
0.0
  0
LINE
  5
4AD7
330
18
100
AcDbEntity
  8
WYMIARY
 62
     3
100
AcDbLine
 10
512.671651
 20
19.689837
 30
0.0
 11
512.671651
 21
5.0
 31
0.0
  0
LINE
  5
4AD9
330
18
100
AcDbEntity
  8
WYMIARY
 62
     3
100
AcDbLine
 10
527.671651
 20
19.689837
 30
0.0
 11
527.671651
 21
5.0
 31
0.0
  0
LINE
  5
4ADA
330
18
100
AcDbEntity
  8
WYMIARY
 62
     3
100
AcDbLine
 10
586.373187
 20
19.689837
 30
0.0
 11
586.373187
 21
5.0
 31
0.0
  0
TEXT
  5
4ADB
330
18
100
AcDbEntity
  8
WY
100
AcDbText
 10
587.562196
 20
16.599248
 30
0.0
 40
2.0
  1
Draw. No.
 51
15.0
  7
ITALIC
100
AcDbText
  0
TEXT
  5
4ADF
330
18
100
AcDbEntity
  8
1
100
AcDbText
 10
591.935141
 20
9.064009
 30
0.0
 40
3.999999999999994
  1
SU4/2L-01A
 41
0.7000000000000011
 51
14.99999999999999
  7
ITALIC
100
AcDbText
  0
LINE
  5
4AE9
330
18
100
AcDbEntity
  8
WYMIARY
 62
     6
100
AcDbLine
 10
687.671651
 20
0.0
 30
0.0
 11
687.671651
 21
297.0
 31
0.0
  0
LINE
  5
6488
330
18
100
AcDbEntity
  8
WYMIARY
 62
     6
100
AcDbLine
 10
687.671651
 20
0.0
 30
0.0
 11
687.671651
 21
297.0
 31
0.0
  0
LINE
  5
648E
330
18
100
AcDbEntity
  8
2
100
AcDbLine
 10
687.671651
 20
0.0
 30
0.0
 11
687.671651
 21
297.0
 31
0.0
  0
LINE
  5
6CB6
330
18
100
AcDbEntity
  8
WYMIARY
 62
     6
100
AcDbLine
 10
687.671651
 20
0.0
 30
0.0
 11
687.671651
 21
297.0
 31
0.0
  0
LINE
  5
6CB8
330
18
100
AcDbEntity
  8
2
100
AcDbLine
 10
687.671651
 20
0.0
 30
0.0
 11
687.671651
 21
297.0
 31
0.0
  0
TEXT
  5
B62D
330
18
100
AcDbEntity
  8
1
100
AcDbText
 10
588.628792682284
 20
275.1245812869693
 30
0.0
 40
5.0
  1
SU4L
 41
0.8
 51
15.0
  7
ITALIC
100
AcDbText
  0
LINE
  5
1F412
330
18
100
AcDbEntity
  8
1
  6
CONTINUOUS
 62
     7
100
AcDbLine
 10
616.4294438740359
 20
153.19424707228
 30
0.0
 11
619.504443772708
 21
153.19424707228
 31
0.0
  0
LINE
  5
1F413
330
18
100
AcDbEntity
  8
1
  6
CONTINUOUS
 62
     7
100
AcDbLine
 10
619.504443772708
 20
152.9942474120265
 30
0.0
 11
616.4294438740359
 21
152.9942474120265
 31
0.0
  0
LINE
  5
1F414
330
18
100
AcDbEntity
  8
1
  6
CONTINUOUS
 62
     7
100
AcDbLine
 10
616.4294438740359
 20
149.0942465865021
 30
0.0
 11
619.504443772708
 21
149.0942465865021
 31
0.0
  0
LINE
  5
1F415
330
18
100
AcDbEntity
  8
1
  6
CONTINUOUS
 62
     7
100
AcDbLine
 10
619.504443772708
 20
148.8942469262486
 30
0.0
 11
616.4294438740359
 21
148.8942469262486
 31
0.0
  0
LINE
  5
1F41A
330
18
100
AcDbEntity
  8
1
  6
CONTINUOUS
 62
     7
100
AcDbLine
 10
629.6294456651555
 20
136.4942465701108
 30
0.0
 11
632.7044455638276
 21
136.4942465701108
 31
0.0
  0
LINE
  5
1F41B
330
18
100
AcDbEntity
  8
1
  6
CONTINUOUS
 62
     7
100
AcDbLine
 10
632.7044455638276
 20
136.2942469098573
 30
0.0
 11
629.6294456651555
 21
136.2942469098573
 31
0.0
  0
LINE
  5
1F41C
330
18
100
AcDbEntity
  8
1
  6
CONTINUOUS
 62
     7
100
AcDbLine
 10
616.4294438740359
 20
136.4942465701108
 30
0.0
 11
619.504443772708
 21
136.4942465701108
 31
0.0
  0
LINE
  5
1F41D
330
18
100
AcDbEntity
  8
1
  6
CONTINUOUS
 62
     7
100
AcDbLine
 10
619.504443772708
 20
136.2942469098573
 30
0.0
 11
616.4294438740359
 21
136.2942469098573
 31
0.0
  0
LINE
  5
1F41E
330
18
100
AcDbEntity
  8
1
  6
CONTINUOUS
 62
     7
100
AcDbLine
 10
616.4294438740359
 20
142.7942461126452
 30
0.0
 11
619.504443772708
 21
142.7942461126452
 31
0.0
  0
LINE
  5
1F41F
330
18
100
AcDbEntity
  8
1
  6
CONTINUOUS
 62
     7
100
AcDbLine
 10
619.504443772708
 20
142.5942464523917
 30
0.0
 11
616.4294438740359
 21
142.5942464523917
 31
0.0
  0
LINE
  5
1F422
330
18
100
AcDbEntity
  8
1
  6
CONTINUOUS
 62
     7
100
AcDbLine
 10
629.6294456651555
 20
153.19424707228
 30
0.0
 11
632.7044455638276
 21
153.19424707228
 31
0.0
  0
LINE
  5
1F423
330
18
100
AcDbEntity
  8
1
  6
CONTINUOUS
 62
     7
100
AcDbLine
 10
632.7044455638276
 20
152.9942474120265
 30
0.0
 11
629.6294456651555
 21
152.9942474120265
 31
0.0
  0
LINE
  5
1F42C
330
18
100
AcDbEntity
  8
1
  6
CONTINUOUS
 62
     7
100
AcDbLine
 10
629.6294456651555
 20
149.0942465865021
 30
0.0
 11
632.7044455638276
 21
149.0942465865021
 31
0.0
  0
LINE
  5
1F42D
330
18
100
AcDbEntity
  8
1
  6
CONTINUOUS
 62
     7
100
AcDbLine
 10
632.7044455638276
 20
148.8942469262486
 30
0.0
 11
629.6294456651555
 21
148.8942469262486
 31
0.0
  0
LINE
  5
1F430
330
18
100
AcDbEntity
  8
1
  6
CONTINUOUS
 62
     7
100
AcDbLine
 10
629.6294456651555
 20
142.7942461126452
 30
0.0
 11
632.7044455638276
 21
142.7942461126452
 31
0.0
  0
LINE
  5
1F431
330
18
100
AcDbEntity
  8
1
  6
CONTINUOUS
 62
     7
100
AcDbLine
 10
632.7044455638276
 20
142.5942464523917
 30
0.0
 11
629.6294456651555
 21
142.5942464523917
 31
0.0
  0
LINE
  5
1F432
330
18
100
AcDbEntity
  8
1
  6
CONTINUOUS
 62
     7
100
AcDbLine
 10
629.6294456651555
 20
149.0942465865021
 30
0.0
 11
632.7044455638276
 21
149.0942465865021
 31
0.0
  0
LINE
  5
1F433
330
18
100
AcDbEntity
  8
1
  6
CONTINUOUS
 62
     7
100
AcDbLine
 10
632.7044455638276
 20
148.8942469262486
 30
0.0
 11
629.6294456651555
 21
148.8942469262486
 31
0.0
  0
LINE
  5
1F434
330
18
100
AcDbEntity
  8
1
  6
CONTINUOUS
 62
     7
100
AcDbLine
 10
616.4294438740359
 20
151.8817472063904
 30
0.0
 11
616.4294438740359
 21
152.1317477130299
 31
0.0
  0
LINE
  5
1F435
330
18
100
AcDbEntity
  8
1
  6
CONTINUOUS
 62
     7
100
AcDbLine
 10
616.4294438740359
 20
152.1317477130299
 30
0.0
 11
619.504443772708
 21
152.1317477130299
 31
0.0
  0
LINE
  5
1F436
330
18
100
AcDbEntity
  8
1
  6
CONTINUOUS
 62
     7
100
AcDbLine
 10
619.504443772708
 20
151.8817472063904
 30
0.0
 11
619.504443772708
 21
152.1317477130299
 31
0.0
  0
LINE
  5
1F437
330
18
100
AcDbEntity
  8
1
  6
CONTINUOUS
 62
     7
100
AcDbLine
 10
616.4294438740359
 20
151.8817472063904
 30
0.0
 11
619.504443772708
 21
151.8817472063904
 31
0.0
  0
LINE
  5
1F438
330
18
100
AcDbEntity
  8
1
  6
CONTINUOUS
 62
     7
100
AcDbLine
 10
616.4294438740359
 20
154.0567467712765
 30
0.0
 11
619.504443772708
 21
154.0567467712765
 31
0.0
  0
LINE
  5
1F439
330
18
100
AcDbEntity
  8
1
  6
CONTINUOUS
 62
     7
100
AcDbLine
 10
616.4294438740359
 20
154.0567467712765
 30
0.0
 11
616.4294438740359
 21
154.306747277916
 31
0.0
  0
LINE
  5
1F43A
330
18
100
AcDbEntity
  8
1
  6
CONTINUOUS
 62
     7
100
AcDbLine
 10
619.504443772708
 20
154.0567467712765
 30
0.0
 11
619.504443772708
 21
154.306747277916
 31
0.0
  0
LINE
  5
1F43B
330
18
100
AcDbEntity
  8
1
  6
CONTINUOUS
 62
     7
100
AcDbLine
 10
616.4294438740359
 20
154.306747277916
 30
0.0
 11
619.504443772708
 21
154.306747277916
 31
0.0
  0
LINE
  5
1F43C
330
18
100
AcDbEntity
  8
1
  6
CONTINUOUS
 62
     7
100
AcDbLine
 10
616.4294438740359
 20
154.0246831976777
 30
0.0
 11
616.4294438740359
 21
154.0567467712765
 31
0.0
  0
LINE
  5
1F43D
330
18
100
AcDbEntity
  8
1
  6
CONTINUOUS
 62
     7
100
AcDbLine
 10
619.504443772708
 20
154.0246831976777
 30
0.0
 11
619.504443772708
 21
154.0567467712765
 31
0.0
  0
LINE
  5
1F43E
330
18
100
AcDbEntity
  8
1
  6
CONTINUOUS
 62
     7
100
AcDbLine
 10
616.4294438740359
 20
152.1317477130299
 30
0.0
 11
616.4294438740359
 21
152.1638112866288
 31
0.0
  0
LINE
  5
1F43F
330
18
100
AcDbEntity
  8
1
  6
CONTINUOUS
 62
     7
100
AcDbLine
 10
619.504443772708
 20
152.1317477130299
 30
0.0
 11
619.504443772708
 21
152.1638112866288
 31
0.0
  0
LINE
  5
1F440
330
18
100
AcDbEntity
  8
1
  6
CONTINUOUS
 62
     7
100
AcDbLine
 10
616.4294438740359
 20
152.1638112866288
 30
0.0
 11
616.4294438740359
 21
152.9301184021836
 31
0.0
  0
LINE
  5
1F441
330
18
100
AcDbEntity
  8
1
  6
CONTINUOUS
 62
     7
100
AcDbLine
 10
619.504443772708
 20
152.1638112866288
 30
0.0
 11
619.504443772708
 21
152.9301184021836
 31
0.0
  0
LINE
  5
1F442
330
18
100
AcDbEntity
  8
1
  6
CONTINUOUS
 62
     7
100
AcDbLine
 10
616.4294438740359
 20
153.2583760821229
 30
0.0
 11
616.4294438740359
 21
154.0246831976777
 31
0.0
  0
LINE
  5
1F443
330
18
100
AcDbEntity
  8
1
  6
CONTINUOUS
 62
     7
100
AcDbLine
 10
619.504443772708
 20
153.2583760821229
 30
0.0
 11
619.504443772708
 21
154.0246831976777
 31
0.0
  0
LINE
  5
1F444
330
18
100
AcDbEntity
  8
1
  6
CONTINUOUS
 62
     7
100
AcDbLine
 10
616.4294438740359
 20
153.19424707228
 30
0.0
 11
616.4294438740359
 21
153.2583760821229
 31
0.0
  0
LINE
  5
1F445
330
18
100
AcDbEntity
  8
1
  6
CONTINUOUS
 62
     7
100
AcDbLine
 10
619.504443772708
 20
153.19424707228
 30
0.0
 11
619.504443772708
 21
153.2583760821229
 31
0.0
  0
LINE
  5
1F446
330
18
100
AcDbEntity
  8
1
  6
CONTINUOUS
 62
     7
100
AcDbLine
 10
616.4294438740359
 20
152.9301184021836
 30
0.0
 11
616.4294438740359
 21
152.9942474120265
 31
0.0
  0
LINE
  5
1F447
330
18
100
AcDbEntity
  8
1
  6
CONTINUOUS
 62
     7
100
AcDbLine
 10
619.504443772708
 20
152.9301184021836
 30
0.0
 11
619.504443772708
 21
152.9942474120265
 31
0.0
  0
LINE
  5
1F448
330
18
100
AcDbEntity
  8
1
  6
CONTINUOUS
 62
     7
100
AcDbLine
 10
619.2544432660685
 20
153.19424707228
 30
0.0
 11
619.2544432660685
 21
152.9942474120265
 31
0.0
  0
LINE
  5
1F449
330
18
100
AcDbEntity
  8
1
  6
CONTINUOUS
 62
     7
100
AcDbLine
 10
619.504443772708
 20
153.19424707228
 30
0.0
 11
619.504443772708
 21
152.9942474120265
 31
0.0
  0
ARC
  5
1F44A
330
18
100
AcDbEntity
  8
1
  6
CONTINUOUS
 62
     7
100
AcDbCircle
 10
617.9232015800822
 20
152.7152644233936
 30
0.0
 40
0.8925292813912089
100
AcDbArc
 50
249.0483019754631
 51
272.8092715975639
  0
ARC
  5
1F44B
330
18
100
AcDbEntity
  8
1
  6
CONTINUOUS
 62
     7
100
AcDbCircle
 10
618.0106851588507
 20
152.7152934421637
 30
0.0
 40
0.892558038232832
100
AcDbArc
 50
267.1911167548583
 51
290.9513096721132
  0
LINE
  5
1F44C
330
18
100
AcDbEntity
  8
1
  6
CONTINUOUS
 62
     7
100
AcDbLine
 10
617.56694636551
 20
151.8067459368115
 30
0.0
 11
617.56694636551
 21
151.8817472063904
 31
0.0
  0
LINE
  5
1F44D
330
18
100
AcDbEntity
  8
1
  6
CONTINUOUS
 62
     7
100
AcDbLine
 10
618.3669450065241
 20
151.8817472063904
 30
0.0
 11
618.3669450065241
 21
151.8067459368115
 31
0.0
  0
LINE
  5
1F44E
330
18
100
AcDbEntity
  8
1
  6
CONTINUOUS
 62
     7
100
AcDbLine
 10
616.4294438740359
 20
147.7817467206126
 30
0.0
 11
619.504443772708
 21
147.7817467206126
 31
0.0
  0
LINE
  5
1F44F
330
18
100
AcDbEntity
  8
1
  6
CONTINUOUS
 62
     7
100
AcDbLine
 10
616.4294438740359
 20
147.7817467206126
 30
0.0
 11
616.4294438740359
 21
148.0317472272521
 31
0.0
  0
LINE
  5
1F450
330
18
100
AcDbEntity
  8
1
  6
CONTINUOUS
 62
     7
100
AcDbLine
 10
616.4294438740359
 20
148.0317472272521
 30
0.0
 11
619.504443772708
 21
148.0317472272521
 31
0.0
  0
LINE
  5
1F451
330
18
100
AcDbEntity
  8
1
  6
CONTINUOUS
 62
     7
100
AcDbLine
 10
619.504443772708
 20
147.7817467206126
 30
0.0
 11
619.504443772708
 21
148.0317472272521
 31
0.0
  0
LINE
  5
1F452
330
18
100
AcDbEntity
  8
1
  6
CONTINUOUS
 62
     7
100
AcDbLine
 10
616.4294438740359
 20
150.2067467921381
 30
0.0
 11
619.504443772708
 21
150.2067467921381
 31
0.0
  0
LINE
  5
1F453
330
18
100
AcDbEntity
  8
1
  6
CONTINUOUS
 62
     7
100
AcDbLine
 10
619.504443772708
 20
149.9567462854987
 30
0.0
 11
619.504443772708
 21
150.2067467921381
 31
0.0
  0
LINE
  5
1F454
330
18
100
AcDbEntity
  8
1
  6
CONTINUOUS
 62
     7
100
AcDbLine
 10
616.4294438740359
 20
149.9567462854987
 30
0.0
 11
619.504443772708
 21
149.9567462854987
 31
0.0
  0
LINE
  5
1F455
330
18
100
AcDbEntity
  8
1
  6
CONTINUOUS
 62
     7
100
AcDbLine
 10
616.4294438740359
 20
149.9567462854987
 30
0.0
 11
616.4294438740359
 21
150.2067467921381
 31
0.0
  0
LINE
  5
1F456
330
18
100
AcDbEntity
  8
1
  6
CONTINUOUS
 62
     7
100
AcDbLine
 10
619.504443772708
 20
148.0317472272521
 30
0.0
 11
619.504443772708
 21
148.0638108008509
 31
0.0
  0
LINE
  5
1F457
330
18
100
AcDbEntity
  8
1
  6
CONTINUOUS
 62
     7
100
AcDbLine
 10
616.4294438740359
 20
148.0317472272521
 30
0.0
 11
616.4294438740359
 21
148.0638108008509
 31
0.0
  0
LINE
  5
1F458
330
18
100
AcDbEntity
  8
1
  6
CONTINUOUS
 62
     7
100
AcDbLine
 10
619.504443772708
 20
149.9246827118998
 30
0.0
 11
619.504443772708
 21
149.9567462854987
 31
0.0
  0
LINE
  5
1F459
330
18
100
AcDbEntity
  8
1
  6
CONTINUOUS
 62
     7
100
AcDbLine
 10
616.4294438740359
 20
149.9246827118998
 30
0.0
 11
616.4294438740359
 21
149.9567462854987
 31
0.0
  0
LINE
  5
1F45A
330
18
100
AcDbEntity
  8
1
  6
CONTINUOUS
 62
     7
100
AcDbLine
 10
619.504443772708
 20
148.0638108008509
 30
0.0
 11
619.504443772708
 21
148.8301179164057
 31
0.0
  0
LINE
  5
1F45B
330
18
100
AcDbEntity
  8
1
  6
CONTINUOUS
 62
     7
100
AcDbLine
 10
616.4294438740359
 20
148.0638108008509
 30
0.0
 11
616.4294438740359
 21
148.8301179164057
 31
0.0
  0
LINE
  5
1F45C
330
18
100
AcDbEntity
  8
1
  6
CONTINUOUS
 62
     7
100
AcDbLine
 10
619.504443772708
 20
149.158375596345
 30
0.0
 11
619.504443772708
 21
149.9246827118998
 31
0.0
  0
LINE
  5
1F45D
330
18
100
AcDbEntity
  8
1
  6
CONTINUOUS
 62
     7
100
AcDbLine
 10
616.4294438740359
 20
149.158375596345
 30
0.0
 11
616.4294438740359
 21
149.9246827118998
 31
0.0
  0
LINE
  5
1F45E
330
18
100
AcDbEntity
  8
1
  6
CONTINUOUS
 62
     7
100
AcDbLine
 10
619.504443772708
 20
149.0942465865021
 30
0.0
 11
619.504443772708
 21
149.158375596345
 31
0.0
  0
LINE
  5
1F45F
330
18
100
AcDbEntity
  8
1
  6
CONTINUOUS
 62
     7
100
AcDbLine
 10
616.4294438740359
 20
149.0942465865021
 30
0.0
 11
616.4294438740359
 21
149.158375596345
 31
0.0
  0
LINE
  5
1F460
330
18
100
AcDbEntity
  8
1
  6
CONTINUOUS
 62
     7
100
AcDbLine
 10
619.504443772708
 20
148.8301179164057
 30
0.0
 11
619.504443772708
 21
148.8942469262486
 31
0.0
  0
LINE
  5
1F461
330
18
100
AcDbEntity
  8
1
  6
CONTINUOUS
 62
     7
100
AcDbLine
 10
616.4294438740359
 20
148.8301179164057
 30
0.0
 11
616.4294438740359
 21
148.8942469262486
 31
0.0
  0
LINE
  5
1F462
330
18
100
AcDbEntity
  8
1
  6
CONTINUOUS
 62
     7
100
AcDbLine
 10
619.2544432660685
 20
149.0942465865021
 30
0.0
 11
619.2544432660685
 21
148.8942469262486
 31
0.0
  0
LINE
  5
1F463
330
18
100
AcDbEntity
  8
1
  6
CONTINUOUS
 62
     7
100
AcDbLine
 10
619.504443772708
 20
149.0942465865021
 30
0.0
 11
619.504443772708
 21
148.8942469262486
 31
0.0
  0
ARC
  5
1F464
330
18
100
AcDbEntity
  8
1
  6
CONTINUOUS
 62
     7
100
AcDbCircle
 10
617.9231964633532
 20
148.6152605482456
 30
0.0
 40
0.8925242864818685
100
AcDbArc
 50
249.0485309243564
 51
272.8096161966786
  0
ARC
  5
1F465
330
18
100
AcDbEntity
  8
1
  6
CONTINUOUS
 62
     7
100
AcDbCircle
 10
618.0106902758188
 20
148.6152895664518
 30
0.0
 40
0.8925530427356394
100
AcDbArc
 50
267.1907721519163
 51
290.9510807270395
  0
LINE
  5
1F466
330
18
100
AcDbEntity
  8
1
  6
CONTINUOUS
 62
     7
100
AcDbLine
 10
617.56694636551
 20
147.7067473136788
 30
0.0
 11
617.56694636551
 21
147.7817467206126
 31
0.0
  0
LINE
  5
1F467
330
18
100
AcDbEntity
  8
1
  6
CONTINUOUS
 62
     7
100
AcDbLine
 10
618.3669450065241
 20
147.7817467206126
 30
0.0
 11
618.3669450065241
 21
147.7067473136788
 31
0.0
  0
LINE
  5
1F49C
330
18
100
AcDbEntity
  8
1
  6
CONTINUOUS
 62
     7
100
AcDbLine
 10
629.6294456651555
 20
135.1817467042213
 30
0.0
 11
632.7044455638276
 21
135.1817467042213
 31
0.0
  0
LINE
  5
1F49D
330
18
100
AcDbEntity
  8
1
  6
CONTINUOUS
 62
     7
100
AcDbLine
 10
629.6294456651555
 20
135.1817467042213
 30
0.0
 11
629.6294456651555
 21
135.4317472108608
 31
0.0
  0
LINE
  5
1F49E
330
18
100
AcDbEntity
  8
1
  6
CONTINUOUS
 62
     7
100
AcDbLine
 10
629.6294456651555
 20
135.4317472108608
 30
0.0
 11
632.7044455638276
 21
135.4317472108608
 31
0.0
  0
LINE
  5
1F49F
330
18
100
AcDbEntity
  8
1
  6
CONTINUOUS
 62
     7
100
AcDbLine
 10
632.7044455638276
 20
135.1817467042213
 30
0.0
 11
632.7044455638276
 21
135.4317472108608
 31
0.0
  0
LINE
  5
1F4A0
330
18
100
AcDbEntity
  8
1
  6
CONTINUOUS
 62
     7
100
AcDbLine
 10
629.6294456651555
 20
137.6067467757469
 30
0.0
 11
632.7044455638276
 21
137.6067467757469
 31
0.0
  0
LINE
  5
1F4A1
330
18
100
AcDbEntity
  8
1
  6
CONTINUOUS
 62
     7
100
AcDbLine
 10
632.7044455638276
 20
137.35674720043
 30
0.0
 11
632.7044455638276
 21
137.6067467757469
 31
0.0
  0
LINE
  5
1F4A2
330
18
100
AcDbEntity
  8
1
  6
CONTINUOUS
 62
     7
100
AcDbLine
 10
629.6294456651555
 20
137.35674720043
 30
0.0
 11
629.6294456651555
 21
137.6067467757469
 31
0.0
  0
LINE
  5
1F4A3
330
18
100
AcDbEntity
  8
1
  6
CONTINUOUS
 62
     7
100
AcDbLine
 10
629.6294456651555
 20
137.35674720043
 30
0.0
 11
632.7044455638276
 21
137.35674720043
 31
0.0
  0
LINE
  5
1F4A4
330
18
100
AcDbEntity
  8
1
  6
CONTINUOUS
 62
     7
100
AcDbLine
 10
632.7044455638276
 20
137.3246826955085
 30
0.0
 11
632.7044455638276
 21
137.35674720043
 31
0.0
  0
LINE
  5
1F4A5
330
18
100
AcDbEntity
  8
1
  6
CONTINUOUS
 62
     7
100
AcDbLine
 10
629.6294456651555
 20
137.3246826955085
 30
0.0
 11
629.6294456651555
 21
137.35674720043
 31
0.0
  0
LINE
  5
1F4A6
330
18
100
AcDbEntity
  8
1
  6
CONTINUOUS
 62
     7
100
AcDbLine
 10
632.7044455638276
 20
135.4317472108608
 30
0.0
 11
632.7044455638276
 21
135.4638107844596
 31
0.0
  0
LINE
  5
1F4A7
330
18
100
AcDbEntity
  8
1
  6
CONTINUOUS
 62
     7
100
AcDbLine
 10
629.6294456651555
 20
135.4317472108608
 30
0.0
 11
629.6294456651555
 21
135.4638107844596
 31
0.0
  0
LINE
  5
1F4A8
330
18
100
AcDbEntity
  8
1
  6
CONTINUOUS
 62
     7
100
AcDbLine
 10
632.7044455638276
 20
135.4638107844596
 30
0.0
 11
632.7044455638276
 21
136.2301179000144
 31
0.0
  0
LINE
  5
1F4A9
330
18
100
AcDbEntity
  8
1
  6
CONTINUOUS
 62
     7
100
AcDbLine
 10
629.6294456651555
 20
135.4638107844596
 30
0.0
 11
629.6294456651555
 21
136.2301179000144
 31
0.0
  0
LINE
  5
1F4AA
330
18
100
AcDbEntity
  8
1
  6
CONTINUOUS
 62
     7
100
AcDbLine
 10
632.7044455638276
 20
136.5583755799537
 30
0.0
 11
632.7044455638276
 21
137.3246826955085
 31
0.0
  0
LINE
  5
1F4AB
330
18
100
AcDbEntity
  8
1
  6
CONTINUOUS
 62
     7
100
AcDbLine
 10
629.6294456651555
 20
136.5583755799537
 30
0.0
 11
629.6294456651555
 21
137.3246826955085
 31
0.0
  0
LINE
  5
1F4AC
330
18
100
AcDbEntity
  8
1
  6
CONTINUOUS
 62
     7
100
AcDbLine
 10
632.7044455638276
 20
136.4942465701108
 30
0.0
 11
632.7044455638276
 21
136.5583755799537
 31
0.0
  0
LINE
  5
1F4AD
330
18
100
AcDbEntity
  8
1
  6
CONTINUOUS
 62
     7
100
AcDbLine
 10
629.6294456651555
 20
136.4942465701108
 30
0.0
 11
629.6294456651555
 21
136.5583755799537
 31
0.0
  0
LINE
  5
1F4AE
330
18
100
AcDbEntity
  8
1
  6
CONTINUOUS
 62
     7
100
AcDbLine
 10
632.7044455638276
 20
136.2301179000144
 30
0.0
 11
632.7044455638276
 21
136.2942469098573
 31
0.0
  0
LINE
  5
1F4AF
330
18
100
AcDbEntity
  8
1
  6
CONTINUOUS
 62
     7
100
AcDbLine
 10
629.6294456651555
 20
136.2301179000144
 30
0.0
 11
629.6294456651555
 21
136.2942469098573
 31
0.0
  0
LINE
  5
1F4B0
330
18
100
AcDbEntity
  8
1
  6
CONTINUOUS
 62
     7
100
AcDbLine
 10
632.7044455638276
 20
136.4942465701108
 30
0.0
 11
632.7044455638276
 21
136.2942469098573
 31
0.0
  0
LINE
  5
1F4B1
330
18
100
AcDbEntity
  8
1
  6
CONTINUOUS
 62
     7
100
AcDbLine
 10
632.4544450571881
 20
136.4942465701108
 30
0.0
 11
632.4544450571881
 21
136.2942469098573
 31
0.0
  0
ARC
  5
1F4B2
330
18
100
AcDbEntity
  8
1
  6
CONTINUOUS
 62
     7
100
AcDbCircle
 10
631.1232045599048
 20
136.0153076231892
 30
0.0
 40
0.8925718510963941
100
AcDbArc
 50
249.0490105174383
 51
272.808941399516
  0
LINE
  5
1F4B3
330
18
100
AcDbEntity
  8
1
  6
CONTINUOUS
 62
     7
100
AcDbLine
 10
630.7669444313393
 20
135.1067463659649
 30
0.0
 11
630.7669444313393
 21
135.1817467042213
 31
0.0
  0
ARC
  5
1F4B4
330
18
100
AcDbEntity
  8
1
  6
CONTINUOUS
 62
     7
100
AcDbCircle
 10
631.2106852998462
 20
136.015305938903
 30
0.0
 40
0.8925701017347042
100
AcDbArc
 50
267.1911410901273
 51
290.9509985629549
  0
LINE
  5
1F4B5
330
18
100
AcDbEntity
  8
1
  6
CONTINUOUS
 62
     7
100
AcDbLine
 10
631.5669449349986
 20
135.1817467042213
 30
0.0
 11
631.5669449349986
 21
135.1067463659649
 31
0.0
  0
LINE
  5
1F4B6
330
18
100
AcDbEntity
  8
1
  6
CONTINUOUS
 62
     7
100
AcDbLine
 10
616.4294438740359
 20
135.1817467042213
 30
0.0
 11
616.4294438740359
 21
135.4317472108608
 31
0.0
  0
LINE
  5
1F4B7
330
18
100
AcDbEntity
  8
1
  6
CONTINUOUS
 62
     7
100
AcDbLine
 10
619.504443772708
 20
135.1817467042213
 30
0.0
 11
619.504443772708
 21
135.4317472108608
 31
0.0
  0
LINE
  5
1F4B8
330
18
100
AcDbEntity
  8
1
  6
CONTINUOUS
 62
     7
100
AcDbLine
 10
616.4294438740359
 20
135.1817467042213
 30
0.0
 11
619.504443772708
 21
135.1817467042213
 31
0.0
  0
LINE
  5
1F4B9
330
18
100
AcDbEntity
  8
1
  6
CONTINUOUS
 62
     7
100
AcDbLine
 10
616.4294438740359
 20
135.4317472108608
 30
0.0
 11
619.504443772708
 21
135.4317472108608
 31
0.0
  0
LINE
  5
1F4BA
330
18
100
AcDbEntity
  8
1
  6
CONTINUOUS
 62
     7
100
AcDbLine
 10
616.4294438740359
 20
137.6067467757469
 30
0.0
 11
619.504443772708
 21
137.6067467757469
 31
0.0
  0
LINE
  5
1F4BB
330
18
100
AcDbEntity
  8
1
  6
CONTINUOUS
 62
     7
100
AcDbLine
 10
619.504443772708
 20
137.35674720043
 30
0.0
 11
619.504443772708
 21
137.6067467757469
 31
0.0
  0
LINE
  5
1F4BC
330
18
100
AcDbEntity
  8
1
  6
CONTINUOUS
 62
     7
100
AcDbLine
 10
616.4294438740359
 20
137.35674720043
 30
0.0
 11
616.4294438740359
 21
137.6067467757469
 31
0.0
  0
LINE
  5
1F4BD
330
18
100
AcDbEntity
  8
1
  6
CONTINUOUS
 62
     7
100
AcDbLine
 10
616.4294438740359
 20
137.35674720043
 30
0.0
 11
619.504443772708
 21
137.35674720043
 31
0.0
  0
LINE
  5
1F4BE
330
18
100
AcDbEntity
  8
1
  6
CONTINUOUS
 62
     7
100
AcDbLine
 10
619.504443772708
 20
137.3246826955085
 30
0.0
 11
619.504443772708
 21
137.35674720043
 31
0.0
  0
LINE
  5
1F4BF
330
18
100
AcDbEntity
  8
1
  6
CONTINUOUS
 62
     7
100
AcDbLine
 10
616.4294438740359
 20
137.3246826955085
 30
0.0
 11
616.4294438740359
 21
137.35674720043
 31
0.0
  0
LINE
  5
1F4C0
330
18
100
AcDbEntity
  8
1
  6
CONTINUOUS
 62
     7
100
AcDbLine
 10
619.504443772708
 20
135.4317472108608
 30
0.0
 11
619.504443772708
 21
135.4638107844596
 31
0.0
  0
LINE
  5
1F4C1
330
18
100
AcDbEntity
  8
1
  6
CONTINUOUS
 62
     7
100
AcDbLine
 10
616.4294438740359
 20
135.4317472108608
 30
0.0
 11
616.4294438740359
 21
135.4638107844596
 31
0.0
  0
LINE
  5
1F4C2
330
18
100
AcDbEntity
  8
1
  6
CONTINUOUS
 62
     7
100
AcDbLine
 10
619.504443772708
 20
135.4638107844596
 30
0.0
 11
619.504443772708
 21
136.2301179000144
 31
0.0
  0
LINE
  5
1F4C3
330
18
100
AcDbEntity
  8
1
  6
CONTINUOUS
 62
     7
100
AcDbLine
 10
616.4294438740359
 20
135.4638107844596
 30
0.0
 11
616.4294438740359
 21
136.2301179000144
 31
0.0
  0
LINE
  5
1F4C4
330
18
100
AcDbEntity
  8
1
  6
CONTINUOUS
 62
     7
100
AcDbLine
 10
619.504443772708
 20
136.5583755799537
 30
0.0
 11
619.504443772708
 21
137.3246826955085
 31
0.0
  0
LINE
  5
1F4C5
330
18
100
AcDbEntity
  8
1
  6
CONTINUOUS
 62
     7
100
AcDbLine
 10
616.4294438740359
 20
136.5583755799537
 30
0.0
 11
616.4294438740359
 21
137.3246826955085
 31
0.0
  0
LINE
  5
1F4C6
330
18
100
AcDbEntity
  8
1
  6
CONTINUOUS
 62
     7
100
AcDbLine
 10
619.504443772708
 20
136.4942465701108
 30
0.0
 11
619.504443772708
 21
136.5583755799537
 31
0.0
  0
LINE
  5
1F4C7
330
18
100
AcDbEntity
  8
1
  6
CONTINUOUS
 62
     7
100
AcDbLine
 10
616.4294438740359
 20
136.4942465701108
 30
0.0
 11
616.4294438740359
 21
136.5583755799537
 31
0.0
  0
LINE
  5
1F4C8
330
18
100
AcDbEntity
  8
1
  6
CONTINUOUS
 62
     7
100
AcDbLine
 10
619.504443772708
 20
136.2301179000144
 30
0.0
 11
619.504443772708
 21
136.2942469098573
 31
0.0
  0
LINE
  5
1F4C9
330
18
100
AcDbEntity
  8
1
  6
CONTINUOUS
 62
     7
100
AcDbLine
 10
616.4294438740359
 20
136.2301179000144
 30
0.0
 11
616.4294438740359
 21
136.2942469098573
 31
0.0
  0
LINE
  5
1F4CA
330
18
100
AcDbEntity
  8
1
  6
CONTINUOUS
 62
     7
100
AcDbLine
 10
619.504443772708
 20
136.4942465701108
 30
0.0
 11
619.504443772708
 21
136.2942469098573
 31
0.0
  0
LINE
  5
1F4CB
330
18
100
AcDbEntity
  8
1
  6
CONTINUOUS
 62
     7
100
AcDbLine
 10
619.2544432660685
 20
136.4942465701108
 30
0.0
 11
619.2544432660685
 21
136.2942469098573
 31
0.0
  0
ARC
  5
1F4CC
330
18
100
AcDbEntity
  8
1
  6
CONTINUOUS
 62
     7
100
AcDbCircle
 10
618.0106853713718
 20
136.015305938903
 30
0.0
 40
0.8925701017347042
100
AcDbArc
 50
267.1911410901273
 51
290.9509985629549
  0
LINE
  5
1F4CD
330
18
100
AcDbEntity
  8
1
  6
CONTINUOUS
 62
     7
100
AcDbLine
 10
618.3669450065241
 20
135.1817467042213
 30
0.0
 11
618.3669450065241
 21
135.1067463659649
 31
0.0
  0
ARC
  5
1F4CE
330
18
100
AcDbEntity
  8
1
  6
CONTINUOUS
 62
     7
100
AcDbCircle
 10
617.9232013676806
 20
136.0152769204148
 30
0.0
 40
0.8925413451662024
100
AcDbArc
 50
249.0486130992014
 51
272.8092472477141
  0
LINE
  5
1F4CF
330
18
100
AcDbEntity
  8
1
  6
CONTINUOUS
 62
     7
100
AcDbLine
 10
617.56694636551
 20
135.1067463659649
 30
0.0
 11
617.56694636551
 21
135.1817467042213
 31
0.0
  0
LINE
  5
1F4D0
330
18
100
AcDbEntity
  8
1
  6
CONTINUOUS
 62
     7
100
AcDbLine
 10
619.504443772708
 20
143.6567476742869
 30
0.0
 11
619.504443772708
 21
143.9067463182812
 31
0.0
  0
LINE
  5
1F4D1
330
18
100
AcDbEntity
  8
1
  6
CONTINUOUS
 62
     7
100
AcDbLine
 10
616.4294438740359
 20
143.9067463182812
 30
0.0
 11
619.504443772708
 21
143.9067463182812
 31
0.0
  0
LINE
  5
1F4D2
330
18
100
AcDbEntity
  8
1
  6
CONTINUOUS
 62
     7
100
AcDbLine
 10
616.4294438740359
 20
143.6567476742869
 30
0.0
 11
616.4294438740359
 21
143.9067463182812
 31
0.0
  0
LINE
  5
1F4D3
330
18
100
AcDbEntity
  8
1
  6
CONTINUOUS
 62
     7
100
AcDbLine
 10
616.4294438740359
 20
143.6567476742869
 30
0.0
 11
619.504443772708
 21
143.6567476742869
 31
0.0
  0
LINE
  5
1F4D4
330
18
100
AcDbEntity
  8
1
  6
CONTINUOUS
 62
     7
100
AcDbLine
 10
616.4294438740359
 20
141.4817471780782
 30
0.0
 11
619.504443772708
 21
141.4817471780782
 31
0.0
  0
LINE
  5
1F4D5
330
18
100
AcDbEntity
  8
1
  6
CONTINUOUS
 62
     7
100
AcDbLine
 10
619.504443772708
 20
141.4817471780782
 30
0.0
 11
619.504443772708
 21
141.7317467533951
 31
0.0
  0
LINE
  5
1F4D6
330
18
100
AcDbEntity
  8
1
  6
CONTINUOUS
 62
     7
100
AcDbLine
 10
616.4294438740359
 20
141.4817471780782
 30
0.0
 11
616.4294438740359
 21
141.7317467533951
 31
0.0
  0
LINE
  5
1F4D7
330
18
100
AcDbEntity
  8
1
  6
CONTINUOUS
 62
     7
100
AcDbLine
 10
616.4294438740359
 20
141.7317467533951
 30
0.0
 11
619.504443772708
 21
141.7317467533951
 31
0.0
  0
LINE
  5
1F4D8
330
18
100
AcDbEntity
  8
1
  6
CONTINUOUS
 62
     7
100
AcDbLine
 10
619.504443772708
 20
143.6246822380429
 30
0.0
 11
619.504443772708
 21
143.6567476742869
 31
0.0
  0
LINE
  5
1F4D9
330
18
100
AcDbEntity
  8
1
  6
CONTINUOUS
 62
     7
100
AcDbLine
 10
616.4294438740359
 20
143.6246822380429
 30
0.0
 11
616.4294438740359
 21
143.6567476742869
 31
0.0
  0
LINE
  5
1F4DA
330
18
100
AcDbEntity
  8
1
  6
CONTINUOUS
 62
     7
100
AcDbLine
 10
619.504443772708
 20
141.7317467533951
 30
0.0
 11
619.504443772708
 21
141.763810326994
 31
0.0
  0
LINE
  5
1F4DB
330
18
100
AcDbEntity
  8
1
  6
CONTINUOUS
 62
     7
100
AcDbLine
 10
616.4294438740359
 20
141.7317467533951
 30
0.0
 11
616.4294438740359
 21
141.763810326994
 31
0.0
  0
LINE
  5
1F4DC
330
18
100
AcDbEntity
  8
1
  6
CONTINUOUS
 62
     7
100
AcDbLine
 10
619.504443772708
 20
141.763810326994
 30
0.0
 11
619.504443772708
 21
142.5301174425488
 31
0.0
  0
LINE
  5
1F4DD
330
18
100
AcDbEntity
  8
1
  6
CONTINUOUS
 62
     7
100
AcDbLine
 10
616.4294438740359
 20
141.763810326994
 30
0.0
 11
616.4294438740359
 21
142.5301174425488
 31
0.0
  0
LINE
  5
1F4DE
330
18
100
AcDbEntity
  8
1
  6
CONTINUOUS
 62
     7
100
AcDbLine
 10
619.504443772708
 20
142.8583751224881
 30
0.0
 11
619.504443772708
 21
143.6246822380429
 31
0.0
  0
LINE
  5
1F4DF
330
18
100
AcDbEntity
  8
1
  6
CONTINUOUS
 62
     7
100
AcDbLine
 10
616.4294438740359
 20
142.8583751224881
 30
0.0
 11
616.4294438740359
 21
143.6246822380429
 31
0.0
  0
LINE
  5
1F4E0
330
18
100
AcDbEntity
  8
1
  6
CONTINUOUS
 62
     7
100
AcDbLine
 10
619.504443772708
 20
142.7942461126452
 30
0.0
 11
619.504443772708
 21
142.8583751224881
 31
0.0
  0
LINE
  5
1F4E1
330
18
100
AcDbEntity
  8
1
  6
CONTINUOUS
 62
     7
100
AcDbLine
 10
616.4294438740359
 20
142.7942461126452
 30
0.0
 11
616.4294438740359
 21
142.8583751224881
 31
0.0
  0
LINE
  5
1F4E2
330
18
100
AcDbEntity
  8
1
  6
CONTINUOUS
 62
     7
100
AcDbLine
 10
619.504443772708
 20
142.5301174425488
 30
0.0
 11
619.504443772708
 21
142.5942464523917
 31
0.0
  0
LINE
  5
1F4E3
330
18
100
AcDbEntity
  8
1
  6
CONTINUOUS
 62
     7
100
AcDbLine
 10
616.4294438740359
 20
142.5301174425488
 30
0.0
 11
616.4294438740359
 21
142.5942464523917
 31
0.0
  0
LINE
  5
1F4E4
330
18
100
AcDbEntity
  8
1
  6
CONTINUOUS
 62
     7
100
AcDbLine
 10
619.2544432660685
 20
142.7942461126452
 30
0.0
 11
619.2544432660685
 21
142.5942464523917
 31
0.0
  0
LINE
  5
1F4E5
330
18
100
AcDbEntity
  8
1
  6
CONTINUOUS
 62
     7
100
AcDbLine
 10
619.504443772708
 20
142.7942461126452
 30
0.0
 11
619.504443772708
 21
142.5942464523917
 31
0.0
  0
ARC
  5
1F4E6
330
18
100
AcDbEntity
  8
1
  6
CONTINUOUS
 62
     7
100
AcDbCircle
 10
617.9231990216634
 20
142.3152627000914
 30
0.0
 40
0.8925267836306215
100
AcDbArc
 50
249.0484164458414
 51
272.8094439010756
  0
LINE
  5
1F4E7
330
18
100
AcDbEntity
  8
1
  6
CONTINUOUS
 62
     7
100
AcDbLine
 10
617.56694636551
 20
141.4067468398219
 30
0.0
 11
617.56694636551
 21
141.4817471780782
 31
0.0
  0
ARC
  5
1F4E8
330
18
100
AcDbEntity
  8
1
  6
CONTINUOUS
 62
     7
100
AcDbCircle
 10
618.0106877173889
 20
142.3152917185797
 30
0.0
 40
0.892555540178386
100
AcDbArc
 50
267.1909444494372
 51
290.9511952036428
  0
LINE
  5
1F4E9
330
18
100
AcDbEntity
  8
1
  6
CONTINUOUS
 62
     7
100
AcDbLine
 10
618.3669450065241
 20
141.4817471780782
 30
0.0
 11
618.3669450065241
 21
141.4067468398219
 31
0.0
  0
LINE
  5
1F504
330
18
100
AcDbEntity
  8
1
  6
CONTINUOUS
 62
     7
100
AcDbLine
 10
629.6294456651555
 20
151.8817472063904
 30
0.0
 11
632.7044455638276
 21
151.8817472063904
 31
0.0
  0
LINE
  5
1F505
330
18
100
AcDbEntity
  8
1
  6
CONTINUOUS
 62
     7
100
AcDbLine
 10
629.6294456651555
 20
151.8817472063904
 30
0.0
 11
629.6294456651555
 21
152.1317477130299
 31
0.0
  0
LINE
  5
1F506
330
18
100
AcDbEntity
  8
1
  6
CONTINUOUS
 62
     7
100
AcDbLine
 10
629.6294456651555
 20
152.1317477130299
 30
0.0
 11
632.7044455638276
 21
152.1317477130299
 31
0.0
  0
LINE
  5
1F507
330
18
100
AcDbEntity
  8
1
  6
CONTINUOUS
 62
     7
100
AcDbLine
 10
632.7044455638276
 20
151.8817472063904
 30
0.0
 11
632.7044455638276
 21
152.1317477130299
 31
0.0
  0
LINE
  5
1F508
330
18
100
AcDbEntity
  8
1
  6
CONTINUOUS
 62
     7
100
AcDbLine
 10
629.6294456651555
 20
154.306747277916
 30
0.0
 11
632.7044455638276
 21
154.306747277916
 31
0.0
  0
LINE
  5
1F509
330
18
100
AcDbEntity
  8
1
  6
CONTINUOUS
 62
     7
100
AcDbLine
 10
632.7044455638276
 20
154.0567467712765
 30
0.0
 11
632.7044455638276
 21
154.306747277916
 31
0.0
  0
LINE
  5
1F50A
330
18
100
AcDbEntity
  8
1
  6
CONTINUOUS
 62
     7
100
AcDbLine
 10
629.6294456651555
 20
154.0567467712765
 30
0.0
 11
632.7044455638276
 21
154.0567467712765
 31
0.0
  0
LINE
  5
1F50B
330
18
100
AcDbEntity
  8
1
  6
CONTINUOUS
 62
     7
100
AcDbLine
 10
629.6294456651555
 20
154.0567467712765
 30
0.0
 11
629.6294456651555
 21
154.306747277916
 31
0.0
  0
LINE
  5
1F50C
330
18
100
AcDbEntity
  8
1
  6
CONTINUOUS
 62
     7
100
AcDbLine
 10
632.7044455638276
 20
154.0246831976777
 30
0.0
 11
632.7044455638276
 21
154.0567467712765
 31
0.0
  0
LINE
  5
1F50D
330
18
100
AcDbEntity
  8
1
  6
CONTINUOUS
 62
     7
100
AcDbLine
 10
629.6294456651555
 20
154.0246831976777
 30
0.0
 11
629.6294456651555
 21
154.0567467712765
 31
0.0
  0
LINE
  5
1F50E
330
18
100
AcDbEntity
  8
1
  6
CONTINUOUS
 62
     7
100
AcDbLine
 10
632.7044455638276
 20
152.1317477130299
 30
0.0
 11
632.7044455638276
 21
152.1638112866288
 31
0.0
  0
LINE
  5
1F50F
330
18
100
AcDbEntity
  8
1
  6
CONTINUOUS
 62
     7
100
AcDbLine
 10
629.6294456651555
 20
152.1317477130299
 30
0.0
 11
629.6294456651555
 21
152.1638112866288
 31
0.0
  0
LINE
  5
1F510
330
18
100
AcDbEntity
  8
1
  6
CONTINUOUS
 62
     7
100
AcDbLine
 10
632.7044455638276
 20
152.1638112866288
 30
0.0
 11
632.7044455638276
 21
152.9301184021836
 31
0.0
  0
LINE
  5
1F511
330
18
100
AcDbEntity
  8
1
  6
CONTINUOUS
 62
     7
100
AcDbLine
 10
629.6294456651555
 20
152.1638112866288
 30
0.0
 11
629.6294456651555
 21
152.9301184021836
 31
0.0
  0
LINE
  5
1F512
330
18
100
AcDbEntity
  8
1
  6
CONTINUOUS
 62
     7
100
AcDbLine
 10
632.7044455638276
 20
153.2583760821229
 30
0.0
 11
632.7044455638276
 21
154.0246831976777
 31
0.0
  0
LINE
  5
1F513
330
18
100
AcDbEntity
  8
1
  6
CONTINUOUS
 62
     7
100
AcDbLine
 10
629.6294456651555
 20
153.2583760821229
 30
0.0
 11
629.6294456651555
 21
154.0246831976777
 31
0.0
  0
LINE
  5
1F514
330
18
100
AcDbEntity
  8
1
  6
CONTINUOUS
 62
     7
100
AcDbLine
 10
632.7044455638276
 20
153.19424707228
 30
0.0
 11
632.7044455638276
 21
153.2583760821229
 31
0.0
  0
LINE
  5
1F515
330
18
100
AcDbEntity
  8
1
  6
CONTINUOUS
 62
     7
100
AcDbLine
 10
629.6294456651555
 20
153.19424707228
 30
0.0
 11
629.6294456651555
 21
153.2583760821229
 31
0.0
  0
LINE
  5
1F516
330
18
100
AcDbEntity
  8
1
  6
CONTINUOUS
 62
     7
100
AcDbLine
 10
632.7044455638276
 20
152.9301184021836
 30
0.0
 11
632.7044455638276
 21
152.9942474120265
 31
0.0
  0
LINE
  5
1F517
330
18
100
AcDbEntity
  8
1
  6
CONTINUOUS
 62
     7
100
AcDbLine
 10
629.6294456651555
 20
152.9301184021836
 30
0.0
 11
629.6294456651555
 21
152.9942474120265
 31
0.0
  0
LINE
  5
1F518
330
18
100
AcDbEntity
  8
1
  6
CONTINUOUS
 62
     7
100
AcDbLine
 10
632.4544450571881
 20
153.19424707228
 30
0.0
 11
632.4544450571881
 21
152.9942474120265
 31
0.0
  0
LINE
  5
1F519
330
18
100
AcDbEntity
  8
1
  6
CONTINUOUS
 62
     7
100
AcDbLine
 10
632.7044455638276
 20
153.19424707228
 30
0.0
 11
632.7044455638276
 21
152.9942474120265
 31
0.0
  0
ARC
  5
1F51A
330
18
100
AcDbEntity
  8
1
  6
CONTINUOUS
 62
     7
100
AcDbCircle
 10
631.2106850873251
 20
152.7152934421637
 30
0.0
 40
0.892558038232832
100
AcDbArc
 50
267.1911167548583
 51
290.9513096721132
  0
LINE
  5
1F51B
330
18
100
AcDbEntity
  8
1
  6
CONTINUOUS
 62
     7
100
AcDbLine
 10
631.5669449349986
 20
151.8817472063904
 30
0.0
 11
631.5669449349986
 21
151.8067459368115
 31
0.0
  0
ARC
  5
1F51C
330
18
100
AcDbEntity
  8
1
  6
CONTINUOUS
 62
     7
100
AcDbCircle
 10
631.1232047724292
 20
152.7152951264499
 30
0.0
 40
0.8925597875949481
100
AcDbArc
 50
249.0486994088155
 51
272.8089657356405
  0
LINE
  5
1F51D
330
18
100
AcDbEntity
  8
1
  6
CONTINUOUS
 62
     7
100
AcDbLine
 10
630.7669444313393
 20
151.8067459368115
 30
0.0
 11
630.7669444313393
 21
151.8817472063904
 31
0.0
  0
LINE
  5
1F56C
330
18
100
AcDbEntity
  8
1
  6
CONTINUOUS
 62
     7
100
AcDbLine
 10
629.6294456651555
 20
147.7817467206126
 30
0.0
 11
632.7044455638276
 21
147.7817467206126
 31
0.0
  0
LINE
  5
1F56D
330
18
100
AcDbEntity
  8
1
  6
CONTINUOUS
 62
     7
100
AcDbLine
 10
629.6294456651555
 20
148.0317472272521
 30
0.0
 11
632.7044455638276
 21
148.0317472272521
 31
0.0
  0
LINE
  5
1F56E
330
18
100
AcDbEntity
  8
1
  6
CONTINUOUS
 62
     7
100
AcDbLine
 10
629.6294456651555
 20
147.7817467206126
 30
0.0
 11
629.6294456651555
 21
148.0317472272521
 31
0.0
  0
LINE
  5
1F56F
330
18
100
AcDbEntity
  8
1
  6
CONTINUOUS
 62
     7
100
AcDbLine
 10
632.7044455638276
 20
147.7817467206126
 30
0.0
 11
632.7044455638276
 21
148.0317472272521
 31
0.0
  0
LINE
  5
1F570
330
18
100
AcDbEntity
  8
1
  6
CONTINUOUS
 62
     7
100
AcDbLine
 10
629.6294456651555
 20
149.9567462854987
 30
0.0
 11
629.6294456651555
 21
150.2067467921381
 31
0.0
  0
LINE
  5
1F571
330
18
100
AcDbEntity
  8
1
  6
CONTINUOUS
 62
     7
100
AcDbLine
 10
629.6294456651555
 20
149.9567462854987
 30
0.0
 11
632.7044455638276
 21
149.9567462854987
 31
0.0
  0
LINE
  5
1F572
330
18
100
AcDbEntity
  8
1
  6
CONTINUOUS
 62
     7
100
AcDbLine
 10
629.6294456651555
 20
150.2067467921381
 30
0.0
 11
632.7044455638276
 21
150.2067467921381
 31
0.0
  0
LINE
  5
1F573
330
18
100
AcDbEntity
  8
1
  6
CONTINUOUS
 62
     7
100
AcDbLine
 10
632.7044455638276
 20
149.9567462854987
 30
0.0
 11
632.7044455638276
 21
150.2067467921381
 31
0.0
  0
LINE
  5
1F574
330
18
100
AcDbEntity
  8
1
  6
CONTINUOUS
 62
     7
100
AcDbLine
 10
629.6294456651555
 20
148.0317472272521
 30
0.0
 11
629.6294456651555
 21
148.0638108008509
 31
0.0
  0
LINE
  5
1F575
330
18
100
AcDbEntity
  8
1
  6
CONTINUOUS
 62
     7
100
AcDbLine
 10
632.7044455638276
 20
148.0317472272521
 30
0.0
 11
632.7044455638276
 21
148.0638108008509
 31
0.0
  0
LINE
  5
1F576
330
18
100
AcDbEntity
  8
1
  6
CONTINUOUS
 62
     7
100
AcDbLine
 10
629.6294456651555
 20
149.9246827118998
 30
0.0
 11
629.6294456651555
 21
149.9567462854987
 31
0.0
  0
LINE
  5
1F577
330
18
100
AcDbEntity
  8
1
  6
CONTINUOUS
 62
     7
100
AcDbLine
 10
632.7044455638276
 20
149.9246827118998
 30
0.0
 11
632.7044455638276
 21
149.9567462854987
 31
0.0
  0
LINE
  5
1F578
330
18
100
AcDbEntity
  8
1
  6
CONTINUOUS
 62
     7
100
AcDbLine
 10
629.6294456651555
 20
148.0638108008509
 30
0.0
 11
629.6294456651555
 21
148.8301179164057
 31
0.0
  0
LINE
  5
1F579
330
18
100
AcDbEntity
  8
1
  6
CONTINUOUS
 62
     7
100
AcDbLine
 10
632.7044455638276
 20
148.0638108008509
 30
0.0
 11
632.7044455638276
 21
148.8301179164057
 31
0.0
  0
LINE
  5
1F57A
330
18
100
AcDbEntity
  8
1
  6
CONTINUOUS
 62
     7
100
AcDbLine
 10
629.6294456651555
 20
149.158375596345
 30
0.0
 11
629.6294456651555
 21
149.9246827118998
 31
0.0
  0
LINE
  5
1F57B
330
18
100
AcDbEntity
  8
1
  6
CONTINUOUS
 62
     7
100
AcDbLine
 10
632.7044455638276
 20
149.158375596345
 30
0.0
 11
632.7044455638276
 21
149.9246827118998
 31
0.0
  0
LINE
  5
1F57C
330
18
100
AcDbEntity
  8
1
  6
CONTINUOUS
 62
     7
100
AcDbLine
 10
629.6294456651555
 20
149.0942465865021
 30
0.0
 11
629.6294456651555
 21
149.158375596345
 31
0.0
  0
LINE
  5
1F57D
330
18
100
AcDbEntity
  8
1
  6
CONTINUOUS
 62
     7
100
AcDbLine
 10
632.7044455638276
 20
149.0942465865021
 30
0.0
 11
632.7044455638276
 21
149.158375596345
 31
0.0
  0
LINE
  5
1F57E
330
18
100
AcDbEntity
  8
1
  6
CONTINUOUS
 62
     7
100
AcDbLine
 10
629.6294456651555
 20
148.8301179164057
 30
0.0
 11
629.6294456651555
 21
148.8942469262486
 31
0.0
  0
LINE
  5
1F57F
330
18
100
AcDbEntity
  8
1
  6
CONTINUOUS
 62
     7
100
AcDbLine
 10
632.7044455638276
 20
148.8301179164057
 30
0.0
 11
632.7044455638276
 21
148.8942469262486
 31
0.0
  0
LINE
  5
1F580
330
18
100
AcDbEntity
  8
1
  6
CONTINUOUS
 62
     7
100
AcDbLine
 10
632.7044455638276
 20
149.0942465865021
 30
0.0
 11
632.7044455638276
 21
148.8942469262486
 31
0.0
  0
LINE
  5
1F581
330
18
100
AcDbEntity
  8
1
  6
CONTINUOUS
 62
     7
100
AcDbLine
 10
632.4544450571881
 20
149.0942465865021
 30
0.0
 11
632.4544450571881
 21
148.8942469262486
 31
0.0
  0
ARC
  5
1F582
330
18
100
AcDbEntity
  8
1
  6
CONTINUOUS
 62
     7
100
AcDbCircle
 10
631.1231996555
 20
148.6152912508709
 30
0.0
 40
0.8925547922362627
100
AcDbArc
 50
249.0489283542165
 51
272.8093103354581
  0
ARC
  5
1F583
330
18
100
AcDbEntity
  8
1
  6
CONTINUOUS
 62
     7
100
AcDbCircle
 10
631.2106902042932
 20
148.6152895664518
 30
0.0
 40
0.8925530427356394
100
AcDbArc
 50
267.1907721519163
 51
290.9510807270395
  0
LINE
  5
1F584
330
18
100
AcDbEntity
  8
1
  6
CONTINUOUS
 62
     7
100
AcDbLine
 10
630.7669444313393
 20
147.7067473136788
 30
0.0
 11
630.7669444313393
 21
147.7817467206126
 31
0.0
  0
LINE
  5
1F585
330
18
100
AcDbEntity
  8
1
  6
CONTINUOUS
 62
     7
100
AcDbLine
 10
631.5669449349986
 20
147.7817467206126
 30
0.0
 11
631.5669449349986
 21
147.7067473136788
 31
0.0
  0
LINE
  5
1F586
330
18
100
AcDbEntity
  8
1
  6
CONTINUOUS
 62
     7
100
AcDbLine
 10
629.6294456651555
 20
141.4817471780782
 30
0.0
 11
632.7044455638276
 21
141.4817471780782
 31
0.0
  0
LINE
  5
1F587
330
18
100
AcDbEntity
  8
1
  6
CONTINUOUS
 62
     7
100
AcDbLine
 10
629.6294456651555
 20
141.4817471780782
 30
0.0
 11
629.6294456651555
 21
141.7317467533951
 31
0.0
  0
LINE
  5
1F588
330
18
100
AcDbEntity
  8
1
  6
CONTINUOUS
 62
     7
100
AcDbLine
 10
629.6294456651555
 20
141.7317467533951
 30
0.0
 11
632.7044455638276
 21
141.7317467533951
 31
0.0
  0
LINE
  5
1F589
330
18
100
AcDbEntity
  8
1
  6
CONTINUOUS
 62
     7
100
AcDbLine
 10
632.7044455638276
 20
141.4817471780782
 30
0.0
 11
632.7044455638276
 21
141.7317467533951
 31
0.0
  0
LINE
  5
1F58A
330
18
100
AcDbEntity
  8
1
  6
CONTINUOUS
 62
     7
100
AcDbLine
 10
629.6294456651555
 20
143.9067463182812
 30
0.0
 11
632.7044455638276
 21
143.9067463182812
 31
0.0
  0
LINE
  5
1F58B
330
18
100
AcDbEntity
  8
1
  6
CONTINUOUS
 62
     7
100
AcDbLine
 10
629.6294456651555
 20
143.6567476742869
 30
0.0
 11
632.7044455638276
 21
143.6567476742869
 31
0.0
  0
LINE
  5
1F58C
330
18
100
AcDbEntity
  8
1
  6
CONTINUOUS
 62
     7
100
AcDbLine
 10
632.7044455638276
 20
143.6567476742869
 30
0.0
 11
632.7044455638276
 21
143.9067463182812
 31
0.0
  0
LINE
  5
1F58D
330
18
100
AcDbEntity
  8
1
  6
CONTINUOUS
 62
     7
100
AcDbLine
 10
629.6294456651555
 20
143.6567476742869
 30
0.0
 11
629.6294456651555
 21
143.9067463182812
 31
0.0
  0
LINE
  5
1F58E
330
18
100
AcDbEntity
  8
1
  6
CONTINUOUS
 62
     7
100
AcDbLine
 10
632.7044455638276
 20
143.6246822380429
 30
0.0
 11
632.7044455638276
 21
143.6567476742869
 31
0.0
  0
LINE
  5
1F58F
330
18
100
AcDbEntity
  8
1
  6
CONTINUOUS
 62
     7
100
AcDbLine
 10
629.6294456651555
 20
143.6246822380429
 30
0.0
 11
629.6294456651555
 21
143.6567476742869
 31
0.0
  0
LINE
  5
1F590
330
18
100
AcDbEntity
  8
1
  6
CONTINUOUS
 62
     7
100
AcDbLine
 10
629.6294456651555
 20
141.7317467533951
 30
0.0
 11
629.6294456651555
 21
141.763810326994
 31
0.0
  0
LINE
  5
1F591
330
18
100
AcDbEntity
  8
1
  6
CONTINUOUS
 62
     7
100
AcDbLine
 10
632.7044455638276
 20
141.7317467533951
 30
0.0
 11
632.7044455638276
 21
141.763810326994
 31
0.0
  0
LINE
  5
1F592
330
18
100
AcDbEntity
  8
1
  6
CONTINUOUS
 62
     7
100
AcDbLine
 10
629.6294456651555
 20
141.763810326994
 30
0.0
 11
629.6294456651555
 21
142.5301174425488
 31
0.0
  0
LINE
  5
1F593
330
18
100
AcDbEntity
  8
1
  6
CONTINUOUS
 62
     7
100
AcDbLine
 10
632.7044455638276
 20
141.763810326994
 30
0.0
 11
632.7044455638276
 21
142.5301174425488
 31
0.0
  0
LINE
  5
1F594
330
18
100
AcDbEntity
  8
1
  6
CONTINUOUS
 62
     7
100
AcDbLine
 10
632.7044455638276
 20
142.8583751224881
 30
0.0
 11
632.7044455638276
 21
143.6246822380429
 31
0.0
  0
LINE
  5
1F595
330
18
100
AcDbEntity
  8
1
  6
CONTINUOUS
 62
     7
100
AcDbLine
 10
629.6294456651555
 20
142.8583751224881
 30
0.0
 11
629.6294456651555
 21
143.6246822380429
 31
0.0
  0
LINE
  5
1F596
330
18
100
AcDbEntity
  8
1
  6
CONTINUOUS
 62
     7
100
AcDbLine
 10
632.7044455638276
 20
142.7942461126452
 30
0.0
 11
632.7044455638276
 21
142.8583751224881
 31
0.0
  0
LINE
  5
1F597
330
18
100
AcDbEntity
  8
1
  6
CONTINUOUS
 62
     7
100
AcDbLine
 10
629.6294456651555
 20
142.7942461126452
 30
0.0
 11
629.6294456651555
 21
142.8583751224881
 31
0.0
  0
LINE
  5
1F598
330
18
100
AcDbEntity
  8
1
  6
CONTINUOUS
 62
     7
100
AcDbLine
 10
629.6294456651555
 20
142.5301174425488
 30
0.0
 11
629.6294456651555
 21
142.5942464523917
 31
0.0
  0
LINE
  5
1F599
330
18
100
AcDbEntity
  8
1
  6
CONTINUOUS
 62
     7
100
AcDbLine
 10
632.7044455638276
 20
142.5301174425488
 30
0.0
 11
632.7044455638276
 21
142.5942464523917
 31
0.0
  0
LINE
  5
1F59A
330
18
100
AcDbEntity
  8
1
  6
CONTINUOUS
 62
     7
100
AcDbLine
 10
632.4544450571881
 20
142.7942461126452
 30
0.0
 11
632.4544450571881
 21
142.5942464523917
 31
0.0
  0
LINE
  5
1F59B
330
18
100
AcDbEntity
  8
1
  6
CONTINUOUS
 62
     7
100
AcDbLine
 10
632.7044455638276
 20
142.7942461126452
 30
0.0
 11
632.7044455638276
 21
142.5942464523917
 31
0.0
  0
ARC
  5
1F59C
330
18
100
AcDbEntity
  8
1
  6
CONTINUOUS
 62
     7
100
AcDbCircle
 10
631.1232022139103
 20
142.3152934029323
 30
0.0
 40
0.8925572896097468
100
AcDbArc
 50
249.0488138774535
 51
272.8091380395068
  0
ARC
  5
1F59D
330
18
100
AcDbEntity
  8
1
  6
CONTINUOUS
 62
     7
100
AcDbCircle
 10
631.2106876458633
 20
142.3152917185797
 30
0.0
 40
0.892555540178386
100
AcDbArc
 50
267.1909444494372
 51
290.9511952036428
  0
LINE
  5
1F59E
330
18
100
AcDbEntity
  8
1
  6
CONTINUOUS
 62
     7
100
AcDbLine
 10
631.5669449349986
 20
141.4817471780782
 30
0.0
 11
631.5669449349986
 21
141.4067468398219
 31
0.0
  0
LINE
  5
1F59F
330
18
100
AcDbEntity
  8
1
  6
CONTINUOUS
 62
     7
100
AcDbLine
 10
630.7669444313393
 20
141.4067468398219
 30
0.0
 11
630.7669444313393
 21
141.4817471780782
 31
0.0
  0
LINE
  5
1F5A0
330
18
100
AcDbEntity
  8
1
  6
CONTINUOUS
 62
     7
100
AcDbLine
 10
625.8220909467087
 20
129.7317468819176
 30
0.0
 11
625.8220909467087
 21
129.0317466740464
 31
0.0
  0
LINE
  5
1F5A1
330
18
100
AcDbEntity
  8
1
  6
CONTINUOUS
 62
     7
100
AcDbLine
 10
623.3117984911547
 20
129.0317466740464
 30
0.0
 11
623.3117984911547
 21
129.7317468819176
 31
0.0
  0
LINE
  5
1F5A2
330
18
100
AcDbEntity
  8
1
  6
CONTINUOUS
 62
     7
100
AcDbLine
 10
614.816944517766
 20
152.031746020258
 30
0.0
 11
613.8169462164984
 21
152.031746020258
 31
0.0
  0
LINE
  5
1F5A3
330
18
100
AcDbEntity
  8
1
  6
CONTINUOUS
 62
     7
100
AcDbLine
 10
623.3117984911547
 20
157.9317453109627
 30
0.0
 11
623.3117984911547
 21
158.6317459844952
 31
0.0
  0
LINE
  5
1F5A4
330
18
100
AcDbEntity
  8
1
  6
CONTINUOUS
 62
     7
100
AcDbLine
 10
625.8220909467087
 20
158.6317459844952
 30
0.0
 11
625.8220909467087
 21
157.9317453109627
 31
0.0
  0
LINE
  5
1F5A5
330
18
100
AcDbEntity
  8
1
  6
CONTINUOUS
 62
     7
100
AcDbLine
 10
616.2919434091197
 20
154.6567476146822
 30
0.0
 11
616.2919434091197
 21
151.8067459368115
 31
0.0
  0
LINE
  5
1F5A6
330
18
100
AcDbEntity
  8
1
  6
CONTINUOUS
 62
     7
100
AcDbLine
 10
616.2919434091197
 20
151.8067459368115
 30
0.0
 11
619.6419442376242
 21
151.8067459368115
 31
0.0
  0
LINE
  5
1F5A7
330
18
100
AcDbEntity
  8
1
  6
CONTINUOUS
 62
     7
100
AcDbLine
 10
619.6419442376242
 20
151.8067459368115
 30
0.0
 11
619.6419442376242
 21
154.6567476146822
 31
0.0
  0
LINE
  5
1F5A8
330
18
100
AcDbEntity
  8
1
  6
CONTINUOUS
 62
     7
100
AcDbLine
 10
619.6419442376242
 20
154.6567476146822
 30
0.0
 11
616.2919434091197
 21
154.6567476146822
 31
0.0
  0
LINE
  5
1F5A9
330
18
100
AcDbEntity
  8
1
  6
CONTINUOUS
 62
     7
100
AcDbLine
 10
620.691945247923
 20
154.6567476146822
 30
0.0
 11
620.691945247923
 21
151.8067459368115
 31
0.0
  0
LINE
  5
1F5AA
330
18
100
AcDbEntity
  8
1
  6
CONTINUOUS
 62
     7
100
AcDbLine
 10
620.691945247923
 20
151.8067459368115
 30
0.0
 11
624.0419442137824
 21
151.8067459368115
 31
0.0
  0
LINE
  5
1F5AB
330
18
100
AcDbEntity
  8
1
  6
CONTINUOUS
 62
     7
100
AcDbLine
 10
624.0419442137824
 20
151.8067459368115
 30
0.0
 11
624.0419442137824
 21
154.6567476146822
 31
0.0
  0
LINE
  5
1F5AC
330
18
100
AcDbEntity
  8
1
  6
CONTINUOUS
 62
     7
100
AcDbLine
 10
624.0419442137824
 20
154.6567476146822
 30
0.0
 11
620.691945247923
 21
154.6567476146822
 31
0.0
  0
LINE
  5
1F5AD
330
18
100
AcDbEntity
  8
1
  6
CONTINUOUS
 62
     7
100
AcDbLine
 10
625.0919452240811
 20
154.6567476146822
 30
0.0
 11
625.0919452240811
 21
151.8067459368115
 31
0.0
  0
LINE
  5
1F5AE
330
18
100
AcDbEntity
  8
1
  6
CONTINUOUS
 62
     7
100
AcDbLine
 10
625.0919452240811
 20
151.8067459368115
 30
0.0
 11
628.4419441899405
 21
151.8067459368115
 31
0.0
  0
LINE
  5
1F5AF
330
18
100
AcDbEntity
  8
1
  6
CONTINUOUS
 62
     7
100
AcDbLine
 10
629.4919452002392
 20
154.6567476146822
 30
0.0
 11
629.4919452002392
 21
151.8067459368115
 31
0.0
  0
LINE
  5
1F5B0
330
18
100
AcDbEntity
  8
1
  6
CONTINUOUS
 62
     7
100
AcDbLine
 10
629.4919452002392
 20
151.8067459368115
 30
0.0
 11
632.8419441660986
 21
151.8067459368115
 31
0.0
  0
LINE
  5
1F5B1
330
18
100
AcDbEntity
  8
1
  6
CONTINUOUS
 62
     7
100
AcDbLine
 10
632.8419441660986
 20
154.6567476146822
 30
0.0
 11
629.4919452002392
 21
154.6567476146822
 31
0.0
  0
LINE
  5
1F5B2
330
18
100
AcDbEntity
  8
1
  6
CONTINUOUS
 62
     7
100
AcDbLine
 10
616.2919434091197
 20
150.5567471289044
 30
0.0
 11
616.2919434091197
 21
147.7067473136788
 31
0.0
  0
LINE
  5
1F5B3
330
18
100
AcDbEntity
  8
1
  6
CONTINUOUS
 62
     7
100
AcDbLine
 10
616.2919434091197
 20
147.7067473136788
 30
0.0
 11
619.6419442376242
 21
147.7067473136788
 31
0.0
  0
LINE
  5
1F5B4
330
18
100
AcDbEntity
  8
1
  6
CONTINUOUS
 62
     7
100
AcDbLine
 10
620.691945247923
 20
144.2567466550475
 30
0.0
 11
620.691945247923
 21
141.4067468398219
 31
0.0
  0
LINE
  5
1F5B5
330
18
100
AcDbEntity
  8
1
  6
CONTINUOUS
 62
     7
100
AcDbLine
 10
619.6419442376242
 20
132.7067467176323
 30
0.0
 11
619.6419442376242
 21
134.0067463719254
 31
0.0
  0
LINE
  5
1F5B6
330
18
100
AcDbEntity
  8
1
  6
CONTINUOUS
 62
     7
100
AcDbLine
 10
619.6419442376242
 20
134.0067463719254
 30
0.0
 11
616.2919434091197
 21
134.0067463719254
 31
0.0
  0
LINE
  5
1F5B7
330
18
100
AcDbEntity
  8
1
  6
CONTINUOUS
 62
     7
100
AcDbLine
 10
616.2919434091197
 20
132.7067467176323
 30
0.0
 11
619.6419442376242
 21
132.7067467176323
 31
0.0
  0
LINE
  5
1F5B8
330
18
100
AcDbEntity
  8
1
  6
CONTINUOUS
 62
     7
100
AcDbLine
 10
619.6419442376242
 20
139.0317466833597
 30
0.0
 11
619.6419442376242
 21
140.3317463376527
 31
0.0
  0
LINE
  5
1F5B9
330
18
100
AcDbEntity
  8
1
  6
CONTINUOUS
 62
     7
100
AcDbLine
 10
616.2919434091197
 20
139.0317466833597
 30
0.0
 11
619.6419442376242
 21
139.0317466833597
 31
0.0
  0
LINE
  5
1F5BA
330
18
100
AcDbEntity
  8
1
  6
CONTINUOUS
 62
     7
100
AcDbLine
 10
632.8419441660986
 20
139.0317466833597
 30
0.0
 11
632.8419441660986
 21
140.3317463376527
 31
0.0
  0
LINE
  5
1F5BB
330
18
100
AcDbEntity
  8
1
  6
CONTINUOUS
 62
     7
100
AcDbLine
 10
632.8419441660986
 20
140.3317463376527
 30
0.0
 11
629.4919452002392
 21
140.3317463376527
 31
0.0
  0
LINE
  5
1F5BC
330
18
100
AcDbEntity
  8
1
  6
CONTINUOUS
 62
     7
100
AcDbLine
 10
629.4919452002392
 20
132.7067467176323
 30
0.0
 11
632.8419441660986
 21
132.7067467176323
 31
0.0
  0
LINE
  5
1F5BD
330
18
100
AcDbEntity
  8
1
  6
CONTINUOUS
 62
     7
100
AcDbLine
 10
632.8419441660986
 20
134.0067463719254
 30
0.0
 11
629.4919452002392
 21
134.0067463719254
 31
0.0
  0
LINE
  5
1F5BE
330
18
100
AcDbEntity
  8
1
  6
CONTINUOUS
 62
     7
100
AcDbLine
 10
629.4919452002392
 20
134.0067463719254
 30
0.0
 11
629.4919452002392
 21
132.7067467176323
 31
0.0
  0
LINE
  5
1F5BF
330
18
100
AcDbEntity
  8
1
  6
CONTINUOUS
 62
     7
100
AcDbLine
 10
632.8419441660986
 20
145.331746225894
 30
0.0
 11
632.8419441660986
 21
146.6317458801871
 31
0.0
  0
LINE
  5
1F5C0
330
18
100
AcDbEntity
  8
1
  6
CONTINUOUS
 62
     7
100
AcDbLine
 10
632.8419441660986
 20
146.6317458801871
 30
0.0
 11
616.2919434091197
 21
146.6317458801871
 31
0.0
  0
LINE
  5
1F5C1
330
18
100
AcDbEntity
  8
1
  6
CONTINUOUS
 62
     7
100
AcDbLine
 10
616.2919434091197
 20
145.331746225894
 30
0.0
 11
632.8419441660986
 21
145.331746225894
 31
0.0
  0
LINE
  5
1F5C2
330
18
100
AcDbEntity
  8
1
  6
CONTINUOUS
 62
     7
100
AcDbLine
 10
627.1669449588404
 20
133.0317466312056
 30
0.0
 11
627.5669442793475
 21
139.5317467653161
 31
0.0
  0
LINE
  5
1F5C3
330
18
100
AcDbEntity
  8
1
  6
CONTINUOUS
 62
     7
100
AcDbLine
 10
627.5669442793475
 20
139.5317467653161
 30
0.0
 11
621.566945158516
 21
139.5317467653161
 31
0.0
  0
LINE
  5
1F5C4
330
18
100
AcDbEntity
  8
1
  6
CONTINUOUS
 62
     7
100
AcDbLine
 10
621.566945158516
 20
139.5317467653161
 30
0.0
 11
621.966944479023
 21
133.0317466312056
 31
0.0
  0
LINE
  5
1F5C5
330
18
100
AcDbEntity
  8
1
  6
CONTINUOUS
 62
     7
100
AcDbLine
 10
628.4419441899405
 20
154.6567476146822
 30
0.0
 11
625.0919452240811
 21
154.6567476146822
 31
0.0
  0
LINE
  5
1F5C6
330
18
100
AcDbEntity
  8
1
  6
CONTINUOUS
 62
     7
100
AcDbLine
 10
614.816944517766
 20
129.0317466740464
 30
0.0
 11
623.3117984911547
 21
129.0317466740464
 31
0.0
  0
LINE
  5
1F5C7
330
18
100
AcDbEntity
  8
1
  6
CONTINUOUS
 62
     7
100
AcDbLine
 10
629.4919452002392
 20
140.3317463376527
 30
0.0
 11
629.4919452002392
 21
139.0317466833597
 31
0.0
  0
LINE
  5
1F5C8
330
18
100
AcDbEntity
  8
1
  6
CONTINUOUS
 62
     7
100
AcDbLine
 10
623.3117984911547
 20
129.7317468819176
 30
0.0
 11
625.8220909467087
 21
129.7317468819176
 31
0.0
  0
LINE
  5
1F5C9
330
18
100
AcDbEntity
  8
1
  6
CONTINUOUS
 62
     7
100
AcDbLine
 10
629.4919452002392
 20
139.0317466833597
 30
0.0
 11
632.8419441660986
 21
139.0317466833597
 31
0.0
  0
LINE
  5
1F5CA
330
18
100
AcDbEntity
  8
1
  6
CONTINUOUS
 62
     7
100
AcDbLine
 10
625.8220909467087
 20
129.0317466740464
 30
0.0
 11
634.3169449200974
 21
129.0317466740464
 31
0.0
  0
ARC
  5
1F5CB
330
18
100
AcDbEntity
  8
1
  6
CONTINUOUS
 62
     7
100
AcDbCircle
 10
634.3169448517181
 20
130.031746785894
 30
0.0
 40
1.0
100
AcDbArc
 50
269.9999999999935
 51
0.0
  0
LINE
  5
1F5CC
330
18
100
AcDbEntity
  8
1
  6
CONTINUOUS
 62
     7
100
AcDbLine
 10
635.3169450840102
 20
130.0317466051286
 30
0.0
 11
635.3169450840102
 21
135.6317468711143
 31
0.0
  0
LINE
  5
1F5CD
330
18
100
AcDbEntity
  8
1
  6
CONTINUOUS
 62
     7
100
AcDbLine
 10
635.3169450840102
 20
139.7317464255696
 30
0.0
 11
635.3169450840102
 21
147.9317473971253
 31
0.0
  0
LINE
  5
1F5CE
330
18
100
AcDbEntity
  8
1
  6
CONTINUOUS
 62
     7
100
AcDbLine
 10
635.3169450840102
 20
152.031746020258
 30
0.0
 11
635.3169450840102
 21
157.6317476832276
 31
0.0
  0
ARC
  5
1F5CF
330
18
100
AcDbEntity
  8
1
  6
CONTINUOUS
 62
     7
100
AcDbCircle
 10
634.3169448517181
 20
157.631746785894
 30
0.0
 40
1.0
100
AcDbArc
 50
359.9999999999984
 51
90.00000000000651
  0
LINE
  5
1F5D0
330
18
100
AcDbEntity
  8
1
  6
CONTINUOUS
 62
     7
100
AcDbLine
 10
621.966944479023
 20
133.0317466312056
 30
0.0
 11
627.1669449588404
 21
133.0317466312056
 31
0.0
  0
LINE
  5
1F5D1
330
18
100
AcDbEntity
  8
1
  6
CONTINUOUS
 62
     7
100
AcDbLine
 10
619.6419442376242
 20
140.3317463376527
 30
0.0
 11
616.2919434091197
 21
140.3317463376527
 31
0.0
  0
LINE
  5
1F5D2
330
18
100
AcDbEntity
  8
1
  6
CONTINUOUS
 62
     7
100
AcDbLine
 10
616.2919434091197
 20
140.3317463376527
 30
0.0
 11
616.2919434091197
 21
139.0317466833597
 31
0.0
  0
LINE
  5
1F5D3
330
18
100
AcDbEntity
  8
1
  6
CONTINUOUS
 62
     7
100
AcDbLine
 10
623.3117984911547
 20
158.6317459844952
 30
0.0
 11
614.816944517766
 21
158.6317459844952
 31
0.0
  0
ARC
  5
1F5D4
330
18
100
AcDbEntity
  8
1
  6
CONTINUOUS
 62
     7
100
AcDbCircle
 10
614.8169448517181
 20
157.631746785894
 30
0.0
 40
1.0
100
AcDbArc
 50
90.0
 51
180.0000000000016
  0
LINE
  5
1F5D5
330
18
100
AcDbEntity
  8
1
  6
CONTINUOUS
 62
     7
100
AcDbLine
 10
619.6419442376242
 20
150.5567471289044
 30
0.0
 11
616.2919434091197
 21
150.5567471289044
 31
0.0
  0
ARC
  5
1F5D6
330
18
100
AcDbEntity
  8
1
  6
CONTINUOUS
 62
     7
100
AcDbCircle
 10
614.8169448517181
 20
130.031746785894
 30
0.0
 40
1.0
100
AcDbArc
 50
179.9999999999984
 51
270.0
  0
LINE
  5
1F5D7
330
18
100
AcDbEntity
  8
1
  6
CONTINUOUS
 62
     7
100
AcDbLine
 10
616.2919434091197
 20
134.0067463719254
 30
0.0
 11
616.2919434091197
 21
132.7067467176323
 31
0.0
  0
LINE
  5
1F5D8
330
18
100
AcDbEntity
  8
1
  6
CONTINUOUS
 62
     7
100
AcDbLine
 10
632.8419441660986
 20
150.5567471289044
 30
0.0
 11
629.4919452002392
 21
150.5567471289044
 31
0.0
  0
LINE
  5
1F5D9
330
18
100
AcDbEntity
  8
1
  6
CONTINUOUS
 62
     7
100
AcDbLine
 10
629.4919452002392
 20
150.5567471289044
 30
0.0
 11
629.4919452002392
 21
147.7067473136788
 31
0.0
  0
LINE
  5
1F5DA
330
18
100
AcDbEntity
  8
1
  6
CONTINUOUS
 62
     7
100
AcDbLine
 10
629.4919452002392
 20
147.7067473136788
 30
0.0
 11
632.8419441660986
 21
147.7067473136788
 31
0.0
  0
LINE
  5
1F5DB
330
18
100
AcDbEntity
  8
1
  6
CONTINUOUS
 62
     7
100
AcDbLine
 10
632.8419441660986
 20
147.7067473136788
 30
0.0
 11
632.8419441660986
 21
150.5567471289044
 31
0.0
  0
LINE
  5
1F5DC
330
18
100
AcDbEntity
  8
1
  6
CONTINUOUS
 62
     7
100
AcDbLine
 10
632.8419441660986
 20
132.7067467176323
 30
0.0
 11
632.8419441660986
 21
134.0067463719254
 31
0.0
  0
LINE
  5
1F5DD
330
18
100
AcDbEntity
  8
1
  6
CONTINUOUS
 62
     7
100
AcDbLine
 10
619.6419442376242
 20
144.2567466550475
 30
0.0
 11
616.2919434091197
 21
144.2567466550475
 31
0.0
  0
LINE
  5
1F5DE
330
18
100
AcDbEntity
  8
1
  6
CONTINUOUS
 62
     7
100
AcDbLine
 10
616.2919434091197
 20
144.2567466550475
 30
0.0
 11
616.2919434091197
 21
141.4067468398219
 31
0.0
  0
LINE
  5
1F5DF
330
18
100
AcDbEntity
  8
1
  6
CONTINUOUS
 62
     7
100
AcDbLine
 10
616.2919434091197
 20
141.4067468398219
 30
0.0
 11
619.6419442376242
 21
141.4067468398219
 31
0.0
  0
LINE
  5
1F5E0
330
18
100
AcDbEntity
  8
1
  6
CONTINUOUS
 62
     7
100
AcDbLine
 10
619.6419442376242
 20
141.4067468398219
 30
0.0
 11
619.6419442376242
 21
144.2567466550475
 31
0.0
  0
LINE
  5
1F5E1
330
18
100
AcDbEntity
  8
1
  6
CONTINUOUS
 62
     7
100
AcDbLine
 10
614.816944517766
 20
147.9317473971253
 30
0.0
 11
614.816944517766
 21
152.031746020258
 31
0.0
  0
LINE
  5
1F5E2
330
18
100
AcDbEntity
  8
1
  6
CONTINUOUS
 62
     7
100
AcDbLine
 10
624.0419442137824
 20
144.2567466550475
 30
0.0
 11
620.691945247923
 21
144.2567466550475
 31
0.0
  0
LINE
  5
1F5E3
330
18
100
AcDbEntity
  8
1
  6
CONTINUOUS
 62
     7
100
AcDbLine
 10
625.8220909467087
 20
157.9317453109627
 30
0.0
 11
623.3117984911547
 21
157.9317453109627
 31
0.0
  0
LINE
  5
1F5E4
330
18
100
AcDbEntity
  8
1
  6
CONTINUOUS
 62
     7
100
AcDbLine
 10
620.691945247923
 20
141.4067468398219
 30
0.0
 11
624.0419442137824
 21
141.4067468398219
 31
0.0
  0
LINE
  5
1F5E5
330
18
100
AcDbEntity
  8
1
  6
CONTINUOUS
 62
     7
100
AcDbLine
 10
624.0419442137824
 20
141.4067468398219
 30
0.0
 11
624.0419442137824
 21
144.2567466550475
 31
0.0
  0
LINE
  5
1F5E6
330
18
100
AcDbEntity
  8
1
  6
CONTINUOUS
 62
     7
100
AcDbLine
 10
628.4419441899405
 20
144.2567466550475
 30
0.0
 11
625.0919452240811
 21
144.2567466550475
 31
0.0
  0
LINE
  5
1F5E7
330
18
100
AcDbEntity
  8
1
  6
CONTINUOUS
 62
     7
100
AcDbLine
 10
625.0919452240811
 20
144.2567466550475
 30
0.0
 11
625.0919452240811
 21
141.4067468398219
 31
0.0
  0
LINE
  5
1F5E8
330
18
100
AcDbEntity
  8
1
  6
CONTINUOUS
 62
     7
100
AcDbLine
 10
625.0919452240811
 20
141.4067468398219
 30
0.0
 11
628.4419441899405
 21
141.4067468398219
 31
0.0
  0
LINE
  5
1F5E9
330
18
100
AcDbEntity
  8
1
  6
CONTINUOUS
 62
     7
100
AcDbLine
 10
628.4419441899405
 20
141.4067468398219
 30
0.0
 11
628.4419441899405
 21
144.2567466550475
 31
0.0
  0
LINE
  5
1F5EA
330
18
100
AcDbEntity
  8
1
  6
CONTINUOUS
 62
     7
100
AcDbLine
 10
632.8419441660986
 20
144.2567466550475
 30
0.0
 11
629.4919452002392
 21
144.2567466550475
 31
0.0
  0
LINE
  5
1F5EB
330
18
100
AcDbEntity
  8
1
  6
CONTINUOUS
 62
     7
100
AcDbLine
 10
629.4919452002392
 20
144.2567466550475
 30
0.0
 11
629.4919452002392
 21
141.4067468398219
 31
0.0
  0
LINE
  5
1F5EC
330
18
100
AcDbEntity
  8
1
  6
CONTINUOUS
 62
     7
100
AcDbLine
 10
629.4919452002392
 20
141.4067468398219
 30
0.0
 11
632.8419441660986
 21
141.4067468398219
 31
0.0
  0
LINE
  5
1F5ED
330
18
100
AcDbEntity
  8
1
  6
CONTINUOUS
 62
     7
100
AcDbLine
 10
632.8419441660986
 20
141.4067468398219
 30
0.0
 11
632.8419441660986
 21
144.2567466550475
 31
0.0
  0
LINE
  5
1F5EE
330
18
100
AcDbEntity
  8
1
  6
CONTINUOUS
 62
     7
100
AcDbLine
 10
616.2919434091197
 20
146.6317458801871
 30
0.0
 11
616.2919434091197
 21
145.331746225894
 31
0.0
  0
LINE
  5
1F5EF
330
18
100
AcDbEntity
  8
1
  6
CONTINUOUS
 62
     7
100
AcDbLine
 10
619.6419442376242
 20
137.9567471125131
 30
0.0
 11
616.2919434091197
 21
137.9567471125131
 31
0.0
  0
LINE
  5
1F5F0
330
18
100
AcDbEntity
  8
1
  6
CONTINUOUS
 62
     7
100
AcDbLine
 10
616.2919434091197
 20
137.9567471125131
 30
0.0
 11
616.2919434091197
 21
135.1067463659649
 31
0.0
  0
LINE
  5
1F5F1
330
18
100
AcDbEntity
  8
1
  6
CONTINUOUS
 62
     7
100
AcDbLine
 10
616.2919434091197
 20
135.1067463659649
 30
0.0
 11
619.6419442376242
 21
135.1067463659649
 31
0.0
  0
LINE
  5
1F5F2
330
18
100
AcDbEntity
  8
1
  6
CONTINUOUS
 62
     7
100
AcDbLine
 10
619.6419442376242
 20
135.1067463659649
 30
0.0
 11
619.6419442376242
 21
137.9567471125131
 31
0.0
  0
LINE
  5
1F5F3
330
18
100
AcDbEntity
  8
1
  6
CONTINUOUS
 62
     7
100
AcDbLine
 10
632.8419441660986
 20
137.9567471125131
 30
0.0
 11
629.4919452002392
 21
137.9567471125131
 31
0.0
  0
LINE
  5
1F5F4
330
18
100
AcDbEntity
  8
1
  6
CONTINUOUS
 62
     7
100
AcDbLine
 10
629.4919452002392
 20
137.9567471125131
 30
0.0
 11
629.4919452002392
 21
135.1067463659649
 31
0.0
  0
LINE
  5
1F5F5
330
18
100
AcDbEntity
  8
1
  6
CONTINUOUS
 62
     7
100
AcDbLine
 10
629.4919452002392
 20
135.1067463659649
 30
0.0
 11
632.8419441660986
 21
135.1067463659649
 31
0.0
  0
LINE
  5
1F5F6
330
18
100
AcDbEntity
  8
1
  6
CONTINUOUS
 62
     7
100
AcDbLine
 10
632.8419441660986
 20
135.1067463659649
 30
0.0
 11
632.8419441660986
 21
137.9567471125131
 31
0.0
  0
LINE
  5
1F5F7
330
18
100
AcDbEntity
  8
1
  6
CONTINUOUS
 62
     7
100
AcDbLine
 10
628.4419441899405
 20
150.5567471289044
 30
0.0
 11
625.0919452240811
 21
150.5567471289044
 31
0.0
  0
LINE
  5
1F5F8
330
18
100
AcDbEntity
  8
1
  6
CONTINUOUS
 62
     7
100
AcDbLine
 10
625.0919452240811
 20
150.5567471289044
 30
0.0
 11
625.0919452240811
 21
147.7067473136788
 31
0.0
  0
LINE
  5
1F5F9
330
18
100
AcDbEntity
  8
1
  6
CONTINUOUS
 62
     7
100
AcDbLine
 10
625.0919452240811
 20
147.7067473136788
 30
0.0
 11
628.4419441899405
 21
147.7067473136788
 31
0.0
  0
LINE
  5
1F5FA
330
18
100
AcDbEntity
  8
1
  6
CONTINUOUS
 62
     7
100
AcDbLine
 10
628.4419441899405
 20
147.7067473136788
 30
0.0
 11
628.4419441899405
 21
150.5567471289044
 31
0.0
  0
LINE
  5
1F5FB
330
18
100
AcDbEntity
  8
1
  6
CONTINUOUS
 62
     7
100
AcDbLine
 10
634.3169449200974
 20
158.6317459844952
 30
0.0
 11
625.8220909467087
 21
158.6317459844952
 31
0.0
  0
LINE
  5
1F5FC
330
18
100
AcDbEntity
  8
1
  6
CONTINUOUS
 62
     7
100
AcDbLine
 10
624.0419442137824
 20
150.5567471289044
 30
0.0
 11
620.691945247923
 21
150.5567471289044
 31
0.0
  0
LINE
  5
1F5FD
330
18
100
AcDbEntity
  8
1
  6
CONTINUOUS
 62
     7
100
AcDbLine
 10
620.691945247923
 20
150.5567471289044
 30
0.0
 11
620.691945247923
 21
147.7067473136788
 31
0.0
  0
LINE
  5
1F5FE
330
18
100
AcDbEntity
  8
1
  6
CONTINUOUS
 62
     7
100
AcDbLine
 10
620.691945247923
 20
147.7067473136788
 30
0.0
 11
624.0419442137824
 21
147.7067473136788
 31
0.0
  0
LINE
  5
1F5FF
330
18
100
AcDbEntity
  8
1
  6
CONTINUOUS
 62
     7
100
AcDbLine
 10
624.0419442137824
 20
147.7067473136788
 30
0.0
 11
624.0419442137824
 21
150.5567471289044
 31
0.0
  0
LINE
  5
1F600
330
18
100
AcDbEntity
  8
1
  6
CONTINUOUS
 62
     7
100
AcDbLine
 10
613.8169462164984
 20
157.6317476832276
 30
0.0
 11
613.8169462164984
 21
152.031746020258
 31
0.0
  0
LINE
  5
1F601
330
18
100
AcDbEntity
  8
1
  6
CONTINUOUS
 62
     7
100
AcDbLine
 10
613.8169462164984
 20
147.9317473971253
 30
0.0
 11
613.8169462164984
 21
139.7317464255696
 31
0.0
  0
LINE
  5
1F602
330
18
100
AcDbEntity
  8
1
  6
CONTINUOUS
 62
     7
100
AcDbLine
 10
613.8169462164984
 20
135.6317468711143
 30
0.0
 11
613.8169462164984
 21
130.0317466051286
 31
0.0
  0
LINE
  5
1F603
330
18
100
AcDbEntity
  8
1
  6
CONTINUOUS
 62
     7
100
AcDbLine
 10
613.8169462164984
 20
135.6317468711143
 30
0.0
 11
614.816944517766
 21
135.6317468711143
 31
0.0
  0
LINE
  5
1F604
330
18
100
AcDbEntity
  8
1
  6
CONTINUOUS
 62
     7
100
AcDbLine
 10
614.816944517766
 20
135.6317468711143
 30
0.0
 11
614.816944517766
 21
139.7317464255696
 31
0.0
  0
LINE
  5
1F605
330
18
100
AcDbEntity
  8
1
  6
CONTINUOUS
 62
     7
100
AcDbLine
 10
614.816944517766
 20
139.7317464255696
 30
0.0
 11
613.8169462164984
 21
139.7317464255696
 31
0.0
  0
LINE
  5
1F606
330
18
100
AcDbEntity
  8
1
  6
CONTINUOUS
 62
     7
100
AcDbLine
 10
619.6419442376242
 20
147.7067473136788
 30
0.0
 11
619.6419442376242
 21
150.5567471289044
 31
0.0
  0
LINE
  5
1F607
330
18
100
AcDbEntity
  8
1
  6
CONTINUOUS
 62
     7
100
AcDbLine
 10
634.3169449200974
 20
139.7317464255696
 30
0.0
 11
634.3169449200974
 21
135.6317468711143
 31
0.0
  0
LINE
  5
1F608
330
18
100
AcDbEntity
  8
1
  6
CONTINUOUS
 62
     7
100
AcDbLine
 10
634.3169449200974
 20
135.6317468711143
 30
0.0
 11
635.3169450840102
 21
135.6317468711143
 31
0.0
  0
LINE
  5
1F609
330
18
100
AcDbEntity
  8
1
  6
CONTINUOUS
 62
     7
100
AcDbLine
 10
635.3169450840102
 20
139.7317464255696
 30
0.0
 11
634.3169449200974
 21
139.7317464255696
 31
0.0
  0
LINE
  5
1F60A
330
18
100
AcDbEntity
  8
1
  6
CONTINUOUS
 62
     7
100
AcDbLine
 10
632.8419441660986
 20
151.8067459368115
 30
0.0
 11
632.8419441660986
 21
154.6567476146822
 31
0.0
  0
LINE
  5
1F60B
330
18
100
AcDbEntity
  8
1
  6
CONTINUOUS
 62
     7
100
AcDbLine
 10
634.3169449200974
 20
152.031746020258
 30
0.0
 11
634.3169449200974
 21
147.9317473971253
 31
0.0
  0
LINE
  5
1F60C
330
18
100
AcDbEntity
  8
1
  6
CONTINUOUS
 62
     7
100
AcDbLine
 10
634.3169449200974
 20
147.9317473971253
 30
0.0
 11
635.3169450840102
 21
147.9317473971253
 31
0.0
  0
LINE
  5
1F60D
330
18
100
AcDbEntity
  8
1
  6
CONTINUOUS
 62
     7
100
AcDbLine
 10
635.3169450840102
 20
152.031746020258
 30
0.0
 11
634.3169449200974
 21
152.031746020258
 31
0.0
  0
LINE
  5
1F60E
330
18
100
AcDbEntity
  8
1
  6
CONTINUOUS
 62
     7
100
AcDbLine
 10
628.4419441899405
 20
151.8067459368115
 30
0.0
 11
628.4419441899405
 21
154.6567476146822
 31
0.0
  0
LINE
  5
1F60F
330
18
100
AcDbEntity
  8
1
  6
CONTINUOUS
 62
     7
100
AcDbLine
 10
613.8169462164984
 20
147.9317473971253
 30
0.0
 11
614.816944517766
 21
147.9317473971253
 31
0.0
  0
LINE
  5
1F610
330
18
100
AcDbEntity
  8
1
  6
CONTINUOUS
 62
     7
100
AcDbLine
 10
625.1669446310149
 20
129.0317466740464
 30
0.0
 11
625.1669446310149
 21
129.7317468819176
 31
0.0
  0
LINE
  5
1F611
330
18
100
AcDbEntity
  8
1
  6
CONTINUOUS
 62
     7
100
AcDbLine
 10
625.8220909467087
 20
129.0317466740464
 30
0.0
 11
625.1669446310149
 21
129.0317466740464
 31
0.0
  0
LINE
  5
1F612
330
18
100
AcDbEntity
  8
1
  6
CONTINUOUS
 62
     7
100
AcDbLine
 10
625.1669446310149
 20
157.9317453109627
 30
0.0
 11
625.1669446310149
 21
158.6317459844952
 31
0.0
  0
LINE
  5
1F613
330
18
100
AcDbEntity
  8
1
  6
CONTINUOUS
 62
     7
100
AcDbLine
 10
625.1669446310149
 20
158.6317459844952
 30
0.0
 11
625.8220909467087
 21
158.6317459844952
 31
0.0
  0
LINE
  5
1F614
330
18
100
AcDbEntity
  8
1
  6
CONTINUOUS
 62
     7
100
AcDbLine
 10
623.9669448068486
 20
129.7317468819176
 30
0.0
 11
623.9669448068486
 21
129.0317466740464
 31
0.0
  0
LINE
  5
1F615
330
18
100
AcDbEntity
  8
1
  6
CONTINUOUS
 62
     7
100
AcDbLine
 10
623.9669448068486
 20
129.0317466740464
 30
0.0
 11
623.3117984911547
 21
129.0317466740464
 31
0.0
  0
LINE
  5
1F616
330
18
100
AcDbEntity
  8
1
  6
CONTINUOUS
 62
     7
100
AcDbLine
 10
623.9669448068486
 20
158.6317459844952
 30
0.0
 11
623.9669448068486
 21
157.9317453109627
 31
0.0
  0
LINE
  5
1F617
330
18
100
AcDbEntity
  8
1
  6
CONTINUOUS
 62
     7
100
AcDbLine
 10
623.3117984911547
 20
158.6317459844952
 30
0.0
 11
623.9669448068486
 21
158.6317459844952
 31
0.0
  0
LINE
  5
1F618
330
18
100
AcDbEntity
  8
1
  6
CONTINUOUS
 62
     7
100
AcDbLine
 10
621.8807915529356
 20
134.431747046948
 30
0.0
 11
627.2530978849278
 21
134.431747046948
 31
0.0
  0
CIRCLE
  5
1F619
330
18
100
AcDbEntity
  8
1
  6
CONTINUOUS
 62
     7
100
AcDbCircle
 10
624.566944851718
 20
137.031746785894
 30
0.0
 40
2.0
  0
LINE
  5
1F61A
330
18
100
AcDbEntity
  8
1
  6
CONTINUOUS
 62
     7
100
AcDbLine
 10
621.9423296233759
 20
133.4317468830352
 30
0.0
 11
627.1915598144875
 21
133.4317468830352
 31
0.0
  0
LINE
  5
1F61B
330
18
100
AcDbEntity
  8
1
  6
CONTINUOUS
 62
     7
100
AcDbLine
 10
613.8169462164984
 20
139.7317464255696
 30
0.0
 11
613.8169462164984
 21
135.6317468711143
 31
0.0
  0
LINE
  5
1F61C
330
18
100
AcDbEntity
  8
1
  6
CONTINUOUS
 62
     7
100
AcDbLine
 10
635.3169450840102
 20
135.6317468711143
 30
0.0
 11
635.3169450840102
 21
139.7317464255696
 31
0.0
  0
LINE
  5
1F61D
330
18
100
AcDbEntity
  8
1
  6
CONTINUOUS
 62
     7
100
AcDbLine
 10
635.3169450840102
 20
147.9317473971253
 30
0.0
 11
635.3169450840102
 21
152.031746020258
 31
0.0
  0
LINE
  5
1F61E
330
18
100
AcDbEntity
  8
1
  6
CONTINUOUS
 62
     7
100
AcDbLine
 10
613.8169462164984
 20
152.031746020258
 30
0.0
 11
613.8169462164984
 21
147.9317473971253
 31
0.0
  0
LINE
  5
1F61F
330
18
100
AcDbEntity
  8
1
  6
CONTINUOUS
 62
     7
100
AcDbLine
 10
620.691945247923
 20
148.8567462914591
 30
0.0
 11
624.0419442137824
 21
148.8567462914591
 31
0.0
  0
LINE
  5
1F621
330
18
100
AcDbEntity
  8
1
  6
CONTINUOUS
 62
     7
100
AcDbLine
 10
629.4919452002392
 20
136.2567472063904
 30
0.0
 11
629.6294456651555
 21
136.2567472063904
 31
0.0
  0
LINE
  5
1F622
330
18
100
AcDbEntity
  8
1
  6
CONTINUOUS
 62
     7
100
AcDbLine
 10
632.7044455638276
 20
136.2567472063904
 30
0.0
 11
632.8419441660986
 21
136.2567472063904
 31
0.0
  0
LINE
  5
1F623
330
18
100
AcDbEntity
  8
1
  6
CONTINUOUS
 62
     7
100
AcDbLine
 10
629.4919452002392
 20
142.5567476802474
 30
0.0
 11
629.6294456651555
 21
142.5567476802474
 31
0.0
  0
LINE
  5
1F624
330
18
100
AcDbEntity
  8
1
  6
CONTINUOUS
 62
     7
100
AcDbLine
 10
632.7044455638276
 20
142.5567476802474
 30
0.0
 11
632.8419441660986
 21
142.5567476802474
 31
0.0
  0
LINE
  5
1F625
330
18
100
AcDbEntity
  8
1
  6
CONTINUOUS
 62
     7
100
AcDbLine
 10
616.2919434091197
 20
148.8567462914591
 30
0.0
 11
616.4294438740359
 21
148.8567462914591
 31
0.0
  0
LINE
  5
1F626
330
18
100
AcDbEntity
  8
1
  6
CONTINUOUS
 62
     7
100
AcDbLine
 10
619.504443772708
 20
148.8567462914591
 30
0.0
 11
619.6419442376242
 21
148.8567462914591
 31
0.0
  0
LINE
  5
1F628
330
18
100
AcDbEntity
  8
1
  6
CONTINUOUS
 62
     7
100
AcDbLine
 10
620.691945247923
 20
148.1067466341858
 30
0.0
 11
624.0419442137824
 21
148.1067466341858
 31
0.0
  0
LINE
  5
1F629
330
18
100
AcDbEntity
  8
1
  6
CONTINUOUS
 62
     7
100
AcDbLine
 10
632.7044455638276
 20
141.8067461603289
 30
0.0
 11
632.8419441660986
 21
141.8067461603289
 31
0.0
  0
LINE
  5
1F62A
330
18
100
AcDbEntity
  8
1
  6
CONTINUOUS
 62
     7
100
AcDbLine
 10
629.4919452002392
 20
141.8067461603289
 30
0.0
 11
629.6294456651555
 21
141.8067461603289
 31
0.0
  0
LINE
  5
1F62B
330
18
100
AcDbEntity
  8
1
  6
CONTINUOUS
 62
     7
100
AcDbLine
 10
616.2919434091197
 20
152.956746777237
 30
0.0
 11
616.4294438740359
 21
152.956746777237
 31
0.0
  0
LINE
  5
1F62C
330
18
100
AcDbEntity
  8
1
  6
CONTINUOUS
 62
     7
100
AcDbLine
 10
619.504443772708
 20
152.956746777237
 30
0.0
 11
619.6419442376242
 21
152.956746777237
 31
0.0
  0
LINE
  5
1F62D
330
18
100
AcDbEntity
  8
1
  6
CONTINUOUS
 62
     7
100
AcDbLine
 10
625.0919452240811
 20
148.8567462914591
 30
0.0
 11
628.4419441899405
 21
148.8567462914591
 31
0.0
  0
LINE
  5
1F62F
330
18
100
AcDbEntity
  8
1
  6
CONTINUOUS
 62
     7
100
AcDbLine
 10
632.7044455638276
 20
152.2067471199637
 30
0.0
 11
632.8419441660986
 21
152.2067471199637
 31
0.0
  0
LINE
  5
1F630
330
18
100
AcDbEntity
  8
1
  6
CONTINUOUS
 62
     7
100
AcDbLine
 10
629.4919452002392
 20
152.2067471199637
 30
0.0
 11
629.6294456651555
 21
152.2067471199637
 31
0.0
  0
LINE
  5
1F631
330
18
100
AcDbEntity
  8
1
  6
CONTINUOUS
 62
     7
100
AcDbLine
 10
629.4919452002392
 20
152.956746777237
 30
0.0
 11
629.6294456651555
 21
152.956746777237
 31
0.0
  0
LINE
  5
1F632
330
18
100
AcDbEntity
  8
1
  6
CONTINUOUS
 62
     7
100
AcDbLine
 10
632.7044455638276
 20
152.956746777237
 30
0.0
 11
632.8419441660986
 21
152.956746777237
 31
0.0
  0
LINE
  5
1F633
330
18
100
AcDbEntity
  8
1
  6
CONTINUOUS
 62
     7
100
AcDbLine
 10
619.504443772708
 20
141.8067461603289
 30
0.0
 11
619.6419442376242
 21
141.8067461603289
 31
0.0
  0
LINE
  5
1F634
330
18
100
AcDbEntity
  8
1
  6
CONTINUOUS
 62
     7
100
AcDbLine
 10
616.2919434091197
 20
141.8067461603289
 30
0.0
 11
616.4294438740359
 21
141.8067461603289
 31
0.0
  0
LINE
  5
1F635
330
18
100
AcDbEntity
  8
1
  6
CONTINUOUS
 62
     7
100
AcDbLine
 10
616.2919434091197
 20
142.5567476802474
 30
0.0
 11
616.4294438740359
 21
142.5567476802474
 31
0.0
  0
LINE
  5
1F636
330
18
100
AcDbEntity
  8
1
  6
CONTINUOUS
 62
     7
100
AcDbLine
 10
619.504443772708
 20
142.5567476802474
 30
0.0
 11
619.6419442376242
 21
142.5567476802474
 31
0.0
  0
LINE
  5
1F637
330
18
100
AcDbEntity
  8
1
  6
CONTINUOUS
 62
     7
100
AcDbLine
 10
632.7044455638276
 20
148.1067466341858
 30
0.0
 11
632.8419441660986
 21
148.1067466341858
 31
0.0
  0
LINE
  5
1F638
330
18
100
AcDbEntity
  8
1
  6
CONTINUOUS
 62
     7
100
AcDbLine
 10
629.4919452002392
 20
148.1067466341858
 30
0.0
 11
629.6294456651555
 21
148.1067466341858
 31
0.0
  0
LINE
  5
1F639
330
18
100
AcDbEntity
  8
1
  6
CONTINUOUS
 62
     7
100
AcDbLine
 10
629.4919452002392
 20
148.8567462914591
 30
0.0
 11
629.6294456651555
 21
148.8567462914591
 31
0.0
  0
LINE
  5
1F63A
330
18
100
AcDbEntity
  8
1
  6
CONTINUOUS
 62
     7
100
AcDbLine
 10
632.7044455638276
 20
148.8567462914591
 30
0.0
 11
632.8419441660986
 21
148.8567462914591
 31
0.0
  0
LINE
  5
1F63B
330
18
100
AcDbEntity
  8
1
  6
CONTINUOUS
 62
     7
100
AcDbLine
 10
619.504443772708
 20
135.5067466177946
 30
0.0
 11
619.6419442376242
 21
135.5067466177946
 31
0.0
  0
LINE
  5
1F63C
330
18
100
AcDbEntity
  8
1
  6
CONTINUOUS
 62
     7
100
AcDbLine
 10
616.2919434091197
 20
135.5067466177946
 30
0.0
 11
616.4294438740359
 21
135.5067466177946
 31
0.0
  0
LINE
  5
1F63D
330
18
100
AcDbEntity
  8
1
  6
CONTINUOUS
 62
     7
100
AcDbLine
 10
616.2919434091197
 20
136.2567472063904
 30
0.0
 11
616.4294438740359
 21
136.2567472063904
 31
0.0
  0
LINE
  5
1F63E
330
18
100
AcDbEntity
  8
1
  6
CONTINUOUS
 62
     7
100
AcDbLine
 10
619.504443772708
 20
136.2567472063904
 30
0.0
 11
619.6419442376242
 21
136.2567472063904
 31
0.0
  0
LINE
  5
1F63F
330
18
100
AcDbEntity
  8
1
  6
CONTINUOUS
 62
     7
100
AcDbLine
 10
620.691945247923
 20
142.5567476802474
 30
0.0
 11
624.0419442137824
 21
142.5567476802474
 31
0.0
  0
LINE
  5
1F641
330
18
100
AcDbEntity
  8
1
  6
CONTINUOUS
 62
     7
100
AcDbLine
 10
625.0919452240811
 20
142.5567476802474
 30
0.0
 11
628.4419441899405
 21
142.5567476802474
 31
0.0
  0
LINE
  5
1F643
330
18
100
AcDbEntity
  8
1
  6
CONTINUOUS
 62
     7
100
AcDbLine
 10
619.504443772708
 20
148.1067466341858
 30
0.0
 11
619.6419442376242
 21
148.1067466341858
 31
0.0
  0
LINE
  5
1F644
330
18
100
AcDbEntity
  8
1
  6
CONTINUOUS
 62
     7
100
AcDbLine
 10
616.2919434091197
 20
148.1067466341858
 30
0.0
 11
616.4294438740359
 21
148.1067466341858
 31
0.0
  0
LINE
  5
1F645
330
18
100
AcDbEntity
  8
1
  6
CONTINUOUS
 62
     7
100
AcDbLine
 10
625.0919452240811
 20
152.956746777237
 30
0.0
 11
628.4419441899405
 21
152.956746777237
 31
0.0
  0
LINE
  5
1F648
330
18
100
AcDbEntity
  8
1
  6
CONTINUOUS
 62
     7
100
AcDbLine
 10
625.0919452240811
 20
141.8067461603289
 30
0.0
 11
628.4419441899405
 21
141.8067461603289
 31
0.0
  0
LINE
  5
1F64A
330
18
100
AcDbEntity
  8
1
  6
CONTINUOUS
 62
     7
100
AcDbLine
 10
625.0919452240811
 20
148.1067466341858
 30
0.0
 11
628.4419441899405
 21
148.1067466341858
 31
0.0
  0
LINE
  5
1F64C
330
18
100
AcDbEntity
  8
1
  6
CONTINUOUS
 62
     7
100
AcDbLine
 10
620.691945247923
 20
141.8067461603289
 30
0.0
 11
624.0419442137824
 21
141.8067461603289
 31
0.0
  0
LINE
  5
1F64D
330
18
100
AcDbEntity
  8
1
  6
CONTINUOUS
 62
     7
100
AcDbLine
 10
620.691945247923
 20
152.956746777237
 30
0.0
 11
624.0419442137824
 21
152.956746777237
 31
0.0
  0
LINE
  5
1F64F
330
18
100
AcDbEntity
  8
1
  6
CONTINUOUS
 62
     7
100
AcDbLine
 10
619.504443772708
 20
152.2067471199637
 30
0.0
 11
619.6419442376242
 21
152.2067471199637
 31
0.0
  0
LINE
  5
1F650
330
18
100
AcDbEntity
  8
1
  6
CONTINUOUS
 62
     7
100
AcDbLine
 10
616.2919434091197
 20
152.2067471199637
 30
0.0
 11
616.4294438740359
 21
152.2067471199637
 31
0.0
  0
LINE
  5
1F652
330
18
100
AcDbEntity
  8
1
  6
CONTINUOUS
 62
     7
100
AcDbLine
 10
625.0919452240811
 20
152.2067471199637
 30
0.0
 11
628.4419441899405
 21
152.2067471199637
 31
0.0
  0
LINE
  5
1F654
330
18
100
AcDbEntity
  8
1
  6
CONTINUOUS
 62
     7
100
AcDbLine
 10
620.691945247923
 20
152.2067471199637
 30
0.0
 11
624.0419442137824
 21
152.2067471199637
 31
0.0
  0
LINE
  5
1F655
330
18
100
AcDbEntity
  8
1
  6
CONTINUOUS
 62
     7
100
AcDbLine
 10
632.7044455638276
 20
135.5067466177946
 30
0.0
 11
632.8419441660986
 21
135.5067466177946
 31
0.0
  0
LINE
  5
1F656
330
18
100
AcDbEntity
  8
1
  6
CONTINUOUS
 62
     7
100
AcDbLine
 10
629.4919452002392
 20
135.5067466177946
 30
0.0
 11
629.6294456651555
 21
135.5067466177946
 31
0.0
  0
LINE
  5
1F657
330
18
100
AcDbEntity
  8
1
  6
CONTINUOUS
 62
     7
100
AcDbLine
 10
616.7169431528197
 20
147.7067473136788
 30
0.0
 11
616.7169431528197
 21
147.7817467206126
 31
0.0
  0
LINE
  5
1F658
330
18
100
AcDbEntity
  8
1
  6
CONTINUOUS
 62
     7
100
AcDbLine
 10
619.2169444939242
 20
147.7817467206126
 30
0.0
 11
619.2169444939242
 21
147.7067473136788
 31
0.0
  0
LINE
  5
1F659
330
18
100
AcDbEntity
  8
1
  6
CONTINUOUS
 62
     7
100
AcDbLine
 10
625.5169449677811
 20
141.4067468398219
 30
0.0
 11
625.5169449677811
 21
141.8067461603289
 31
0.0
  0
LINE
  5
1F65A
330
18
100
AcDbEntity
  8
1
  6
CONTINUOUS
 62
     7
100
AcDbLine
 10
629.9169449439393
 20
147.7067473136788
 30
0.0
 11
629.9169449439393
 21
147.7817467206126
 31
0.0
  0
LINE
  5
1F65B
330
18
100
AcDbEntity
  8
1
  6
CONTINUOUS
 62
     7
100
AcDbLine
 10
619.2169444939242
 20
135.1817467042213
 30
0.0
 11
619.2169444939242
 21
135.1067463659649
 31
0.0
  0
LINE
  5
1F65C
330
18
100
AcDbEntity
  8
1
  6
CONTINUOUS
 62
     7
100
AcDbLine
 10
623.6169444700823
 20
152.2067471199637
 30
0.0
 11
623.6169444700823
 21
151.8067459368115
 31
0.0
  0
LINE
  5
1F65D
330
18
100
AcDbEntity
  8
1
  6
CONTINUOUS
 62
     7
100
AcDbLine
 10
628.0169444462405
 20
141.8067461603289
 30
0.0
 11
628.0169444462405
 21
141.4067468398219
 31
0.0
  0
LINE
  5
1F65E
330
18
100
AcDbEntity
  8
1
  6
CONTINUOUS
 62
     7
100
AcDbLine
 10
632.4169444223986
 20
147.7817467206126
 30
0.0
 11
632.4169444223986
 21
147.7067473136788
 31
0.0
  0
LINE
  5
1F65F
330
18
100
AcDbEntity
  8
1
  6
CONTINUOUS
 62
     7
100
AcDbLine
 10
632.4169444223986
 20
141.4817471780782
 30
0.0
 11
632.4169444223986
 21
141.4067468398219
 31
0.0
  0
LINE
  5
1F660
330
18
100
AcDbEntity
  8
1
  6
CONTINUOUS
 62
     7
100
AcDbLine
 10
629.9169449439393
 20
141.4067468398219
 30
0.0
 11
629.9169449439393
 21
141.4817471780782
 31
0.0
  0
LINE
  5
1F661
330
18
100
AcDbEntity
  8
1
  6
CONTINUOUS
 62
     7
100
AcDbLine
 10
623.6169444700823
 20
148.1067466341858
 30
0.0
 11
623.6169444700823
 21
147.7067473136788
 31
0.0
  0
LINE
  5
1F662
330
18
100
AcDbEntity
  8
1
  6
CONTINUOUS
 62
     7
100
AcDbLine
 10
621.116944991623
 20
147.7067473136788
 30
0.0
 11
621.116944991623
 21
148.1067466341858
 31
0.0
  0
LINE
  5
1F663
330
18
100
AcDbEntity
  8
1
  6
CONTINUOUS
 62
     7
100
AcDbLine
 10
619.2169444939242
 20
141.4817471780782
 30
0.0
 11
619.2169444939242
 21
141.4067468398219
 31
0.0
  0
LINE
  5
1F664
330
18
100
AcDbEntity
  8
1
  6
CONTINUOUS
 62
     7
100
AcDbLine
 10
616.7169431528197
 20
141.4067468398219
 30
0.0
 11
616.7169431528197
 21
141.4817471780782
 31
0.0
  0
LINE
  5
1F665
330
18
100
AcDbEntity
  8
1
  6
CONTINUOUS
 62
     7
100
AcDbLine
 10
616.7169431528197
 20
135.1067463659649
 30
0.0
 11
616.7169431528197
 21
135.1817467042213
 31
0.0
  0
LINE
  5
1F666
330
18
100
AcDbEntity
  8
1
  6
CONTINUOUS
 62
     7
100
AcDbLine
 10
625.5169449677811
 20
151.8067459368115
 30
0.0
 11
625.5169449677811
 21
152.2067471199637
 31
0.0
  0
LINE
  5
1F667
330
18
100
AcDbEntity
  8
1
  6
CONTINUOUS
 62
     7
100
AcDbLine
 10
619.2169444939242
 20
151.8817472063904
 30
0.0
 11
619.2169444939242
 21
151.8067459368115
 31
0.0
  0
LINE
  5
1F668
330
18
100
AcDbEntity
  8
1
  6
CONTINUOUS
 62
     7
100
AcDbLine
 10
629.9169449439393
 20
135.1067463659649
 30
0.0
 11
629.9169449439393
 21
135.1817467042213
 31
0.0
  0
LINE
  5
1F669
330
18
100
AcDbEntity
  8
1
  6
CONTINUOUS
 62
     7
100
AcDbLine
 10
629.9169449439393
 20
151.8067459368115
 30
0.0
 11
629.9169449439393
 21
151.8817472063904
 31
0.0
  0
LINE
  5
1F66A
330
18
100
AcDbEntity
  8
1
  6
CONTINUOUS
 62
     7
100
AcDbLine
 10
632.4169444223986
 20
151.8817472063904
 30
0.0
 11
632.4169444223986
 21
151.8067459368115
 31
0.0
  0
LINE
  5
1F66B
330
18
100
AcDbEntity
  8
1
  6
CONTINUOUS
 62
     7
100
AcDbLine
 10
616.7169431528197
 20
151.8067459368115
 30
0.0
 11
616.7169431528197
 21
151.8817472063904
 31
0.0
  0
LINE
  5
1F66C
330
18
100
AcDbEntity
  8
1
  6
CONTINUOUS
 62
     7
100
AcDbLine
 10
628.0169444462405
 20
148.1067466341858
 30
0.0
 11
628.0169444462405
 21
147.7067473136788
 31
0.0
  0
LINE
  5
1F66D
330
18
100
AcDbEntity
  8
1
  6
CONTINUOUS
 62
     7
100
AcDbLine
 10
621.116944991623
 20
151.8067459368115
 30
0.0
 11
621.116944991623
 21
152.2067471199637
 31
0.0
  0
LINE
  5
1F66E
330
18
100
AcDbEntity
  8
1
  6
CONTINUOUS
 62
     7
100
AcDbLine
 10
632.4169444223986
 20
135.1817467042213
 30
0.0
 11
632.4169444223986
 21
135.1067463659649
 31
0.0
  0
LINE
  5
1F66F
330
18
100
AcDbEntity
  8
1
  6
CONTINUOUS
 62
     7
100
AcDbLine
 10
621.116944991623
 20
141.4067468398219
 30
0.0
 11
621.116944991623
 21
141.8067461603289
 31
0.0
  0
LINE
  5
1F670
330
18
100
AcDbEntity
  8
1
  6
CONTINUOUS
 62
     7
100
AcDbLine
 10
623.6169444700823
 20
141.8067461603289
 30
0.0
 11
623.6169444700823
 21
141.4067468398219
 31
0.0
  0
LINE
  5
1F671
330
18
100
AcDbEntity
  8
1
  6
CONTINUOUS
 62
     7
100
AcDbLine
 10
625.5169449677811
 20
147.7067473136788
 30
0.0
 11
625.5169449677811
 21
148.1067466341858
 31
0.0
  0
LINE
  5
1F672
330
18
100
AcDbEntity
  8
1
  6
CONTINUOUS
 62
     7
100
AcDbLine
 10
628.0169444462405
 20
152.2067471199637
 30
0.0
 11
628.0169444462405
 21
151.8067459368115
 31
0.0
  0
LINE
  5
1F673
330
18
100
AcDbEntity
  8
1
  6
CONTINUOUS
 62
     7
100
AcDbLine
 10
572.2153954523325
 20
135.1817467042213
 30
0.0
 11
572.2153954523325
 21
135.4317472108608
 31
0.0
  0
LINE
  5
1F674
330
18
100
AcDbEntity
  8
1
  6
CONTINUOUS
 62
     7
100
AcDbLine
 10
572.2153954523325
 20
151.8817472063904
 30
0.0
 11
572.2153954523325
 21
152.1317477130299
 31
0.0
  0
LINE
  5
1F675
330
18
100
AcDbEntity
  8
1
  6
CONTINUOUS
 62
     7
100
AcDbLine
 10
572.2153954523325
 20
147.7817467206126
 30
0.0
 11
572.2153954523325
 21
148.0317472272521
 31
0.0
  0
LINE
  5
1F676
330
18
100
AcDbEntity
  8
1
  6
CONTINUOUS
 62
     7
100
AcDbLine
 10
572.2153954523325
 20
141.4817471780782
 30
0.0
 11
572.2153954523325
 21
141.7317467533951
 31
0.0
  0
LINE
  5
1F677
330
18
100
AcDbEntity
  8
1
  6
CONTINUOUS
 62
     7
100
AcDbLine
 10
572.2153954523325
 20
147.7817467206126
 30
0.0
 11
572.2153954523325
 21
148.0317472272521
 31
0.0
  0
ARC
  5
1F678
330
18
100
AcDbEntity
  8
1
  6
CONTINUOUS
 62
     7
100
AcDbCircle
 10
564.3653953479159
 20
155.131746785894
 30
0.0
 40
0.3999999999999915
100
AcDbArc
 50
0.0
 51
90.0
  0
LINE
  5
1F679
330
18
100
AcDbEntity
  8
1
  6
CONTINUOUS
 62
     7
100
AcDbLine
 10
564.3653952832043
 20
155.5317475252753
 30
0.0
 11
563.2653952891648
 21
155.5317475252753
 31
0.0
  0
LINE
  5
1F67A
330
18
100
AcDbEntity
  8
1
  6
CONTINUOUS
 62
     7
100
AcDbLine
 10
563.2653952891648
 20
132.1317467630809
 30
0.0
 11
564.3653952832043
 21
132.1317467630809
 31
0.0
  0
ARC
  5
1F67B
330
18
100
AcDbEntity
  8
1
  6
CONTINUOUS
 62
     7
100
AcDbCircle
 10
564.3653953479159
 20
132.531746785894
 30
0.0
 40
0.4000000000000057
100
AcDbArc
 50
270.0
 51
0.0
  0
LINE
  5
1F67C
330
18
100
AcDbEntity
  8
1
  6
CONTINUOUS
 62
     7
100
AcDbLine
 10
564.7653953022033
 20
135.4317472108608
 30
0.0
 11
571.0903952679306
 21
135.4317472108608
 31
0.0
  0
LINE
  5
1F67D
330
18
100
AcDbEntity
  8
1
  6
CONTINUOUS
 62
     7
100
AcDbLine
 10
564.7653953022033
 20
135.1817467042213
 30
0.0
 11
571.0903952679306
 21
135.1817467042213
 31
0.0
  0
LINE
  5
1F67E
330
18
100
AcDbEntity
  8
1
  6
CONTINUOUS
 62
     7
100
AcDbLine
 10
571.0903952679306
 20
135.4317472108608
 30
0.0
 11
572.2153954523325
 21
135.4317472108608
 31
0.0
  0
LINE
  5
1F67F
330
18
100
AcDbEntity
  8
1
  6
CONTINUOUS
 62
     7
100
AcDbLine
 10
571.0903952679306
 20
135.1817467042213
 30
0.0
 11
572.2153954523325
 21
135.1817467042213
 31
0.0
  0
LINE
  5
1F680
330
18
100
AcDbEntity
  8
1
  6
CONTINUOUS
 62
     7
100
AcDbLine
 10
564.7653953022033
 20
151.8817472063904
 30
0.0
 11
571.0903952679306
 21
151.8817472063904
 31
0.0
  0
LINE
  5
1F681
330
18
100
AcDbEntity
  8
1
  6
CONTINUOUS
 62
     7
100
AcDbLine
 10
564.7653953022033
 20
152.1317477130299
 30
0.0
 11
571.0903952679306
 21
152.1317477130299
 31
0.0
  0
LINE
  5
1F682
330
18
100
AcDbEntity
  8
1
  6
CONTINUOUS
 62
     7
100
AcDbLine
 10
571.0903952679306
 20
151.8817472063904
 30
0.0
 11
572.2153954523325
 21
151.8817472063904
 31
0.0
  0
LINE
  5
1F683
330
18
100
AcDbEntity
  8
1
  6
CONTINUOUS
 62
     7
100
AcDbLine
 10
571.0903952679306
 20
152.1317477130299
 30
0.0
 11
572.2153954523325
 21
152.1317477130299
 31
0.0
  0
LINE
  5
1F684
330
18
100
AcDbEntity
  8
1
  6
CONTINUOUS
 62
     7
100
AcDbLine
 10
564.7653953022033
 20
148.0317472272521
 30
0.0
 11
571.0903952679306
 21
148.0317472272521
 31
0.0
  0
LINE
  5
1F685
330
18
100
AcDbEntity
  8
1
  6
CONTINUOUS
 62
     7
100
AcDbLine
 10
564.7653953022033
 20
147.7817467206126
 30
0.0
 11
571.0903952679306
 21
147.7817467206126
 31
0.0
  0
LINE
  5
1F686
330
18
100
AcDbEntity
  8
1
  6
CONTINUOUS
 62
     7
100
AcDbLine
 10
571.0903952679306
 20
148.0317472272521
 30
0.0
 11
572.2153954523325
 21
148.0317472272521
 31
0.0
  0
LINE
  5
1F687
330
18
100
AcDbEntity
  8
1
  6
CONTINUOUS
 62
     7
100
AcDbLine
 10
571.0903952679306
 20
147.7817467206126
 30
0.0
 11
572.2153954523325
 21
147.7817467206126
 31
0.0
  0
LINE
  5
1F688
330
18
100
AcDbEntity
  8
1
  6
CONTINUOUS
 62
     7
100
AcDbLine
 10
564.7653953022033
 20
141.4817471780782
 30
0.0
 11
571.0903952679306
 21
141.4817471780782
 31
0.0
  0
LINE
  5
1F689
330
18
100
AcDbEntity
  8
1
  6
CONTINUOUS
 62
     7
100
AcDbLine
 10
564.7653953022033
 20
141.7317467533951
 30
0.0
 11
571.0903952679306
 21
141.7317467533951
 31
0.0
  0
LINE
  5
1F68A
330
18
100
AcDbEntity
  8
1
  6
CONTINUOUS
 62
     7
100
AcDbLine
 10
571.0903952679306
 20
141.4817471780782
 30
0.0
 11
572.2153954523325
 21
141.4817471780782
 31
0.0
  0
LINE
  5
1F68B
330
18
100
AcDbEntity
  8
1
  6
CONTINUOUS
 62
     7
100
AcDbLine
 10
571.0903952679306
 20
141.7317467533951
 30
0.0
 11
572.2153954523325
 21
141.7317467533951
 31
0.0
  0
LINE
  5
1F68C
330
18
100
AcDbEntity
  8
1
  6
CONTINUOUS
 62
     7
100
AcDbLine
 10
563.2653952891648
 20
147.9317473971253
 30
0.0
 11
563.2653952891648
 21
152.031746020258
 31
0.0
  0
LINE
  5
1F68D
330
18
100
AcDbEntity
  8
1
  6
CONTINUOUS
 62
     7
100
AcDbLine
 10
560.2653952630877
 20
147.9317473971253
 30
0.0
 11
560.2653952630877
 21
152.031746020258
 31
0.0
  0
LINE
  5
1F68E
330
18
100
AcDbEntity
  8
1
  6
CONTINUOUS
 62
     7
100
AcDbLine
 10
563.2653952891648
 20
135.6317468711143
 30
0.0
 11
563.2653952891648
 21
139.7317464255696
 31
0.0
  0
LINE
  5
1F68F
330
18
100
AcDbEntity
  8
1
  6
CONTINUOUS
 62
     7
100
AcDbLine
 10
560.2653952630877
 20
135.6317468711143
 30
0.0
 11
560.2653952630877
 21
139.7317464255696
 31
0.0
  0
LINE
  5
1F690
330
18
100
AcDbEntity
  8
1
  6
CONTINUOUS
 62
     7
100
AcDbLine
 10
563.2653952891648
 20
135.6317468711143
 30
0.0
 11
563.2653952891648
 21
132.1317467630809
 31
0.0
  0
LINE
  5
1F691
330
18
100
AcDbEntity
  8
1
  6
CONTINUOUS
 62
     7
100
AcDbLine
 10
554.2653952109337
 20
130.0317466051286
 30
0.0
 11
554.2653952109337
 21
135.6317468711143
 31
0.0
  0
LINE
  5
1F692
330
18
100
AcDbEntity
  8
1
  6
CONTINUOUS
 62
     7
100
AcDbLine
 10
559.7653951811313
 20
135.6317468711143
 30
0.0
 11
554.2653952109337
 21
135.6317468711143
 31
0.0
  0
LINE
  5
1F693
330
18
100
AcDbEntity
  8
1
  6
CONTINUOUS
 62
     7
100
AcDbLine
 10
559.7653951811313
 20
135.6317468711143
 30
0.0
 11
559.7653951811313
 21
139.7317464255696
 31
0.0
  0
LINE
  5
1F694
330
18
100
AcDbEntity
  8
1
  6
CONTINUOUS
 62
     7
100
AcDbLine
 10
559.7653951811313
 20
139.7317464255696
 30
0.0
 11
554.2653952109337
 21
139.7317464255696
 31
0.0
  0
LINE
  5
1F695
330
18
100
AcDbEntity
  8
1
  6
CONTINUOUS
 62
     7
100
AcDbLine
 10
554.2653952109337
 20
139.7317464255696
 30
0.0
 11
554.2653952109337
 21
147.9317473971253
 31
0.0
  0
LINE
  5
1F696
330
18
100
AcDbEntity
  8
1
  6
CONTINUOUS
 62
     7
100
AcDbLine
 10
559.7653951811313
 20
147.9317473971253
 30
0.0
 11
559.7653951811313
 21
152.031746020258
 31
0.0
  0
LINE
  5
1F697
330
18
100
AcDbEntity
  8
1
  6
CONTINUOUS
 62
     7
100
AcDbLine
 10
559.7653951811313
 20
152.031746020258
 30
0.0
 11
554.2653952109337
 21
152.031746020258
 31
0.0
  0
LINE
  5
1F698
330
18
100
AcDbEntity
  8
1
  6
CONTINUOUS
 62
     7
100
AcDbLine
 10
554.2653952109337
 20
152.031746020258
 30
0.0
 11
554.2653952109337
 21
157.6317476832276
 31
0.0
  0
LINE
  5
1F699
330
18
100
AcDbEntity
  8
1
  6
CONTINUOUS
 62
     7
100
AcDbLine
 10
563.2653952891648
 20
155.5317475252753
 30
0.0
 11
563.2653952891648
 21
152.031746020258
 31
0.0
  0
LINE
  5
1F69A
330
18
100
AcDbEntity
  8
1
  6
CONTINUOUS
 62
     7
100
AcDbLine
 10
563.2653952891648
 20
147.9317473971253
 30
0.0
 11
563.2653952891648
 21
139.7317464255696
 31
0.0
  0
LINE
  5
1F69B
330
18
100
AcDbEntity
  8
1
  6
CONTINUOUS
 62
     7
100
AcDbLine
 10
557.265395702672
 20
130.0317466051286
 30
0.0
 11
557.265395702672
 21
132.1317467630809
 31
0.0
  0
LINE
  5
1F69C
330
18
100
AcDbEntity
  8
1
  6
CONTINUOUS
 62
     7
100
AcDbLine
 10
559.7653951811313
 20
147.9317473971253
 30
0.0
 11
554.2653952109337
 21
147.9317473971253
 31
0.0
  0
LINE
  5
1F69D
330
18
100
AcDbEntity
  8
1
  6
CONTINUOUS
 62
     7
100
AcDbLine
 10
557.265395702672
 20
155.5317475252753
 30
0.0
 11
557.265395702672
 21
157.6317476832276
 31
0.0
  0
LINE
  5
1F69E
330
18
100
AcDbEntity
  8
1
  6
CONTINUOUS
 62
     7
100
AcDbLine
 10
560.2653952630877
 20
139.7317464255696
 30
0.0
 11
563.2653952891648
 21
139.7317464255696
 31
0.0
  0
LINE
  5
1F69F
330
18
100
AcDbEntity
  8
1
  6
CONTINUOUS
 62
     7
100
AcDbLine
 10
560.2653952630877
 20
135.6317468711143
 30
0.0
 11
563.2653952891648
 21
135.6317468711143
 31
0.0
  0
LINE
  5
1F6A0
330
18
100
AcDbEntity
  8
1
  6
CONTINUOUS
 62
     7
100
AcDbLine
 10
560.2653952630877
 20
152.031746020258
 30
0.0
 11
563.2653952891648
 21
152.031746020258
 31
0.0
  0
LINE
  5
1F6A1
330
18
100
AcDbEntity
  8
1
  6
CONTINUOUS
 62
     7
100
AcDbLine
 10
560.2653952630877
 20
147.9317473971253
 30
0.0
 11
563.2653952891648
 21
147.9317473971253
 31
0.0
  0
LINE
  5
1F6A2
330
18
100
AcDbEntity
  8
1
  6
CONTINUOUS
 62
     7
100
AcDbLine
 10
563.2653952891648
 20
156.5317476891881
 30
0.0
 11
557.265395702672
 21
156.5317476891881
 31
0.0
  0
LINE
  5
1F6A3
330
18
100
AcDbEntity
  8
1
  6
CONTINUOUS
 62
     7
100
AcDbLine
 10
563.2653952891648
 20
156.5317476891881
 30
0.0
 11
563.2653952891648
 21
155.5317475252753
 31
0.0
  0
LINE
  5
1F6A4
330
18
100
AcDbEntity
  8
1
  6
CONTINUOUS
 62
     7
100
AcDbLine
 10
557.265395702672
 20
129.0317466740464
 30
0.0
 11
554.2653952109337
 21
129.0317466740464
 31
0.0
  0
LINE
  5
1F6A5
330
18
100
AcDbEntity
  8
1
  6
CONTINUOUS
 62
     7
100
AcDbLine
 10
554.2653952109337
 20
129.0317466740464
 30
0.0
 11
554.2653952109337
 21
130.0317466051286
 31
0.0
  0
LINE
  5
1F6A6
330
18
100
AcDbEntity
  8
1
  6
CONTINUOUS
 62
     7
100
AcDbLine
 10
557.265395702672
 20
129.0317466740464
 30
0.0
 11
557.265395702672
 21
130.0317466051286
 31
0.0
  0
LINE
  5
1F6A7
330
18
100
AcDbEntity
  8
1
  6
CONTINUOUS
 62
     7
100
AcDbLine
 10
563.2653952891648
 20
131.1317465991681
 30
0.0
 11
557.265395702672
 21
131.1317465991681
 31
0.0
  0
LINE
  5
1F6A8
330
18
100
AcDbEntity
  8
1
  6
CONTINUOUS
 62
     7
100
AcDbLine
 10
563.2653952891648
 20
132.1317467630809
 30
0.0
 11
563.2653952891648
 21
131.1317465991681
 31
0.0
  0
LINE
  5
1F6A9
330
18
100
AcDbEntity
  8
1
  6
CONTINUOUS
 62
     7
100
AcDbLine
 10
557.265395702672
 20
158.6317459844952
 30
0.0
 11
554.2653952109337
 21
158.6317459844952
 31
0.0
  0
LINE
  5
1F6AA
330
18
100
AcDbEntity
  8
1
  6
CONTINUOUS
 62
     7
100
AcDbLine
 10
554.2653952109337
 20
157.6317476832276
 30
0.0
 11
554.2653952109337
 21
158.6317459844952
 31
0.0
  0
LINE
  5
1F6AB
330
18
100
AcDbEntity
  8
1
  6
CONTINUOUS
 62
     7
100
AcDbLine
 10
557.265395702672
 20
157.6317476832276
 30
0.0
 11
557.265395702672
 21
158.6317459844952
 31
0.0
  0
LINE
  5
1F6AC
330
18
100
AcDbEntity
  8
1
  6
CONTINUOUS
 62
     7
100
AcDbLine
 10
554.2653952109337
 20
152.031746020258
 30
0.0
 11
554.2653952109337
 21
147.9317473971253
 31
0.0
  0
LINE
  5
1F6AD
330
18
100
AcDbEntity
  8
1
  6
CONTINUOUS
 62
     7
100
AcDbLine
 10
554.2653952109337
 20
139.7317464255696
 30
0.0
 11
554.2653952109337
 21
135.6317468711143
 31
0.0
  0
LINE
  5
1F6AE
330
18
100
AcDbEntity
  8
1
  6
CONTINUOUS
 62
     7
100
AcDbLine
 10
564.7653953022033
 20
132.5317470149105
 30
0.0
 11
564.7653953022033
 21
155.1317463421231
 31
0.0
  0
LINE
  5
1F6AF
330
18
100
AcDbEntity
  8
1
  6
CONTINUOUS
 62
     7
100
AcDbLine
 10
630.7669444313393
 20
213.3516614060816
 30
0.0
 11
631.5669449349986
 21
213.3516614060816
 31
0.0
  0
LINE
  5
1F6B0
330
18
100
AcDbEntity
  8
1
  6
CONTINUOUS
 62
     7
100
AcDbLine
 10
630.7669444313393
 20
213.3516614060816
 30
0.0
 11
630.7669444313393
 21
213.7516616579112
 31
0.0
  0
LINE
  5
1F6B1
330
18
100
AcDbEntity
  8
1
  6
CONTINUOUS
 62
     7
100
AcDbLine
 10
631.5669449349986
 20
213.3516614060816
 30
0.0
 11
631.5669449349986
 21
213.7516616579112
 31
0.0
  0
LINE
  5
1F6B2
330
18
100
AcDbEntity
  8
1
  6
CONTINUOUS
 62
     7
100
AcDbLine
 10
630.5669447710858
 20
206.301661507782
 30
0.0
 11
630.5669447710858
 21
208.1016615932774
 31
0.0
  0
ARC
  5
1F6B3
330
18
100
AcDbEntity
  8
1
  6
CONTINUOUS
 62
     7
100
AcDbCircle
 10
631.1669448517181
 20
206.3016615991601
 30
0.0
 40
0.5999999999999943
100
AcDbArc
 50
180.0
 51
0.0
  0
LINE
  5
1F6B4
330
18
100
AcDbEntity
  8
1
  6
CONTINUOUS
 62
     7
100
AcDbLine
 10
631.7669445952521
 20
208.1016615932774
 30
0.0
 11
631.7669445952521
 21
206.301661507782
 31
0.0
  0
ARC
  5
1F6B5
330
18
100
AcDbEntity
  8
1
  6
CONTINUOUS
 62
     7
100
AcDbCircle
 10
631.1669448517181
 20
208.1016615991601
 30
0.0
 40
0.5999999999999943
100
AcDbArc
 50
0.0
 51
180.0
  0
ARC
  5
1F6B6
330
18
100
AcDbEntity
  8
1
  6
CONTINUOUS
 62
     7
100
AcDbCircle
 10
631.1669448517181
 20
205.9266615991601
 30
0.0
 40
1.125000000000028
100
AcDbArc
 50
180.0
 51
0.0
  0
LINE
  5
1F6B7
330
18
100
AcDbEntity
  8
1
  6
CONTINUOUS
 62
     7
100
AcDbLine
 10
630.041945197259
 20
205.9266616791454
 30
0.0
 11
630.041945197259
 21
213.7516616579112
 31
0.0
  0
LINE
  5
1F6B8
330
18
100
AcDbEntity
  8
1
  6
CONTINUOUS
 62
     7
100
AcDbLine
 10
632.2919441690789
 20
213.7516616579112
 30
0.0
 11
632.2919441690789
 21
205.9266616791454
 31
0.0
  0
LINE
  5
1F6B9
330
18
100
AcDbEntity
  8
1
  6
CONTINUOUS
 62
     7
100
AcDbLine
 10
617.56694636551
 20
213.3516614060816
 30
0.0
 11
618.3669450065241
 21
213.3516614060816
 31
0.0
  0
LINE
  5
1F6BA
330
18
100
AcDbEntity
  8
1
  6
CONTINUOUS
 62
     7
100
AcDbLine
 10
617.56694636551
 20
213.3516614060816
 30
0.0
 11
617.56694636551
 21
213.7516616579112
 31
0.0
  0
LINE
  5
1F6BB
330
18
100
AcDbEntity
  8
1
  6
CONTINUOUS
 62
     7
100
AcDbLine
 10
618.3669450065241
 20
213.3516614060816
 30
0.0
 11
618.3669450065241
 21
213.7516616579112
 31
0.0
  0
ARC
  5
1F6BC
330
18
100
AcDbEntity
  8
1
  6
CONTINUOUS
 62
     7
100
AcDbCircle
 10
617.966944851718
 20
206.3016615991601
 30
0.0
 40
0.5999999999999943
100
AcDbArc
 50
180.0
 51
0.0
  0
LINE
  5
1F6BD
330
18
100
AcDbEntity
  8
1
  6
CONTINUOUS
 62
     7
100
AcDbLine
 10
618.5669446667777
 20
208.1016615932774
 30
0.0
 11
618.5669446667777
 21
206.301661507782
 31
0.0
  0
ARC
  5
1F6BE
330
18
100
AcDbEntity
  8
1
  6
CONTINUOUS
 62
     7
100
AcDbCircle
 10
617.966944851718
 20
208.1016615991601
 30
0.0
 40
0.5999999999999943
100
AcDbArc
 50
0.0
 51
180.0
  0
LINE
  5
1F6BF
330
18
100
AcDbEntity
  8
1
  6
CONTINUOUS
 62
     7
100
AcDbLine
 10
619.0919461032496
 20
213.7516616579112
 30
0.0
 11
619.0919461032496
 21
205.9266616791454
 31
0.0
  0
ARC
  5
1F6C0
330
18
100
AcDbEntity
  8
1
  6
CONTINUOUS
 62
     7
100
AcDbCircle
 10
617.966944851718
 20
205.9266615991601
 30
0.0
 40
1.125
100
AcDbArc
 50
180.0
 51
0.0
  0
LINE
  5
1F6C1
330
18
100
AcDbEntity
  8
1
  6
CONTINUOUS
 62
     7
100
AcDbLine
 10
617.3669467052565
 20
206.301661507782
 30
0.0
 11
617.3669467052565
 21
208.1016615932774
 31
0.0
  0
LINE
  5
1F6C2
330
18
100
AcDbEntity
  8
1
  6
CONTINUOUS
 62
     7
100
AcDbLine
 10
616.8419452687846
 20
205.9266616791454
 30
0.0
 11
616.8419452687846
 21
213.7516616579112
 31
0.0
  0
LINE
  5
1F6C3
330
18
100
AcDbEntity
  8
1
  6
CONTINUOUS
 62
     7
100
AcDbLine
 10
626.3669444551812
 20
213.3516614060816
 30
0.0
 11
627.1669449588404
 21
213.3516614060816
 31
0.0
  0
LINE
  5
1F6C4
330
18
100
AcDbEntity
  8
1
  6
CONTINUOUS
 62
     7
100
AcDbLine
 10
626.3669444551812
 20
213.3516614060816
 30
0.0
 11
626.3669444551812
 21
213.7516616579112
 31
0.0
  0
LINE
  5
1F6C5
330
18
100
AcDbEntity
  8
1
  6
CONTINUOUS
 62
     7
100
AcDbLine
 10
627.1669449588404
 20
213.3516614060816
 30
0.0
 11
627.1669449588404
 21
213.7516616579112
 31
0.0
  0
LINE
  5
1F6CD
330
18
100
AcDbEntity
  8
1
  6
CONTINUOUS
 62
     7
100
AcDbLine
 10
621.966944479023
 20
213.3516614060816
 30
0.0
 11
622.7669449826823
 21
213.3516614060816
 31
0.0
  0
LINE
  5
1F6CE
330
18
100
AcDbEntity
  8
1
  6
CONTINUOUS
 62
     7
100
AcDbLine
 10
621.966944479023
 20
213.3516614060816
 30
0.0
 11
621.966944479023
 21
213.7516616579112
 31
0.0
  0
LINE
  5
1F6CF
330
18
100
AcDbEntity
  8
1
  6
CONTINUOUS
 62
     7
100
AcDbLine
 10
622.7669449826823
 20
213.3516614060816
 30
0.0
 11
622.7669449826823
 21
213.7516616579112
 31
0.0
  0
LINE
  5
1F6D7
330
18
100
AcDbEntity
  8
1
  6
CONTINUOUS
 62
     7
100
AcDbLine
 10
614.816944517766
 20
219.751661244404
 30
0.0
 11
623.9669448068486
 21
219.751661244404
 31
0.0
  0
LINE
  5
1F6D8
330
18
100
AcDbEntity
  8
1
  6
CONTINUOUS
 62
     7
100
AcDbLine
 10
614.816944517766
 20
222.7516617361423
 30
0.0
 11
623.3117984911547
 21
222.7516617361423
 31
0.0
  0
LINE
  5
1F6D9
330
18
100
AcDbEntity
  8
1
  6
CONTINUOUS
 62
     7
100
AcDbLine
 10
623.9669448068486
 20
220.9516619998928
 30
0.0
 11
623.3117984911547
 21
222.7516617361423
 31
0.0
  0
LINE
  5
1F6DA
330
18
100
AcDbEntity
  8
1
  6
CONTINUOUS
 62
     7
100
AcDbLine
 10
623.9669448068486
 20
219.751661244404
 30
0.0
 11
623.9669448068486
 21
220.9516619998928
 31
0.0
  0
LINE
  5
1F6DB
330
18
100
AcDbEntity
  8
1
  6
CONTINUOUS
 62
     7
100
AcDbLine
 10
625.1669446310149
 20
219.751661244404
 30
0.0
 11
634.3169449200974
 21
219.751661244404
 31
0.0
  0
LINE
  5
1F6DC
330
18
100
AcDbEntity
  8
1
  6
CONTINUOUS
 62
     7
100
AcDbLine
 10
625.8220909467087
 20
222.7516617361423
 30
0.0
 11
625.1669446310149
 21
220.9516619998928
 31
0.0
  0
LINE
  5
1F6DD
330
18
100
AcDbEntity
  8
1
  6
CONTINUOUS
 62
     7
100
AcDbLine
 10
625.8220909467087
 20
222.7516617361423
 30
0.0
 11
634.3169449200974
 21
222.7516617361423
 31
0.0
  0
LINE
  5
1F6DE
330
18
100
AcDbEntity
  8
1
  6
CONTINUOUS
 62
     7
100
AcDbLine
 10
625.1669446310149
 20
219.751661244404
 30
0.0
 11
625.1669446310149
 21
220.9516619998928
 31
0.0
  0
LINE
  5
1F6DF
330
18
100
AcDbEntity
  8
1
  6
CONTINUOUS
 62
     7
100
AcDbLine
 10
613.8169462164984
 20
219.751661244404
 30
0.0
 11
613.8169462164984
 21
222.7516617361423
 31
0.0
  0
LINE
  5
1F6E0
330
18
100
AcDbEntity
  8
1
  6
CONTINUOUS
 62
     7
100
AcDbLine
 10
613.8169462164984
 20
222.7516617361423
 30
0.0
 11
614.816944517766
 21
222.7516617361423
 31
0.0
  0
LINE
  5
1F6E1
330
18
100
AcDbEntity
  8
1
  6
CONTINUOUS
 62
     7
100
AcDbLine
 10
613.8169462164984
 20
219.751661244404
 30
0.0
 11
614.816944517766
 21
219.751661244404
 31
0.0
  0
LINE
  5
1F6E2
330
18
100
AcDbEntity
  8
1
  6
CONTINUOUS
 62
     7
100
AcDbLine
 10
635.3169450840102
 20
219.751661244404
 30
0.0
 11
635.3169450840102
 21
222.7516617361423
 31
0.0
  0
LINE
  5
1F6E3
330
18
100
AcDbEntity
  8
1
  6
CONTINUOUS
 62
     7
100
AcDbLine
 10
634.3169449200974
 20
219.751661244404
 30
0.0
 11
635.3169450840102
 21
219.751661244404
 31
0.0
  0
LINE
  5
1F6E4
330
18
100
AcDbEntity
  8
1
  6
CONTINUOUS
 62
     7
100
AcDbLine
 10
634.3169449200974
 20
222.7516617361423
 30
0.0
 11
635.3169450840102
 21
222.7516617361423
 31
0.0
  0
LINE
  5
1F6E5
330
18
100
AcDbEntity
  8
1
  6
CONTINUOUS
 62
     7
100
AcDbLine
 10
625.1669446310149
 20
220.9516619998928
 30
0.0
 11
623.9669448068486
 21
220.9516619998928
 31
0.0
  0
LINE
  5
1F6E6
330
18
100
AcDbEntity
  8
1
  6
CONTINUOUS
 62
     7
100
AcDbLine
 10
623.3117984911547
 20
222.7516617361423
 30
0.0
 11
625.8220909467087
 21
222.7516617361423
 31
0.0
  0
LINE
  5
1F6E7
330
18
100
AcDbEntity
  8
1
  6
CONTINUOUS
 62
     7
100
AcDbLine
 10
635.3169450840102
 20
213.7516616579112
 30
0.0
 11
634.3169449200974
 21
213.7516616579112
 31
0.0
  0
LINE
  5
1F6E8
330
18
100
AcDbEntity
  8
1
  6
CONTINUOUS
 62
     7
100
AcDbLine
 10
635.3169450840102
 20
213.7516616579112
 30
0.0
 11
635.3169450840102
 21
219.751661244404
 31
0.0
  0
LINE
  5
1F6E9
330
18
100
AcDbEntity
  8
1
  6
CONTINUOUS
 62
     7
100
AcDbLine
 10
614.816944517766
 20
213.7516616579112
 30
0.0
 11
613.8169462164984
 21
213.7516616579112
 31
0.0
  0
LINE
  5
1F6EA
330
18
100
AcDbEntity
  8
1
  6
CONTINUOUS
 62
     7
100
AcDbLine
 10
613.8169462164984
 20
213.7516616579112
 30
0.0
 11
613.8169462164984
 21
219.751661244404
 31
0.0
  0
LINE
  5
1F6EB
330
18
100
AcDbEntity
  8
1
  6
CONTINUOUS
 62
     7
100
AcDbLine
 10
619.6344452282534
 20
214.4266614425894
 30
0.0
 11
619.6344452282534
 21
213.7516616579112
 31
0.0
  0
LINE
  5
1F6EC
330
18
100
AcDbEntity
  8
1
  6
CONTINUOUS
 62
     7
100
AcDbLine
 10
629.49944420961
 20
214.4266614425894
 30
0.0
 11
628.4344451805697
 21
214.4266614425894
 31
0.0
  0
LINE
  5
1F6ED
330
18
100
AcDbEntity
  8
1
  6
CONTINUOUS
 62
     7
100
AcDbLine
 10
628.4344451805697
 20
214.4266614425894
 30
0.0
 11
628.4344451805697
 21
213.7516616579112
 31
0.0
  0
LINE
  5
1F6EE
330
18
100
AcDbEntity
  8
1
  6
CONTINUOUS
 62
     7
100
AcDbLine
 10
628.4344451805697
 20
213.7516616579112
 30
0.0
 11
620.6994442572937
 21
213.7516616579112
 31
0.0
  0
LINE
  5
1F6EF
330
18
100
AcDbEntity
  8
1
  6
CONTINUOUS
 62
     7
100
AcDbLine
 10
620.6994442572937
 20
214.4266614425894
 30
0.0
 11
620.6994442572937
 21
213.7516616579112
 31
0.0
  0
LINE
  5
1F6F0
330
18
100
AcDbEntity
  8
1
  6
CONTINUOUS
 62
     7
100
AcDbLine
 10
620.6994442572937
 20
214.4266614425894
 30
0.0
 11
619.6344452282534
 21
214.4266614425894
 31
0.0
  0
LINE
  5
1F6F1
330
18
100
AcDbEntity
  8
1
  6
CONTINUOUS
 62
     7
100
AcDbLine
 10
634.3169449200974
 20
213.7516616579112
 30
0.0
 11
629.49944420961
 21
213.7516616579112
 31
0.0
  0
LINE
  5
1F6F2
330
18
100
AcDbEntity
  8
1
  6
CONTINUOUS
 62
     7
100
AcDbLine
 10
619.6344452282534
 20
213.7516616579112
 30
0.0
 11
614.816944517766
 21
213.7516616579112
 31
0.0
  0
LINE
  5
1F6F3
330
18
100
AcDbEntity
  8
1
  6
CONTINUOUS
 62
     7
100
AcDbLine
 10
629.49944420961
 20
214.4266614425894
 30
0.0
 11
629.49944420961
 21
213.7516616579112
 31
0.0
  0
ARC
  5
1F6F4
330
18
100
AcDbEntity
  8
1
  6
CONTINUOUS
 62
     7
100
AcDbCircle
 10
633.366944851718
 20
212.6516615991601
 30
0.0
 40
0.4000000000000057
100
AcDbArc
 50
270.0
 51
0.0
  0
ARC
  5
1F6F5
330
18
100
AcDbEntity
  8
1
  6
CONTINUOUS
 62
     7
100
AcDbCircle
 10
633.366944851718
 20
212.6516615991601
 30
0.0
 40
0.4000000000000057
100
AcDbArc
 50
180.0
 51
270.0
  0
LINE
  5
1F6F6
330
18
100
AcDbEntity
  8
1
  6
CONTINUOUS
 62
     7
100
AcDbLine
 10
616.1669450184451
 20
212.6516616638717
 30
0.0
 11
616.1669450184451
 21
213.7516616579112
 31
0.0
  0
LINE
  5
1F6F7
330
18
100
AcDbEntity
  8
1
  6
CONTINUOUS
 62
     7
100
AcDbLine
 10
615.366946377431
 20
212.6516616638717
 30
0.0
 11
615.366946377431
 21
213.7516616579112
 31
0.0
  0
ARC
  5
1F6F8
330
18
100
AcDbEntity
  8
1
  6
CONTINUOUS
 62
     7
100
AcDbCircle
 10
615.766944851718
 20
212.6516615991601
 30
0.0
 40
0.4000000000000057
100
AcDbArc
 50
270.0
 51
0.0
  0
ARC
  5
1F6F9
330
18
100
AcDbEntity
  8
1
  6
CONTINUOUS
 62
     7
100
AcDbCircle
 10
615.766944851718
 20
212.6516615991601
 30
0.0
 40
0.4000000000000057
100
AcDbArc
 50
180.0
 51
270.0
  0
LINE
  5
1F6FA
330
18
100
AcDbEntity
  8
1
  6
CONTINUOUS
 62
     7
100
AcDbLine
 10
633.7669449230776
 20
212.6516616638717
 30
0.0
 11
633.7669449230776
 21
213.7516616579112
 31
0.0
  0
LINE
  5
1F6FB
330
18
100
AcDbEntity
  8
1
  6
CONTINUOUS
 62
     7
100
AcDbLine
 10
632.9669444194184
 20
212.6516616638717
 30
0.0
 11
632.9669444194184
 21
213.7516616579112
 31
0.0
  0
LINE
  5
1F6FE
330
18
100
AcDbEntity
  8
OSIE
100
AcDbLine
 10
574.0683455206532
 20
152.0067474597102
 30
0.0
 11
563.5188323609469
 21
152.0067474597102
 31
0.0
  0
LINE
  5
1F6FF
330
18
100
AcDbEntity
  8
OSIE
100
AcDbLine
 10
574.0683455206532
 20
147.9067469739323
 30
0.0
 11
563.5188323609469
 21
147.9067469739323
 31
0.0
  0
LINE
  5
1F700
330
18
100
AcDbEntity
  8
OSIE
100
AcDbLine
 10
574.0683455206532
 20
141.606747431398
 30
0.0
 11
563.5188323609469
 21
141.606747431398
 31
0.0
  0
LINE
  5
1F701
330
18
100
AcDbEntity
  8
OSIE
100
AcDbLine
 10
574.0683455206532
 20
135.306746957541
 30
0.0
 11
563.5188323609469
 21
135.306746957541
 31
0.0
  0
LINE
  5
1F702
330
18
100
AcDbEntity
  8
OSIE
100
AcDbLine
 10
624.5669447189317
 20
160.7401338302468
 30
0.0
 11
624.5669447189317
 21
126.907866927929
 31
0.0
  0
LINE
  5
1F704
330
18
100
AcDbEntity
  8
OSIE
100
AcDbLine
 10
621.8983548516095
 20
137.031746785894
 30
0.0
 11
627.2355345862538
 21
137.031746785894
 31
0.0
  0
LINE
  5
1F705
330
18
100
AcDbEntity
  8
OSIE
100
AcDbLine
 10
617.9669438233719
 20
156.4641098126707
 30
0.0
 11
617.9669438233719
 21
131.1275632207993
 31
0.0
  0
LINE
  5
1F706
330
18
100
AcDbEntity
  8
OSIE
100
AcDbLine
 10
631.1669437518464
 20
156.4641098126707
 30
0.0
 11
631.1669437518464
 21
131.1275632207993
 31
0.0
  0
LINE
  5
1F707
330
18
100
AcDbEntity
  8
OSIE
100
AcDbLine
 10
622.3669447308527
 20
156.4641098126707
 30
0.0
 11
622.3669447308527
 21
140.2361469707522
 31
0.0
  0
LINE
  5
1F708
330
18
100
AcDbEntity
  8
OSIE
100
AcDbLine
 10
626.7669447070108
 20
156.4641098126707
 30
0.0
 11
626.7669447070108
 21
140.2361469707522
 31
0.0
  0
LINE
  5
1F709
330
18
100
AcDbEntity
  8
OSIE
100
AcDbLine
 10
620.7411522436691
 20
136.3942481369679
 30
0.0
 11
615.1927354030748
 21
136.3942481369679
 31
0.0
  0
LINE
  5
1F70A
330
18
100
AcDbEntity
  8
OSIE
100
AcDbLine
 10
633.9411521721436
 20
136.3942481369679
 30
0.0
 11
628.3927353315493
 21
136.3942481369679
 31
0.0
  0
LINE
  5
1F70B
330
18
100
AcDbEntity
  8
OSIE
100
AcDbLine
 10
634.0798433643872
 20
142.6942481451636
 30
0.0
 11
615.0540460734761
 21
142.6942481451636
 31
0.0
  0
LINE
  5
1F710
330
18
100
AcDbEntity
  8
OSIE
100
AcDbLine
 10
634.0798433643872
 20
148.9942486190205
 30
0.0
 11
615.0540460734761
 21
148.9942486190205
 31
0.0
  0
LINE
  5
1F711
330
18
100
AcDbEntity
  8
OSIE
100
AcDbLine
 10
634.0798433643872
 20
153.0942472421532
 30
0.0
 11
615.0540460734761
 21
153.0942472421532
 31
0.0
  0
LINE
  5
1F712
330
18
100
AcDbEntity
  8
OSIE
100
AcDbLine
 10
617.966944851718
 20
203.5575998078867
 30
0.0
 11
617.966944851718
 21
214.8352205465242
 31
0.0
  0
LINE
  5
1F715
330
18
100
AcDbEntity
  8
OSIE
100
AcDbLine
 10
631.1669448517181
 20
203.5575998078866
 30
0.0
 11
631.1669448517181
 21
214.8352205465242
 31
0.0
  0
LINE
  5
1F716
330
18
100
AcDbEntity
  8
OSIE
100
AcDbLine
 10
624.5669447189317
 20
225.2694009841428
 30
0.0
 11
624.5669447189317
 21
202.5007991145152
 31
0.0
  0
LINE
  5
1F718
330
18
100
AcDbEntity
  8
OSIE
100
AcDbLine
 10
568.0421327438204
 20
143.8317469113474
 30
0.0
 11
550.7036242971978
 21
143.8317469113474
 31
0.0
  0
DIMENSION
  5
1F719
330
18
100
AcDbEntity
  8
WY
100
AcDbDimension
  2
*D216
 10
643.9394059858033
 20
148.9942467563754
 30
0.0
 11
643.9394059858033
 21
151.0442469992643
 31
0.0
 70
   160
  3
STANDARD
100
AcDbAlignedDimension
 13
634.0798433643872
 23
153.0942472421532
 33
0.0
 14
634.0798433643872
 24
148.9942467563754
 34
0.0
 50
90.0
100
AcDbRotatedDimension
1001
ACAD
1000
DSTYLE
1002
{
1070
   287
1070
     3
1070
     7
1000
OBLIQUE
1070
     6
1000

1070
     5
1000

1070
   173
1070
     1
1070
   172
1070
     1
1070
    41
1040
2.0
1070
   147
1040
0.75
1070
   174
1070
     1
1070
   279
1070
     0
1070
    74
1070
     1
1070
   140
1040
1.5
1070
   284
1070
     8
1070
    78
1070
     8
1002
}
  0
DIMENSION
  5
1F71A
330
18
100
AcDbEntity
  8
WY
100
AcDbDimension
  2
*D217
 10
643.9394059858033
 20
148.9942467563754
 30
0.0
 11
642.4394059858033
 21
145.8442469851082
 31
0.0
 70
    32
  3
STANDARD
100
AcDbAlignedDimension
 13
634.0798433643872
 23
142.694247213841
 33
0.0
 14
634.0798433643872
 24
148.9942467563754
 34
0.0
 50
90.0
100
AcDbRotatedDimension
1001
ACAD
1000
DSTYLE
1002
{
1070
   287
1070
     3
1070
     7
1000
NONE
1070
     6
1000
NONE
1070
     5
1000

1070
   172
1070
     1
1070
   173
1070
     1
1070
    41
1040
2.0
1070
   147
1040
0.75
1070
   174
1070
     1
1070
   279
1070
     0
1070
    74
1070
     0
1070
   140
1040
1.5
1070
   284
1070
     8
1070
    78
1070
     8
1002
}
  0
DIMENSION
  5
1F71B
330
18
100
AcDbEntity
  8
WY
100
AcDbDimension
  2
*D218
 10
643.9394059858033
 20
142.694247213841
 30
0.0
 11
643.9394059858033
 21
139.5442472097432
 31
0.0
 70
   160
  3
STANDARD
100
AcDbAlignedDimension
 13
633.9411521721436
 23
136.3942481369679
 33
0.0
 14
634.0798433643872
 24
142.694247213841
 34
0.0
 50
90.0
100
AcDbRotatedDimension
1001
ACAD
1000
DSTYLE
1002
{
1070
   287
1070
     3
1070
     7
1000
OBLIQUE
1070
     6
1000

1070
     5
1000

1070
   173
1070
     1
1070
   172
1070
     1
1070
    41
1040
2.0
1070
   147
1040
0.75
1070
   174
1070
     1
1070
   279
1070
     0
1070
    74
1070
     1
1070
   140
1040
1.5
1070
   284
1070
     8
1070
    78
1070
     8
1002
}
  0
DIMENSION
  5
1F73E
330
18
100
AcDbEntity
  8
WY
100
AcDbDimension
  2
*D219
 10
631.1669437518464
 20
118.6882847328856
 30
0.0
 11
624.5669437876091
 21
120.1882847328856
 31
0.0
 70
    32
  3
STANDARD
100
AcDbAlignedDimension
 13
617.9669438233719
 23
131.1275632207993
 33
0.0
 14
631.1669437518464
 24
131.1275632207993
 34
0.0
100
AcDbRotatedDimension
1001
ACAD
1000
DSTYLE
1002
{
1070
   287
1070
     4
1070
    41
1040
2.0
1070
   147
1040
0.75
1070
   174
1070
     1
1070
   279
1070
     1
1070
    74
1070
     1
1070
   140
1040
1.5
1070
   284
1070
     8
1070
    78
1070
     8
1002
}
  0
DIMENSION
  5
1F75E
330
18
100
AcDbEntity
  8
WY
100
AcDbDimension
  2
*D221
 10
580.0101633119701
 20
151.8817472063904
 30
0.0
 11
580.0101633119701
 21
144.0067472063904
 31
0.0
 70
   160
  3
STANDARD
100
AcDbAlignedDimension
 13
572.2153954523325
 23
152.1317477130299
 33
0.0
 14
572.2153954523325
 24
151.8817472063904
 34
0.0
 50
90.0
100
AcDbRotatedDimension
1001
ACAD
1000
DSTYLE
1002
{
1070
   287
1070
     3
1070
   172
1070
     1
1070
    41
1040
2.0
1070
   147
1040
0.75
1070
   174
1070
     1
1070
   279
1070
     0
1070
    74
1070
     0
1070
   140
1040
1.5
1070
   284
1070
     8
1070
    78
1070
     8
1002
}
  0
DIMENSION
  5
1F770
330
18
100
AcDbEntity
  8
WY
100
AcDbDimension
  2
*D222
 10
584.08807838556
 20
156.5317476891881
 30
0.0
 11
582.58807838556
 21
143.8317471441781
 31
0.0
 70
    32
  3
STANDARD
100
AcDbAlignedDimension
 13
563.2653952891648
 23
131.1317465991681
 33
0.0
 14
563.2653952891648
 24
156.5317476891881
 34
0.0
 50
90.0
100
AcDbRotatedDimension
1001
ACAD
1000
DSTYLE
1002
{
1070
   287
1070
     3
1070
   172
1070
     1
1070
    41
1040
2.0
1070
   147
1040
0.75
1070
   174
1070
     1
1070
   279
1070
     0
1070
    74
1070
     0
1070
   140
1040
1.5
1070
   284
1070
     8
1070
    78
1070
     8
1002
}
  0
DIMENSION
  5
1F77F
330
18
100
AcDbEntity
  8
WY
100
AcDbDimension
  2
*D223
 10
543.7449884821768
 20
129.0317466740464
 30
0.0
 11
542.2449884821768
 21
143.8317463292708
 31
0.0
 70
    32
  3
STANDARD
100
AcDbAlignedDimension
 13
554.2653952109337
 23
158.6317459844952
 33
0.0
 14
554.2653952109337
 24
129.0317466740464
 34
0.0
 50
90.0
100
AcDbRotatedDimension
1001
ACAD
1000
DSTYLE
1002
{
1070
   287
1070
     3
1070
   172
1070
     1
1070
    41
1040
2.0
1070
   147
1040
0.75
1070
   174
1070
     1
1070
   279
1070
     0
1070
    74
1070
     0
1070
   140
1040
1.5
1070
   284
1070
     8
1070
    78
1070
     8
1002
}
  0
DIMENSION
  5
1F78E
330
18
100
AcDbEntity
  8
WY
100
AcDbDimension
  2
*D224
 10
557.265395702672
 20
120.1246527268932
 30
0.0
 11
555.7653954568028
 21
121.6246527268932
 31
0.0
 70
    32
  3
STANDARD
100
AcDbAlignedDimension
 13
554.2653952109337
 23
129.0317466740464
 33
0.0
 14
557.265395702672
 24
129.0317466740464
 34
0.0
100
AcDbRotatedDimension
1001
ACAD
1000
DSTYLE
1002
{
1070
   287
1070
     3
1070
   172
1070
     1
1070
    41
1040
2.0
1070
   147
1040
0.75
1070
   174
1070
     1
1070
   279
1070
     0
1070
    74
1070
     0
1070
   140
1040
1.5
1070
   284
1070
     8
1070
    78
1070
     8
1002
}
  0
DIMENSION
  5
1F79E
330
18
100
AcDbEntity
  8
WY
100
AcDbDimension
  2
*D225
 10
564.7653953022033
 20
115.0825050848164
 30
0.0
 11
559.5153952565685
 21
116.5825050848164
 31
0.0
 70
    32
  3
STANDARD
100
AcDbAlignedDimension
 13
554.2653952109337
 23
129.0317466740464
 33
0.0
 14
564.7653953022033
 24
132.5317470149105
 34
0.0
100
AcDbRotatedDimension
1001
ACAD
1000
DSTYLE
1002
{
1070
   287
1070
     3
1070
   172
1070
     1
1070
    41
1040
2.0
1070
   147
1040
0.75
1070
   174
1070
     1
1070
   279
1070
     0
1070
    74
1070
     0
1070
   140
1040
1.5
1070
   284
1070
     8
1070
    78
1070
     8
1002
}
  0
DIMENSION
  5
1F7AE
330
18
100
AcDbEntity
  8
WY
100
AcDbDimension
  2
*D226
 10
635.3169450840102
 20
195.1476194293421
 30
0.0
 11
624.5669456502543
 21
196.6476194293421
 31
0.0
 70
    32
  3
STANDARD
100
AcDbAlignedDimension
 13
613.8169462164984
 23
213.7516616579112
 33
0.0
 14
635.3169450840102
 24
213.7516616579112
 34
0.0
100
AcDbRotatedDimension
1001
ACAD
1000
DSTYLE
1002
{
1070
   287
1070
     4
1070
    41
1040
2.0
1070
   147
1040
0.75
1070
   174
1070
     1
1070
   279
1070
     1
1070
    74
1070
     1
1070
   140
1040
1.5
1070
   284
1070
     8
1070
    78
1070
     8
1002
}
  0
DIMENSION
  5
1F7BD
330
18
100
AcDbEntity
  8
WY
100
AcDbDimension
  2
*D227
 10
619.0919461032496
 20
199.141000361867
 30
0.0
 11
627.5919461032496
 21
199.141000361867
 31
0.0
 70
   160
  3
STANDARD
100
AcDbAlignedDimension
 13
616.841944851718
 23
205.9266615991601
 33
0.0
 14
619.0919461032496
 24
205.9266616791454
 34
0.0
100
AcDbRotatedDimension
1001
ACAD
1000
DSTYLE
1002
{
1070
   287
1070
     3
1070
     3
1000
-0,1
1070
   271
1070
     1
1070
   172
1070
     1
1070
    41
1040
2.0
1070
   147
1040
0.75
1070
   174
1070
     1
1070
   279
1070
     0
1070
    74
1070
     0
1070
   140
1040
1.5
1070
   284
1070
     8
1070
    78
1070
     8
1002
}
  0
DIMENSION
  5
1F7CF
330
18
100
AcDbEntity
  8
WY
100
AcDbDimension
  2
*D228
 10
572.2153954523325
 20
109.7333801770403
 30
0.0
 11
563.2403953316331
 21
111.2333801770403
 31
0.0
 70
    32
  3
STANDARD
100
AcDbAlignedDimension
 13
554.2653952109337
 23
129.0317466740464
 33
0.0
 14
572.2153954523325
 24
135.1817467042213
 34
0.0
100
AcDbRotatedDimension
1001
ACAD
1000
DSTYLE
1002
{
1070
   287
1070
     3
1070
     3
1000
<>%%p0.25
1070
   271
1070
     1
1070
   172
1070
     1
1070
    41
1040
2.5
1070
   147
1040
0.75
1070
   174
1070
     1
1070
   279
1070
     0
1070
    74
1070
     1
1070
   140
1040
1.5
1070
   284
1070
     8
1070
    78
1070
     8
1002
}
  0
ENDSEC
  0
SECTION
  2
OBJECTS
  0
DICTIONARY
  5
C
330
0
100
AcDbDictionary
  3
ACAD_DETAILVIEWSTYLE
350
F5C4
  3
ACAD_GROUP
350
D
  3
ACAD_IMAGE_VARS
350
F140
  3
ACAD_MLINESTYLE
350
E
  3
ACAD_SCALELIST
350
1F7F8
  3
ACAD_SECTIONVIEWSTYLE
350
F5C5
  3
ACDBVARIABLEDICTIONARY
350
C1B
  3
APPDATA
350
F13E
  3
DIMOFFSETDICTIONARY
350
13296
  3
DWGPROPS
350
1F82B
  0
DICTIONARY
  5
13241
330
2
100
AcDbDictionary
280
     1
  3
ACAD_LAYERSTATES
360
13242
  0
DICTIONARY
  5
F5C4
102
{ACAD_REACTORS
330
C
102
}
330
C
100
AcDbDictionary
  0
DICTIONARY
  5
D
102
{ACAD_REACTORS
330
C
102
}
330
C
100
AcDbDictionary
  0
RASTERVARIABLES
  5
F140
102
{ACAD_REACTORS
330
C
102
}
330
C
100
AcDbRasterVariables
 90
        0
 70
     1
 71
     1
 72
     0
  0
DICTIONARY
  5
E
102
{ACAD_REACTORS
330
C
102
}
330
C
100
AcDbDictionary
  3
STANDARD
350
1B
  0
DICTIONARY
  5
1F7F8
102
{ACAD_REACTORS
330
C
102
}
330
C
100
AcDbDictionary
  0
DICTIONARY
  5
F5C5
102
{ACAD_REACTORS
330
C
102
}
330
C
100
AcDbDictionary
  0
DICTIONARY
  5
C1B
102
{ACAD_REACTORS
330
C
102
}
330
C
100
AcDbDictionary
  3
HPTRANSPARENCY
350
13295
  3
SORTENTS
350
C1C
  0
DICTIONARY
  5
F13E
102
{ACAD_REACTORS
330
C
102
}
330
C
100
AcDbDictionary
  0
DICTIONARY
  5
13296
102
{ACAD_REACTORS
330
C
102
}
330
C
100
AcDbDictionary
  3
DIMRAILANGLE
350
173E2
  3
DIMRAILFIRSTOFFSET
350
173E0
  3
DIMRAILOFFSET
350
173E1
  3
DIMRAILSENABLED
350
173E3
  0
XRECORD
  5
1F82B
102
{ACAD_REACTORS
330
C
102
}
330
C
100
AcDbXrecord
  1
DWGPROPS COOKIE
  2

  3

  4

  6

  7

  8
pikusl
  9

300
=
301
=
302
=
303
=
304
=
305
=
306
=
307
=
308
=
309
=
 40
0.0
 41
2448721.315803356
 42
2457541.266297245
  1

 90
        0
  0
DICTIONARY
  5
13242
102
{ACAD_REACTORS
330
13241
102
}
330
13241
100
AcDbDictionary
  0
MLINESTYLE
  5
1B
102
{ACAD_REACTORS
330
E
102
}
330
E
100
AcDbMlineStyle
  2
STANDARD
 70
     0
  3

 62
     0
 51
90.0
 52
90.0
 71
     2
 49
0.5
 62
   256
  6
BYLAYER
 49
-0.5
 62
   256
  6
BYLAYER
  0
DICTIONARYVAR
  5
13295
102
{ACAD_REACTORS
330
C1B
102
}
330
C1B
100
DictionaryVariables
280
     0
  1
ByLayer
  0
DICTIONARYVAR
  5
C1C
102
{ACAD_REACTORS
330
C1B
102
}
330
C1B
100
DictionaryVariables
280
     0
  1
96
  0
DICTIONARYVAR
  5
173E2
102
{ACAD_REACTORS
330
13296
102
}
330
13296
100
DictionaryVariables
280
     0
  1
0.261799
  0
DICTIONARYVAR
  5
173E0
102
{ACAD_REACTORS
330
13296
102
}
330
13296
100
DictionaryVariables
280
     0
  1
0.400000
  0
DICTIONARYVAR
  5
173E1
102
{ACAD_REACTORS
330
13296
102
}
330
13296
100
DictionaryVariables
280
     0
  1
0.250000
  0
DICTIONARYVAR
  5
173E3
102
{ACAD_REACTORS
330
13296
102
}
330
13296
100
DictionaryVariables
280
     0
  1
1
  0
ENDSEC
  0
EOF
