  0
SECTION
  2
HEADER
  9
$ACADVER
  1
AC1014
  9
$ACADMAINTVER
 70
     9
  9
$DWGCODEPAGE
  3
ANSI_1250
  9
$INSBASE
 10
0.0
 20
0.0
 30
0.0
  9
$EXTMIN
 10
486.041244
 20
0.0
 30
0.0
  9
$EXTMAX
 10
687.671651
 20
297.0
 30
0.0
  9
$LIMMIN
 10
0.0
 20
0.0
  9
$LIMMAX
 10
420.0
 20
297.0
  9
$ORTHOMODE
 70
     0
  9
$REGENMODE
 70
     1
  9
$FILLMODE
 70
     1
  9
$QTEXTMODE
 70
     0
  9
$MIRRTEXT
 70
     1
  9
$DRAGMODE
 70
     2
  9
$LTSCALE
 40
6.0
  9
$OSMODE
 70
 13247
  9
$ATTMODE
 70
     1
  9
$TEXTSIZE
 40
0.2
  9
$TRACEWID
 40
0.05
  9
$TEXTSTYLE
  7
ITALIC
  9
$CLAYER
  8
WY
  9
$CELTYPE
  6
BYLAYER
  9
$CECOLOR
 62
   256
  9
$CELTSCALE
 40
1.0
  9
$DELOBJ
 70
     1
  9
$DISPSILH
 70
     0
  9
$DIMSCALE
 40
1.0
  9
$DIMASZ
 40
2.5
  9
$DIMEXO
 40
1.5
  9
$DIMDLI
 40
7.0
  9
$DIMRND
 40
0.0
  9
$DIMDLE
 40
0.0
  9
$DIMEXE
 40
1.5
  9
$DIMTP
 40
0.1
  9
$DIMTM
 40
0.0
  9
$DIMTXT
 40
1.5
  9
$DIMCEN
 40
-1.0
  9
$DIMTSZ
 40
0.0
  9
$DIMTOL
 70
     0
  9
$DIMLIM
 70
     0
  9
$DIMTIH
 70
     0
  9
$DIMTOH
 70
     1
  9
$DIMSE1
 70
     0
  9
$DIMSE2
 70
     0
  9
$DIMTAD
 70
     1
  9
$DIMZIN
 70
     8
  9
$DIMBLK
  1

  9
$DIMASO
 70
     1
  9
$DIMSHO
 70
     0
  9
$DIMPOST
  1

  9
$DIMAPOST
  1

  9
$DIMALT
 70
     0
  9
$DIMALTD
 70
     2
  9
$DIMALTF
 40
25.4
  9
$DIMLFAC
 40
1.0
  9
$DIMTOFL
 70
     0
  9
$DIMTVP
 40
0.0
  9
$DIMTIX
 70
     1
  9
$DIMSOXD
 70
     0
  9
$DIMSAH
 70
     0
  9
$DIMBLK1
  1

  9
$DIMBLK2
  1

  9
$DIMSTYLE
  2
STANDARD
  9
$DIMCLRD
 70
     0
  9
$DIMCLRE
 70
     0
  9
$DIMCLRT
 70
     0
  9
$DIMTFAC
 40
1.0
  9
$DIMGAP
 40
0.75
  9
$DIMJUST
 70
     0
  9
$DIMSD1
 70
     0
  9
$DIMSD2
 70
     0
  9
$DIMTOLJ
 70
     1
  9
$DIMTZIN
 70
     8
  9
$DIMALTZ
 70
     0
  9
$DIMALTTZ
 70
     0
  9
$DIMFIT
 70
     4
  9
$DIMUPT
 70
     0
  9
$DIMUNIT
 70
     2
  9
$DIMDEC
 70
     2
  9
$DIMTDEC
 70
     4
  9
$DIMALTU
 70
     2
  9
$DIMALTTD
 70
     2
  9
$DIMTXSTY
  7
STANDARD
  9
$DIMAUNIT
 70
     0
  9
$LUNITS
 70
     2
  9
$LUPREC
 70
     2
  9
$SKETCHINC
 40
0.1
  9
$FILLETRAD
 40
0.1
  9
$AUNITS
 70
     0
  9
$AUPREC
 70
     2
  9
$MENU
  1
ACAD
  9
$ELEVATION
 40
0.0
  9
$PELEVATION
 40
0.0
  9
$THICKNESS
 40
0.0
  9
$LIMCHECK
 70
     0
  9
$CHAMFERA
 40
0.0
  9
$CHAMFERB
 40
0.0
  9
$CHAMFERC
 40
0.0
  9
$CHAMFERD
 40
0.0
  9
$SKPOLY
 70
     0
  9
$TDCREATE
 40
2448721.39913669
  9
$TDUPDATE
 40
2457541.35280463
  9
$TDINDWG
 40
1.5924112153
  9
$TDUSRTIMER
 40
2457541.267002361
  9
$USRTIMER
 70
     1
  9
$ANGBASE
 50
0.0
  9
$ANGDIR
 70
     0
  9
$PDMODE
 70
     0
  9
$PDSIZE
 40
0.0
  9
$PLINEWID
 40
0.5
  9
$COORDS
 70
     1
  9
$SPLFRAME
 70
     0
  9
$SPLINETYPE
 70
     6
  9
$SPLINESEGS
 70
     8
  9
$ATTDIA
 70
     0
  9
$ATTREQ
 70
     1
  9
$HANDLING
 70
     1
  9
$HANDSEED
  5
20071
  9
$SURFTAB1
 70
     6
  9
$SURFTAB2
 70
     6
  9
$SURFTYPE
 70
     6
  9
$SURFU
 70
     6
  9
$SURFV
 70
     6
  9
$UCSNAME
  2

  9
$UCSORG
 10
0.0
 20
0.0
 30
0.0
  9
$UCSXDIR
 10
1.0
 20
0.0
 30
0.0
  9
$UCSYDIR
 10
0.0
 20
1.0
 30
0.0
  9
$PUCSNAME
  2

  9
$PUCSORG
 10
0.0
 20
0.0
 30
0.0
  9
$PUCSXDIR
 10
1.0
 20
0.0
 30
0.0
  9
$PUCSYDIR
 10
0.0
 20
1.0
 30
0.0
  9
$USERI1
 70
     0
  9
$USERI2
 70
     0
  9
$USERI3
 70
     0
  9
$USERI4
 70
     0
  9
$USERI5
 70
     0
  9
$USERR1
 40
0.0
  9
$USERR2
 40
0.0
  9
$USERR3
 40
0.0
  9
$USERR4
 40
0.0
  9
$USERR5
 40
0.0
  9
$WORLDVIEW
 70
     1
  9
$SHADEDGE
 70
     3
  9
$SHADEDIF
 70
    70
  9
$TILEMODE
 70
     1
  9
$MAXACTVP
 70
    16
  9
$PINSBASE
 10
0.0
 20
0.0
 30
0.0
  9
$PLIMCHECK
 70
     0
  9
$PEXTMIN
 10
1.000000000000000E+20
 20
1.000000000000000E+20
 30
1.000000000000000E+20
  9
$PEXTMAX
 10
-1.000000000000000E+20
 20
-1.000000000000000E+20
 30
-1.000000000000000E+20
  9
$PLIMMIN
 10
0.0
 20
0.0
  9
$PLIMMAX
 10
0.0
 20
0.0
  9
$UNITMODE
 70
     0
  9
$VISRETAIN
 70
     0
  9
$PLINEGEN
 70
     0
  9
$PSLTSCALE
 70
     0
  9
$TREEDEPTH
 70
  3020
  9
$PICKSTYLE
 70
     1
  9
$CMLSTYLE
  2
STANDARD
  9
$CMLJUST
 70
     0
  9
$CMLSCALE
 40
1.0
  9
$PROXYGRAPHICS
 70
     1
  9
$MEASUREMENT
 70
     0
  0
ENDSEC
  0
SECTION
  2
CLASSES
  0
CLASS
  1
HATCH
  2
AcDbHatch
  3
ObjectDBX Classes
 90
        0
280
     0
281
     1
  0
CLASS
  1
LWPOLYLINE
  2
AcDbPolyline
  3
ObjectDBX Classes
 90
        0
280
     0
281
     1
  0
CLASS
  1
DICTIONARYVAR
  2
AcDbDictionaryVar
  3
ObjectDBX Classes
 90
        0
280
     0
281
     0
  0
CLASS
  1
XRECORD
  2
AcDbXrecord
  3
ObjectDBX Classes
 90
        0
280
     0
281
     0
  0
CLASS
  1
SCALE
  2
AcDbScale
  3
ObjectDBX Classes
 90
     1153
280
     0
281
     0
  0
CLASS
  1
VISUALSTYLE
  2
AcDbVisualStyle
  3
ObjectDBX Classes
 90
     4095
280
     0
281
     0
  0
CLASS
  1
MATERIAL
  2
AcDbMaterial
  3
ObjectDBX Classes
 90
     1153
280
     0
281
     0
  0
CLASS
  1
TABLESTYLE
  2
AcDbTableStyle
  3
ObjectDBX Classes
 90
     4095
280
     0
281
     0
  0
CLASS
  1
MLEADERSTYLE
  2
AcDbMLeaderStyle
  3
ACDB_MLEADERSTYLE_CLASS
 90
     4095
280
     0
281
     0
  0
CLASS
  1
SUN
  2
AcDbSun
  3
SCENEOE
 90
     1153
280
     0
281
     0
  0
CLASS
  1
RASTERVARIABLES
  2
AcDbRasterVariables
  3
ISM
 90
        0
280
     0
281
     0
  0
CLASS
  1
DIMASSOC
  2
AcDbDimAssoc
  3
"AcDbDimAssoc|Product Desc:     AcDim ARX App For Dimension|Company:          Autodesk, Inc.|WEB Address:      www.autodesk.com"
 90
        0
280
     0
281
     0
  0
CLASS
  1
ACDBDICTIONARYWDFLT
  2
AcDbDictionaryWithDefault
  3
ObjectDBX Classes
 90
        0
280
     0
281
     0
  0
ENDSEC
  0
SECTION
  2
TABLES
  0
TABLE
  2
VPORT
  5
8
330
0
100
AcDbSymbolTable
 70
     1
  0
VPORT
  5
F0F7
330
8
100
AcDbSymbolTableRecord
100
AcDbViewportTableRecord
  2
*ACTIVE
 70
     0
 10
0.0
 20
0.0
 11
1.0
 21
1.0
 12
395.7850931426333
 22
503.3540253583408
 13
0.0
 23
0.0
 14
1.0
 24
1.0
 15
5.0
 25
5.0
 16
0.0
 26
0.0
 36
1.0
 17
191.0713543573668
 27
-354.8540253583408
 37
0.0
 40
302.94
 41
2.811127379209371
 42
50.0
 43
0.0
 44
0.0
 50
0.0
 51
0.0
 71
    16
 72
   200
 73
     1
 74
     0
 75
     0
 76
     0
 77
     0
 78
     0
  0
ENDTAB
  0
TABLE
  2
LTYPE
  5
5
330
0
100
AcDbSymbolTable
 70
     5
  0
LTYPE
  5
12
330
5
100
AcDbSymbolTableRecord
100
AcDbLinetypeTableRecord
  2
BYBLOCK
 70
     0
  3

 72
    65
 73
     0
 40
0.0
  0
LTYPE
  5
13
330
5
100
AcDbSymbolTableRecord
100
AcDbLinetypeTableRecord
  2
BYLAYER
 70
     0
  3

 72
    65
 73
     0
 40
0.0
  0
LTYPE
  5
14
330
5
100
AcDbSymbolTableRecord
100
AcDbLinetypeTableRecord
  2
CONTINUOUS
 70
     0
  3
Solid line
 72
    65
 73
     0
 40
0.0
  0
LTYPE
  5
1D
330
5
100
AcDbSymbolTableRecord
100
AcDbLinetypeTableRecord
  2
CENTER
 70
     0
  3
____ _ ____ _ ____ _ ____ _ ____ _ ____ _ ____
 72
    65
 73
     4
 40
2.0
 49
1.25
 74
     0
 49
-0.25
 74
     0
 49
0.25
 74
     0
 49
-0.25
 74
     0
  0
LTYPE
  5
1E
330
5
100
AcDbSymbolTableRecord
100
AcDbLinetypeTableRecord
  2
HIDDEN
 70
     0
  3
_ _ _ _ _ _ _ _ _ _ _ _ _ _ _ _ _ _ _ _ _ _ _
 72
    65
 73
     2
 40
0.375
 49
0.25
 74
     0
 49
-0.125
 74
     0
  0
LTYPE
  5
8093
330
5
100
AcDbSymbolTableRecord
100
AcDbLinetypeTableRecord
  2
PHANTOM
 70
     0
  3
Phantom ______  __  __  ______  __  __  ______
 72
    65
 73
     6
 40
12.7
 49
6.35
 74
     0
 49
-1.27
 74
     0
 49
1.27
 74
     0
 49
-1.27
 74
     0
 49
1.27
 74
     0
 49
-1.27
 74
     0
  0
LTYPE
  5
1187C
330
5
100
AcDbSymbolTableRecord
100
AcDbLinetypeTableRecord
  2
CENTERX2
 70
     0
  3
Center (2x) ________  __  ________  __  _____
 72
    65
 73
     4
 40
20.32
 49
12.7
 74
     0
 49
-2.54
 74
     0
 49
2.54
 74
     0
 49
-2.54
 74
     0
  0
ENDTAB
  0
TABLE
  2
LAYER
  5
2
102
{ACAD_XDICTIONARY
360
13241
102
}
330
0
100
AcDbSymbolTable
 70
     8
  0
LAYER
  5
F
330
2
100
AcDbSymbolTableRecord
100
AcDbLayerTableRecord
  2
0
 70
     0
 62
     7
  6
CONTINUOUS
  0
LAYER
  5
21
330
2
100
AcDbSymbolTableRecord
100
AcDbLayerTableRecord
  2
1
 70
     0
 62
     3
  6
CONTINUOUS
  0
LAYER
  5
22
330
2
100
AcDbSymbolTableRecord
100
AcDbLayerTableRecord
  2
2
 70
     0
 62
     6
  6
CONTINUOUS
  0
LAYER
  5
23
330
2
100
AcDbSymbolTableRecord
100
AcDbLayerTableRecord
  2
3
 70
     0
 62
     4
  6
HIDDEN
  0
LAYER
  5
24
330
2
100
AcDbSymbolTableRecord
100
AcDbLayerTableRecord
  2
OSIE
 70
     0
 62
     2
  6
CENTER
  0
LAYER
  5
25
330
2
100
AcDbSymbolTableRecord
100
AcDbLayerTableRecord
  2
WY
 70
     0
 62
     1
  6
CONTINUOUS
  0
LAYER
  5
26
330
2
100
AcDbSymbolTableRecord
100
AcDbLayerTableRecord
  2
DEFPOINTS
 70
     0
 62
     7
  6
CONTINUOUS
  0
LAYER
  5
464
330
2
100
AcDbSymbolTableRecord
100
AcDbLayerTableRecord
  2
WYMIARY
 70
     0
 62
     1
  6
CONTINUOUS
  0
ENDTAB
  0
TABLE
  2
STYLE
  5
3
330
0
100
AcDbSymbolTable
 70
     4
  0
STYLE
  5
10
330
3
100
AcDbSymbolTableRecord
100
AcDbTextStyleTableRecord
  2
STANDARD
 70
     0
 40
0.0
 41
1.0
 50
0.0
 71
     0
 42
6.0
  3
txt
  4

  0
STYLE
  5
1C
330
3
100
AcDbSymbolTableRecord
100
AcDbTextStyleTableRecord
  2
ITALIC
 70
     0
 40
0.0
 41
1.0
 50
15.0
 71
     0
 42
0.2
  3
simplex
  4

  0
STYLE
  5
C512
330
3
100
AcDbSymbolTableRecord
100
AcDbTextStyleTableRecord
  2
SLDTEXTSTYLE2
 70
     0
 40
0.0
 41
0.7
 50
0.0
 71
     0
 42
0.2
  3
TXT
  4

  0
STYLE
  5
C513
330
3
100
AcDbSymbolTableRecord
100
AcDbTextStyleTableRecord
  2
SLDTEXTSTYLE6
 70
     0
 40
0.0
 41
0.605
 50
0.0
 71
     0
 42
0.2
  3
TXT
  4

  0
ENDTAB
  0
TABLE
  2
VIEW
  5
6
330
0
100
AcDbSymbolTable
 70
     0
  0
ENDTAB
  0
TABLE
  2
UCS
  5
7
330
0
100
AcDbSymbolTable
 70
     0
  0
ENDTAB
  0
TABLE
  2
APPID
  5
9
330
0
100
AcDbSymbolTable
 70
     7
  0
APPID
  5
11
330
9
100
AcDbSymbolTableRecord
100
AcDbRegAppTableRecord
  2
ACAD
 70
     0
  0
APPID
  5
14E88
330
9
100
AcDbSymbolTableRecord
100
AcDbRegAppTableRecord
  2
ACAD_DSTYLE_DIMRADIAL_EXTE
 70
     0
  0
APPID
  5
17475
330
9
100
AcDbSymbolTableRecord
100
AcDbRegAppTableRecord
  2
ACAD_DSTYLE_DIMRADIAL_EXT0
 70
     0
  0
APPID
  5
1C4D0
330
9
100
AcDbSymbolTableRecord
100
AcDbRegAppTableRecord
  2
ACAD_DSTYLE_DIMRADIAL_EXT1
 70
     0
  0
APPID
  5
1D830
330
9
100
AcDbSymbolTableRecord
100
AcDbRegAppTableRecord
  2
ACAD_DSTYLE_DIMRADIAL_EXT2
 70
     0
  0
APPID
  5
1DF7B
330
9
100
AcDbSymbolTableRecord
100
AcDbRegAppTableRecord
  2
ACAD_DSTYLE_DIMRADIAL_EXT3
 70
     0
  0
APPID
  5
1E554
330
9
100
AcDbSymbolTableRecord
100
AcDbRegAppTableRecord
  2
ACAD_DSTYLE_DIMRADIAL_EXT4
 70
     0
  0
ENDTAB
  0
TABLE
  2
DIMSTYLE
  5
A
330
0
100
AcDbSymbolTable
 70
     2
  0
DIMSTYLE
105
3B
102
{ACAD_REACTORS
330
1FF47
330
1FF48
330
1FF49
330
1FF54
330
1FFA1
330
1FFA2
330
1FFA3
330
1FFA4
330
1FFDA
330
1FFEB
330
20008
330
20017
102
}
330
A
100
AcDbSymbolTableRecord
100
AcDbDimStyleTableRecord
  2
STANDARD
 70
     0
  3

  4

  5

  6

  7

 40
1.0
 41
3.5
 42
1.5
 43
7.0
 44
1.5
 45
0.0
 46
0.0
 47
0.1
 48
0.0
140
3.6
141
-1.0
142
0.0
143
25.4
144
1.0
145
0.0
146
1.0
147
1.5
 71
     0
 72
     0
 73
     0
 74
     0
 75
     0
 76
     0
 77
     1
 78
     0
170
     0
171
     2
172
     0
173
     0
174
     0
175
     0
176
     0
177
     0
178
     0
270
     2
271
     2
272
     4
273
     2
274
     2
340
10
275
     0
280
     0
281
     0
282
     0
283
     1
284
     0
285
     0
286
     0
287
     3
288
     0
  0
DIMSTYLE
105
1187D
330
A
100
AcDbSymbolTableRecord
100
AcDbDimStyleTableRecord
  2
ISO-25
 70
     0
  3

  4

  5

  6

  7

 40
1.0
 41
2.5
 42
0.625
 43
3.75
 44
1.25
 45
0.0
 46
0.0
 47
0.0
 48
0.0
140
2.5
141
2.5
142
0.0
143
0.03937007874016
144
1.0
145
0.0
146
1.0
147
0.625
 71
     0
 72
     0
 73
     0
 74
     0
 75
     0
 76
     0
 77
     1
 78
     8
170
     0
171
     3
172
     1
173
     0
174
     0
175
     0
176
     0
177
     0
178
     0
270
     2
271
     2
272
     2
273
     2
274
     3
340
10
275
     0
280
     0
281
     0
282
     0
283
     0
284
     8
285
     0
286
     0
287
     3
288
     0
  0
ENDTAB
  0
TABLE
  2
BLOCK_RECORD
  5
1
330
0
100
AcDbSymbolTable
 70
   244
  0
BLOCK_RECORD
  5
18
330
1
100
AcDbSymbolTableRecord
100
AcDbBlockTableRecord
  2
*MODEL_SPACE
  0
BLOCK_RECORD
  5
15
330
1
100
AcDbSymbolTableRecord
100
AcDbBlockTableRecord
  2
*PAPER_SPACE
  0
BLOCK_RECORD
  5
7EA0
330
1
100
AcDbSymbolTableRecord
100
AcDbBlockTableRecord
  2
A$C312173AA
  0
BLOCK_RECORD
  5
C4F7
330
1
100
AcDbSymbolTableRecord
100
AcDbBlockTableRecord
  2
_DOT
  0
BLOCK_RECORD
  5
13341
330
1
100
AcDbSymbolTableRecord
100
AcDbBlockTableRecord
  2
_NONE
  0
BLOCK_RECORD
  5
13346
330
1
100
AcDbSymbolTableRecord
100
AcDbBlockTableRecord
  2
_OBLIQUE
  0
BLOCK_RECORD
  5
1357A
330
1
100
AcDbSymbolTableRecord
100
AcDbBlockTableRecord
  2
SW_CENTERMARKSYMBOL_0
  0
BLOCK_RECORD
  5
13586
330
1
100
AcDbSymbolTableRecord
100
AcDbBlockTableRecord
  2
SW_CENTERMARKSYMBOL_1
  0
BLOCK_RECORD
  5
13592
330
1
100
AcDbSymbolTableRecord
100
AcDbBlockTableRecord
  2
SW_CENTERMARKSYMBOL_2
  0
BLOCK_RECORD
  5
140D3
330
1
100
AcDbSymbolTableRecord
100
AcDbBlockTableRecord
  2
SW_CENTERMARKSYMBOL_3
  0
BLOCK_RECORD
  5
140DF
330
1
100
AcDbSymbolTableRecord
100
AcDbBlockTableRecord
  2
SW_CENTERMARKSYMBOL_4
  0
BLOCK_RECORD
  5
140EB
330
1
100
AcDbSymbolTableRecord
100
AcDbBlockTableRecord
  2
SW_CENTERMARKSYMBOL_5
  0
BLOCK_RECORD
  5
140F7
330
1
100
AcDbSymbolTableRecord
100
AcDbBlockTableRecord
  2
SW_CENTERMARKSYMBOL_6
  0
BLOCK_RECORD
  5
14103
330
1
100
AcDbSymbolTableRecord
100
AcDbBlockTableRecord
  2
SW_CENTERMARKSYMBOL_7
  0
BLOCK_RECORD
  5
1410F
330
1
100
AcDbSymbolTableRecord
100
AcDbBlockTableRecord
  2
SW_CENTERMARKSYMBOL_8
  0
BLOCK_RECORD
  5
1411B
330
1
100
AcDbSymbolTableRecord
100
AcDbBlockTableRecord
  2
SW_CENTERMARKSYMBOL_9
  0
BLOCK_RECORD
  5
17418
330
1
100
AcDbSymbolTableRecord
100
AcDbBlockTableRecord
  2
_ARCHTICK
  0
BLOCK_RECORD
  5
1741C
330
1
100
AcDbSymbolTableRecord
100
AcDbBlockTableRecord
  2
_INTEGRAL
  0
BLOCK_RECORD
  5
1FF55
330
1
100
AcDbSymbolTableRecord
100
AcDbBlockTableRecord
  2
*D230
  0
BLOCK_RECORD
  5
1FF61
330
1
100
AcDbSymbolTableRecord
100
AcDbBlockTableRecord
  2
*D231
  0
BLOCK_RECORD
  5
1FF6B
330
1
100
AcDbSymbolTableRecord
100
AcDbBlockTableRecord
  2
*D232
  0
BLOCK_RECORD
  5
1FF77
330
1
100
AcDbSymbolTableRecord
100
AcDbBlockTableRecord
  2
*D233
  0
BLOCK_RECORD
  5
1FF85
330
1
100
AcDbSymbolTableRecord
100
AcDbBlockTableRecord
  2
*D234
  0
BLOCK_RECORD
  5
1FFA5
330
1
100
AcDbSymbolTableRecord
100
AcDbBlockTableRecord
  2
*D236
  0
BLOCK_RECORD
  5
1FFB3
330
1
100
AcDbSymbolTableRecord
100
AcDbBlockTableRecord
  2
*D237
  0
BLOCK_RECORD
  5
1FFBF
330
1
100
AcDbSymbolTableRecord
100
AcDbBlockTableRecord
  2
*D238
  0
BLOCK_RECORD
  5
1FFCB
330
1
100
AcDbSymbolTableRecord
100
AcDbBlockTableRecord
  2
*D239
  0
BLOCK_RECORD
  5
1FFDD
330
1
100
AcDbSymbolTableRecord
100
AcDbBlockTableRecord
  2
*D240
  0
BLOCK_RECORD
  5
1FFEE
330
1
100
AcDbSymbolTableRecord
100
AcDbBlockTableRecord
  2
*D241
  0
BLOCK_RECORD
  5
2000B
330
1
100
AcDbSymbolTableRecord
100
AcDbBlockTableRecord
  2
*D242
  0
BLOCK_RECORD
  5
2001A
330
1
100
AcDbSymbolTableRecord
100
AcDbBlockTableRecord
  2
*D243
  0
ENDTAB
  0
ENDSEC
  0
SECTION
  2
BLOCKS
  0
BLOCK
  5
29
330
18
100
AcDbEntity
  8
0
100
AcDbBlockBegin
  2
*MODEL_SPACE
 70
     0
 10
0.0
 20
0.0
 30
0.0
  3
*MODEL_SPACE
  1

  0
ENDBLK
  5
2A
330
18
100
AcDbEntity
  8
0
100
AcDbBlockEnd
  0
BLOCK
  5
27
330
15
100
AcDbEntity
 67
     1
  8
0
100
AcDbBlockBegin
  2
*PAPER_SPACE
 70
     0
 10
0.0
 20
0.0
 30
0.0
  3
*PAPER_SPACE
  1

  0
ENDBLK
  5
28
330
15
100
AcDbEntity
 67
     1
  8
0
100
AcDbBlockEnd
  0
BLOCK
  5
7EAF
330
7EA0
100
AcDbEntity
  8
0
100
AcDbBlockBegin
  2
A$C312173AA
 70
     0
 10
0.0
 20
0.0
 30
0.0
  3
A$C312173AA
  1
A$C312173AA
  0
HATCH
  5
7EA1
330
7EA0
100
AcDbEntity
  8
1
100
AcDbHatch
 10
0.0
 20
0.0
 30
0.0
210
0.0
220
0.0
230
1.0
  2
SOLID
 70
     1
 71
     1
 91
        1
 92
        7
 72
     0
 73
     1
 93
        4
 10
2.724690422176706
 20
5.013136352600668
 10
5.058157912552363
 20
1.095673373491763
 10
5.076413282682712
 20
1.095673373491763
 10
7.382430158279476
 20
5.013136352600668
 97
        4
330
7EA6
330
7EAA
330
7EA5
330
7EA8
 75
     0
 76
     1
 47
0.057765
 98
        1
 10
5.461965
 20
4.283681
  0
HATCH
  5
7EA2
330
7EA0
100
AcDbEntity
  8
1
100
AcDbHatch
 10
0.0
 20
0.0
 30
0.0
210
0.0
220
0.0
230
1.0
  2
SOLID
 70
     1
 71
     1
 91
        1
 92
        7
 72
     0
 73
     1
 93
        4
 10
2.724690422176706
 20
5.013136352600668
 10
5.058157912552363
 20
1.095673373491763
 10
5.076413282682712
 20
1.095673373491763
 10
7.382430158279476
 20
5.013136352600668
 97
        4
330
7EA4
330
7EA9
330
7EA3
330
7EA7
 75
     0
 76
     1
 47
0.057765
 98
        1
 10
5.461965
 20
4.283681
  0
LINE
  5
7EA3
102
{ACAD_REACTORS
330
7EA2
102
}
330
7EA0
100
AcDbEntity
  8
1
100
AcDbLine
 10
7.376974
 20
1.095673
 30
0.0
 11
2.719445
 21
1.095673
 31
0.0
  0
LINE
  5
7EA4
102
{ACAD_REACTORS
330
7EA2
102
}
330
7EA0
100
AcDbEntity
  8
1
100
AcDbLine
 10
2.716507
 20
5.013136
 30
0.0
 11
7.38243
 21
5.013136
 31
0.0
  0
LINE
  5
7EA5
102
{ACAD_REACTORS
330
7EA1
102
}
330
7EA0
100
AcDbEntity
  8
1
100
AcDbLine
 10
7.376974
 20
1.095673
 30
0.0
 11
2.719445
 21
1.095673
 31
0.0
  0
LINE
  5
7EA6
102
{ACAD_REACTORS
330
7EA1
102
}
330
7EA0
100
AcDbEntity
  8
1
100
AcDbLine
 10
2.716507
 20
5.013136
 30
0.0
 11
7.38243
 21
5.013136
 31
0.0
  0
LINE
  5
7EA7
102
{ACAD_REACTORS
330
7EA2
102
}
330
7EA0
100
AcDbEntity
  8
1
100
AcDbLine
 10
7.38243
 20
5.013136
 30
0.0
 11
5.049469
 21
1.0499
 31
0.0
  0
LINE
  5
7EA8
102
{ACAD_REACTORS
330
7EA1
102
}
330
7EA0
100
AcDbEntity
  8
1
100
AcDbLine
 10
7.38243
 20
5.013136
 30
0.0
 11
5.049469
 21
1.0499
 31
0.0
  0
LINE
  5
7EA9
102
{ACAD_REACTORS
330
7EA2
102
}
330
7EA0
100
AcDbEntity
  8
1
100
AcDbLine
 10
5.048209
 20
1.112376
 30
0.0
 11
2.719445
 21
5.021942
 31
0.0
  0
LINE
  5
7EAA
102
{ACAD_REACTORS
330
7EA1
102
}
330
7EA0
100
AcDbEntity
  8
1
100
AcDbLine
 10
5.048209
 20
1.112376
 30
0.0
 11
2.719445
 21
5.021942
 31
0.0
  0
LINE
  5
7EAB
330
7EA0
100
AcDbEntity
  8
1
100
AcDbLine
 10
3.176777
 20
2.240563
 30
0.0
 11
1.859991
 21
0.714974
 31
0.0
  0
LINE
  5
7EAC
330
7EA0
100
AcDbEntity
  8
1
100
AcDbLine
 10
1.935572
 20
2.29404
 30
0.0
 11
0.618786
 21
0.768452
 31
0.0
  0
HATCH
  5
7EAD
330
7EA0
100
AcDbEntity
  8
1
100
AcDbHatch
 10
0.0
 20
0.0
 30
0.0
210
0.0
220
0.0
230
1.0
  2
SOLID
 70
     1
 71
     0
 91
        1
 92
        7
 72
     0
 73
     1
 93
        3
 10
2.13435432304297
 20
0.5079866047149438
 10
1.594971700028992
 20
0.9149117569309055
 10
1.241204476589189
 20
0.0000001052034975
 97
        0
 75
     0
 76
     1
 47
0.009825
 98
        1
 10
1.617082
 20
0.370646
  0
HATCH
  5
7EAE
330
7EA0
100
AcDbEntity
  8
1
100
AcDbHatch
 10
0.0
 20
0.0
 30
0.0
210
0.0
220
0.0
230
1.0
  2
SOLID
 70
     1
 71
     0
 91
        1
 92
        7
 72
     0
 73
     1
 93
        3
 10
0.8931496793437361
 20
0.5614642425206
 10
0.3537670563297865
 20
0.9683893947365334
 10
-0.0000001671100733
 20
0.0534777430091538
 97
        0
 75
     0
 76
     1
 47
0.009825
 98
        1
 10
0.375878
 20
0.424123
  0
ENDBLK
  5
7EB0
330
7EA0
100
AcDbEntity
  8
0
100
AcDbBlockEnd
  0
BLOCK
  5
C4FC
330
C4F7
100
AcDbEntity
  8
0
100
AcDbBlockBegin
  2
_DOT
 70
     0
 10
0.0
 20
0.0
 30
0.0
  3
_DOT
  1
_DOT
  0
LWPOLYLINE
  5
C4F8
330
C4F7
100
AcDbEntity
  8
0
  6
BYBLOCK
 62
     0
100
AcDbPolyline
 90
        2
 70
     1
 43
0.5
 10
-0.25
 20
0.0
 42
1.0
 10
0.25
 20
0.0
 42
1.0
  0
LINE
  5
C4F9
330
C4F7
100
AcDbEntity
  8
0
  6
BYBLOCK
 62
     0
100
AcDbLine
 10
-0.5
 20
0.0
 30
0.0
 11
-1.0
 21
0.0
 31
0.0
  0
ENDBLK
  5
C4FD
330
C4F7
100
AcDbEntity
  8
0
100
AcDbBlockEnd
  0
BLOCK
  5
13342
330
13341
100
AcDbEntity
  8
0
100
AcDbBlockBegin
  2
_NONE
 70
     0
 10
0.0
 20
0.0
 30
0.0
  3
_NONE
  1
_NONE
  0
ENDBLK
  5
13343
330
13341
100
AcDbEntity
  8
0
100
AcDbBlockEnd
  0
BLOCK
  5
13347
330
13346
100
AcDbEntity
  8
0
100
AcDbBlockBegin
  2
_OBLIQUE
 70
     0
 10
0.0
 20
0.0
 30
0.0
  3
_OBLIQUE
  1
_OBLIQUE
  0
LINE
  5
13349
330
13346
100
AcDbEntity
  8
0
  6
BYBLOCK
 62
     0
100
AcDbLine
 10
-0.5
 20
-0.5
 30
0.0
 11
0.5
 21
0.5
 31
0.0
  0
ENDBLK
  5
13348
330
13346
100
AcDbEntity
  8
0
100
AcDbBlockEnd
  0
BLOCK
  5
1357B
330
1357A
100
AcDbEntity
  8
0
100
AcDbBlockBegin
  2
SW_CENTERMARKSYMBOL_0
 70
     0
 10
0.0
 20
0.0
 30
0.0
  3
SW_CENTERMARKSYMBOL_0
  1
SW_CENTERMARKSYMBOL_0
  0
LINE
  5
1357C
330
1357A
100
AcDbEntity
  8
0
  6
CONTINUOUS
 62
     0
100
AcDbLine
 10
0.0
 20
0.0
 30
0.0
 11
0.0
 21
2.500000000000002
 31
0.0
  0
LINE
  5
1357D
330
1357A
100
AcDbEntity
  8
0
  6
CONTINUOUS
 62
     0
100
AcDbLine
 10
0.0
 20
0.0
 30
0.0
 11
-2.500000000000002
 21
0.0
 31
0.0
  0
LINE
  5
1357E
330
1357A
100
AcDbEntity
  8
0
  6
CONTINUOUS
 62
     0
100
AcDbLine
 10
0.0
 20
0.0
 30
0.0
 11
0.0
 21
-2.500000000000002
 31
0.0
  0
LINE
  5
1357F
330
1357A
100
AcDbEntity
  8
0
  6
CONTINUOUS
 62
     0
100
AcDbLine
 10
0.0
 20
0.0
 30
0.0
 11
2.500000000000002
 21
0.0
 31
0.0
  0
LINE
  5
13580
330
1357A
100
AcDbEntity
  8
0
  6
CONTINUOUS
 62
     0
100
AcDbLine
 10
0.0
 20
2.500000000000002
 30
0.0
 11
0.0
 21
3.099999999999992
 31
0.0
  0
LINE
  5
13581
330
1357A
100
AcDbEntity
  8
0
  6
CONTINUOUS
 62
     0
100
AcDbLine
 10
-2.500000000000002
 20
0.0
 30
0.0
 11
-3.100000000000005
 21
0.0
 31
0.0
  0
LINE
  5
13582
330
1357A
100
AcDbEntity
  8
0
  6
CONTINUOUS
 62
     0
100
AcDbLine
 10
0.0
 20
-2.500000000000002
 30
0.0
 11
0.0
 21
-3.099999999999992
 31
0.0
  0
LINE
  5
13583
330
1357A
100
AcDbEntity
  8
0
  6
CONTINUOUS
 62
     0
100
AcDbLine
 10
2.500000000000002
 20
0.0
 30
0.0
 11
3.099999999999992
 21
0.0
 31
0.0
  0
ENDBLK
  5
13584
330
1357A
100
AcDbEntity
  8
0
100
AcDbBlockEnd
  0
BLOCK
  5
13587
330
13586
100
AcDbEntity
  8
0
100
AcDbBlockBegin
  2
SW_CENTERMARKSYMBOL_1
 70
     0
 10
0.0
 20
0.0
 30
0.0
  3
SW_CENTERMARKSYMBOL_1
  1
SW_CENTERMARKSYMBOL_1
  0
LINE
  5
13588
330
13586
100
AcDbEntity
  8
0
  6
CONTINUOUS
 62
     0
100
AcDbLine
 10
0.0
 20
0.0
 30
0.0
 11
0.0
 21
2.500000000000002
 31
0.0
  0
LINE
  5
13589
330
13586
100
AcDbEntity
  8
0
  6
CONTINUOUS
 62
     0
100
AcDbLine
 10
0.0
 20
0.0
 30
0.0
 11
-2.500000000000002
 21
0.0
 31
0.0
  0
LINE
  5
1358A
330
13586
100
AcDbEntity
  8
0
  6
CONTINUOUS
 62
     0
100
AcDbLine
 10
0.0
 20
0.0
 30
0.0
 11
0.0
 21
-2.500000000000002
 31
0.0
  0
LINE
  5
1358B
330
13586
100
AcDbEntity
  8
0
  6
CONTINUOUS
 62
     0
100
AcDbLine
 10
0.0
 20
0.0
 30
0.0
 11
2.500000000000002
 21
0.0
 31
0.0
  0
LINE
  5
1358C
330
13586
100
AcDbEntity
  8
0
  6
CONTINUOUS
 62
     0
100
AcDbLine
 10
0.0
 20
2.500000000000002
 30
0.0
 11
0.0
 21
3.099999999999992
 31
0.0
  0
LINE
  5
1358D
330
13586
100
AcDbEntity
  8
0
  6
CONTINUOUS
 62
     0
100
AcDbLine
 10
-2.500000000000002
 20
0.0
 30
0.0
 11
-3.100000000000005
 21
0.0
 31
0.0
  0
LINE
  5
1358E
330
13586
100
AcDbEntity
  8
0
  6
CONTINUOUS
 62
     0
100
AcDbLine
 10
0.0
 20
-2.500000000000002
 30
0.0
 11
0.0
 21
-3.099999999999992
 31
0.0
  0
LINE
  5
1358F
330
13586
100
AcDbEntity
  8
0
  6
CONTINUOUS
 62
     0
100
AcDbLine
 10
2.500000000000002
 20
0.0
 30
0.0
 11
3.099999999999992
 21
0.0
 31
0.0
  0
ENDBLK
  5
13590
330
13586
100
AcDbEntity
  8
0
100
AcDbBlockEnd
  0
BLOCK
  5
13593
330
13592
100
AcDbEntity
  8
0
100
AcDbBlockBegin
  2
SW_CENTERMARKSYMBOL_2
 70
     0
 10
0.0
 20
0.0
 30
0.0
  3
SW_CENTERMARKSYMBOL_2
  1
SW_CENTERMARKSYMBOL_2
  0
LINE
  5
13594
330
13592
100
AcDbEntity
  8
0
  6
CONTINUOUS
 62
     0
100
AcDbLine
 10
0.0
 20
0.0
 30
0.0
 11
0.0
 21
2.500000000000002
 31
0.0
  0
LINE
  5
13595
330
13592
100
AcDbEntity
  8
0
  6
CONTINUOUS
 62
     0
100
AcDbLine
 10
0.0
 20
0.0
 30
0.0
 11
-2.500000000000002
 21
0.0
 31
0.0
  0
LINE
  5
13596
330
13592
100
AcDbEntity
  8
0
  6
CONTINUOUS
 62
     0
100
AcDbLine
 10
0.0
 20
0.0
 30
0.0
 11
0.0
 21
-2.500000000000002
 31
0.0
  0
LINE
  5
13597
330
13592
100
AcDbEntity
  8
0
  6
CONTINUOUS
 62
     0
100
AcDbLine
 10
0.0
 20
0.0
 30
0.0
 11
2.500000000000002
 21
0.0
 31
0.0
  0
LINE
  5
13598
330
13592
100
AcDbEntity
  8
0
  6
CONTINUOUS
 62
     0
100
AcDbLine
 10
0.0
 20
2.500000000000002
 30
0.0
 11
0.0
 21
3.049999999999997
 31
0.0
  0
LINE
  5
13599
330
13592
100
AcDbEntity
  8
0
  6
CONTINUOUS
 62
     0
100
AcDbLine
 10
-2.500000000000002
 20
0.0
 30
0.0
 11
-3.050000000000011
 21
0.0
 31
0.0
  0
LINE
  5
1359A
330
13592
100
AcDbEntity
  8
0
  6
CONTINUOUS
 62
     0
100
AcDbLine
 10
0.0
 20
-2.500000000000002
 30
0.0
 11
0.0
 21
-3.049999999999997
 31
0.0
  0
LINE
  5
1359B
330
13592
100
AcDbEntity
  8
0
  6
CONTINUOUS
 62
     0
100
AcDbLine
 10
2.500000000000002
 20
0.0
 30
0.0
 11
3.049999999999997
 21
0.0
 31
0.0
  0
ENDBLK
  5
1359C
330
13592
100
AcDbEntity
  8
0
100
AcDbBlockEnd
  0
BLOCK
  5
140D4
330
140D3
100
AcDbEntity
  8
0
100
AcDbBlockBegin
  2
SW_CENTERMARKSYMBOL_3
 70
     0
 10
0.0
 20
0.0
 30
0.0
  3
SW_CENTERMARKSYMBOL_3
  1
SW_CENTERMARKSYMBOL_3
  0
LINE
  5
140D5
330
140D3
100
AcDbEntity
  8
0
  6
CONTINUOUS
 62
     0
100
AcDbLine
 10
0.0
 20
0.0
 30
0.0
 11
0.0
 21
2.500000000000002
 31
0.0
  0
LINE
  5
140D6
330
140D3
100
AcDbEntity
  8
0
  6
CONTINUOUS
 62
     0
100
AcDbLine
 10
0.0
 20
0.0
 30
0.0
 11
-2.500000000000002
 21
0.0
 31
0.0
  0
LINE
  5
140D7
330
140D3
100
AcDbEntity
  8
0
  6
CONTINUOUS
 62
     0
100
AcDbLine
 10
0.0
 20
0.0
 30
0.0
 11
0.0
 21
-2.500000000000002
 31
0.0
  0
LINE
  5
140D8
330
140D3
100
AcDbEntity
  8
0
  6
CONTINUOUS
 62
     0
100
AcDbLine
 10
0.0
 20
0.0
 30
0.0
 11
2.500000000000002
 21
0.0
 31
0.0
  0
LINE
  5
140D9
330
140D3
100
AcDbEntity
  8
0
  6
CONTINUOUS
 62
     0
100
AcDbLine
 10
0.0
 20
2.500000000000002
 30
0.0
 11
0.0
 21
4.994484940947341
 31
0.0
  0
LINE
  5
140DA
330
140D3
100
AcDbEntity
  8
0
  6
CONTINUOUS
 62
     0
100
AcDbLine
 10
-2.500000000000002
 20
0.0
 30
0.0
 11
-4.994484940947341
 21
0.0
 31
0.0
  0
LINE
  5
140DB
330
140D3
100
AcDbEntity
  8
0
  6
CONTINUOUS
 62
     0
100
AcDbLine
 10
0.0
 20
-2.500000000000002
 30
0.0
 11
0.0
 21
-4.994484940947369
 31
0.0
  0
LINE
  5
140DC
330
140D3
100
AcDbEntity
  8
0
  6
CONTINUOUS
 62
     0
100
AcDbLine
 10
2.500000000000002
 20
0.0
 30
0.0
 11
4.994484940947369
 21
0.0
 31
0.0
  0
ENDBLK
  5
140DD
330
140D3
100
AcDbEntity
  8
0
100
AcDbBlockEnd
  0
BLOCK
  5
140E0
330
140DF
100
AcDbEntity
  8
0
100
AcDbBlockBegin
  2
SW_CENTERMARKSYMBOL_4
 70
     0
 10
0.0
 20
0.0
 30
0.0
  3
SW_CENTERMARKSYMBOL_4
  1
SW_CENTERMARKSYMBOL_4
  0
LINE
  5
140E1
330
140DF
100
AcDbEntity
  8
0
  6
CONTINUOUS
 62
     0
100
AcDbLine
 10
0.0
 20
0.0
 30
0.0
 11
0.0
 21
2.500000000000002
 31
0.0
  0
LINE
  5
140E2
330
140DF
100
AcDbEntity
  8
0
  6
CONTINUOUS
 62
     0
100
AcDbLine
 10
0.0
 20
0.0
 30
0.0
 11
-2.500000000000002
 21
0.0
 31
0.0
  0
LINE
  5
140E3
330
140DF
100
AcDbEntity
  8
0
  6
CONTINUOUS
 62
     0
100
AcDbLine
 10
0.0
 20
0.0
 30
0.0
 11
0.0
 21
-2.500000000000002
 31
0.0
  0
LINE
  5
140E4
330
140DF
100
AcDbEntity
  8
0
  6
CONTINUOUS
 62
     0
100
AcDbLine
 10
0.0
 20
0.0
 30
0.0
 11
2.500000000000002
 21
0.0
 31
0.0
  0
LINE
  5
140E5
330
140DF
100
AcDbEntity
  8
0
  6
CONTINUOUS
 62
     0
100
AcDbLine
 10
0.0
 20
5.000000000000004
 30
0.0
 11
0.0
 21
5.148285779730477
 31
0.0
  0
LINE
  5
140E6
330
140DF
100
AcDbEntity
  8
0
  6
CONTINUOUS
 62
     0
100
AcDbLine
 10
-5.000000000000004
 20
0.0
 30
0.0
 11
-5.14828577973045
 21
0.0
 31
0.0
  0
LINE
  5
140E7
330
140DF
100
AcDbEntity
  8
0
  6
CONTINUOUS
 62
     0
100
AcDbLine
 10
0.0
 20
-4.999999999999977
 30
0.0
 11
0.0
 21
-5.14828577973045
 31
0.0
  0
LINE
  5
140E8
330
140DF
100
AcDbEntity
  8
0
  6
CONTINUOUS
 62
     0
100
AcDbLine
 10
5.000000000000004
 20
0.0
 30
0.0
 11
5.148285779730477
 21
0.0
 31
0.0
  0
ENDBLK
  5
140E9
330
140DF
100
AcDbEntity
  8
0
100
AcDbBlockEnd
  0
BLOCK
  5
140EC
330
140EB
100
AcDbEntity
  8
0
100
AcDbBlockBegin
  2
SW_CENTERMARKSYMBOL_5
 70
     0
 10
0.0
 20
0.0
 30
0.0
  3
SW_CENTERMARKSYMBOL_5
  1
SW_CENTERMARKSYMBOL_5
  0
LINE
  5
140ED
330
140EB
100
AcDbEntity
  8
0
  6
CONTINUOUS
 62
     0
100
AcDbLine
 10
0.0
 20
0.0
 30
0.0
 11
0.0
 21
2.500000000000002
 31
0.0
  0
LINE
  5
140EE
330
140EB
100
AcDbEntity
  8
0
  6
CONTINUOUS
 62
     0
100
AcDbLine
 10
0.0
 20
0.0
 30
0.0
 11
-2.500000000000002
 21
0.0
 31
0.0
  0
LINE
  5
140EF
330
140EB
100
AcDbEntity
  8
0
  6
CONTINUOUS
 62
     0
100
AcDbLine
 10
0.0
 20
0.0
 30
0.0
 11
0.0
 21
-2.499999999999974
 31
0.0
  0
LINE
  5
140F0
330
140EB
100
AcDbEntity
  8
0
  6
CONTINUOUS
 62
     0
100
AcDbLine
 10
0.0
 20
0.0
 30
0.0
 11
2.500000000000002
 21
0.0
 31
0.0
  0
LINE
  5
140F1
330
140EB
100
AcDbEntity
  8
0
  6
CONTINUOUS
 62
     0
100
AcDbLine
 10
0.0
 20
2.500000000000002
 30
0.0
 11
0.0
 21
4.994484940947369
 31
0.0
  0
LINE
  5
140F2
330
140EB
100
AcDbEntity
  8
0
  6
CONTINUOUS
 62
     0
100
AcDbLine
 10
-2.500000000000002
 20
0.0
 30
0.0
 11
-4.994484940947341
 21
0.0
 31
0.0
  0
LINE
  5
140F3
330
140EB
100
AcDbEntity
  8
0
  6
CONTINUOUS
 62
     0
100
AcDbLine
 10
0.0
 20
-2.499999999999974
 30
0.0
 11
0.0
 21
-4.994484940947341
 31
0.0
  0
LINE
  5
140F4
330
140EB
100
AcDbEntity
  8
0
  6
CONTINUOUS
 62
     0
100
AcDbLine
 10
2.500000000000002
 20
0.0
 30
0.0
 11
4.994484940947369
 21
0.0
 31
0.0
  0
ENDBLK
  5
140F5
330
140EB
100
AcDbEntity
  8
0
100
AcDbBlockEnd
  0
BLOCK
  5
140F8
330
140F7
100
AcDbEntity
  8
0
100
AcDbBlockBegin
  2
SW_CENTERMARKSYMBOL_6
 70
     0
 10
0.0
 20
0.0
 30
0.0
  3
SW_CENTERMARKSYMBOL_6
  1
SW_CENTERMARKSYMBOL_6
  0
LINE
  5
140F9
330
140F7
100
AcDbEntity
  8
0
  6
CONTINUOUS
 62
     0
100
AcDbLine
 10
0.0
 20
0.0
 30
0.0
 11
0.0
 21
2.500000000000002
 31
0.0
  0
LINE
  5
140FA
330
140F7
100
AcDbEntity
  8
0
  6
CONTINUOUS
 62
     0
100
AcDbLine
 10
0.0
 20
0.0
 30
0.0
 11
-2.500000000000002
 21
0.0
 31
0.0
  0
LINE
  5
140FB
330
140F7
100
AcDbEntity
  8
0
  6
CONTINUOUS
 62
     0
100
AcDbLine
 10
0.0
 20
0.0
 30
0.0
 11
0.0
 21
-2.500000000000002
 31
0.0
  0
LINE
  5
140FC
330
140F7
100
AcDbEntity
  8
0
  6
CONTINUOUS
 62
     0
100
AcDbLine
 10
0.0
 20
0.0
 30
0.0
 11
2.500000000000002
 21
0.0
 31
0.0
  0
LINE
  5
140FD
330
140F7
100
AcDbEntity
  8
0
  6
CONTINUOUS
 62
     0
100
AcDbLine
 10
0.0
 20
5.000000000000004
 30
0.0
 11
0.0
 21
5.148285779730005
 31
0.0
  0
LINE
  5
140FE
330
140F7
100
AcDbEntity
  8
0
  6
CONTINUOUS
 62
     0
100
AcDbLine
 10
-5.000000000000004
 20
0.0
 30
0.0
 11
-5.148285779730005
 21
0.0
 31
0.0
  0
LINE
  5
140FF
330
140F7
100
AcDbEntity
  8
0
  6
CONTINUOUS
 62
     0
100
AcDbLine
 10
0.0
 20
-5.000000000000004
 30
0.0
 11
0.0
 21
-5.148285779730005
 31
0.0
  0
LINE
  5
14100
330
140F7
100
AcDbEntity
  8
0
  6
CONTINUOUS
 62
     0
100
AcDbLine
 10
5.000000000000004
 20
0.0
 30
0.0
 11
5.148285779730005
 21
0.0
 31
0.0
  0
ENDBLK
  5
14101
330
140F7
100
AcDbEntity
  8
0
100
AcDbBlockEnd
  0
BLOCK
  5
14104
330
14103
100
AcDbEntity
  8
0
100
AcDbBlockBegin
  2
SW_CENTERMARKSYMBOL_7
 70
     0
 10
0.0
 20
0.0
 30
0.0
  3
SW_CENTERMARKSYMBOL_7
  1
SW_CENTERMARKSYMBOL_7
  0
LINE
  5
14105
330
14103
100
AcDbEntity
  8
0
  6
CONTINUOUS
 62
     0
100
AcDbLine
 10
0.0
 20
0.0
 30
0.0
 11
0.0
 21
2.500000000000002
 31
0.0
  0
LINE
  5
14106
330
14103
100
AcDbEntity
  8
0
  6
CONTINUOUS
 62
     0
100
AcDbLine
 10
0.0
 20
0.0
 30
0.0
 11
-2.500000000000002
 21
0.0
 31
0.0
  0
LINE
  5
14107
330
14103
100
AcDbEntity
  8
0
  6
CONTINUOUS
 62
     0
100
AcDbLine
 10
0.0
 20
0.0
 30
0.0
 11
0.0
 21
-2.500000000000002
 31
0.0
  0
LINE
  5
14108
330
14103
100
AcDbEntity
  8
0
  6
CONTINUOUS
 62
     0
100
AcDbLine
 10
0.0
 20
0.0
 30
0.0
 11
2.500000000000002
 21
0.0
 31
0.0
  0
LINE
  5
14109
330
14103
100
AcDbEntity
  8
0
  6
CONTINUOUS
 62
     0
100
AcDbLine
 10
0.0
 20
2.500000000000002
 30
0.0
 11
0.0
 21
4.396509385747454
 31
0.0
  0
LINE
  5
1410A
330
14103
100
AcDbEntity
  8
0
  6
CONTINUOUS
 62
     0
100
AcDbLine
 10
-2.500000000000002
 20
0.0
 30
0.0
 11
-4.396509385747454
 21
0.0
 31
0.0
  0
LINE
  5
1410B
330
14103
100
AcDbEntity
  8
0
  6
CONTINUOUS
 62
     0
100
AcDbLine
 10
0.0
 20
-2.500000000000002
 30
0.0
 11
0.0
 21
-4.396509385747454
 31
0.0
  0
LINE
  5
1410C
330
14103
100
AcDbEntity
  8
0
  6
CONTINUOUS
 62
     0
100
AcDbLine
 10
2.500000000000002
 20
0.0
 30
0.0
 11
4.396509385747454
 21
0.0
 31
0.0
  0
ENDBLK
  5
1410D
330
14103
100
AcDbEntity
  8
0
100
AcDbBlockEnd
  0
BLOCK
  5
14110
330
1410F
100
AcDbEntity
  8
0
100
AcDbBlockBegin
  2
SW_CENTERMARKSYMBOL_8
 70
     0
 10
0.0
 20
0.0
 30
0.0
  3
SW_CENTERMARKSYMBOL_8
  1
SW_CENTERMARKSYMBOL_8
  0
LINE
  5
14111
330
1410F
100
AcDbEntity
  8
0
  6
CONTINUOUS
 62
     0
100
AcDbLine
 10
0.0
 20
0.0
 30
0.0
 11
0.0
 21
2.500000000000002
 31
0.0
  0
LINE
  5
14112
330
1410F
100
AcDbEntity
  8
0
  6
CONTINUOUS
 62
     0
100
AcDbLine
 10
0.0
 20
0.0
 30
0.0
 11
-2.499999999999988
 21
0.0
 31
0.0
  0
LINE
  5
14113
330
1410F
100
AcDbEntity
  8
0
  6
CONTINUOUS
 62
     0
100
AcDbLine
 10
0.0
 20
0.0
 30
0.0
 11
0.0
 21
-2.499999999999974
 31
0.0
  0
LINE
  5
14114
330
1410F
100
AcDbEntity
  8
0
  6
CONTINUOUS
 62
     0
100
AcDbLine
 10
0.0
 20
0.0
 30
0.0
 11
2.500000000000002
 21
0.0
 31
0.0
  0
LINE
  5
14115
330
1410F
100
AcDbEntity
  8
0
  6
CONTINUOUS
 62
     0
100
AcDbLine
 10
0.0
 20
2.500000000000002
 30
0.0
 11
0.0
 21
4.396509385855424
 31
0.0
  0
LINE
  5
14116
330
1410F
100
AcDbEntity
  8
0
  6
CONTINUOUS
 62
     0
100
AcDbLine
 10
-2.499999999999988
 20
0.0
 30
0.0
 11
-4.39650938585541
 21
0.0
 31
0.0
  0
LINE
  5
14117
330
1410F
100
AcDbEntity
  8
0
  6
CONTINUOUS
 62
     0
100
AcDbLine
 10
0.0
 20
-2.499999999999974
 30
0.0
 11
0.0
 21
-4.396509385855396
 31
0.0
  0
LINE
  5
14118
330
1410F
100
AcDbEntity
  8
0
  6
CONTINUOUS
 62
     0
100
AcDbLine
 10
2.500000000000002
 20
0.0
 30
0.0
 11
4.39650938585541
 21
0.0
 31
0.0
  0
ENDBLK
  5
14119
330
1410F
100
AcDbEntity
  8
0
100
AcDbBlockEnd
  0
BLOCK
  5
1411C
330
1411B
100
AcDbEntity
  8
0
100
AcDbBlockBegin
  2
SW_CENTERMARKSYMBOL_9
 70
     0
 10
0.0
 20
0.0
 30
0.0
  3
SW_CENTERMARKSYMBOL_9
  1
SW_CENTERMARKSYMBOL_9
  0
LINE
  5
1411D
330
1411B
100
AcDbEntity
  8
0
  6
CONTINUOUS
 62
     0
100
AcDbLine
 10
0.0
 20
0.0
 30
0.0
 11
0.0
 21
2.500000000000002
 31
0.0
  0
LINE
  5
1411E
330
1411B
100
AcDbEntity
  8
0
  6
CONTINUOUS
 62
     0
100
AcDbLine
 10
0.0
 20
0.0
 30
0.0
 11
-2.500000000000002
 21
0.0
 31
0.0
  0
LINE
  5
1411F
330
1411B
100
AcDbEntity
  8
0
  6
CONTINUOUS
 62
     0
100
AcDbLine
 10
0.0
 20
0.0
 30
0.0
 11
0.0
 21
-2.500000000000002
 31
0.0
  0
LINE
  5
14120
330
1411B
100
AcDbEntity
  8
0
  6
CONTINUOUS
 62
     0
100
AcDbLine
 10
0.0
 20
0.0
 30
0.0
 11
2.500000000000002
 21
0.0
 31
0.0
  0
LINE
  5
14121
330
1411B
100
AcDbEntity
  8
0
  6
CONTINUOUS
 62
     0
100
AcDbLine
 10
0.0
 20
2.500000000000002
 30
0.0
 11
0.0
 21
4.700000000000787
 31
0.0
  0
LINE
  5
14122
330
1411B
100
AcDbEntity
  8
0
  6
CONTINUOUS
 62
     0
100
AcDbLine
 10
-2.500000000000002
 20
0.0
 30
0.0
 11
-4.7000000000008
 21
0.0
 31
0.0
  0
LINE
  5
14123
330
1411B
100
AcDbEntity
  8
0
  6
CONTINUOUS
 62
     0
100
AcDbLine
 10
0.0
 20
-2.500000000000002
 30
0.0
 11
0.0
 21
-4.700000000000815
 31
0.0
  0
LINE
  5
14124
330
1411B
100
AcDbEntity
  8
0
  6
CONTINUOUS
 62
     0
100
AcDbLine
 10
2.500000000000002
 20
0.0
 30
0.0
 11
4.7000000000008
 21
0.0
 31
0.0
  0
ENDBLK
  5
14125
330
1411B
100
AcDbEntity
  8
0
100
AcDbBlockEnd
  0
BLOCK
  5
17419
330
17418
100
AcDbEntity
  8
0
100
AcDbBlockBegin
  2
_ARCHTICK
 70
     0
 10
0.0
 20
0.0
 30
0.0
  3
_ARCHTICK
  1
_ARCHTICK
  0
LWPOLYLINE
  5
1741B
330
17418
100
AcDbEntity
  8
0
  6
BYBLOCK
 62
     0
100
AcDbPolyline
 90
        2
 70
     0
 43
0.15
 10
-0.5
 20
-0.5
 10
0.5
 20
0.5
  0
ENDBLK
  5
1741A
330
17418
100
AcDbEntity
  8
0
100
AcDbBlockEnd
  0
BLOCK
  5
1741D
330
1741C
100
AcDbEntity
  8
0
100
AcDbBlockBegin
  2
_INTEGRAL
 70
     0
 10
0.0
 20
0.0
 30
0.0
  3
_INTEGRAL
  1
_INTEGRAL
  0
ARC
  5
1741F
330
1741C
100
AcDbEntity
  8
0
  6
BYBLOCK
 62
     0
100
AcDbCircle
 10
0.444888
 20
-0.091335
 30
0.0
 40
0.4541666700000001
100
AcDbArc
 50
102.0
 51
168.0
  0
ARC
  5
17420
330
1741C
100
AcDbEntity
  8
0
  6
BYBLOCK
 62
     0
100
AcDbCircle
 10
-0.444888
 20
0.091335
 30
0.0
 40
0.4541666700000001
100
AcDbArc
 50
281.9999999999999
 51
348.0
  0
ENDBLK
  5
1741E
330
1741C
100
AcDbEntity
  8
0
100
AcDbBlockEnd
  0
BLOCK
  5
1FF56
330
1FF55
100
AcDbEntity
  8
0
100
AcDbBlockBegin
  2
*D230
 70
     1
 10
0.0
 20
0.0
 30
0.0
  3
*D230
  1
*D230
  0
LINE
  5
1FF58
330
1FF55
100
AcDbEntity
  8
WY
 62
     0
100
AcDbLine
 10
636.8328546643628
 20
153.8532962749028
 30
0.0
 11
646.6924172857789
 21
153.8532962749028
 31
0.0
  0
LINE
  5
1FF59
330
1FF55
100
AcDbEntity
  8
WY
 62
     0
100
AcDbLine
 10
636.8328546643628
 20
149.753295789125
 30
0.0
 11
646.6924172857789
 21
149.753295789125
 31
0.0
  0
LINE
  5
1FF5A
330
1FF55
100
AcDbEntity
  8
WY
 62
     0
100
AcDbLine
 10
645.1924172857789
 20
151.8532962749028
 30
0.0
 11
645.1924172857789
 21
149.753295789125
 31
0.0
  0
SOLID
  5
1FF5B
330
1FF55
100
AcDbEntity
  8
WY
 62
     0
100
AcDbTrace
 10
645.5257506191123
 20
151.8532962749028
 30
0.0
 11
644.8590839524455
 21
151.8532962749028
 31
0.0
 12
645.1924172857789
 22
153.8532962749028
 32
0.0
 13
645.1924172857789
 23
153.8532962749028
 33
0.0
  0
INSERT
  5
1FF5C
330
1FF55
100
AcDbEntity
  8
WY
 62
     0
100
AcDbBlockReference
  2
_OBLIQUE
 10
645.1924172857789
 20
149.753295789125
 30
0.0
 41
2.0
 42
2.0
 43
2.0
 50
270.0
  0
MTEXT
  5
1FF5D
330
1FF55
100
AcDbEntity
  8
WY
 62
     0
100
AcDbMText
 10
643.6924172857789
 20
151.8032960320139
 30
0.0
 40
1.5
 41
0.0
 71
     5
 72
     1
  1
\A1;4.1
 11
0.0
 21
1.0
 31
0.0
  0
POINT
  5
1FF5E
330
1FF55
100
AcDbEntity
  8
DEFPOINTS
 62
     0
100
AcDbPoint
 10
635.3328546643628
 20
153.8532962749028
 30
0.0
  0
POINT
  5
1FF5F
330
1FF55
100
AcDbEntity
  8
DEFPOINTS
 62
     0
100
AcDbPoint
 10
635.3328546643628
 20
149.753295789125
 30
0.0
  0
POINT
  5
1FF60
330
1FF55
100
AcDbEntity
  8
DEFPOINTS
 62
     0
100
AcDbPoint
 10
645.1924172857789
 20
149.753295789125
 30
0.0
  0
ENDBLK
  5
1FF57
330
1FF55
100
AcDbEntity
  8
0
100
AcDbBlockEnd
  0
BLOCK
  5
1FF62
330
1FF61
100
AcDbEntity
  8
0
100
AcDbBlockBegin
  2
*D231
 70
     1
 10
0.0
 20
0.0
 30
0.0
  3
*D231
  1
*D231
  0
LINE
  5
1FF64
330
1FF61
100
AcDbEntity
  8
WY
 62
     0
100
AcDbLine
 10
636.8328546643628
 20
143.4532962465906
 30
0.0
 11
646.6924172857789
 21
143.4532962465906
 31
0.0
  0
LINE
  5
1FF65
330
1FF61
100
AcDbEntity
  8
WY
 62
     0
100
AcDbLine
 10
636.8328546643628
 20
149.753295789125
 30
0.0
 11
646.6924172857789
 21
149.753295789125
 31
0.0
  0
LINE
  5
1FF66
330
1FF61
100
AcDbEntity
  8
WY
 62
     0
100
AcDbLine
 10
645.1924172857789
 20
143.4532962465906
 30
0.0
 11
645.1924172857789
 21
149.753295789125
 31
0.0
  0
MTEXT
  5
1FF67
330
1FF61
100
AcDbEntity
  8
WY
 62
     0
100
AcDbMText
 10
643.6924172857789
 20
146.6032960178578
 30
0.0
 40
1.5
 41
0.0
 71
     5
 72
     1
  1
\A1;6.3
 11
0.0
 21
1.0
 31
0.0
  0
POINT
  5
1FF68
330
1FF61
100
AcDbEntity
  8
DEFPOINTS
 62
     0
100
AcDbPoint
 10
635.3328546643628
 20
143.4532962465906
 30
0.0
  0
POINT
  5
1FF69
330
1FF61
100
AcDbEntity
  8
DEFPOINTS
 62
     0
100
AcDbPoint
 10
635.3328546643628
 20
149.753295789125
 30
0.0
  0
POINT
  5
1FF6A
330
1FF61
100
AcDbEntity
  8
DEFPOINTS
 62
     0
100
AcDbPoint
 10
645.1924172857789
 20
149.753295789125
 30
0.0
  0
ENDBLK
  5
1FF63
330
1FF61
100
AcDbEntity
  8
0
100
AcDbBlockEnd
  0
BLOCK
  5
1FF6C
330
1FF6B
100
AcDbEntity
  8
0
100
AcDbBlockBegin
  2
*D232
 70
     1
 10
0.0
 20
0.0
 30
0.0
  3
*D232
  1
*D232
  0
LINE
  5
1FF6E
330
1FF6B
100
AcDbEntity
  8
WY
 62
     0
100
AcDbLine
 10
636.6941634721192
 20
137.1532971697175
 30
0.0
 11
646.6924172857789
 21
137.1532971697175
 31
0.0
  0
LINE
  5
1FF6F
330
1FF6B
100
AcDbEntity
  8
WY
 62
     0
100
AcDbLine
 10
636.8328546643628
 20
143.4532962465906
 30
0.0
 11
646.6924172857789
 21
143.4532962465906
 31
0.0
  0
LINE
  5
1FF70
330
1FF6B
100
AcDbEntity
  8
WY
 62
     0
100
AcDbLine
 10
645.1924172857789
 20
139.1532971697175
 30
0.0
 11
645.1924172857789
 21
143.4532962465906
 31
0.0
  0
SOLID
  5
1FF71
330
1FF6B
100
AcDbEntity
  8
WY
 62
     0
100
AcDbTrace
 10
644.8590839524455
 20
139.1532971697175
 30
0.0
 11
645.5257506191123
 21
139.1532971697175
 31
0.0
 12
645.1924172857789
 22
137.1532971697175
 32
0.0
 13
645.1924172857789
 23
137.1532971697175
 33
0.0
  0
INSERT
  5
1FF72
330
1FF6B
100
AcDbEntity
  8
WY
 62
     0
100
AcDbBlockReference
  2
_OBLIQUE
 10
645.1924172857789
 20
143.4532962465906
 30
0.0
 41
2.0
 42
2.0
 43
2.0
 50
90.0
  0
MTEXT
  5
1FF73
330
1FF6B
100
AcDbEntity
  8
WY
 62
     0
100
AcDbMText
 10
643.6924172857789
 20
140.3032962424928
 30
0.0
 40
1.5
 41
0.0
 71
     5
 72
     1
  1
\A1;6.3
 11
0.0
 21
1.0
 31
0.0
  0
POINT
  5
1FF74
330
1FF6B
100
AcDbEntity
  8
DEFPOINTS
 62
     0
100
AcDbPoint
 10
635.1941634721192
 20
137.1532971697175
 30
0.0
  0
POINT
  5
1FF75
330
1FF6B
100
AcDbEntity
  8
DEFPOINTS
 62
     0
100
AcDbPoint
 10
635.3328546643628
 20
143.4532962465906
 30
0.0
  0
POINT
  5
1FF76
330
1FF6B
100
AcDbEntity
  8
DEFPOINTS
 62
     0
100
AcDbPoint
 10
645.1924172857789
 20
143.4532962465906
 30
0.0
  0
ENDBLK
  5
1FF6D
330
1FF6B
100
AcDbEntity
  8
0
100
AcDbBlockEnd
  0
BLOCK
  5
1FF78
330
1FF77
100
AcDbEntity
  8
0
100
AcDbBlockBegin
  2
*D233
 70
     1
 10
0.0
 20
0.0
 30
0.0
  3
*D233
  1
*D233
  0
LINE
  5
1FF7A
330
1FF77
100
AcDbEntity
  8
WY
 62
     0
100
AcDbLine
 10
623.6199560308282
 20
139.4951960035018
 30
0.0
 11
623.6199560308282
 21
122.2335916477188
 31
0.0
  0
LINE
  5
1FF7B
330
1FF77
100
AcDbEntity
  8
WY
 62
     0
100
AcDbLine
 10
628.0199560069864
 20
139.4951960035018
 30
0.0
 11
628.0199560069864
 21
122.2335916477188
 31
0.0
  0
LINE
  5
1FF7C
330
1FF77
100
AcDbEntity
  8
WY
 62
     0
100
AcDbLine
 10
623.6199560308282
 20
123.7335916477188
 30
0.0
 11
628.0199560069864
 21
123.7335916477188
 31
0.0
  0
LINE
  5
1FF7D
330
1FF77
100
AcDbEntity
  8
WY
 62
     0
100
AcDbLine
 10
621.6199560308282
 20
123.7335916477188
 30
0.0
 11
619.6199560308282
 21
123.7335916477188
 31
0.0
  0
LINE
  5
1FF7E
330
1FF77
100
AcDbEntity
  8
WY
 62
     0
100
AcDbLine
 10
630.0199560069864
 20
123.7335916477188
 30
0.0
 11
632.0199560069864
 21
123.7335916477188
 31
0.0
  0
SOLID
  5
1FF7F
330
1FF77
100
AcDbEntity
  8
WY
 62
     0
100
AcDbTrace
 10
621.6199560308282
 20
123.4002583143854
 30
0.0
 11
621.6199560308282
 21
124.0669249810521
 31
0.0
 12
623.6199560308282
 22
123.7335916477188
 32
0.0
 13
623.6199560308282
 23
123.7335916477188
 33
0.0
  0
SOLID
  5
1FF80
330
1FF77
100
AcDbEntity
  8
WY
 62
     0
100
AcDbTrace
 10
630.0199560069864
 20
124.0669249810521
 30
0.0
 11
630.0199560069864
 21
123.4002583143854
 31
0.0
 12
628.0199560069864
 22
123.7335916477188
 32
0.0
 13
628.0199560069864
 23
123.7335916477188
 33
0.0
  0
MTEXT
  5
1FF81
330
1FF77
100
AcDbEntity
  8
WY
 62
     0
100
AcDbMText
 10
625.8199560189073
 20
125.2335916477188
 30
0.0
 40
1.5
 41
0.0
 71
     5
 72
     1
  1
\A1;4.4
  0
POINT
  5
1FF82
330
1FF77
100
AcDbEntity
  8
DEFPOINTS
 62
     0
100
AcDbPoint
 10
623.6199560308282
 20
140.9951960035018
 30
0.0
  0
POINT
  5
1FF83
330
1FF77
100
AcDbEntity
  8
DEFPOINTS
 62
     0
100
AcDbPoint
 10
628.0199560069864
 20
140.9951960035018
 30
0.0
  0
POINT
  5
1FF84
330
1FF77
100
AcDbEntity
  8
DEFPOINTS
 62
     0
100
AcDbPoint
 10
628.0199560069864
 20
123.7335916477188
 30
0.0
  0
ENDBLK
  5
1FF79
330
1FF77
100
AcDbEntity
  8
0
100
AcDbBlockEnd
  0
BLOCK
  5
1FF86
330
1FF85
100
AcDbEntity
  8
0
100
AcDbBlockBegin
  2
*D234
 70
     1
 10
0.0
 20
0.0
 30
0.0
  3
*D234
  1
*D234
  0
LINE
  5
1FF88
330
1FF85
100
AcDbEntity
  8
WY
 62
     0
100
AcDbLine
 10
619.2199551233475
 20
130.3866122535489
 30
0.0
 11
619.2199551233475
 21
117.9473337656352
 31
0.0
  0
LINE
  5
1FF89
330
1FF85
100
AcDbEntity
  8
WY
 62
     0
100
AcDbLine
 10
632.419955051822
 20
130.3866122535489
 30
0.0
 11
632.419955051822
 21
117.9473337656352
 31
0.0
  0
LINE
  5
1FF8A
330
1FF85
100
AcDbEntity
  8
WY
 62
     0
100
AcDbLine
 10
621.2199551233475
 20
119.4473337656352
 30
0.0
 11
630.419955051822
 21
119.4473337656352
 31
0.0
  0
SOLID
  5
1FF8B
330
1FF85
100
AcDbEntity
  8
WY
 62
     0
100
AcDbTrace
 10
621.2199551233475
 20
119.7806670989686
 30
0.0
 11
621.2199551233475
 21
119.1140004323019
 31
0.0
 12
619.2199551233475
 22
119.4473337656352
 32
0.0
 13
619.2199551233475
 23
119.4473337656352
 33
0.0
  0
SOLID
  5
1FF8C
330
1FF85
100
AcDbEntity
  8
WY
 62
     0
100
AcDbTrace
 10
630.419955051822
 20
119.1140004323019
 30
0.0
 11
630.419955051822
 21
119.7806670989686
 31
0.0
 12
632.419955051822
 22
119.4473337656352
 32
0.0
 13
632.419955051822
 23
119.4473337656352
 33
0.0
  0
MTEXT
  5
1FF8D
330
1FF85
100
AcDbEntity
  8
WY
 62
     0
100
AcDbMText
 10
625.8199550875847
 20
120.9473337656352
 30
0.0
 40
1.5
 41
0.0
 71
     5
 72
     1
  1
\A1;13.2
  0
POINT
  5
1FF8E
330
1FF85
100
AcDbEntity
  8
DEFPOINTS
 62
     0
100
AcDbPoint
 10
619.2199551233475
 20
131.8866122535489
 30
0.0
  0
POINT
  5
1FF8F
330
1FF85
100
AcDbEntity
  8
DEFPOINTS
 62
     0
100
AcDbPoint
 10
632.419955051822
 20
131.8866122535489
 30
0.0
  0
POINT
  5
1FF90
330
1FF85
100
AcDbEntity
  8
DEFPOINTS
 62
     0
100
AcDbPoint
 10
632.419955051822
 20
119.4473337656352
 30
0.0
  0
ENDBLK
  5
1FF87
330
1FF85
100
AcDbEntity
  8
0
100
AcDbBlockEnd
  0
BLOCK
  5
1FFA6
330
1FFA5
100
AcDbEntity
  8
0
100
AcDbBlockBegin
  2
*D236
 70
     1
 10
0.0
 20
0.0
 30
0.0
  3
*D236
  1
*D236
  0
LINE
  5
1FFA8
330
1FFA5
100
AcDbEntity
  8
WY
 62
     0
100
AcDbLine
 10
554.3737252870866
 20
128.2907959396267
 30
0.0
 11
554.3737252870866
 21
119.3837019924735
 31
0.0
  0
LINE
  5
1FFA9
330
1FFA5
100
AcDbEntity
  8
WY
 62
     0
100
AcDbLine
 10
557.3737257788249
 20
128.2907959396267
 30
0.0
 11
557.3737257788249
 21
119.3837019924735
 31
0.0
  0
LINE
  5
1FFAA
330
1FFA5
100
AcDbEntity
  8
WY
 62
     0
100
AcDbLine
 10
554.3737252870866
 20
120.8837019924735
 30
0.0
 11
557.3737257788249
 21
120.8837019924735
 31
0.0
  0
LINE
  5
1FFAB
330
1FFA5
100
AcDbEntity
  8
WY
 62
     0
100
AcDbLine
 10
552.3737252870866
 20
120.8837019924735
 30
0.0
 11
550.3737252870866
 21
120.8837019924735
 31
0.0
  0
LINE
  5
1FFAC
330
1FFA5
100
AcDbEntity
  8
WY
 62
     0
100
AcDbLine
 10
559.3737257788249
 20
120.8837019924735
 30
0.0
 11
561.3737257788249
 21
120.8837019924735
 31
0.0
  0
SOLID
  5
1FFAD
330
1FFA5
100
AcDbEntity
  8
WY
 62
     0
100
AcDbTrace
 10
552.3737252870866
 20
120.5503686591401
 30
0.0
 11
552.3737252870866
 21
121.2170353258068
 31
0.0
 12
554.3737252870866
 22
120.8837019924735
 32
0.0
 13
554.3737252870866
 23
120.8837019924735
 33
0.0
  0
SOLID
  5
1FFAE
330
1FFA5
100
AcDbEntity
  8
WY
 62
     0
100
AcDbTrace
 10
559.3737257788249
 20
121.2170353258068
 30
0.0
 11
559.3737257788249
 21
120.5503686591401
 31
0.0
 12
557.3737257788249
 22
120.8837019924735
 32
0.0
 13
557.3737257788249
 23
120.8837019924735
 33
0.0
  0
MTEXT
  5
1FFAF
330
1FFA5
100
AcDbEntity
  8
WY
 62
     0
100
AcDbMText
 10
555.8737255329557
 20
122.3837019924735
 30
0.0
 40
1.5
 41
0.0
 71
     5
 72
     1
  1
\A1;3
  0
POINT
  5
1FFB0
330
1FFA5
100
AcDbEntity
  8
DEFPOINTS
 62
     0
100
AcDbPoint
 10
554.3737252870866
 20
129.7907959396267
 30
0.0
  0
POINT
  5
1FFB1
330
1FFA5
100
AcDbEntity
  8
DEFPOINTS
 62
     0
100
AcDbPoint
 10
557.3737257788249
 20
129.7907959396267
 30
0.0
  0
POINT
  5
1FFB2
330
1FFA5
100
AcDbEntity
  8
DEFPOINTS
 62
     0
100
AcDbPoint
 10
557.3737257788249
 20
120.8837019924735
 30
0.0
  0
ENDBLK
  5
1FFA7
330
1FFA5
100
AcDbEntity
  8
0
100
AcDbBlockEnd
  0
BLOCK
  5
1FFB4
330
1FFB3
100
AcDbEntity
  8
0
100
AcDbBlockBegin
  2
*D237
 70
     1
 10
0.0
 20
0.0
 30
0.0
  3
*D237
  1
*D237
  0
LINE
  5
1FFB6
330
1FFB3
100
AcDbEntity
  8
WY
 62
     0
100
AcDbLine
 10
554.3737252870866
 20
128.2907959396267
 30
0.0
 11
554.3737252870866
 21
114.3415543503966
 31
0.0
  0
LINE
  5
1FFB7
330
1FFB3
100
AcDbEntity
  8
WY
 62
     0
100
AcDbLine
 10
564.8737253783562
 20
131.7907962804908
 30
0.0
 11
564.8737253783562
 21
114.3415543503966
 31
0.0
  0
LINE
  5
1FFB8
330
1FFB3
100
AcDbEntity
  8
WY
 62
     0
100
AcDbLine
 10
556.3737252870866
 20
115.8415543503966
 30
0.0
 11
562.8737253783562
 21
115.8415543503966
 31
0.0
  0
SOLID
  5
1FFB9
330
1FFB3
100
AcDbEntity
  8
WY
 62
     0
100
AcDbTrace
 10
556.3737252870866
 20
116.1748876837299
 30
0.0
 11
556.3737252870866
 21
115.5082210170633
 31
0.0
 12
554.3737252870866
 22
115.8415543503966
 32
0.0
 13
554.3737252870866
 23
115.8415543503966
 33
0.0
  0
SOLID
  5
1FFBA
330
1FFB3
100
AcDbEntity
  8
WY
 62
     0
100
AcDbTrace
 10
562.8737253783562
 20
115.5082210170633
 30
0.0
 11
562.8737253783562
 21
116.1748876837299
 31
0.0
 12
564.8737253783562
 22
115.8415543503966
 32
0.0
 13
564.8737253783562
 23
115.8415543503966
 33
0.0
  0
MTEXT
  5
1FFBB
330
1FFB3
100
AcDbEntity
  8
WY
 62
     0
100
AcDbMText
 10
559.6237253327214
 20
117.3415543503966
 30
0.0
 40
1.5
 41
0.0
 71
     5
 72
     1
  1
\A1;10.5
  0
POINT
  5
1FFBC
330
1FFB3
100
AcDbEntity
  8
DEFPOINTS
 62
     0
100
AcDbPoint
 10
554.3737252870866
 20
129.7907959396267
 30
0.0
  0
POINT
  5
1FFBD
330
1FFB3
100
AcDbEntity
  8
DEFPOINTS
 62
     0
100
AcDbPoint
 10
564.8737253783562
 20
133.2907962804908
 30
0.0
  0
POINT
  5
1FFBE
330
1FFB3
100
AcDbEntity
  8
DEFPOINTS
 62
     0
100
AcDbPoint
 10
564.8737253783562
 20
115.8415543503966
 30
0.0
  0
ENDBLK
  5
1FFB5
330
1FFB3
100
AcDbEntity
  8
0
100
AcDbBlockEnd
  0
BLOCK
  5
1FFC0
330
1FFBF
100
AcDbEntity
  8
0
100
AcDbBlockBegin
  2
*D238
 70
     1
 10
0.0
 20
0.0
 30
0.0
  3
*D238
  1
*D238
  0
LINE
  5
1FFC2
330
1FFBF
100
AcDbEntity
  8
WY
 62
     0
100
AcDbLine
 10
552.8737252870866
 20
159.3907952500755
 30
0.0
 11
542.3533185583298
 21
159.3907952500755
 31
0.0
  0
LINE
  5
1FFC3
330
1FFBF
100
AcDbEntity
  8
WY
 62
     0
100
AcDbLine
 10
552.8737252870866
 20
129.7907959396267
 30
0.0
 11
542.3533185583298
 21
129.7907959396267
 31
0.0
  0
LINE
  5
1FFC4
330
1FFBF
100
AcDbEntity
  8
WY
 62
     0
100
AcDbLine
 10
543.8533185583298
 20
157.3907952500755
 30
0.0
 11
543.8533185583298
 21
131.7907959396267
 31
0.0
  0
SOLID
  5
1FFC5
330
1FFBF
100
AcDbEntity
  8
WY
 62
     0
100
AcDbTrace
 10
544.1866518916631
 20
157.3907952500755
 30
0.0
 11
543.5199852249964
 21
157.3907952500755
 31
0.0
 12
543.8533185583298
 22
159.3907952500755
 32
0.0
 13
543.8533185583298
 23
159.3907952500755
 33
0.0
  0
SOLID
  5
1FFC6
330
1FFBF
100
AcDbEntity
  8
WY
 62
     0
100
AcDbTrace
 10
543.5199852249964
 20
131.7907959396267
 30
0.0
 11
544.1866518916631
 21
131.7907959396267
 31
0.0
 12
543.8533185583298
 22
129.7907959396267
 32
0.0
 13
543.8533185583298
 23
129.7907959396267
 33
0.0
  0
MTEXT
  5
1FFC7
330
1FFBF
100
AcDbEntity
  8
WY
 62
     0
100
AcDbMText
 10
542.3533185583298
 20
144.5907955948511
 30
0.0
 40
1.5
 41
0.0
 71
     5
 72
     1
  1
\A1;29.6
 11
0.0
 21
1.0
 31
0.0
  0
POINT
  5
1FFC8
330
1FFBF
100
AcDbEntity
  8
DEFPOINTS
 62
     0
100
AcDbPoint
 10
554.3737252870866
 20
159.3907952500755
 30
0.0
  0
POINT
  5
1FFC9
330
1FFBF
100
AcDbEntity
  8
DEFPOINTS
 62
     0
100
AcDbPoint
 10
554.3737252870866
 20
129.7907959396267
 30
0.0
  0
POINT
  5
1FFCA
330
1FFBF
100
AcDbEntity
  8
DEFPOINTS
 62
     0
100
AcDbPoint
 10
543.8533185583298
 20
129.7907959396267
 30
0.0
  0
ENDBLK
  5
1FFC1
330
1FFBF
100
AcDbEntity
  8
0
100
AcDbBlockEnd
  0
BLOCK
  5
1FFCC
330
1FFCB
100
AcDbEntity
  8
0
100
AcDbBlockBegin
  2
*D239
 70
     1
 10
0.0
 20
0.0
 30
0.0
  3
*D239
  1
*D239
  0
LINE
  5
1FFCE
330
1FFCB
100
AcDbEntity
  8
WY
 62
     0
100
AcDbLine
 10
564.8737253653177
 20
131.8907958647484
 30
0.0
 11
581.8446078000784
 21
131.8907958647484
 31
0.0
  0
LINE
  5
1FFCF
330
1FFCB
100
AcDbEntity
  8
WY
 62
     0
100
AcDbLine
 10
564.8737253653177
 20
157.2907969547683
 30
0.0
 11
581.8446078000784
 21
157.2907969547683
 31
0.0
  0
LINE
  5
1FFD0
330
1FFCB
100
AcDbEntity
  8
WY
 62
     0
100
AcDbLine
 10
580.3446078000784
 20
133.8907958647484
 30
0.0
 11
580.3446078000784
 21
155.2907969547683
 31
0.0
  0
SOLID
  5
1FFD1
330
1FFCB
100
AcDbEntity
  8
WY
 62
     0
100
AcDbTrace
 10
580.011274466745
 20
133.8907958647484
 30
0.0
 11
580.6779411334118
 21
133.8907958647484
 31
0.0
 12
580.3446078000784
 22
131.8907958647484
 32
0.0
 13
580.3446078000784
 23
131.8907958647484
 33
0.0
  0
SOLID
  5
1FFD2
330
1FFCB
100
AcDbEntity
  8
WY
 62
     0
100
AcDbTrace
 10
580.6779411334118
 20
155.2907969547683
 30
0.0
 11
580.011274466745
 21
155.2907969547683
 31
0.0
 12
580.3446078000784
 22
157.2907969547683
 32
0.0
 13
580.3446078000784
 23
157.2907969547683
 33
0.0
  0
MTEXT
  5
1FFD3
330
1FFCB
100
AcDbEntity
  8
WY
 62
     0
100
AcDbMText
 10
578.8446078000784
 20
144.5907964097583
 30
0.0
 40
1.5
 41
0.0
 71
     5
 72
     1
  1
\A1;25.4
 11
0.0
 21
1.0
 31
0.0
  0
POINT
  5
1FFD4
330
1FFCB
100
AcDbEntity
  8
DEFPOINTS
 62
     0
100
AcDbPoint
 10
563.3737253653177
 20
131.8907958647484
 30
0.0
  0
POINT
  5
1FFD5
330
1FFCB
100
AcDbEntity
  8
DEFPOINTS
 62
     0
100
AcDbPoint
 10
563.3737253653177
 20
157.2907969547683
 30
0.0
  0
POINT
  5
1FFD6
330
1FFCB
100
AcDbEntity
  8
DEFPOINTS
 62
     0
100
AcDbPoint
 10
580.3446078000784
 20
157.2907969547683
 30
0.0
  0
ENDBLK
  5
1FFCD
330
1FFCB
100
AcDbEntity
  8
0
100
AcDbBlockEnd
  0
BLOCK
  5
1FFDE
330
1FFDD
100
AcDbEntity
  8
0
100
AcDbBlockBegin
  2
*D240
 70
     1
 10
0.0
 20
0.0
 30
0.0
  3
*D240
  1
*D240
  0
LINE
  5
1FFE0
330
1FFDD
100
AcDbEntity
  8
WY
 62
     0
100
AcDbLine
 10
570.3142993725075
 20
152.8962277808419
 30
0.0
 11
576.3623525819045
 21
152.8962277808419
 31
0.0
  0
LINE
  5
1FFE1
330
1FFDD
100
AcDbEntity
  8
WY
 62
     0
100
AcDbLine
 10
570.314478335283
 20
152.6462539397603
 30
0.0
 11
576.3623525819045
 21
152.6462539397603
 31
0.0
  0
LINE
  5
1FFE2
330
1FFDD
100
AcDbEntity
  8
WY
 62
     0
100
AcDbLine
 10
574.8623525819045
 20
152.6462539397603
 30
0.0
 11
574.8623525819045
 21
142.8962539397603
 31
0.0
  0
LINE
  5
1FFE3
330
1FFDD
100
AcDbEntity
  8
WY
 62
     0
100
AcDbLine
 10
574.8623525819045
 20
152.8962277808419
 30
0.0
 11
574.8623525819045
 21
152.6462539397603
 31
0.0
  0
LINE
  5
1FFE4
330
1FFDD
100
AcDbEntity
  8
WY
 62
     0
100
AcDbLine
 10
574.8623525819045
 20
154.8962277808419
 30
0.0
 11
574.8623525819045
 21
156.8962277808419
 31
0.0
  0
LINE
  5
1FFE5
330
1FFDD
100
AcDbEntity
  8
WY
 62
     0
100
AcDbLine
 10
574.8623525819045
 20
150.6462539397603
 30
0.0
 11
574.8623525819045
 21
148.6462539397603
 31
0.0
  0
SOLID
  5
1FFE6
330
1FFDD
100
AcDbEntity
  8
WY
 62
     0
100
AcDbTrace
 10
574.5290192485711
 20
154.8962277808419
 30
0.0
 11
575.1956859152378
 21
154.8962277808419
 31
0.0
 12
574.8623525819045
 22
152.8962277808419
 32
0.0
 13
574.8623525819045
 23
152.8962277808419
 33
0.0
  0
SOLID
  5
1FFE7
330
1FFDD
100
AcDbEntity
  8
WY
 62
     0
100
AcDbTrace
 10
575.1956859152378
 20
150.6462539397603
 30
0.0
 11
574.5290192485711
 21
150.6462539397603
 31
0.0
 12
574.8623525819045
 22
152.6462539397603
 32
0.0
 13
574.8623525819045
 23
152.6462539397603
 33
0.0
  0
MTEXT
  5
1FFE8
330
1FFDD
100
AcDbEntity
  8
WY
 62
     0
100
AcDbMText
 10
573.3623525819045
 20
145.7712539397603
 30
0.0
 40
1.5
 41
0.0
 71
     5
 72
     1
  1
\A1;0.25
 11
0.0
 21
1.0
 31
0.0
  0
POINT
  5
1FFE9
330
1FFDD
100
AcDbEntity
  8
DEFPOINTS
 62
     0
100
AcDbPoint
 10
568.8142993725075
 20
152.8962277808419
 30
0.0
  0
POINT
  5
1FFEA
330
1FFDD
100
AcDbEntity
  8
DEFPOINTS
 62
     0
100
AcDbPoint
 10
568.814478335283
 20
152.6462539397603
 30
0.0
  0
POINT
  5
20026
330
1FFDD
100
AcDbEntity
  8
DEFPOINTS
 62
     0
100
AcDbPoint
 10
574.8623525819045
 20
152.6462539397603
 30
0.0
  0
ENDBLK
  5
1FFDF
330
1FFDD
100
AcDbEntity
  8
0
100
AcDbBlockEnd
  0
BLOCK
  5
1FFEF
330
1FFEE
100
AcDbEntity
  8
0
100
AcDbBlockBegin
  2
*D241
 70
     1
 10
0.0
 20
0.0
 30
0.0
  3
*D241
  1
*D241
  0
LINE
  5
1FFF1
330
1FFEE
100
AcDbEntity
  8
WY
 62
     0
100
AcDbLine
 10
618.6449547031348
 20
203.2111793669577
 30
0.0
 11
618.6449547031348
 21
195.6480309321081
 31
0.0
  0
LINE
  5
1FFF2
330
1FFEE
100
AcDbEntity
  8
WY
 62
     0
100
AcDbLine
 10
619.7949555435603
 20
203.2111793669577
 30
0.0
 11
619.7949555435603
 21
195.6480309321081
 31
0.0
  0
LINE
  5
1FFF3
330
1FFEE
100
AcDbEntity
  8
WY
 62
     0
100
AcDbLine
 10
619.7949555435603
 20
197.1480309321081
 30
0.0
 11
632.2949555435603
 21
197.1480309321081
 31
0.0
  0
LINE
  5
1FFF4
330
1FFEE
100
AcDbEntity
  8
WY
 62
     0
100
AcDbLine
 10
618.6449547031348
 20
197.1480309321081
 30
0.0
 11
619.7949555435603
 21
197.1480309321081
 31
0.0
  0
LINE
  5
1FFF5
330
1FFEE
100
AcDbEntity
  8
WY
 62
     0
100
AcDbLine
 10
616.6449547031348
 20
197.1480309321081
 30
0.0
 11
614.6449547031348
 21
197.1480309321081
 31
0.0
  0
LINE
  5
1FFF6
330
1FFEE
100
AcDbEntity
  8
WY
 62
     0
100
AcDbLine
 10
621.7949555435603
 20
197.1480309321081
 30
0.0
 11
623.7949555435603
 21
197.1480309321081
 31
0.0
  0
SOLID
  5
1FFF7
330
1FFEE
100
AcDbEntity
  8
WY
 62
     0
100
AcDbTrace
 10
616.6449547031348
 20
196.8146975987748
 30
0.0
 11
616.6449547031348
 21
197.4813642654415
 31
0.0
 12
618.6449547031348
 22
197.1480309321081
 32
0.0
 13
618.6449547031348
 23
197.1480309321081
 33
0.0
  0
SOLID
  5
1FFF8
330
1FFEE
100
AcDbEntity
  8
WY
 62
     0
100
AcDbTrace
 10
621.7949555435603
 20
197.4813642654415
 30
0.0
 11
621.7949555435603
 21
196.8146975987748
 31
0.0
 12
619.7949555435603
 22
197.1480309321081
 32
0.0
 13
619.7949555435603
 23
197.1480309321081
 33
0.0
  0
MTEXT
  5
1FFF9
330
1FFEE
100
AcDbEntity
  8
WY
 62
     0
100
AcDbMText
 10
628.0449555435603
 20
198.7730309321081
 30
0.0
 40
1.5
 41
0.0
 71
     5
 72
     1
  1
\A1;1.2-0,1
  0
POINT
  5
1FFFA
330
1FFEE
100
AcDbEntity
  8
DEFPOINTS
 62
     0
100
AcDbPoint
 10
618.6449547031348
 20
204.7111793669577
 30
0.0
  0
POINT
  5
1FFFB
330
1FFEE
100
AcDbEntity
  8
DEFPOINTS
 62
     0
100
AcDbPoint
 10
619.7949555435603
 20
204.7111793669577
 30
0.0
  0
POINT
  5
1FFFC
330
1FFEE
100
AcDbEntity
  8
DEFPOINTS
 62
     0
100
AcDbPoint
 10
619.7949555435603
 20
197.1480309321081
 30
0.0
  0
ENDBLK
  5
1FFF0
330
1FFEE
100
AcDbEntity
  8
0
100
AcDbBlockEnd
  0
BLOCK
  5
2000C
330
2000B
100
AcDbEntity
  8
0
100
AcDbBlockBegin
  2
*D242
 70
     1
 10
0.0
 20
0.0
 30
0.0
  3
*D242
  1
*D242
  0
LINE
  5
2000E
330
2000B
100
AcDbEntity
  8
WY
 62
     0
100
AcDbLine
 10
615.0699556538289
 20
208.5361791687722
 30
0.0
 11
615.0699556538289
 21
191.3628695014285
 31
0.0
  0
LINE
  5
2000F
330
2000B
100
AcDbEntity
  8
WY
 62
     0
100
AcDbLine
 10
636.5699555545266
 20
208.5361791687722
 30
0.0
 11
636.5699555545266
 21
191.3628695014285
 31
0.0
  0
LINE
  5
20010
330
2000B
100
AcDbEntity
  8
WY
 62
     0
100
AcDbLine
 10
617.0699556538289
 20
192.8628695014285
 30
0.0
 11
634.5699555545266
 21
192.8628695014285
 31
0.0
  0
SOLID
  5
20011
330
2000B
100
AcDbEntity
  8
WY
 62
     0
100
AcDbTrace
 10
617.0699556538289
 20
193.1962028347618
 30
0.0
 11
617.0699556538289
 21
192.5295361680951
 31
0.0
 12
615.0699556538289
 22
192.8628695014285
 32
0.0
 13
615.0699556538289
 23
192.8628695014285
 33
0.0
  0
SOLID
  5
20012
330
2000B
100
AcDbEntity
  8
WY
 62
     0
100
AcDbTrace
 10
634.5699555545266
 20
192.5295361680951
 30
0.0
 11
634.5699555545266
 21
193.1962028347618
 31
0.0
 12
636.5699555545266
 22
192.8628695014285
 32
0.0
 13
636.5699555545266
 23
192.8628695014285
 33
0.0
  0
MTEXT
  5
20013
330
2000B
100
AcDbEntity
  8
WY
 62
     0
100
AcDbMText
 10
625.8199556041777
 20
194.3628695014285
 30
0.0
 40
1.5
 41
0.0
 71
     5
 72
     1
  1
\A1;21.5
  0
POINT
  5
20014
330
2000B
100
AcDbEntity
  8
DEFPOINTS
 62
     0
100
AcDbPoint
 10
615.0699556538289
 20
210.0361791687722
 30
0.0
  0
POINT
  5
20015
330
2000B
100
AcDbEntity
  8
DEFPOINTS
 62
     0
100
AcDbPoint
 10
636.5699555545266
 20
210.0361791687722
 30
0.0
  0
POINT
  5
20016
330
2000B
100
AcDbEntity
  8
DEFPOINTS
 62
     0
100
AcDbPoint
 10
636.5699555545266
 20
192.8628695014285
 30
0.0
  0
ENDBLK
  5
2000D
330
2000B
100
AcDbEntity
  8
0
100
AcDbBlockEnd
  0
BLOCK
  5
2001B
330
2001A
100
AcDbEntity
  8
0
100
AcDbBlockBegin
  2
*D243
 70
     1
 10
0.0
 20
0.0
 30
0.0
  3
*D243
  1
*D243
  0
LINE
  5
2001D
330
2001A
100
AcDbEntity
  8
WY
 62
     0
100
AcDbLine
 10
554.3737252870866
 20
128.2907959396267
 30
0.0
 11
554.3737252870866
 21
109.731040193754
 31
0.0
  0
LINE
  5
2001E
330
2001A
100
AcDbEntity
  8
WY
 62
     0
100
AcDbLine
 10
569.2737246560224
 20
134.3936149353409
 30
0.0
 11
569.2737246560224
 21
109.731040193754
 31
0.0
  0
LINE
  5
2001F
330
2001A
100
AcDbEntity
  8
WY
 62
     0
100
AcDbLine
 10
556.8737252870866
 20
111.231040193754
 30
0.0
 11
566.7737246560224
 21
111.231040193754
 31
0.0
  0
SOLID
  5
20020
330
2001A
100
AcDbEntity
  8
WY
 62
     0
100
AcDbTrace
 10
556.8737252870866
 20
111.6477068604207
 30
0.0
 11
556.8737252870866
 21
110.8143735270874
 31
0.0
 12
554.3737252870866
 22
111.231040193754
 32
0.0
 13
554.3737252870866
 23
111.231040193754
 33
0.0
  0
SOLID
  5
20021
330
2001A
100
AcDbEntity
  8
WY
 62
     0
100
AcDbTrace
 10
566.7737246560224
 20
110.8143735270874
 30
0.0
 11
566.7737246560224
 21
111.6477068604207
 31
0.0
 12
569.2737246560224
 22
111.231040193754
 32
0.0
 13
569.2737246560224
 23
111.231040193754
 33
0.0
  0
MTEXT
  5
20022
330
2001A
100
AcDbEntity
  8
WY
 62
     0
100
AcDbMText
 10
561.8237249715545
 20
112.731040193754
 30
0.0
 40
1.5
 41
0.0
 71
     5
 72
     1
  1
\A1;14.9
  0
POINT
  5
20023
330
2001A
100
AcDbEntity
  8
DEFPOINTS
 62
     0
100
AcDbPoint
 10
554.3737252870866
 20
129.7907959396267
 30
0.0
  0
POINT
  5
20024
330
2001A
100
AcDbEntity
  8
DEFPOINTS
 62
     0
100
AcDbPoint
 10
569.2737246560224
 20
135.8936149353409
 30
0.0
  0
POINT
  5
20025
330
2001A
100
AcDbEntity
  8
DEFPOINTS
 62
     0
100
AcDbPoint
 10
569.2737246560224
 20
111.231040193754
 30
0.0
  0
ENDBLK
  5
2001C
330
2001A
100
AcDbEntity
  8
0
100
AcDbBlockEnd
  0
ENDSEC
  0
SECTION
  2
ENTITIES
  0
LINE
  5
2D2D
330
18
100
AcDbEntity
  8
WYMIARY
 62
     6
100
AcDbLine
 10
486.041244
 20
0.0
 30
0.0
 11
486.041244
 21
297.0
 31
0.0
  0
LINE
  5
2D2E
330
18
100
AcDbEntity
  8
WYMIARY
 62
     6
100
AcDbLine
 10
497.671651
 20
292.0
 30
0.0
 11
497.671651
 21
5.0
 31
0.0
  0
LINE
  5
2D34
330
18
100
AcDbEntity
  8
2
100
AcDbLine
 10
682.671651
 20
5.0
 30
0.0
 11
682.671651
 21
292.0
 31
0.0
  0
LINE
  5
2D35
330
18
100
AcDbEntity
  8
2
100
AcDbLine
 10
687.671651
 20
0.0
 30
0.0
 11
687.671651
 21
297.0
 31
0.0
  0
LINE
  5
2D36
330
18
100
AcDbEntity
  8
WY
  6
CONTINUOUS
 62
     3
100
AcDbLine
 10
682.671651
 20
19.689837
 30
0.0
 11
497.671651
 21
19.689837
 31
0.0
  0
LINE
  5
2D38
330
18
100
AcDbEntity
  8
2
100
AcDbLine
 10
497.671651
 20
5.0
 30
0.0
 11
682.671651
 21
5.0
 31
0.0
  0
LINE
  5
2D39
330
18
100
AcDbEntity
  8
2
 62
     6
100
AcDbLine
 10
497.671651
 20
0.0
 30
0.0
 11
687.671651
 21
0.0
 31
0.0
  0
LINE
  5
2D3A
330
18
100
AcDbEntity
  8
0
100
AcDbLine
 10
529.697667
 20
11.742481
 30
0.0
 11
528.795256
 21
11.742481
 31
0.0
  0
ELLIPSE
  5
2D3B
330
18
100
AcDbEntity
  8
0
100
AcDbEllipse
 10
529.697667
 20
11.742481
 30
0.0
 11
-1.203215696869327
 21
1.967000000000000E-13
 31
0.0
210
0.0
220
0.0
230
1.0
 40
0.958812
 41
-1.570796326794739
 42
0.0000000000001705
  0
TEXT
  5
2D3D
330
18
100
AcDbEntity
  8
1
100
AcDbText
 10
515.607578
 20
8.797457
 30
0.0
 40
5.0
  1
A4
 51
15.0
  7
ITALIC
100
AcDbText
  0
LINE
  5
2D40
330
18
100
AcDbEntity
  8
WYMIARY
 62
     6
100
AcDbLine
 10
497.671651
 20
0.0
 30
0.0
 11
486.041244
 21
0.0
 31
0.0
  0
TEXT
  5
2D42
330
18
100
AcDbEntity
  8
WY
100
AcDbText
 10
502.936765
 20
16.373844
 30
0.0
 40
2.0
  1
Skala
 51
15.0
  7
ITALIC
100
AcDbText
  0
TEXT
  5
2D43
330
18
100
AcDbEntity
  8
WY
100
AcDbText
 10
515.042219
 20
16.329369
 30
0.0
 40
2.0
  1
Format
 51
15.0
  7
ITALIC
100
AcDbText
  0
LINE
  5
2D44
330
18
100
AcDbEntity
  8
0
100
AcDbLine
 10
528.494452
 20
11.742481
 30
0.0
 11
528.795256
 21
11.742481
 31
0.0
  0
LINE
  5
2D45
330
18
100
AcDbEntity
  8
0
100
AcDbLine
 10
559.88722
 20
17.211264
 30
0.0
 11
559.88722
 21
9.015264
 31
0.0
  0
LINE
  5
2D46
330
18
100
AcDbEntity
  8
0
100
AcDbLine
 10
550.89322
 20
9.438264
 30
0.0
 11
550.89322
 21
7.416264
 31
0.0
  0
ARC
  5
2D47
330
18
100
AcDbEntity
  8
0
100
AcDbCircle
 10
551.5428
 20
9.724764
 30
0.0
 40
0.709955
100
AcDbArc
 50
203.80008
 51
272.051918
  0
LINE
  5
2D48
330
18
100
AcDbEntity
  8
0
100
AcDbLine
 10
549.34822
 20
7.416264
 30
0.0
 11
549.34822
 21
15.612264
 31
0.0
  0
ARC
  5
2D49
330
18
100
AcDbEntity
  8
0
100
AcDbCircle
 10
551.982126
 20
10.136416
 30
0.0
 40
1.128907
100
AcDbArc
 50
276.719576
 51
2.175194
  0
ARC
  5
2D4A
330
18
100
AcDbEntity
  8
0
100
AcDbCircle
 10
555.243059
 20
10.503572
 30
0.0
 40
1.488419
100
AcDbArc
 50
191.634268
 51
270.699113
  0
ARC
  5
2D4B
330
18
100
AcDbEntity
  8
0
100
AcDbCircle
 10
556.209381
 20
10.503572
 30
0.0
 40
1.488419
100
AcDbArc
 50
269.300887
 51
348.365732
  0
LINE
  5
2D4C
330
18
100
AcDbEntity
  8
0
100
AcDbLine
 10
558.34222
 20
9.015264
 30
0.0
 11
558.34222
 21
17.211264
 31
0.0
  0
ARC
  5
2D4D
330
18
100
AcDbEntity
  8
0
100
AcDbCircle
 10
545.056591
 20
10.472364
 30
0.0
 40
1.425319
100
AcDbArc
 50
269.703671
 51
350.465171
  0
ARC
  5
2D4E
330
18
100
AcDbEntity
  8
0
100
AcDbCircle
 10
544.201848
 20
10.472364
 30
0.0
 40
1.425319
100
AcDbArc
 50
189.534829
 51
270.2963290000001
  0
LINE
  5
2D4F
330
18
100
AcDbEntity
  8
0
100
AcDbLine
 10
547.14922
 20
9.015264
 30
0.0
 11
547.14922
 21
17.211264
 31
0.0
  0
LINE
  5
2D50
330
18
100
AcDbEntity
  8
0
100
AcDbLine
 10
548.69422
 20
17.211264
 30
0.0
 11
548.69422
 21
9.015264
 31
0.0
  0
LINE
  5
2D51
330
18
100
AcDbEntity
  8
0
100
AcDbLine
 10
539.892236
 20
14.361264
 30
0.0
 11
539.903809
 21
9.015264
 31
0.0
  0
LINE
  5
2D52
330
18
100
AcDbEntity
  8
0
100
AcDbLine
 10
538.361694
 20
9.015264
 30
0.0
 11
538.361694
 21
15.60367
 31
0.0
  0
LINE
  5
2D53
330
18
100
AcDbEntity
  8
0
100
AcDbLine
 10
529.697667
 20
9.895061
 30
0.0
 11
529.697667
 21
8.185369
 31
0.0
  0
LINE
  5
2D54
330
18
100
AcDbEntity
  8
0
100
AcDbLine
 10
535.613478
 20
8.185369
 30
0.0
 11
535.613478
 21
11.742481
 31
0.0
  0
LINE
  5
2D55
330
18
100
AcDbEntity
  8
1
100
AcDbLine
 10
563.469863
 20
5.0
 30
0.0
 11
563.469863
 21
19.689837
 31
0.0
  0
LINE
  5
2D56
330
18
100
AcDbEntity
  8
0
100
AcDbLine
 10
530.499811
 20
7.416263
 30
0.0
 11
534.811334
 21
7.416263
 31
0.0
  0
ELLIPSE
  5
2D57
330
18
100
AcDbEntity
  8
0
100
AcDbEllipse
 10
530.499811
 20
8.185369
 30
0.0
 11
-0.8021437979128705
 21
1.540000000000000E-14
 31
0.0
210
0.0
220
0.0
230
1.0
 40
0.958812
 41
0.00000000000002
 42
1.570796326794914
  0
ELLIPSE
  5
2D58
330
18
100
AcDbEntity
  8
0
100
AcDbEllipse
 10
534.811334
 20
8.185369
 30
0.0
 11
0.8021437979128704
 21
1.602000000000000E-13
 31
0.0
210
0.0
220
0.0
230
1.0
 40
0.958812
 41
4.712388980384497
 42
6.283185307179378
  0
LINE
  5
2D59
330
18
100
AcDbEntity
  8
0
100
AcDbLine
 10
539.892236
 20
9.015264
 30
0.0
 11
539.903809
 21
9.022759
 31
0.0
  0
LINE
  5
2D5A
330
18
100
AcDbEntity
  8
0
100
AcDbLine
 10
538.361694
 20
9.015264
 30
0.0
 11
539.903809
 21
9.015264
 31
0.0
  0
LINE
  5
2D5B
330
18
100
AcDbEntity
  8
0
100
AcDbLine
 10
544.194477
 20
9.047064
 30
0.0
 11
545.04922
 21
9.047064
 31
0.0
  0
LINE
  5
2D5C
330
18
100
AcDbEntity
  8
0
100
AcDbLine
 10
550.89322
 20
7.416264
 30
0.0
 11
549.34822
 21
7.416264
 31
0.0
  0
LINE
  5
2D5D
330
18
100
AcDbEntity
  8
0
100
AcDbLine
 10
548.69422
 20
9.015264
 30
0.0
 11
547.14922
 21
9.015264
 31
0.0
  0
LINE
  5
2D5E
330
18
100
AcDbEntity
  8
0
100
AcDbLine
 10
551.576266
 20
9.015264
 30
0.0
 11
552.11422
 21
9.015264
 31
0.0
  0
LINE
  5
2D5F
330
18
100
AcDbEntity
  8
0
100
AcDbLine
 10
555.26122
 20
9.015264
 30
0.0
 11
556.19122
 21
9.015264
 31
0.0
  0
LINE
  5
2D60
330
18
100
AcDbEntity
  8
0
100
AcDbLine
 10
559.88722
 20
9.015264
 30
0.0
 11
558.34222
 21
9.015264
 31
0.0
  0
ARC
  5
2D61
330
18
100
AcDbEntity
  8
0
100
AcDbCircle
 10
545.056591
 20
14.17837
 30
0.0
 40
1.425319
100
AcDbArc
 50
9.534829000000002
 51
90.296329
  0
LINE
  5
2D62
330
18
100
AcDbEntity
  8
0
100
AcDbLine
 10
546.46222
 20
11.81167
 30
0.0
 11
544.33822
 21
11.81167
 31
0.0
  0
LINE
  5
2D63
330
18
100
AcDbEntity
  8
0
100
AcDbLine
 10
545.01322
 20
11.13667
 30
0.0
 11
546.46222
 21
11.13667
 31
0.0
  0
LINE
  5
2D64
330
18
100
AcDbEntity
  8
0
100
AcDbLine
 10
529.697667
 20
13.461283
 30
0.0
 11
529.697667
 21
16.260974
 31
0.0
  0
ELLIPSE
  5
2D65
330
18
100
AcDbEntity
  8
0
100
AcDbEllipse
 10
532.630506
 20
15.17942
 30
0.0
 11
2.983077570132104
 21
2.996000000000000E-13
 31
0.0
210
0.0
220
0.0
230
1.0
 40
0.9588119999999999
 41
-1.562393163247347
 42
0.0084031635475457
  0
ELLIPSE
  5
2D66
330
18
100
AcDbEntity
  8
0
100
AcDbEllipse
 10
532.58733
 20
15.509539
 30
0.0
 11
-4.072692107280919
 21
9.250000000000000E-14
 31
0.0
210
0.0
220
0.0
230
1.0
 40
0.958812
 41
1.587553347046634
 42
2.408388587343224
  0
LINE
  5
2D67
330
18
100
AcDbEntity
  8
0
100
AcDbLine
 10
529.697667
 20
11.742481
 30
0.0
 11
529.697667
 21
11.034514
 31
0.0
  0
LINE
  5
2D68
330
18
100
AcDbEntity
  8
0
100
AcDbLine
 10
529.697667
 20
13.461283
 30
0.0
 11
529.697667
 21
12.896138
 31
0.0
  0
ELLIPSE
  5
2D69
330
18
100
AcDbEntity
  8
0
100
AcDbEllipse
 10
532.249598
 20
9.872487
 30
0.0
 11
2.960559210508897
 21
0.3570763225581005
 31
0.0
210
0.0
220
0.0
230
1.0
 40
0.820999
 41
1.335209029023201
 42
2.503032872947537
  0
ELLIPSE
  5
2D6A
330
18
100
AcDbEntity
  8
0
100
AcDbEllipse
 10
532.480104
 20
8.937306
 30
0.0
 11
3.015746449176215
 21
0.7746519372140024
 31
0.0
210
0.0
220
0.0
230
1.0
 40
0.8467750000000003
 41
1.29973646820557
 42
2.479974117225238
  0
LINE
  5
2D6B
330
18
100
AcDbEntity
  8
0
100
AcDbLine
 10
536.816694
 20
12.896138
 30
0.0
 11
536.51589
 21
12.896138
 31
0.0
  0
LINE
  5
2D6C
330
18
100
AcDbEntity
  8
0
100
AcDbLine
 10
535.613478
 20
12.896138
 30
0.0
 11
536.51589
 21
12.896138
 31
0.0
  0
ELLIPSE
  5
2D6D
330
18
100
AcDbEntity
  8
0
100
AcDbEllipse
 10
535.613478
 20
12.896138
 30
0.0
 11
1.203215696869352
 21
8.930000000000000E-14
 31
0.0
210
0.0
220
0.0
230
1.0
 40
0.9588119999999999
 41
4.712388980384611
 42
6.283185307179508
  0
LINE
  5
2D6E
330
18
100
AcDbEntity
  8
0
100
AcDbLine
 10
530.499811
 20
17.030079
 30
0.0
 11
534.811334
 21
17.030079
 31
0.0
  0
ELLIPSE
  5
2D6F
330
18
100
AcDbEntity
  8
0
100
AcDbEllipse
 10
530.499811
 20
16.260974
 30
0.0
 11
0.8021437979128704
 21
3.800000000000000E-14
 31
0.0
210
0.0
220
0.0
230
1.0
 40
0.958812
 41
1.570796326794851
 42
3.141592653589743
  0
LINE
  5
2D70
330
18
100
AcDbEntity
  8
0
100
AcDbLine
 10
535.613478
 20
15.155385
 30
0.0
 11
535.613478
 21
16.260974
 31
0.0
  0
ELLIPSE
  5
2D71
330
18
100
AcDbEntity
  8
0
100
AcDbEllipse
 10
534.811334
 20
16.260974
 30
0.0
 11
-0.8021437979128705
 21
3.800000000000000E-14
 31
0.0
210
0.0
220
0.0
230
1.0
 40
0.958812
 41
3.141592653589842
 42
4.712388980384734
  0
ARC
  5
2D72
330
18
100
AcDbEntity
  8
0
100
AcDbCircle
 10
540.798894
 20
14.34127
 30
0.0
 40
1.377457
100
AcDbArc
 50
16.265061
 51
130.527299
  0
ARC
  5
2D73
330
18
100
AcDbEntity
  8
0
100
AcDbCircle
 10
544.201848
 20
14.17837
 30
0.0
 40
1.425319
100
AcDbArc
 50
89.703671
 51
170.465171
  0
LINE
  5
2D74
330
18
100
AcDbEntity
  8
0
100
AcDbLine
 10
540.911147
 20
12.93607
 30
0.0
 11
542.12122
 21
12.93607
 31
0.0
  0
LINE
  5
2D75
330
18
100
AcDbEntity
  8
0
100
AcDbLine
 10
540.578809
 20
12.93607
 30
0.0
 11
542.12122
 21
12.93607
 31
0.0
  0
ARC
  5
2D76
330
18
100
AcDbEntity
  8
0
100
AcDbCircle
 10
540.229736
 20
14.361264
 30
0.0
 40
0.3375
100
AcDbArc
 50
360.0
 51
180.0
  0
LINE
  5
2D77
330
18
100
AcDbEntity
  8
0
100
AcDbLine
 10
540.567236
 20
14.361264
 30
0.0
 11
540.578809
 21
12.93607
 31
0.0
  0
ARC
  5
2D78
330
18
100
AcDbEntity
  8
0
100
AcDbCircle
 10
544.67572
 20
14.361264
 30
0.0
 40
0.3375
100
AcDbArc
 50
360.0
 51
180.0
  0
LINE
  5
2D79
330
18
100
AcDbEntity
  8
0
100
AcDbLine
 10
544.33822
 20
11.81167
 30
0.0
 11
544.33822
 21
10.236264
 31
0.0
  0
LINE
  5
2D7A
330
18
100
AcDbEntity
  8
0
100
AcDbLine
 10
544.33822
 20
12.71167
 30
0.0
 11
545.01322
 21
12.71167
 31
0.0
  0
LINE
  5
2D7B
330
18
100
AcDbEntity
  8
0
100
AcDbLine
 10
545.01322
 20
11.13667
 30
0.0
 11
545.01322
 21
10.252764
 31
0.0
  0
LINE
  5
2D7C
330
18
100
AcDbEntity
  8
0
100
AcDbLine
 10
544.33822
 20
11.81167
 30
0.0
 11
544.33822
 21
10.252764
 31
0.0
  0
ARC
  5
2D7D
330
18
100
AcDbEntity
  8
0
100
AcDbCircle
 10
544.67572
 20
10.252764
 30
0.0
 40
0.3375
100
AcDbArc
 50
180.0
 51
0.0
  0
LINE
  5
2D7E
330
18
100
AcDbEntity
  8
0
100
AcDbLine
 10
545.01322
 20
14.361264
 30
0.0
 11
545.01322
 21
12.71167
 31
0.0
  0
LINE
  5
2D7F
330
18
100
AcDbEntity
  8
0
100
AcDbLine
 10
544.33822
 20
14.361264
 30
0.0
 11
544.33822
 21
12.71167
 31
0.0
  0
LINE
  5
2D80
330
18
100
AcDbEntity
  8
0
100
AcDbLine
 10
542.12122
 20
12.93607
 30
0.0
 11
542.12122
 21
14.72707
 31
0.0
  0
LINE
  5
2D81
330
18
100
AcDbEntity
  8
0
100
AcDbLine
 10
542.79622
 20
10.236264
 30
0.0
 11
542.79622
 21
14.41447
 31
0.0
  0
LINE
  5
2D82
330
18
100
AcDbEntity
  8
0
100
AcDbLine
 10
539.903809
 20
15.60367
 30
0.0
 11
539.903809
 21
15.38827
 31
0.0
  0
LINE
  5
2D83
330
18
100
AcDbEntity
  8
0
100
AcDbLine
 10
538.361694
 20
15.60367
 30
0.0
 11
539.903809
 21
15.60367
 31
0.0
  0
LINE
  5
2D84
330
18
100
AcDbEntity
  8
0
100
AcDbLine
 10
544.194477
 20
15.60367
 30
0.0
 11
545.04922
 21
15.60367
 31
0.0
  0
ARC
  5
2D85
330
18
100
AcDbEntity
  8
0
100
AcDbCircle
 10
555.243059
 20
14.124104
 30
0.0
 40
1.488419
100
AcDbArc
 50
89.300887
 51
168.365732
  0
ARC
  5
2D86
330
18
100
AcDbEntity
  8
0
100
AcDbCircle
 10
551.752247
 20
14.207365
 30
0.0
 40
1.409039
100
AcDbArc
 50
15.47255
 51
127.56454
  0
LINE
  5
2D87
330
18
100
AcDbEntity
  8
0
100
AcDbLine
 10
546.46222
 20
11.13667
 30
0.0
 11
546.46222
 21
10.236264
 31
0.0
  0
LINE
  5
2D88
330
18
100
AcDbEntity
  8
0
100
AcDbLine
 10
546.46222
 20
11.81167
 30
0.0
 11
546.46222
 21
14.41447
 31
0.0
  0
LINE
  5
2D89
330
18
100
AcDbEntity
  8
0
100
AcDbLine
 10
553.11022
 20
14.583264
 30
0.0
 11
553.11022
 21
10.179264
 31
0.0
  0
LINE
  5
2D8A
330
18
100
AcDbEntity
  8
0
100
AcDbLine
 10
551.56822
 20
14.361264
 30
0.0
 11
551.56822
 21
10.252764
 31
0.0
  0
LINE
  5
2D8B
330
18
100
AcDbEntity
  8
0
100
AcDbLine
 10
550.89322
 20
14.361264
 30
0.0
 11
550.89322
 21
10.252764
 31
0.0
  0
ARC
  5
2D8C
330
18
100
AcDbEntity
  8
0
100
AcDbCircle
 10
551.23072
 20
10.252764
 30
0.0
 40
0.3375
100
AcDbArc
 50
180.0
 51
0.0
  0
ARC
  5
2D8D
330
18
100
AcDbEntity
  8
0
100
AcDbCircle
 10
551.23072
 20
14.361264
 30
0.0
 40
0.3375
100
AcDbArc
 50
360.0
 51
180.0
  0
LINE
  5
2D8E
330
18
100
AcDbEntity
  8
0
100
AcDbLine
 10
549.34822
 20
15.612264
 30
0.0
 11
550.89322
 21
15.612264
 31
0.0
  0
LINE
  5
2D8F
330
18
100
AcDbEntity
  8
0
100
AcDbLine
 10
547.14922
 20
17.211264
 30
0.0
 11
548.69422
 21
17.211264
 31
0.0
  0
LINE
  5
2D90
330
18
100
AcDbEntity
  8
0
100
AcDbLine
 10
550.89322
 20
15.612264
 30
0.0
 11
550.89322
 21
15.324264
 31
0.0
  0
ARC
  5
2D91
330
18
100
AcDbEntity
  8
0
100
AcDbCircle
 10
556.209381
 20
14.124104
 30
0.0
 40
1.488419
100
AcDbArc
 50
11.634268
 51
90.699113
  0
LINE
  5
2D92
330
18
100
AcDbEntity
  8
0
100
AcDbLine
 10
557.66722
 20
14.424264
 30
0.0
 11
557.66722
 21
10.203412
 31
0.0
  0
ARC
  5
2D93
330
18
100
AcDbEntity
  8
0
100
AcDbCircle
 10
555.72622
 20
14.361264
 30
0.0
 40
0.3375
100
AcDbArc
 50
360.0
 51
180.0
  0
ARC
  5
2D94
330
18
100
AcDbEntity
  8
0
100
AcDbCircle
 10
555.72622
 20
10.252764
 30
0.0
 40
0.3375
100
AcDbArc
 50
180.0
 51
0.0
  0
LINE
  5
2D95
330
18
100
AcDbEntity
  8
0
100
AcDbLine
 10
555.38872
 20
14.361264
 30
0.0
 11
555.38872
 21
10.252764
 31
0.0
  0
LINE
  5
2D96
330
18
100
AcDbEntity
  8
0
100
AcDbLine
 10
556.06372
 20
14.361264
 30
0.0
 11
556.06372
 21
10.252764
 31
0.0
  0
LINE
  5
2D97
330
18
100
AcDbEntity
  8
0
100
AcDbLine
 10
553.78522
 20
10.203412
 30
0.0
 11
553.78522
 21
14.424264
 31
0.0
  0
LINE
  5
2D98
330
18
100
AcDbEntity
  8
0
100
AcDbLine
 10
555.26122
 20
15.612412
 30
0.0
 11
556.19122
 21
15.612412
 31
0.0
  0
LINE
  5
2D99
330
18
100
AcDbEntity
  8
0
100
AcDbLine
 10
558.34222
 20
17.211264
 30
0.0
 11
559.88722
 21
17.211264
 31
0.0
  0
TEXT
  5
2D9A
330
18
100
AcDbEntity
  8
WY
100
AcDbText
 10
564.417407
 20
11.60401
 30
0.0
 40
1.999999999999999
  1
01-06-2016
 41
1.000000000000001
 51
15.0
  7
ITALIC
100
AcDbText
  0
TEXT
  5
2D9B
330
18
100
AcDbEntity
  8
WY
100
AcDbText
 10
568.848776
 20
16.149239
 30
0.0
 40
2.0
  1
Data
 51
15.0
  7
ITALIC
100
AcDbText
  0
TEXT
  5
2D9D
330
18
100
AcDbEntity
  8
1
100
AcDbText
 10
637.422754
 20
9.064009
 30
0.0
 40
5.0
  1
SU4/2D
 41
0.8
 51
15.0
  7
ITALIC
100
AcDbText
  0
LINE
  5
2D9E
330
18
100
AcDbEntity
  8
1
100
AcDbLine
 10
627.394234
 20
5.0
 30
0.0
 11
627.394234
 21
19.689837
 31
0.0
  0
TEXT
  5
2D9F
330
18
100
AcDbEntity
  8
WY
100
AcDbText
 10
629.585432
 20
16.599248
 30
0.0
 40
2.0
  1
Product type
 51
15.0
  7
ITALIC
100
AcDbText
  0
LINE
  5
2DF2
330
18
100
AcDbEntity
  8
2
100
AcDbLine
 10
682.671651
 20
292.0
 30
0.0
 11
497.671651
 21
292.0
 31
0.0
  0
LINE
  5
2DF3
330
18
100
AcDbEntity
  8
2
100
AcDbLine
 10
687.671651
 20
297.0
 30
0.0
 11
497.671651
 21
297.0
 31
0.0
  0
LINE
  5
2E74
330
18
100
AcDbEntity
  8
WYMIARY
 62
     6
100
AcDbLine
 10
497.671651
 20
297.0
 30
0.0
 11
486.041244
 21
297.0
 31
0.0
  0
MTEXT
  5
31F2
330
18
100
AcDbEntity
  8
WYMIARY
100
AcDbMText
 10
780.543201
 20
224.476865
 30
0.0
 40
3.5
 41
15.6
 71
     1
 72
     5
  1

  7
ITALIC
  0
TEXT
  5
478E
330
18
100
AcDbEntity
  8
1
100
AcDbText
 10
500.301985
 20
8.797457
 30
0.0
 40
5.0
  1
1:1
 51
15.0
  7
ITALIC
100
AcDbText
  0
LINE
  5
482F
330
18
100
AcDbEntity
  8
WYMIARY
 62
     6
100
AcDbLine
 10
687.671651
 20
0.0
 30
0.0
 11
687.671651
 21
297.0
 31
0.0
  0
LINE
  5
4AD7
330
18
100
AcDbEntity
  8
WYMIARY
 62
     3
100
AcDbLine
 10
512.671651
 20
19.689837
 30
0.0
 11
512.671651
 21
5.0
 31
0.0
  0
LINE
  5
4AD9
330
18
100
AcDbEntity
  8
WYMIARY
 62
     3
100
AcDbLine
 10
527.671651
 20
19.689837
 30
0.0
 11
527.671651
 21
5.0
 31
0.0
  0
LINE
  5
4ADA
330
18
100
AcDbEntity
  8
WYMIARY
 62
     3
100
AcDbLine
 10
586.373187
 20
19.689837
 30
0.0
 11
586.373187
 21
5.0
 31
0.0
  0
TEXT
  5
4ADB
330
18
100
AcDbEntity
  8
WY
100
AcDbText
 10
587.562196
 20
16.599248
 30
0.0
 40
2.0
  1
Draw. No.
 51
15.0
  7
ITALIC
100
AcDbText
  0
TEXT
  5
4ADF
330
18
100
AcDbEntity
  8
1
100
AcDbText
 10
591.935141
 20
9.064009
 30
0.0
 40
3.999999999999993
  1
SU4/2D-01A
 41
0.7000000000000012
 51
15.0
  7
ITALIC
100
AcDbText
  0
LINE
  5
4AE9
330
18
100
AcDbEntity
  8
WYMIARY
 62
     6
100
AcDbLine
 10
687.671651
 20
0.0
 30
0.0
 11
687.671651
 21
297.0
 31
0.0
  0
LINE
  5
6488
330
18
100
AcDbEntity
  8
WYMIARY
 62
     6
100
AcDbLine
 10
687.671651
 20
0.0
 30
0.0
 11
687.671651
 21
297.0
 31
0.0
  0
LINE
  5
648E
330
18
100
AcDbEntity
  8
2
100
AcDbLine
 10
687.671651
 20
0.0
 30
0.0
 11
687.671651
 21
297.0
 31
0.0
  0
LINE
  5
6CB6
330
18
100
AcDbEntity
  8
WYMIARY
 62
     6
100
AcDbLine
 10
687.671651
 20
0.0
 30
0.0
 11
687.671651
 21
297.0
 31
0.0
  0
LINE
  5
6CB8
330
18
100
AcDbEntity
  8
2
100
AcDbLine
 10
687.671651
 20
0.0
 30
0.0
 11
687.671651
 21
297.0
 31
0.0
  0
TEXT
  5
B62D
330
18
100
AcDbEntity
  8
1
100
AcDbText
 10
588.628792682284
 20
275.1245812869693
 30
0.0
 40
5.0
  1
SU4/2D
 41
0.8
 51
15.0
  7
ITALIC
100
AcDbText
  0
LINE
  5
1FBC9
330
18
100
AcDbEntity
  8
1
  6
CONTINUOUS
 62
     7
100
AcDbLine
 10
630.8824555681472
 20
137.2532956028604
 30
0.0
 11
633.9574554668193
 21
137.2532956028604
 31
0.0
  0
LINE
  5
1FBCA
330
18
100
AcDbEntity
  8
1
  6
CONTINUOUS
 62
     7
100
AcDbLine
 10
633.9574554668193
 20
137.0532950112843
 30
0.0
 11
630.8824555681472
 21
137.0532950112843
 31
0.0
  0
LINE
  5
1FBCB
330
18
100
AcDbEntity
  8
1
  6
CONTINUOUS
 62
     7
100
AcDbLine
 10
631.848528116328
 20
135.9407957369709
 30
0.0
 11
631.8485392921989
 21
135.9402034158134
 31
0.0
  0
LINE
  5
1FBCC
330
18
100
AcDbEntity
  8
1
  6
CONTINUOUS
 62
     7
100
AcDbLine
 10
632.9913717427676
 20
135.9402034158134
 30
0.0
 11
632.9913829186385
 21
135.9407957369709
 31
0.0
  0
LINE
  5
1FBD1
330
18
100
AcDbEntity
  8
1
  6
CONTINUOUS
 62
     7
100
AcDbLine
 10
617.6824551740115
 20
143.5532953782254
 30
0.0
 11
620.7574550726836
 21
143.5532953782254
 31
0.0
  0
LINE
  5
1FBD2
330
18
100
AcDbEntity
  8
1
  6
CONTINUOUS
 62
     7
100
AcDbLine
 10
620.7574550726836
 20
143.3532954851413
 30
0.0
 11
617.6824551740115
 21
143.3532954851413
 31
0.0
  0
LINE
  5
1FBD3
330
18
100
AcDbEntity
  8
1
  6
CONTINUOUS
 62
     7
100
AcDbLine
 10
618.6485291191761
 20
142.2407952795052
 30
0.0
 11
618.648540295047
 21
142.2402034240091
 31
0.0
  0
LINE
  5
1FBD4
330
18
100
AcDbEntity
  8
1
  6
CONTINUOUS
 62
     7
100
AcDbLine
 10
619.7913718142931
 20
142.2402034240091
 30
0.0
 11
619.791382990164
 21
142.2407952795052
 31
0.0
  0
LINE
  5
1FBD5
330
18
100
AcDbEntity
  8
1
  6
CONTINUOUS
 62
     7
100
AcDbLine
 10
617.6824551740115
 20
137.2532956028604
 30
0.0
 11
620.7574550726836
 21
137.2532956028604
 31
0.0
  0
LINE
  5
1FBD6
330
18
100
AcDbEntity
  8
1
  6
CONTINUOUS
 62
     7
100
AcDbLine
 10
620.7574550726836
 20
137.0532950112843
 30
0.0
 11
617.6824551740115
 21
137.0532950112843
 31
0.0
  0
LINE
  5
1FBD7
330
18
100
AcDbEntity
  8
1
  6
CONTINUOUS
 62
     7
100
AcDbLine
 10
618.6485291191761
 20
135.9407957369709
 30
0.0
 11
618.648540295047
 21
135.9402034158134
 31
0.0
  0
LINE
  5
1FBD8
330
18
100
AcDbEntity
  8
1
  6
CONTINUOUS
 62
     7
100
AcDbLine
 10
619.7913718142931
 20
135.9402034158134
 30
0.0
 11
619.791382990164
 21
135.9407957369709
 31
0.0
  0
LINE
  5
1FBD9
330
18
100
AcDbEntity
  8
1
  6
CONTINUOUS
 62
     7
100
AcDbLine
 10
630.8824555681472
 20
143.5532953782254
 30
0.0
 11
633.9574554668193
 21
143.5532953782254
 31
0.0
  0
LINE
  5
1FBDA
330
18
100
AcDbEntity
  8
1
  6
CONTINUOUS
 62
     7
100
AcDbLine
 10
633.9574554668193
 20
143.3532954851413
 30
0.0
 11
630.8824555681472
 21
143.3532954851413
 31
0.0
  0
LINE
  5
1FBDB
330
18
100
AcDbEntity
  8
1
  6
CONTINUOUS
 62
     7
100
AcDbLine
 10
631.848528116328
 20
142.2407952795052
 30
0.0
 11
631.8485392921989
 21
142.2402034240091
 31
0.0
  0
LINE
  5
1FBDC
330
18
100
AcDbEntity
  8
1
  6
CONTINUOUS
 62
     7
100
AcDbLine
 10
632.9913717427676
 20
142.2402034240091
 30
0.0
 11
632.9913829186385
 21
142.2407952795052
 31
0.0
  0
LINE
  5
1FBE5
330
18
100
AcDbEntity
  8
1
  6
CONTINUOUS
 62
     7
100
AcDbLine
 10
617.6824551740115
 20
149.8532953864211
 30
0.0
 11
620.7574550726836
 21
149.8532953864211
 31
0.0
  0
LINE
  5
1FBE6
330
18
100
AcDbEntity
  8
1
  6
CONTINUOUS
 62
     7
100
AcDbLine
 10
620.7574550726836
 20
149.6532954933369
 30
0.0
 11
617.6824551740115
 21
149.6532954933369
 31
0.0
  0
LINE
  5
1FBE7
330
18
100
AcDbEntity
  8
1
  6
CONTINUOUS
 62
     7
100
AcDbLine
 10
618.6485291191761
 20
148.5407954041162
 30
0.0
 11
618.648540295047
 21
148.5402033157894
 31
0.0
  0
LINE
  5
1FBE8
330
18
100
AcDbEntity
  8
1
  6
CONTINUOUS
 62
     7
100
AcDbLine
 10
619.7913718142931
 20
148.5402033157894
 30
0.0
 11
619.791382990164
 21
148.5407954041162
 31
0.0
  0
LINE
  5
1FBE9
330
18
100
AcDbEntity
  8
1
  6
CONTINUOUS
 62
     7
100
AcDbLine
 10
617.6824551740115
 20
153.953295173707
 30
0.0
 11
620.7574550726836
 21
153.953295173707
 31
0.0
  0
LINE
  5
1FBEA
330
18
100
AcDbEntity
  8
1
  6
CONTINUOUS
 62
     7
100
AcDbLine
 10
620.7574550726836
 20
153.7532955134535
 30
0.0
 11
617.6824551740115
 21
153.7532955134535
 31
0.0
  0
LINE
  5
1FBEB
330
18
100
AcDbEntity
  8
1
  6
CONTINUOUS
 62
     7
100
AcDbLine
 10
618.6485291191761
 20
152.6407953078175
 30
0.0
 11
618.648540295047
 21
152.6402034523213
 31
0.0
  0
LINE
  5
1FBEC
330
18
100
AcDbEntity
  8
1
  6
CONTINUOUS
 62
     7
100
AcDbLine
 10
619.7913718142931
 20
152.6402034523213
 30
0.0
 11
619.791382990164
 21
152.6407953078175
 31
0.0
  0
LINE
  5
1FBF1
330
18
100
AcDbEntity
  8
1
  6
CONTINUOUS
 62
     7
100
AcDbLine
 10
630.8824555681472
 20
153.953295173707
 30
0.0
 11
633.9574554668193
 21
153.953295173707
 31
0.0
  0
LINE
  5
1FBF2
330
18
100
AcDbEntity
  8
1
  6
CONTINUOUS
 62
     7
100
AcDbLine
 10
633.9574554668193
 20
153.7532955134535
 30
0.0
 11
630.8824555681472
 21
153.7532955134535
 31
0.0
  0
LINE
  5
1FBF3
330
18
100
AcDbEntity
  8
1
  6
CONTINUOUS
 62
     7
100
AcDbLine
 10
631.848528116328
 20
152.6407953078175
 30
0.0
 11
631.8485392921989
 21
152.6402034523213
 31
0.0
  0
LINE
  5
1FBF4
330
18
100
AcDbEntity
  8
1
  6
CONTINUOUS
 62
     7
100
AcDbLine
 10
632.9913717427676
 20
152.6402034523213
 30
0.0
 11
632.9913829186385
 21
152.6407953078175
 31
0.0
  0
LINE
  5
1FBF5
330
18
100
AcDbEntity
  8
1
  6
CONTINUOUS
 62
     7
100
AcDbLine
 10
630.8824555681472
 20
149.8532953864211
 30
0.0
 11
633.9574554668193
 21
149.8532953864211
 31
0.0
  0
LINE
  5
1FBF6
330
18
100
AcDbEntity
  8
1
  6
CONTINUOUS
 62
     7
100
AcDbLine
 10
633.9574554668193
 20
149.6532954933369
 30
0.0
 11
630.8824555681472
 21
149.6532954933369
 31
0.0
  0
LINE
  5
1FBF7
330
18
100
AcDbEntity
  8
1
  6
CONTINUOUS
 62
     7
100
AcDbLine
 10
631.848528116328
 20
148.5407954041162
 30
0.0
 11
631.8485392921989
 21
148.5402033157894
 31
0.0
  0
LINE
  5
1FBF8
330
18
100
AcDbEntity
  8
1
  6
CONTINUOUS
 62
     7
100
AcDbLine
 10
632.9913717427676
 20
148.5402033157894
 30
0.0
 11
632.9913829186385
 21
148.5407954041162
 31
0.0
  0
LINE
  5
1FC01
330
18
100
AcDbEntity
  8
1
  6
CONTINUOUS
 62
     7
100
AcDbLine
 10
630.8824555681472
 20
138.115795301857
 30
0.0
 11
633.9574554668193
 21
138.115795301857
 31
0.0
  0
LINE
  5
1FC02
330
18
100
AcDbEntity
  8
1
  6
CONTINUOUS
 62
     7
100
AcDbLine
 10
630.8824555681472
 20
138.115795301857
 30
0.0
 11
630.8824555681472
 21
138.3657958084965
 31
0.0
  0
LINE
  5
1FC03
330
18
100
AcDbEntity
  8
1
  6
CONTINUOUS
 62
     7
100
AcDbLine
 10
630.8824555681472
 20
138.3657958084965
 30
0.0
 11
633.9574554668193
 21
138.3657958084965
 31
0.0
  0
LINE
  5
1FC04
330
18
100
AcDbEntity
  8
1
  6
CONTINUOUS
 62
     7
100
AcDbLine
 10
633.9574554668193
 20
138.115795301857
 30
0.0
 11
633.9574554668193
 21
138.3657958084965
 31
0.0
  0
LINE
  5
1FC05
330
18
100
AcDbEntity
  8
1
  6
CONTINUOUS
 62
     7
100
AcDbLine
 10
630.8824555681472
 20
135.9407957369709
 30
0.0
 11
633.9574554668193
 21
135.9407957369709
 31
0.0
  0
LINE
  5
1FC06
330
18
100
AcDbEntity
  8
1
  6
CONTINUOUS
 62
     7
100
AcDbLine
 10
630.8824555681472
 20
135.9407957369709
 30
0.0
 11
630.8824555681472
 21
136.1907953122878
 31
0.0
  0
LINE
  5
1FC07
330
18
100
AcDbEntity
  8
1
  6
CONTINUOUS
 62
     7
100
AcDbLine
 10
633.9574554668193
 20
135.9407957369709
 30
0.0
 11
633.9574554668193
 21
136.1907953122878
 31
0.0
  0
LINE
  5
1FC08
330
18
100
AcDbEntity
  8
1
  6
CONTINUOUS
 62
     7
100
AcDbLine
 10
630.8824555681472
 20
136.1907953122878
 30
0.0
 11
633.9574554668193
 21
136.1907953122878
 31
0.0
  0
LINE
  5
1FC09
330
18
100
AcDbEntity
  8
1
  6
CONTINUOUS
 62
     7
100
AcDbLine
 10
630.8824555681472
 20
138.0837307969356
 30
0.0
 11
630.8824555681472
 21
138.115795301857
 31
0.0
  0
LINE
  5
1FC0A
330
18
100
AcDbEntity
  8
1
  6
CONTINUOUS
 62
     7
100
AcDbLine
 10
633.9574554668193
 20
138.0837307969356
 30
0.0
 11
633.9574554668193
 21
138.115795301857
 31
0.0
  0
LINE
  5
1FC0B
330
18
100
AcDbEntity
  8
1
  6
CONTINUOUS
 62
     7
100
AcDbLine
 10
630.8824555681472
 20
136.1907953122878
 30
0.0
 11
630.8824555681472
 21
136.2228598172092
 31
0.0
  0
LINE
  5
1FC0C
330
18
100
AcDbEntity
  8
1
  6
CONTINUOUS
 62
     7
100
AcDbLine
 10
633.9574554668193
 20
136.1907953122878
 30
0.0
 11
633.9574554668193
 21
136.2228598172092
 31
0.0
  0
LINE
  5
1FC0D
330
18
100
AcDbEntity
  8
1
  6
CONTINUOUS
 62
     7
100
AcDbLine
 10
630.8824555681472
 20
136.2228598172092
 30
0.0
 11
630.8824555681472
 21
136.989166932764
 31
0.0
  0
LINE
  5
1FC0E
330
18
100
AcDbEntity
  8
1
  6
CONTINUOUS
 62
     7
100
AcDbLine
 10
633.9574554668193
 20
136.2228598172092
 30
0.0
 11
633.9574554668193
 21
136.989166932764
 31
0.0
  0
LINE
  5
1FC0F
330
18
100
AcDbEntity
  8
1
  6
CONTINUOUS
 62
     7
100
AcDbLine
 10
630.8824555681472
 20
137.3174236813807
 30
0.0
 11
630.8824555681472
 21
138.0837307969356
 31
0.0
  0
LINE
  5
1FC10
330
18
100
AcDbEntity
  8
1
  6
CONTINUOUS
 62
     7
100
AcDbLine
 10
633.9574554668193
 20
137.3174236813807
 30
0.0
 11
633.9574554668193
 21
138.0837307969356
 31
0.0
  0
LINE
  5
1FC11
330
18
100
AcDbEntity
  8
1
  6
CONTINUOUS
 62
     7
100
AcDbLine
 10
630.8824555681472
 20
137.2532956028604
 30
0.0
 11
630.8824555681472
 21
137.3174236813807
 31
0.0
  0
LINE
  5
1FC12
330
18
100
AcDbEntity
  8
1
  6
CONTINUOUS
 62
     7
100
AcDbLine
 10
633.9574554668193
 20
137.2532956028604
 30
0.0
 11
633.9574554668193
 21
137.3174236813807
 31
0.0
  0
LINE
  5
1FC13
330
18
100
AcDbEntity
  8
1
  6
CONTINUOUS
 62
     7
100
AcDbLine
 10
630.8824555681472
 20
136.989166932764
 30
0.0
 11
630.8824555681472
 21
137.0532950112843
 31
0.0
  0
LINE
  5
1FC14
330
18
100
AcDbEntity
  8
1
  6
CONTINUOUS
 62
     7
100
AcDbLine
 10
633.9574554668193
 20
136.989166932764
 30
0.0
 11
633.9574554668193
 21
137.0532950112843
 31
0.0
  0
LINE
  5
1FC15
330
18
100
AcDbEntity
  8
1
  6
CONTINUOUS
 62
     7
100
AcDbLine
 10
633.7074556586717
 20
137.2532956028604
 30
0.0
 11
633.7074556586717
 21
137.0532950112843
 31
0.0
  0
LINE
  5
1FC16
330
18
100
AcDbEntity
  8
1
  6
CONTINUOUS
 62
     7
100
AcDbLine
 10
633.9574554668193
 20
137.2532956028604
 30
0.0
 11
633.9574554668193
 21
137.0532950112843
 31
0.0
  0
ARC
  5
1FC17
330
18
100
AcDbEntity
  8
1
  6
CONTINUOUS
 62
     7
100
AcDbCircle
 10
632.3762119855378
 20
136.77433344377
 30
0.0
 40
0.8925487882288906
100
AcDbArc
 50
249.0487099790993
 51
272.8091732604142
  0
LINE
  5
1FC18
330
18
100
AcDbEntity
  8
1
  6
CONTINUOUS
 62
     7
100
AcDbLine
 10
632.0199557313149
 20
135.8657953987145
 30
0.0
 11
632.0199557313149
 21
135.9407957369709
 31
0.0
  0
ARC
  5
1FC19
330
18
100
AcDbEntity
  8
1
  6
CONTINUOUS
 62
     7
100
AcDbCircle
 10
632.4636990494287
 20
136.77433344377
 30
0.0
 40
0.8925487882288906
100
AcDbArc
 50
267.1908267395858
 51
290.9512900209006
  0
LINE
  5
1FC1A
330
18
100
AcDbEntity
  8
1
  6
CONTINUOUS
 62
     7
100
AcDbLine
 10
632.8199557693129
 20
135.9407957369709
 30
0.0
 11
632.8199557693129
 21
135.8657953987145
 31
0.0
  0
LINE
  5
1FC1B
330
18
100
AcDbEntity
  8
1
  6
CONTINUOUS
 62
     7
100
AcDbLine
 10
631.8449555629318
 20
135.9407957369709
 30
0.0
 11
632.0199557313149
 21
135.9118818963194
 31
0.0
  0
LINE
  5
1FC1C
330
18
100
AcDbEntity
  8
1
  6
CONTINUOUS
 62
     7
100
AcDbLine
 10
632.8199557693129
 20
135.9118818963194
 30
0.0
 11
632.9949554720347
 21
135.9407957369709
 31
0.0
  0
LINE
  5
1FC39
330
18
100
AcDbEntity
  8
1
  6
CONTINUOUS
 62
     7
100
AcDbLine
 10
617.6824551740115
 20
144.4157953100526
 30
0.0
 11
620.7574550726836
 21
144.4157953100526
 31
0.0
  0
LINE
  5
1FC3A
330
18
100
AcDbEntity
  8
1
  6
CONTINUOUS
 62
     7
100
AcDbLine
 10
617.6824551740115
 20
144.4157953100526
 30
0.0
 11
617.6824551740115
 21
144.6657953510308
 31
0.0
  0
LINE
  5
1FC3B
330
18
100
AcDbEntity
  8
1
  6
CONTINUOUS
 62
     7
100
AcDbLine
 10
617.6824551740115
 20
144.6657953510308
 30
0.0
 11
620.7574550726836
 21
144.6657953510308
 31
0.0
  0
LINE
  5
1FC3C
330
18
100
AcDbEntity
  8
1
  6
CONTINUOUS
 62
     7
100
AcDbLine
 10
620.7574550726836
 20
144.4157953100526
 30
0.0
 11
620.7574550726836
 21
144.6657953510308
 31
0.0
  0
LINE
  5
1FC3D
330
18
100
AcDbEntity
  8
1
  6
CONTINUOUS
 62
     7
100
AcDbLine
 10
617.6824551740115
 20
142.2407952795052
 30
0.0
 11
620.7574550726836
 21
142.2407952795052
 31
0.0
  0
LINE
  5
1FC3E
330
18
100
AcDbEntity
  8
1
  6
CONTINUOUS
 62
     7
100
AcDbLine
 10
617.6824551740115
 20
142.4907953204834
 30
0.0
 11
620.7574550726836
 21
142.4907953204834
 31
0.0
  0
LINE
  5
1FC3F
330
18
100
AcDbEntity
  8
1
  6
CONTINUOUS
 62
     7
100
AcDbLine
 10
620.7574550726836
 20
142.2407952795052
 30
0.0
 11
620.7574550726836
 21
142.4907953204834
 31
0.0
  0
LINE
  5
1FC40
330
18
100
AcDbEntity
  8
1
  6
CONTINUOUS
 62
     7
100
AcDbLine
 10
617.6824551740115
 20
142.2407952795052
 30
0.0
 11
617.6824551740115
 21
142.4907953204834
 31
0.0
  0
LINE
  5
1FC41
330
18
100
AcDbEntity
  8
1
  6
CONTINUOUS
 62
     7
100
AcDbLine
 10
617.6824551740115
 20
144.3837310379618
 30
0.0
 11
617.6824551740115
 21
144.4157953100526
 31
0.0
  0
LINE
  5
1FC42
330
18
100
AcDbEntity
  8
1
  6
CONTINUOUS
 62
     7
100
AcDbLine
 10
620.7574550726836
 20
144.3837310379618
 30
0.0
 11
620.7574550726836
 21
144.4157953100526
 31
0.0
  0
LINE
  5
1FC43
330
18
100
AcDbEntity
  8
1
  6
CONTINUOUS
 62
     7
100
AcDbLine
 10
620.7574550726836
 20
142.4907953204834
 30
0.0
 11
620.7574550726836
 21
142.5228598254049
 31
0.0
  0
LINE
  5
1FC44
330
18
100
AcDbEntity
  8
1
  6
CONTINUOUS
 62
     7
100
AcDbLine
 10
617.6824551740115
 20
142.4907953204834
 30
0.0
 11
617.6824551740115
 21
142.5228598254049
 31
0.0
  0
LINE
  5
1FC45
330
18
100
AcDbEntity
  8
1
  6
CONTINUOUS
 62
     7
100
AcDbLine
 10
620.7574550726836
 20
142.5228598254049
 30
0.0
 11
620.7574550726836
 21
143.289166708129
 31
0.0
  0
LINE
  5
1FC46
330
18
100
AcDbEntity
  8
1
  6
CONTINUOUS
 62
     7
100
AcDbLine
 10
617.6824551740115
 20
142.5228598254049
 30
0.0
 11
617.6824551740115
 21
143.289166708129
 31
0.0
  0
LINE
  5
1FC47
330
18
100
AcDbEntity
  8
1
  6
CONTINUOUS
 62
     7
100
AcDbLine
 10
617.6824551740115
 20
143.6174241552377
 30
0.0
 11
617.6824551740115
 21
144.3837310379618
 31
0.0
  0
LINE
  5
1FC48
330
18
100
AcDbEntity
  8
1
  6
CONTINUOUS
 62
     7
100
AcDbLine
 10
620.7574550726836
 20
143.6174241552377
 30
0.0
 11
620.7574550726836
 21
144.3837310379618
 31
0.0
  0
LINE
  5
1FC49
330
18
100
AcDbEntity
  8
1
  6
CONTINUOUS
 62
     7
100
AcDbLine
 10
617.6824551740115
 20
143.5532953782254
 30
0.0
 11
617.6824551740115
 21
143.6174241552377
 31
0.0
  0
LINE
  5
1FC4A
330
18
100
AcDbEntity
  8
1
  6
CONTINUOUS
 62
     7
100
AcDbLine
 10
620.7574550726836
 20
143.5532953782254
 30
0.0
 11
620.7574550726836
 21
143.6174241552377
 31
0.0
  0
LINE
  5
1FC4B
330
18
100
AcDbEntity
  8
1
  6
CONTINUOUS
 62
     7
100
AcDbLine
 10
620.7574550726836
 20
143.289166708129
 30
0.0
 11
620.7574550726836
 21
143.3532954851413
 31
0.0
  0
LINE
  5
1FC4C
330
18
100
AcDbEntity
  8
1
  6
CONTINUOUS
 62
     7
100
AcDbLine
 10
617.6824551740115
 20
143.289166708129
 30
0.0
 11
617.6824551740115
 21
143.3532954851413
 31
0.0
  0
LINE
  5
1FC4D
330
18
100
AcDbEntity
  8
1
  6
CONTINUOUS
 62
     7
100
AcDbLine
 10
620.7574550726836
 20
143.5532953782254
 30
0.0
 11
620.7574550726836
 21
143.3532954851413
 31
0.0
  0
LINE
  5
1FC4E
330
18
100
AcDbEntity
  8
1
  6
CONTINUOUS
 62
     7
100
AcDbLine
 10
620.5074564286892
 20
143.5532953782254
 30
0.0
 11
620.5074564286892
 21
143.3532954851413
 31
0.0
  0
ARC
  5
1FC4F
330
18
100
AcDbEntity
  8
1
  6
CONTINUOUS
 62
     7
100
AcDbCircle
 10
619.263695198928
 20
143.074352070024
 30
0.0
 40
0.8925676796310507
100
AcDbArc
 50
267.191108382259
 51
290.9510312708297
  0
LINE
  5
1FC50
330
18
100
AcDbEntity
  8
1
  6
CONTINUOUS
 62
     7
100
AcDbLine
 10
619.6199563064997
 20
142.2407952795052
 30
0.0
 11
619.6199563064997
 21
142.1657954069102
 31
0.0
  0
ARC
  5
1FC51
330
18
100
AcDbEntity
  8
1
  6
CONTINUOUS
 62
     7
100
AcDbCircle
 10
619.1762157149178
 20
143.0743562486953
 30
0.0
 40
0.8925718205887807
100
AcDbArc
 50
249.0490246481898
 51
272.8088356987336
  0
LINE
  5
1FC52
330
18
100
AcDbEntity
  8
1
  6
CONTINUOUS
 62
     7
100
AcDbLine
 10
618.8199558028405
 20
142.1657954069102
 30
0.0
 11
618.8199558028405
 21
142.2407952795052
 31
0.0
  0
LINE
  5
1FC53
330
18
100
AcDbEntity
  8
1
  6
CONTINUOUS
 62
     7
100
AcDbLine
 10
618.6449547031348
 20
142.2407952795052
 30
0.0
 11
618.8199558028405
 21
142.2118823701763
 31
0.0
  0
LINE
  5
1FC54
330
18
100
AcDbEntity
  8
1
  6
CONTINUOUS
 62
     7
100
AcDbLine
 10
619.6199563064997
 20
142.2118823701763
 30
0.0
 11
619.7949555435603
 21
142.2407952795052
 31
0.0
  0
LINE
  5
1FC55
330
18
100
AcDbEntity
  8
1
  6
CONTINUOUS
 62
     7
100
AcDbLine
 10
617.6824551740115
 20
135.9407957369709
 30
0.0
 11
617.6824551740115
 21
136.1907953122878
 31
0.0
  0
LINE
  5
1FC56
330
18
100
AcDbEntity
  8
1
  6
CONTINUOUS
 62
     7
100
AcDbLine
 10
617.6824551740115
 20
136.1907953122878
 30
0.0
 11
620.7574550726836
 21
136.1907953122878
 31
0.0
  0
LINE
  5
1FC57
330
18
100
AcDbEntity
  8
1
  6
CONTINUOUS
 62
     7
100
AcDbLine
 10
620.7574550726836
 20
135.9407957369709
 30
0.0
 11
620.7574550726836
 21
136.1907953122878
 31
0.0
  0
LINE
  5
1FC58
330
18
100
AcDbEntity
  8
1
  6
CONTINUOUS
 62
     7
100
AcDbLine
 10
617.6824551740115
 20
135.9407957369709
 30
0.0
 11
620.7574550726836
 21
135.9407957369709
 31
0.0
  0
LINE
  5
1FC59
330
18
100
AcDbEntity
  8
1
  6
CONTINUOUS
 62
     7
100
AcDbLine
 10
617.6824551740115
 20
138.115795301857
 30
0.0
 11
620.7574550726836
 21
138.115795301857
 31
0.0
  0
LINE
  5
1FC5A
330
18
100
AcDbEntity
  8
1
  6
CONTINUOUS
 62
     7
100
AcDbLine
 10
617.6824551740115
 20
138.115795301857
 30
0.0
 11
617.6824551740115
 21
138.3657958084965
 31
0.0
  0
LINE
  5
1FC5B
330
18
100
AcDbEntity
  8
1
  6
CONTINUOUS
 62
     7
100
AcDbLine
 10
617.6824551740115
 20
138.3657958084965
 30
0.0
 11
620.7574550726836
 21
138.3657958084965
 31
0.0
  0
LINE
  5
1FC5C
330
18
100
AcDbEntity
  8
1
  6
CONTINUOUS
 62
     7
100
AcDbLine
 10
620.7574550726836
 20
138.115795301857
 30
0.0
 11
620.7574550726836
 21
138.3657958084965
 31
0.0
  0
LINE
  5
1FC5D
330
18
100
AcDbEntity
  8
1
  6
CONTINUOUS
 62
     7
100
AcDbLine
 10
617.6824551740115
 20
138.0837307969356
 30
0.0
 11
617.6824551740115
 21
138.115795301857
 31
0.0
  0
LINE
  5
1FC5E
330
18
100
AcDbEntity
  8
1
  6
CONTINUOUS
 62
     7
100
AcDbLine
 10
620.7574550726836
 20
138.0837307969356
 30
0.0
 11
620.7574550726836
 21
138.115795301857
 31
0.0
  0
LINE
  5
1FC5F
330
18
100
AcDbEntity
  8
1
  6
CONTINUOUS
 62
     7
100
AcDbLine
 10
620.7574550726836
 20
136.1907953122878
 30
0.0
 11
620.7574550726836
 21
136.2228598172092
 31
0.0
  0
LINE
  5
1FC60
330
18
100
AcDbEntity
  8
1
  6
CONTINUOUS
 62
     7
100
AcDbLine
 10
617.6824551740115
 20
136.1907953122878
 30
0.0
 11
617.6824551740115
 21
136.2228598172092
 31
0.0
  0
LINE
  5
1FC61
330
18
100
AcDbEntity
  8
1
  6
CONTINUOUS
 62
     7
100
AcDbLine
 10
620.7574550726836
 20
136.2228598172092
 30
0.0
 11
620.7574550726836
 21
136.989166932764
 31
0.0
  0
LINE
  5
1FC62
330
18
100
AcDbEntity
  8
1
  6
CONTINUOUS
 62
     7
100
AcDbLine
 10
617.6824551740115
 20
136.2228598172092
 30
0.0
 11
617.6824551740115
 21
136.989166932764
 31
0.0
  0
LINE
  5
1FC63
330
18
100
AcDbEntity
  8
1
  6
CONTINUOUS
 62
     7
100
AcDbLine
 10
617.6824551740115
 20
137.3174236813807
 30
0.0
 11
617.6824551740115
 21
138.0837307969356
 31
0.0
  0
LINE
  5
1FC64
330
18
100
AcDbEntity
  8
1
  6
CONTINUOUS
 62
     7
100
AcDbLine
 10
620.7574550726836
 20
137.3174236813807
 30
0.0
 11
620.7574550726836
 21
138.0837307969356
 31
0.0
  0
LINE
  5
1FC65
330
18
100
AcDbEntity
  8
1
  6
CONTINUOUS
 62
     7
100
AcDbLine
 10
617.6824551740115
 20
137.2532956028604
 30
0.0
 11
617.6824551740115
 21
137.3174236813807
 31
0.0
  0
LINE
  5
1FC66
330
18
100
AcDbEntity
  8
1
  6
CONTINUOUS
 62
     7
100
AcDbLine
 10
620.7574550726836
 20
137.2532956028604
 30
0.0
 11
620.7574550726836
 21
137.3174236813807
 31
0.0
  0
LINE
  5
1FC67
330
18
100
AcDbEntity
  8
1
  6
CONTINUOUS
 62
     7
100
AcDbLine
 10
620.7574550726836
 20
136.989166932764
 30
0.0
 11
620.7574550726836
 21
137.0532950112843
 31
0.0
  0
LINE
  5
1FC68
330
18
100
AcDbEntity
  8
1
  6
CONTINUOUS
 62
     7
100
AcDbLine
 10
617.6824551740115
 20
136.989166932764
 30
0.0
 11
617.6824551740115
 21
137.0532950112843
 31
0.0
  0
LINE
  5
1FC69
330
18
100
AcDbEntity
  8
1
  6
CONTINUOUS
 62
     7
100
AcDbLine
 10
620.7574550726836
 20
137.2532956028604
 30
0.0
 11
620.7574550726836
 21
137.0532950112843
 31
0.0
  0
LINE
  5
1FC6A
330
18
100
AcDbEntity
  8
1
  6
CONTINUOUS
 62
     7
100
AcDbLine
 10
620.5074564286892
 20
137.2532956028604
 30
0.0
 11
620.5074564286892
 21
137.0532950112843
 31
0.0
  0
ARC
  5
1FC6B
330
18
100
AcDbEntity
  8
1
  6
CONTINUOUS
 62
     7
100
AcDbCircle
 10
619.1762114425371
 20
136.7743299462824
 30
0.0
 40
0.8925453022400066
100
AcDbArc
 50
249.0486665382987
 51
272.8091938086116
  0
LINE
  5
1FC6C
330
18
100
AcDbEntity
  8
1
  6
CONTINUOUS
 62
     7
100
AcDbLine
 10
618.8199558028405
 20
135.8657953987145
 30
0.0
 11
618.8199558028405
 21
135.9407957369709
 31
0.0
  0
ARC
  5
1FC6D
330
18
100
AcDbEntity
  8
1
  6
CONTINUOUS
 62
     7
100
AcDbCircle
 10
619.2636994712466
 20
136.7743257680009
 30
0.0
 40
0.8925411616740975
100
AcDbArc
 50
267.1907502742647
 51
290.9513893788134
  0
LINE
  5
1FC6E
330
18
100
AcDbEntity
  8
1
  6
CONTINUOUS
 62
     7
100
AcDbLine
 10
619.6199563064997
 20
135.9407957369709
 30
0.0
 11
619.6199563064997
 21
135.8657953987145
 31
0.0
  0
LINE
  5
1FC6F
330
18
100
AcDbEntity
  8
1
  6
CONTINUOUS
 62
     7
100
AcDbLine
 10
618.6449547031348
 20
135.9407957369709
 30
0.0
 11
618.8199558028405
 21
135.9118818963194
 31
0.0
  0
LINE
  5
1FC70
330
18
100
AcDbEntity
  8
1
  6
CONTINUOUS
 62
     7
100
AcDbLine
 10
619.6199563064997
 20
135.9118818963194
 30
0.0
 11
619.7949555435603
 21
135.9407957369709
 31
0.0
  0
LINE
  5
1FC71
330
18
100
AcDbEntity
  8
1
  6
CONTINUOUS
 62
     7
100
AcDbLine
 10
630.8824555681472
 20
144.4157953100526
 30
0.0
 11
633.9574554668193
 21
144.4157953100526
 31
0.0
  0
LINE
  5
1FC72
330
18
100
AcDbEntity
  8
1
  6
CONTINUOUS
 62
     7
100
AcDbLine
 10
630.8824555681472
 20
144.4157953100526
 30
0.0
 11
630.8824555681472
 21
144.6657953510308
 31
0.0
  0
LINE
  5
1FC73
330
18
100
AcDbEntity
  8
1
  6
CONTINUOUS
 62
     7
100
AcDbLine
 10
630.8824555681472
 20
144.6657953510308
 30
0.0
 11
633.9574554668193
 21
144.6657953510308
 31
0.0
  0
LINE
  5
1FC74
330
18
100
AcDbEntity
  8
1
  6
CONTINUOUS
 62
     7
100
AcDbLine
 10
633.9574554668193
 20
144.4157953100526
 30
0.0
 11
633.9574554668193
 21
144.6657953510308
 31
0.0
  0
LINE
  5
1FC75
330
18
100
AcDbEntity
  8
1
  6
CONTINUOUS
 62
     7
100
AcDbLine
 10
630.8824555681472
 20
142.2407952795052
 30
0.0
 11
633.9574554668193
 21
142.2407952795052
 31
0.0
  0
LINE
  5
1FC76
330
18
100
AcDbEntity
  8
1
  6
CONTINUOUS
 62
     7
100
AcDbLine
 10
630.8824555681472
 20
142.2407952795052
 30
0.0
 11
630.8824555681472
 21
142.4907953204834
 31
0.0
  0
LINE
  5
1FC77
330
18
100
AcDbEntity
  8
1
  6
CONTINUOUS
 62
     7
100
AcDbLine
 10
630.8824555681472
 20
142.4907953204834
 30
0.0
 11
633.9574554668193
 21
142.4907953204834
 31
0.0
  0
LINE
  5
1FC78
330
18
100
AcDbEntity
  8
1
  6
CONTINUOUS
 62
     7
100
AcDbLine
 10
633.9574554668193
 20
142.2407952795052
 30
0.0
 11
633.9574554668193
 21
142.4907953204834
 31
0.0
  0
LINE
  5
1FC79
330
18
100
AcDbEntity
  8
1
  6
CONTINUOUS
 62
     7
100
AcDbLine
 10
630.8824555681472
 20
142.4907953204834
 30
0.0
 11
630.8824555681472
 21
142.5228598254049
 31
0.0
  0
LINE
  5
1FC7A
330
18
100
AcDbEntity
  8
1
  6
CONTINUOUS
 62
     7
100
AcDbLine
 10
633.9574554668193
 20
142.4907953204834
 30
0.0
 11
633.9574554668193
 21
142.5228598254049
 31
0.0
  0
LINE
  5
1FC7B
330
18
100
AcDbEntity
  8
1
  6
CONTINUOUS
 62
     7
100
AcDbLine
 10
633.9574554668193
 20
144.3837310379618
 30
0.0
 11
633.9574554668193
 21
144.4157953100526
 31
0.0
  0
LINE
  5
1FC7C
330
18
100
AcDbEntity
  8
1
  6
CONTINUOUS
 62
     7
100
AcDbLine
 10
630.8824555681472
 20
144.3837310379618
 30
0.0
 11
630.8824555681472
 21
144.4157953100526
 31
0.0
  0
LINE
  5
1FC7D
330
18
100
AcDbEntity
  8
1
  6
CONTINUOUS
 62
     7
100
AcDbLine
 10
630.8824555681472
 20
142.5228598254049
 30
0.0
 11
630.8824555681472
 21
143.289166708129
 31
0.0
  0
LINE
  5
1FC7E
330
18
100
AcDbEntity
  8
1
  6
CONTINUOUS
 62
     7
100
AcDbLine
 10
633.9574554668193
 20
142.5228598254049
 30
0.0
 11
633.9574554668193
 21
143.289166708129
 31
0.0
  0
LINE
  5
1FC7F
330
18
100
AcDbEntity
  8
1
  6
CONTINUOUS
 62
     7
100
AcDbLine
 10
633.9574554668193
 20
143.6174241552377
 30
0.0
 11
633.9574554668193
 21
144.3837310379618
 31
0.0
  0
LINE
  5
1FC80
330
18
100
AcDbEntity
  8
1
  6
CONTINUOUS
 62
     7
100
AcDbLine
 10
630.8824555681472
 20
143.6174241552377
 30
0.0
 11
630.8824555681472
 21
144.3837310379618
 31
0.0
  0
LINE
  5
1FC81
330
18
100
AcDbEntity
  8
1
  6
CONTINUOUS
 62
     7
100
AcDbLine
 10
633.9574554668193
 20
143.5532953782254
 30
0.0
 11
633.9574554668193
 21
143.6174241552377
 31
0.0
  0
LINE
  5
1FC82
330
18
100
AcDbEntity
  8
1
  6
CONTINUOUS
 62
     7
100
AcDbLine
 10
630.8824555681472
 20
143.5532953782254
 30
0.0
 11
630.8824555681472
 21
143.6174241552377
 31
0.0
  0
LINE
  5
1FC83
330
18
100
AcDbEntity
  8
1
  6
CONTINUOUS
 62
     7
100
AcDbLine
 10
630.8824555681472
 20
143.289166708129
 30
0.0
 11
630.8824555681472
 21
143.3532954851413
 31
0.0
  0
LINE
  5
1FC84
330
18
100
AcDbEntity
  8
1
  6
CONTINUOUS
 62
     7
100
AcDbLine
 10
633.9574554668193
 20
143.289166708129
 30
0.0
 11
633.9574554668193
 21
143.3532954851413
 31
0.0
  0
LINE
  5
1FC85
330
18
100
AcDbEntity
  8
1
  6
CONTINUOUS
 62
     7
100
AcDbLine
 10
633.7074556586717
 20
143.5532953782254
 30
0.0
 11
633.7074556586717
 21
143.3532954851413
 31
0.0
  0
LINE
  5
1FC86
330
18
100
AcDbEntity
  8
1
  6
CONTINUOUS
 62
     7
100
AcDbLine
 10
633.9574554668193
 20
143.5532953782254
 30
0.0
 11
633.9574554668193
 21
143.3532954851413
 31
0.0
  0
ARC
  5
1FC87
330
18
100
AcDbEntity
  8
1
  6
CONTINUOUS
 62
     7
100
AcDbCircle
 10
632.376216257915
 20
143.0743597461948
 30
0.0
 40
0.8925753065916124
100
AcDbArc
 50
249.0490680867819
 51
272.8088151527342
  0
ARC
  5
1FC88
330
18
100
AcDbEntity
  8
1
  6
CONTINUOUS
 62
     7
100
AcDbCircle
 10
632.4636947770515
 20
143.0743597461948
 30
0.0
 40
0.8925753065916188
100
AcDbArc
 50
267.1911848472658
 51
290.9509319132181
  0
LINE
  5
1FC89
330
18
100
AcDbEntity
  8
1
  6
CONTINUOUS
 62
     7
100
AcDbLine
 10
632.8199557693129
 20
142.2407952795052
 30
0.0
 11
632.8199557693129
 21
142.1657954069102
 31
0.0
  0
LINE
  5
1FC8A
330
18
100
AcDbEntity
  8
1
  6
CONTINUOUS
 62
     7
100
AcDbLine
 10
632.0199557313149
 20
142.1657954069102
 30
0.0
 11
632.0199557313149
 21
142.2407952795052
 31
0.0
  0
LINE
  5
1FC8B
330
18
100
AcDbEntity
  8
1
  6
CONTINUOUS
 62
     7
100
AcDbLine
 10
631.8449555629318
 20
142.2407952795052
 30
0.0
 11
632.0199557313149
 21
142.2118823701763
 31
0.0
  0
LINE
  5
1FC8C
330
18
100
AcDbEntity
  8
1
  6
CONTINUOUS
 62
     7
100
AcDbLine
 10
632.8199557693129
 20
142.2118823701763
 30
0.0
 11
632.9949554720347
 21
142.2407952795052
 31
0.0
  0
LINE
  5
1FCC5
330
18
100
AcDbEntity
  8
1
  6
CONTINUOUS
 62
     7
100
AcDbLine
 10
617.6824551740115
 20
148.5407954041162
 30
0.0
 11
617.6824551740115
 21
148.7907954450944
 31
0.0
  0
LINE
  5
1FCC6
330
18
100
AcDbEntity
  8
1
  6
CONTINUOUS
 62
     7
100
AcDbLine
 10
617.6824551740115
 20
148.7907954450944
 30
0.0
 11
620.7574550726836
 21
148.7907954450944
 31
0.0
  0
LINE
  5
1FCC7
330
18
100
AcDbEntity
  8
1
  6
CONTINUOUS
 62
     7
100
AcDbLine
 10
620.7574550726836
 20
148.5407954041162
 30
0.0
 11
620.7574550726836
 21
148.7907954450944
 31
0.0
  0
LINE
  5
1FCC8
330
18
100
AcDbEntity
  8
1
  6
CONTINUOUS
 62
     7
100
AcDbLine
 10
617.6824551740115
 20
148.5407954041162
 30
0.0
 11
620.7574550726836
 21
148.5407954041162
 31
0.0
  0
LINE
  5
1FCC9
330
18
100
AcDbEntity
  8
1
  6
CONTINUOUS
 62
     7
100
AcDbLine
 10
617.6824551740115
 20
150.7157953182483
 30
0.0
 11
620.7574550726836
 21
150.7157953182483
 31
0.0
  0
LINE
  5
1FCCA
330
18
100
AcDbEntity
  8
1
  6
CONTINUOUS
 62
     7
100
AcDbLine
 10
617.6824551740115
 20
150.9657953592265
 30
0.0
 11
620.7574550726836
 21
150.9657953592265
 31
0.0
  0
LINE
  5
1FCCB
330
18
100
AcDbEntity
  8
1
  6
CONTINUOUS
 62
     7
100
AcDbLine
 10
617.6824551740115
 20
150.7157953182483
 30
0.0
 11
617.6824551740115
 21
150.9657953592265
 31
0.0
  0
LINE
  5
1FCCC
330
18
100
AcDbEntity
  8
1
  6
CONTINUOUS
 62
     7
100
AcDbLine
 10
620.7574550726836
 20
150.7157953182483
 30
0.0
 11
620.7574550726836
 21
150.9657953592265
 31
0.0
  0
LINE
  5
1FCCD
330
18
100
AcDbEntity
  8
1
  6
CONTINUOUS
 62
     7
100
AcDbLine
 10
617.6824551740115
 20
148.7907954450944
 30
0.0
 11
617.6824551740115
 21
148.8228597171852
 31
0.0
  0
LINE
  5
1FCCE
330
18
100
AcDbEntity
  8
1
  6
CONTINUOUS
 62
     7
100
AcDbLine
 10
620.7574550726836
 20
148.7907954450944
 30
0.0
 11
620.7574550726836
 21
148.8228597171852
 31
0.0
  0
LINE
  5
1FCCF
330
18
100
AcDbEntity
  8
1
  6
CONTINUOUS
 62
     7
100
AcDbLine
 10
617.6824551740115
 20
150.6837310461575
 30
0.0
 11
617.6824551740115
 21
150.7157953182483
 31
0.0
  0
LINE
  5
1FCD0
330
18
100
AcDbEntity
  8
1
  6
CONTINUOUS
 62
     7
100
AcDbLine
 10
620.7574550726836
 20
150.6837310461575
 30
0.0
 11
620.7574550726836
 21
150.7157953182483
 31
0.0
  0
LINE
  5
1FCD1
330
18
100
AcDbEntity
  8
1
  6
CONTINUOUS
 62
     7
100
AcDbLine
 10
617.6824551740115
 20
148.8228597171852
 30
0.0
 11
617.6824551740115
 21
149.5891667163247
 31
0.0
  0
LINE
  5
1FCD2
330
18
100
AcDbEntity
  8
1
  6
CONTINUOUS
 62
     7
100
AcDbLine
 10
620.7574550726836
 20
148.8228597171852
 30
0.0
 11
620.7574550726836
 21
149.5891667163247
 31
0.0
  0
LINE
  5
1FCD3
330
18
100
AcDbEntity
  8
1
  6
CONTINUOUS
 62
     7
100
AcDbLine
 10
617.6824551740115
 20
149.9174241634333
 30
0.0
 11
617.6824551740115
 21
150.6837310461575
 31
0.0
  0
LINE
  5
1FCD4
330
18
100
AcDbEntity
  8
1
  6
CONTINUOUS
 62
     7
100
AcDbLine
 10
620.7574550726836
 20
149.9174241634333
 30
0.0
 11
620.7574550726836
 21
150.6837310461575
 31
0.0
  0
LINE
  5
1FCD5
330
18
100
AcDbEntity
  8
1
  6
CONTINUOUS
 62
     7
100
AcDbLine
 10
617.6824551740115
 20
149.8532953864211
 30
0.0
 11
617.6824551740115
 21
149.9174241634333
 31
0.0
  0
LINE
  5
1FCD6
330
18
100
AcDbEntity
  8
1
  6
CONTINUOUS
 62
     7
100
AcDbLine
 10
620.7574550726836
 20
149.8532953864211
 30
0.0
 11
620.7574550726836
 21
149.9174241634333
 31
0.0
  0
LINE
  5
1FCD7
330
18
100
AcDbEntity
  8
1
  6
CONTINUOUS
 62
     7
100
AcDbLine
 10
617.6824551740115
 20
149.5891667163247
 30
0.0
 11
617.6824551740115
 21
149.6532954933369
 31
0.0
  0
LINE
  5
1FCD8
330
18
100
AcDbEntity
  8
1
  6
CONTINUOUS
 62
     7
100
AcDbLine
 10
620.7574550726836
 20
149.5891667163247
 30
0.0
 11
620.7574550726836
 21
149.6532954933369
 31
0.0
  0
LINE
  5
1FCD9
330
18
100
AcDbEntity
  8
1
  6
CONTINUOUS
 62
     7
100
AcDbLine
 10
620.7574550726836
 20
149.8532953864211
 30
0.0
 11
620.7574550726836
 21
149.6532954933369
 31
0.0
  0
LINE
  5
1FCDA
330
18
100
AcDbEntity
  8
1
  6
CONTINUOUS
 62
     7
100
AcDbLine
 10
620.5074564286892
 20
149.8532953864211
 30
0.0
 11
620.5074564286892
 21
149.6532954933369
 31
0.0
  0
ARC
  5
1FCDB
330
18
100
AcDbEntity
  8
1
  6
CONTINUOUS
 62
     7
100
AcDbCircle
 10
619.1762141651915
 20
149.37434666666
 30
0.0
 40
0.8925622015488607
100
AcDbArc
 50
249.048894752973
 51
272.8089655939466
  0
ARC
  5
1FCDC
330
18
100
AcDbEntity
  8
1
  6
CONTINUOUS
 62
     7
100
AcDbCircle
 10
619.2636967486233
 20
149.3743424881836
 30
0.0
 40
0.8925580607863282
100
AcDbArc
 50
267.190978488444
 51
290.9511611646358
  0
LINE
  5
1FCDD
330
18
100
AcDbEntity
  8
1
  6
CONTINUOUS
 62
     7
100
AcDbLine
 10
618.8199558028405
 20
148.4657954151058
 30
0.0
 11
618.8199558028405
 21
148.5407954041162
 31
0.0
  0
LINE
  5
1FCDE
330
18
100
AcDbEntity
  8
1
  6
CONTINUOUS
 62
     7
100
AcDbLine
 10
619.6199563064997
 20
148.5407954041162
 30
0.0
 11
619.6199563064997
 21
148.4657954151058
 31
0.0
  0
LINE
  5
1FCDF
330
18
100
AcDbEntity
  8
1
  6
CONTINUOUS
 62
     7
100
AcDbLine
 10
618.6449547031348
 20
148.5407954041162
 30
0.0
 11
618.8199558028405
 21
148.511882378372
 31
0.0
  0
LINE
  5
1FCE0
330
18
100
AcDbEntity
  8
1
  6
CONTINUOUS
 62
     7
100
AcDbLine
 10
619.6199563064997
 20
148.511882378372
 30
0.0
 11
619.7949555435603
 21
148.5407954041162
 31
0.0
  0
LINE
  5
1FCE1
330
18
100
AcDbEntity
  8
1
  6
CONTINUOUS
 62
     7
100
AcDbLine
 10
617.6824551740115
 20
152.6407953078175
 30
0.0
 11
620.7574550726836
 21
152.6407953078175
 31
0.0
  0
LINE
  5
1FCE2
330
18
100
AcDbEntity
  8
1
  6
CONTINUOUS
 62
     7
100
AcDbLine
 10
617.6824551740115
 20
152.8907953487956
 30
0.0
 11
620.7574550726836
 21
152.8907953487956
 31
0.0
  0
LINE
  5
1FCE3
330
18
100
AcDbEntity
  8
1
  6
CONTINUOUS
 62
     7
100
AcDbLine
 10
620.7574550726836
 20
152.6407953078175
 30
0.0
 11
620.7574550726836
 21
152.8907953487956
 31
0.0
  0
LINE
  5
1FCE4
330
18
100
AcDbEntity
  8
1
  6
CONTINUOUS
 62
     7
100
AcDbLine
 10
617.6824551740115
 20
152.6407953078175
 30
0.0
 11
617.6824551740115
 21
152.8907953487956
 31
0.0
  0
LINE
  5
1FCE5
330
18
100
AcDbEntity
  8
1
  6
CONTINUOUS
 62
     7
100
AcDbLine
 10
617.6824551740115
 20
154.8157958040261
 30
0.0
 11
620.7574550726836
 21
154.8157958040261
 31
0.0
  0
LINE
  5
1FCE6
330
18
100
AcDbEntity
  8
1
  6
CONTINUOUS
 62
     7
100
AcDbLine
 10
617.6824551740115
 20
154.8157958040261
 30
0.0
 11
617.6824551740115
 21
155.065795379343
 31
0.0
  0
LINE
  5
1FCE7
330
18
100
AcDbEntity
  8
1
  6
CONTINUOUS
 62
     7
100
AcDbLine
 10
617.6824551740115
 20
155.065795379343
 30
0.0
 11
620.7574550726836
 21
155.065795379343
 31
0.0
  0
LINE
  5
1FCE8
330
18
100
AcDbEntity
  8
1
  6
CONTINUOUS
 62
     7
100
AcDbLine
 10
620.7574550726836
 20
154.8157958040261
 30
0.0
 11
620.7574550726836
 21
155.065795379343
 31
0.0
  0
LINE
  5
1FCE9
330
18
100
AcDbEntity
  8
1
  6
CONTINUOUS
 62
     7
100
AcDbLine
 10
620.7574550726836
 20
154.7837312991047
 30
0.0
 11
620.7574550726836
 21
154.8157958040261
 31
0.0
  0
LINE
  5
1FCEA
330
18
100
AcDbEntity
  8
1
  6
CONTINUOUS
 62
     7
100
AcDbLine
 10
617.6824551740115
 20
154.7837312991047
 30
0.0
 11
617.6824551740115
 21
154.8157958040261
 31
0.0
  0
LINE
  5
1FCEB
330
18
100
AcDbEntity
  8
1
  6
CONTINUOUS
 62
     7
100
AcDbLine
 10
620.7574550726836
 20
152.8907953487956
 30
0.0
 11
620.7574550726836
 21
152.9228598537171
 31
0.0
  0
LINE
  5
1FCEC
330
18
100
AcDbEntity
  8
1
  6
CONTINUOUS
 62
     7
100
AcDbLine
 10
617.6824551740115
 20
152.8907953487956
 30
0.0
 11
617.6824551740115
 21
152.9228598537171
 31
0.0
  0
LINE
  5
1FCED
330
18
100
AcDbEntity
  8
1
  6
CONTINUOUS
 62
     7
100
AcDbLine
 10
620.7574550726836
 20
152.9228598537171
 30
0.0
 11
620.7574550726836
 21
153.6891669692719
 31
0.0
  0
LINE
  5
1FCEE
330
18
100
AcDbEntity
  8
1
  6
CONTINUOUS
 62
     7
100
AcDbLine
 10
617.6824551740115
 20
152.9228598537171
 30
0.0
 11
617.6824551740115
 21
153.6891669692719
 31
0.0
  0
LINE
  5
1FCEF
330
18
100
AcDbEntity
  8
1
  6
CONTINUOUS
 62
     7
100
AcDbLine
 10
620.7574550726836
 20
154.0174241835499
 30
0.0
 11
620.7574550726836
 21
154.7837312991047
 31
0.0
  0
LINE
  5
1FCF0
330
18
100
AcDbEntity
  8
1
  6
CONTINUOUS
 62
     7
100
AcDbLine
 10
617.6824551740115
 20
154.0174241835499
 30
0.0
 11
617.6824551740115
 21
154.7837312991047
 31
0.0
  0
LINE
  5
1FCF1
330
18
100
AcDbEntity
  8
1
  6
CONTINUOUS
 62
     7
100
AcDbLine
 10
620.7574550726836
 20
153.953295173707
 30
0.0
 11
620.7574550726836
 21
154.0174241835499
 31
0.0
  0
LINE
  5
1FCF2
330
18
100
AcDbEntity
  8
1
  6
CONTINUOUS
 62
     7
100
AcDbLine
 10
617.6824551740115
 20
153.953295173707
 30
0.0
 11
617.6824551740115
 21
154.0174241835499
 31
0.0
  0
LINE
  5
1FCF3
330
18
100
AcDbEntity
  8
1
  6
CONTINUOUS
 62
     7
100
AcDbLine
 10
620.7574550726836
 20
153.6891669692719
 30
0.0
 11
620.7574550726836
 21
153.7532955134535
 31
0.0
  0
LINE
  5
1FCF4
330
18
100
AcDbEntity
  8
1
  6
CONTINUOUS
 62
     7
100
AcDbLine
 10
617.6824551740115
 20
153.6891669692719
 30
0.0
 11
617.6824551740115
 21
153.7532955134535
 31
0.0
  0
LINE
  5
1FCF5
330
18
100
AcDbEntity
  8
1
  6
CONTINUOUS
 62
     7
100
AcDbLine
 10
620.5074564286892
 20
153.953295173707
 30
0.0
 11
620.5074564286892
 21
153.7532955134535
 31
0.0
  0
LINE
  5
1FCF6
330
18
100
AcDbEntity
  8
1
  6
CONTINUOUS
 62
     7
100
AcDbLine
 10
620.7574550726836
 20
153.953295173707
 30
0.0
 11
620.7574550726836
 21
153.7532955134535
 31
0.0
  0
ARC
  5
1FCF7
330
18
100
AcDbEntity
  8
1
  6
CONTINUOUS
 62
     7
100
AcDbCircle
 10
619.1762157149178
 20
153.4743562770075
 30
0.0
 40
0.8925718205887807
100
AcDbArc
 50
249.0490246481898
 51
272.8088356987336
  0
ARC
  5
1FCF8
330
18
100
AcDbEntity
  8
1
  6
CONTINUOUS
 62
     7
100
AcDbCircle
 10
619.263695198928
 20
153.4743520983362
 30
0.0
 40
0.8925676796310507
100
AcDbArc
 50
267.191108382259
 51
290.9510312708297
  0
LINE
  5
1FCF9
330
18
100
AcDbEntity
  8
1
  6
CONTINUOUS
 62
     7
100
AcDbLine
 10
619.6199563064997
 20
152.6407953078175
 30
0.0
 11
619.6199563064997
 21
152.5657954352224
 31
0.0
  0
LINE
  5
1FCFA
330
18
100
AcDbEntity
  8
1
  6
CONTINUOUS
 62
     7
100
AcDbLine
 10
618.8199558028405
 20
152.5657954352224
 30
0.0
 11
618.8199558028405
 21
152.6407953078175
 31
0.0
  0
LINE
  5
1FCFB
330
18
100
AcDbEntity
  8
1
  6
CONTINUOUS
 62
     7
100
AcDbLine
 10
618.6449547031348
 20
152.6407953078175
 30
0.0
 11
618.8199558028405
 21
152.6118823984885
 31
0.0
  0
LINE
  5
1FCFC
330
18
100
AcDbEntity
  8
1
  6
CONTINUOUS
 62
     7
100
AcDbLine
 10
619.6199563064997
 20
152.6118823984885
 30
0.0
 11
619.7949555435603
 21
152.6407953078175
 31
0.0
  0
LINE
  5
1FD19
330
18
100
AcDbEntity
  8
1
  6
CONTINUOUS
 62
     7
100
AcDbLine
 10
633.9574554668193
 20
154.8157958040261
 30
0.0
 11
633.9574554668193
 21
155.065795379343
 31
0.0
  0
LINE
  5
1FD1A
330
18
100
AcDbEntity
  8
1
  6
CONTINUOUS
 62
     7
100
AcDbLine
 10
630.8824555681472
 20
155.065795379343
 30
0.0
 11
633.9574554668193
 21
155.065795379343
 31
0.0
  0
LINE
  5
1FD1B
330
18
100
AcDbEntity
  8
1
  6
CONTINUOUS
 62
     7
100
AcDbLine
 10
630.8824555681472
 20
154.8157958040261
 30
0.0
 11
633.9574554668193
 21
154.8157958040261
 31
0.0
  0
LINE
  5
1FD1C
330
18
100
AcDbEntity
  8
1
  6
CONTINUOUS
 62
     7
100
AcDbLine
 10
630.8824555681472
 20
154.8157958040261
 30
0.0
 11
630.8824555681472
 21
155.065795379343
 31
0.0
  0
LINE
  5
1FD1D
330
18
100
AcDbEntity
  8
1
  6
CONTINUOUS
 62
     7
100
AcDbLine
 10
630.8824555681472
 20
152.8907953487956
 30
0.0
 11
633.9574554668193
 21
152.8907953487956
 31
0.0
  0
LINE
  5
1FD1E
330
18
100
AcDbEntity
  8
1
  6
CONTINUOUS
 62
     7
100
AcDbLine
 10
633.9574554668193
 20
152.6407953078175
 30
0.0
 11
633.9574554668193
 21
152.8907953487956
 31
0.0
  0
LINE
  5
1FD1F
330
18
100
AcDbEntity
  8
1
  6
CONTINUOUS
 62
     7
100
AcDbLine
 10
630.8824555681472
 20
152.6407953078175
 30
0.0
 11
633.9574554668193
 21
152.6407953078175
 31
0.0
  0
LINE
  5
1FD20
330
18
100
AcDbEntity
  8
1
  6
CONTINUOUS
 62
     7
100
AcDbLine
 10
630.8824555681472
 20
152.6407953078175
 30
0.0
 11
630.8824555681472
 21
152.8907953487956
 31
0.0
  0
LINE
  5
1FD21
330
18
100
AcDbEntity
  8
1
  6
CONTINUOUS
 62
     7
100
AcDbLine
 10
633.9574554668193
 20
152.8907953487956
 30
0.0
 11
633.9574554668193
 21
152.9228598537171
 31
0.0
  0
LINE
  5
1FD22
330
18
100
AcDbEntity
  8
1
  6
CONTINUOUS
 62
     7
100
AcDbLine
 10
630.8824555681472
 20
152.8907953487956
 30
0.0
 11
630.8824555681472
 21
152.9228598537171
 31
0.0
  0
LINE
  5
1FD23
330
18
100
AcDbEntity
  8
1
  6
CONTINUOUS
 62
     7
100
AcDbLine
 10
633.9574554668193
 20
154.7837312991047
 30
0.0
 11
633.9574554668193
 21
154.8157958040261
 31
0.0
  0
LINE
  5
1FD24
330
18
100
AcDbEntity
  8
1
  6
CONTINUOUS
 62
     7
100
AcDbLine
 10
630.8824555681472
 20
154.7837312991047
 30
0.0
 11
630.8824555681472
 21
154.8157958040261
 31
0.0
  0
LINE
  5
1FD25
330
18
100
AcDbEntity
  8
1
  6
CONTINUOUS
 62
     7
100
AcDbLine
 10
633.9574554668193
 20
152.9228598537171
 30
0.0
 11
633.9574554668193
 21
153.6891669692719
 31
0.0
  0
LINE
  5
1FD26
330
18
100
AcDbEntity
  8
1
  6
CONTINUOUS
 62
     7
100
AcDbLine
 10
630.8824555681472
 20
152.9228598537171
 30
0.0
 11
630.8824555681472
 21
153.6891669692719
 31
0.0
  0
LINE
  5
1FD27
330
18
100
AcDbEntity
  8
1
  6
CONTINUOUS
 62
     7
100
AcDbLine
 10
633.9574554668193
 20
154.0174241835499
 30
0.0
 11
633.9574554668193
 21
154.7837312991047
 31
0.0
  0
LINE
  5
1FD28
330
18
100
AcDbEntity
  8
1
  6
CONTINUOUS
 62
     7
100
AcDbLine
 10
630.8824555681472
 20
154.0174241835499
 30
0.0
 11
630.8824555681472
 21
154.7837312991047
 31
0.0
  0
LINE
  5
1FD29
330
18
100
AcDbEntity
  8
1
  6
CONTINUOUS
 62
     7
100
AcDbLine
 10
633.9574554668193
 20
153.953295173707
 30
0.0
 11
633.9574554668193
 21
154.0174241835499
 31
0.0
  0
LINE
  5
1FD2A
330
18
100
AcDbEntity
  8
1
  6
CONTINUOUS
 62
     7
100
AcDbLine
 10
630.8824555681472
 20
153.953295173707
 30
0.0
 11
630.8824555681472
 21
154.0174241835499
 31
0.0
  0
LINE
  5
1FD2B
330
18
100
AcDbEntity
  8
1
  6
CONTINUOUS
 62
     7
100
AcDbLine
 10
633.9574554668193
 20
153.6891669692719
 30
0.0
 11
633.9574554668193
 21
153.7532955134535
 31
0.0
  0
LINE
  5
1FD2C
330
18
100
AcDbEntity
  8
1
  6
CONTINUOUS
 62
     7
100
AcDbLine
 10
630.8824555681472
 20
153.6891669692719
 30
0.0
 11
630.8824555681472
 21
153.7532955134535
 31
0.0
  0
LINE
  5
1FD2D
330
18
100
AcDbEntity
  8
1
  6
CONTINUOUS
 62
     7
100
AcDbLine
 10
633.9574554668193
 20
153.953295173707
 30
0.0
 11
633.9574554668193
 21
153.7532955134535
 31
0.0
  0
LINE
  5
1FD2E
330
18
100
AcDbEntity
  8
1
  6
CONTINUOUS
 62
     7
100
AcDbLine
 10
633.7074556586717
 20
153.953295173707
 30
0.0
 11
633.7074556586717
 21
153.7532955134535
 31
0.0
  0
ARC
  5
1FD2F
330
18
100
AcDbEntity
  8
1
  6
CONTINUOUS
 62
     7
100
AcDbCircle
 10
632.376216257915
 20
153.474359774507
 30
0.0
 40
0.8925753065916124
100
AcDbArc
 50
249.0490680867819
 51
272.8088151527342
  0
ARC
  5
1FD30
330
18
100
AcDbEntity
  8
1
  6
CONTINUOUS
 62
     7
100
AcDbCircle
 10
632.4636947770515
 20
153.474359774507
 30
0.0
 40
0.8925753065916188
100
AcDbArc
 50
267.1911848472658
 51
290.9509319132181
  0
LINE
  5
1FD31
330
18
100
AcDbEntity
  8
1
  6
CONTINUOUS
 62
     7
100
AcDbLine
 10
632.0199557313149
 20
152.5657954352224
 30
0.0
 11
632.0199557313149
 21
152.6407953078175
 31
0.0
  0
LINE
  5
1FD32
330
18
100
AcDbEntity
  8
1
  6
CONTINUOUS
 62
     7
100
AcDbLine
 10
632.8199557693129
 20
152.6407953078175
 30
0.0
 11
632.8199557693129
 21
152.5657954352224
 31
0.0
  0
LINE
  5
1FD33
330
18
100
AcDbEntity
  8
1
  6
CONTINUOUS
 62
     7
100
AcDbLine
 10
631.8449555629318
 20
152.6407953078175
 30
0.0
 11
632.0199557313149
 21
152.6118823984885
 31
0.0
  0
LINE
  5
1FD34
330
18
100
AcDbEntity
  8
1
  6
CONTINUOUS
 62
     7
100
AcDbLine
 10
632.8199557693129
 20
152.6118823984885
 30
0.0
 11
632.9949554720347
 21
152.6407953078175
 31
0.0
  0
LINE
  5
1FD35
330
18
100
AcDbEntity
  8
1
  6
CONTINUOUS
 62
     7
100
AcDbLine
 10
630.8824555681472
 20
148.5407954041162
 30
0.0
 11
630.8824555681472
 21
148.7907954450944
 31
0.0
  0
LINE
  5
1FD36
330
18
100
AcDbEntity
  8
1
  6
CONTINUOUS
 62
     7
100
AcDbLine
 10
630.8824555681472
 20
148.7907954450944
 30
0.0
 11
633.9574554668193
 21
148.7907954450944
 31
0.0
  0
LINE
  5
1FD37
330
18
100
AcDbEntity
  8
1
  6
CONTINUOUS
 62
     7
100
AcDbLine
 10
633.9574554668193
 20
148.5407954041162
 30
0.0
 11
633.9574554668193
 21
148.7907954450944
 31
0.0
  0
LINE
  5
1FD38
330
18
100
AcDbEntity
  8
1
  6
CONTINUOUS
 62
     7
100
AcDbLine
 10
630.8824555681472
 20
148.5407954041162
 30
0.0
 11
633.9574554668193
 21
148.5407954041162
 31
0.0
  0
LINE
  5
1FD39
330
18
100
AcDbEntity
  8
1
  6
CONTINUOUS
 62
     7
100
AcDbLine
 10
630.8824555681472
 20
150.9657953592265
 30
0.0
 11
633.9574554668193
 21
150.9657953592265
 31
0.0
  0
LINE
  5
1FD3A
330
18
100
AcDbEntity
  8
1
  6
CONTINUOUS
 62
     7
100
AcDbLine
 10
630.8824555681472
 20
150.7157953182483
 30
0.0
 11
633.9574554668193
 21
150.7157953182483
 31
0.0
  0
LINE
  5
1FD3B
330
18
100
AcDbEntity
  8
1
  6
CONTINUOUS
 62
     7
100
AcDbLine
 10
630.8824555681472
 20
150.7157953182483
 30
0.0
 11
630.8824555681472
 21
150.9657953592265
 31
0.0
  0
LINE
  5
1FD3C
330
18
100
AcDbEntity
  8
1
  6
CONTINUOUS
 62
     7
100
AcDbLine
 10
633.9574554668193
 20
150.7157953182483
 30
0.0
 11
633.9574554668193
 21
150.9657953592265
 31
0.0
  0
LINE
  5
1FD3D
330
18
100
AcDbEntity
  8
1
  6
CONTINUOUS
 62
     7
100
AcDbLine
 10
633.9574554668193
 20
148.7907954450944
 30
0.0
 11
633.9574554668193
 21
148.8228597171852
 31
0.0
  0
LINE
  5
1FD3E
330
18
100
AcDbEntity
  8
1
  6
CONTINUOUS
 62
     7
100
AcDbLine
 10
630.8824555681472
 20
148.7907954450944
 30
0.0
 11
630.8824555681472
 21
148.8228597171852
 31
0.0
  0
LINE
  5
1FD3F
330
18
100
AcDbEntity
  8
1
  6
CONTINUOUS
 62
     7
100
AcDbLine
 10
630.8824555681472
 20
150.6837310461575
 30
0.0
 11
630.8824555681472
 21
150.7157953182483
 31
0.0
  0
LINE
  5
1FD40
330
18
100
AcDbEntity
  8
1
  6
CONTINUOUS
 62
     7
100
AcDbLine
 10
633.9574554668193
 20
150.6837310461575
 30
0.0
 11
633.9574554668193
 21
150.7157953182483
 31
0.0
  0
LINE
  5
1FD41
330
18
100
AcDbEntity
  8
1
  6
CONTINUOUS
 62
     7
100
AcDbLine
 10
633.9574554668193
 20
148.8228597171852
 30
0.0
 11
633.9574554668193
 21
149.5891667163247
 31
0.0
  0
LINE
  5
1FD42
330
18
100
AcDbEntity
  8
1
  6
CONTINUOUS
 62
     7
100
AcDbLine
 10
630.8824555681472
 20
148.8228597171852
 30
0.0
 11
630.8824555681472
 21
149.5891667163247
 31
0.0
  0
LINE
  5
1FD43
330
18
100
AcDbEntity
  8
1
  6
CONTINUOUS
 62
     7
100
AcDbLine
 10
630.8824555681472
 20
149.9174241634333
 30
0.0
 11
630.8824555681472
 21
150.6837310461575
 31
0.0
  0
LINE
  5
1FD44
330
18
100
AcDbEntity
  8
1
  6
CONTINUOUS
 62
     7
100
AcDbLine
 10
633.9574554668193
 20
149.9174241634333
 30
0.0
 11
633.9574554668193
 21
150.6837310461575
 31
0.0
  0
LINE
  5
1FD45
330
18
100
AcDbEntity
  8
1
  6
CONTINUOUS
 62
     7
100
AcDbLine
 10
630.8824555681472
 20
149.8532953864211
 30
0.0
 11
630.8824555681472
 21
149.9174241634333
 31
0.0
  0
LINE
  5
1FD46
330
18
100
AcDbEntity
  8
1
  6
CONTINUOUS
 62
     7
100
AcDbLine
 10
633.9574554668193
 20
149.8532953864211
 30
0.0
 11
633.9574554668193
 21
149.9174241634333
 31
0.0
  0
LINE
  5
1FD47
330
18
100
AcDbEntity
  8
1
  6
CONTINUOUS
 62
     7
100
AcDbLine
 10
633.9574554668193
 20
149.5891667163247
 30
0.0
 11
633.9574554668193
 21
149.6532954933369
 31
0.0
  0
LINE
  5
1FD48
330
18
100
AcDbEntity
  8
1
  6
CONTINUOUS
 62
     7
100
AcDbLine
 10
630.8824555681472
 20
149.5891667163247
 30
0.0
 11
630.8824555681472
 21
149.6532954933369
 31
0.0
  0
LINE
  5
1FD49
330
18
100
AcDbEntity
  8
1
  6
CONTINUOUS
 62
     7
100
AcDbLine
 10
633.9574554668193
 20
149.8532953864211
 30
0.0
 11
633.9574554668193
 21
149.6532954933369
 31
0.0
  0
LINE
  5
1FD4A
330
18
100
AcDbEntity
  8
1
  6
CONTINUOUS
 62
     7
100
AcDbLine
 10
633.7074556586717
 20
149.8532953864211
 30
0.0
 11
633.7074556586717
 21
149.6532954933369
 31
0.0
  0
ARC
  5
1FD4B
330
18
100
AcDbEntity
  8
1
  6
CONTINUOUS
 62
     7
100
AcDbCircle
 10
632.4636963267775
 20
149.3743501641494
 30
0.0
 40
0.8925656875409611
100
AcDbArc
 50
267.1910549527719
 51
290.9510618077089
  0
LINE
  5
1FD4C
330
18
100
AcDbEntity
  8
1
  6
CONTINUOUS
 62
     7
100
AcDbLine
 10
632.8199557693129
 20
148.5407954041162
 30
0.0
 11
632.8199557693129
 21
148.4657954151058
 31
0.0
  0
ARC
  5
1FD4D
330
18
100
AcDbEntity
  8
1
  6
CONTINUOUS
 62
     7
100
AcDbCircle
 10
632.3762147081891
 20
149.3743501641494
 30
0.0
 40
0.8925656875409789
100
AcDbArc
 50
249.0489381922843
 51
272.8089450472207
  0
LINE
  5
1FD4E
330
18
100
AcDbEntity
  8
1
  6
CONTINUOUS
 62
     7
100
AcDbLine
 10
632.0199557313149
 20
148.4657954151058
 30
0.0
 11
632.0199557313149
 21
148.5407954041162
 31
0.0
  0
LINE
  5
1FD4F
330
18
100
AcDbEntity
  8
1
  6
CONTINUOUS
 62
     7
100
AcDbLine
 10
631.8449555629318
 20
148.5407954041162
 30
0.0
 11
632.0199557313149
 21
148.511882378372
 31
0.0
  0
LINE
  5
1FD50
330
18
100
AcDbEntity
  8
1
  6
CONTINUOUS
 62
     7
100
AcDbLine
 10
632.8199557693129
 20
148.511882378372
 30
0.0
 11
632.9949554720347
 21
148.5407954041162
 31
0.0
  0
LINE
  5
1FD89
330
18
100
AcDbEntity
  8
1
  6
CONTINUOUS
 62
     7
100
AcDbLine
 10
627.0751022466843
 20
130.490794750514
 30
0.0
 11
627.0751022466843
 21
129.7907959396267
 31
0.0
  0
LINE
  5
1FD8A
330
18
100
AcDbEntity
  8
1
  6
CONTINUOUS
 62
     7
100
AcDbLine
 10
624.5648088598077
 20
129.7907959396267
 30
0.0
 11
624.5648088598077
 21
130.490794750514
 31
0.0
  0
LINE
  5
1FD8B
330
18
100
AcDbEntity
  8
1
  6
CONTINUOUS
 62
     7
100
AcDbLine
 10
624.5648088598077
 20
158.6907952750349
 30
0.0
 11
624.5648088598077
 21
159.3907950172448
 31
0.0
  0
LINE
  5
1FD8C
330
18
100
AcDbEntity
  8
1
  6
CONTINUOUS
 62
     7
100
AcDbLine
 10
627.0751022466843
 20
159.3907950172448
 30
0.0
 11
627.0751022466843
 21
158.6907952750349
 31
0.0
  0
LINE
  5
1FD8D
330
18
100
AcDbEntity
  8
1
  6
CONTINUOUS
 62
     7
100
AcDbLine
 10
620.8949555375998
 20
152.5657954352224
 30
0.0
 11
620.8949555375998
 21
155.4157957161093
 31
0.0
  0
LINE
  5
1FD8E
330
18
100
AcDbEntity
  8
1
  6
CONTINUOUS
 62
     7
100
AcDbLine
 10
625.2949555137579
 20
152.5657954352224
 30
0.0
 11
625.2949555137579
 21
155.4157957161093
 31
0.0
  0
LINE
  5
1FD8F
330
18
100
AcDbEntity
  8
1
  6
CONTINUOUS
 62
     7
100
AcDbLine
 10
625.2949555137579
 20
155.4157957161093
 30
0.0
 11
621.944955616576
 21
155.4157957161093
 31
0.0
  0
LINE
  5
1FD90
330
18
100
AcDbEntity
  8
1
  6
CONTINUOUS
 62
     7
100
AcDbLine
 10
626.3449555927341
 20
152.5657954352224
 30
0.0
 11
629.6949554899161
 21
152.5657954352224
 31
0.0
  0
LINE
  5
1FD91
330
18
100
AcDbEntity
  8
1
  6
CONTINUOUS
 62
     7
100
AcDbLine
 10
629.6949554899161
 20
155.4157957161093
 30
0.0
 11
626.3449555927341
 21
155.4157957161093
 31
0.0
  0
LINE
  5
1FD92
330
18
100
AcDbEntity
  8
1
  6
CONTINUOUS
 62
     7
100
AcDbLine
 10
630.7449555688922
 20
155.4157957161093
 30
0.0
 11
630.7449555688922
 21
152.5657954352224
 31
0.0
  0
LINE
  5
1FD93
330
18
100
AcDbEntity
  8
1
  6
CONTINUOUS
 62
     7
100
AcDbLine
 10
630.7449555688922
 20
152.5657954352224
 30
0.0
 11
634.0949554660742
 21
152.5657954352224
 31
0.0
  0
LINE
  5
1FD94
330
18
100
AcDbEntity
  8
1
  6
CONTINUOUS
 62
     7
100
AcDbLine
 10
634.0949554660742
 20
155.4157957161093
 30
0.0
 11
630.7449555688922
 21
155.4157957161093
 31
0.0
  0
LINE
  5
1FD95
330
18
100
AcDbEntity
  8
1
  6
CONTINUOUS
 62
     7
100
AcDbLine
 10
617.5449547090952
 20
142.1657954069102
 30
0.0
 11
620.8949555375998
 21
142.1657954069102
 31
0.0
  0
LINE
  5
1FD96
330
18
100
AcDbEntity
  8
1
  6
CONTINUOUS
 62
     7
100
AcDbLine
 10
620.8949555375998
 20
139.790795250448
 30
0.0
 11
620.8949555375998
 21
141.0907953704023
 31
0.0
  0
LINE
  5
1FD97
330
18
100
AcDbEntity
  8
1
  6
CONTINUOUS
 62
     7
100
AcDbLine
 10
620.8949555375998
 20
141.0907953704023
 30
0.0
 11
617.5449547090952
 21
141.0907953704023
 31
0.0
  0
LINE
  5
1FD98
330
18
100
AcDbEntity
  8
1
  6
CONTINUOUS
 62
     7
100
AcDbLine
 10
617.5449547090952
 20
141.0907953704023
 30
0.0
 11
617.5449547090952
 21
139.790795250448
 31
0.0
  0
LINE
  5
1FD99
330
18
100
AcDbEntity
  8
1
  6
CONTINUOUS
 62
     7
100
AcDbLine
 10
630.7449555688922
 20
139.790795250448
 30
0.0
 11
634.0949554660742
 21
139.790795250448
 31
0.0
  0
LINE
  5
1FD9A
330
18
100
AcDbEntity
  8
1
  6
CONTINUOUS
 62
     7
100
AcDbLine
 10
634.0949554660742
 20
139.790795250448
 30
0.0
 11
634.0949554660742
 21
141.0907953704023
 31
0.0
  0
LINE
  5
1FD9B
330
18
100
AcDbEntity
  8
1
  6
CONTINUOUS
 62
     7
100
AcDbLine
 10
630.7449555688922
 20
133.4657957503819
 30
0.0
 11
634.0949554660742
 21
133.4657957503819
 31
0.0
  0
LINE
  5
1FD9C
330
18
100
AcDbEntity
  8
1
  6
CONTINUOUS
 62
     7
100
AcDbLine
 10
634.0949554660742
 20
134.765795404675
 30
0.0
 11
630.7449555688922
 21
134.765795404675
 31
0.0
  0
LINE
  5
1FD9D
330
18
100
AcDbEntity
  8
1
  6
CONTINUOUS
 62
     7
100
AcDbLine
 10
634.0949554660742
 20
147.3907954077018
 30
0.0
 11
617.5449547090952
 21
147.3907954077018
 31
0.0
  0
LINE
  5
1FD9E
330
18
100
AcDbEntity
  8
1
  6
CONTINUOUS
 62
     7
100
AcDbLine
 10
617.5449547090952
 20
146.0907953750589
 30
0.0
 11
634.0949554660742
 21
146.0907953750589
 31
0.0
  0
LINE
  5
1FD9F
330
18
100
AcDbEntity
  8
1
  6
CONTINUOUS
 62
     7
100
AcDbLine
 10
617.5449547090952
 20
147.3907954077018
 30
0.0
 11
617.5449547090952
 21
146.0907953750589
 31
0.0
  0
LINE
  5
1FDA0
330
18
100
AcDbEntity
  8
1
  6
CONTINUOUS
 62
     7
100
AcDbLine
 10
616.0699558177416
 20
129.7907959396267
 30
0.0
 11
624.5648088598077
 21
129.7907959396267
 31
0.0
  0
LINE
  5
1FDA1
330
18
100
AcDbEntity
  8
1
  6
CONTINUOUS
 62
     7
100
AcDbLine
 10
630.7449555688922
 20
134.765795404675
 30
0.0
 11
630.7449555688922
 21
133.4657957503819
 31
0.0
  0
LINE
  5
1FDA2
330
18
100
AcDbEntity
  8
1
  6
CONTINUOUS
 62
     7
100
AcDbLine
 10
624.5648088598077
 20
130.490794750514
 30
0.0
 11
627.0751022466843
 21
130.490794750514
 31
0.0
  0
LINE
  5
1FDA3
330
18
100
AcDbEntity
  8
1
  6
CONTINUOUS
 62
     7
100
AcDbLine
 10
634.0949554660742
 20
133.4657957503819
 30
0.0
 11
634.0949554660742
 21
134.765795404675
 31
0.0
  0
LINE
  5
1FDA4
330
18
100
AcDbEntity
  8
1
  6
CONTINUOUS
 62
     7
100
AcDbLine
 10
630.7449555688922
 20
141.0907953704023
 30
0.0
 11
630.7449555688922
 21
139.790795250448
 31
0.0
  0
ARC
  5
1FDA5
330
18
100
AcDbEntity
  8
1
  6
CONTINUOUS
 62
     7
100
AcDbCircle
 10
635.5699555502333
 20
130.7907954018108
 30
0.0
 40
1.0
100
AcDbArc
 50
270.0
 51
0.0
  0
LINE
  5
1FDA6
330
18
100
AcDbEntity
  8
1
  6
CONTINUOUS
 62
     7
100
AcDbLine
 10
636.5699555545266
 20
130.7907961035395
 30
0.0
 11
636.5699555545266
 21
136.3907949725413
 31
0.0
  0
LINE
  5
1FDA7
330
18
100
AcDbEntity
  8
1
  6
CONTINUOUS
 62
     7
100
AcDbLine
 10
636.5699555545266
 20
140.4907954583192
 30
0.0
 11
636.5699555545266
 21
148.690795382137
 31
0.0
  0
LINE
  5
1FDA8
330
18
100
AcDbEntity
  8
1
  6
CONTINUOUS
 62
     7
100
AcDbLine
 10
636.5699555545266
 20
152.7907955186689
 30
0.0
 11
636.5699555545266
 21
158.3907957846546
 31
0.0
  0
ARC
  5
1FDA9
330
18
100
AcDbEntity
  8
1
  6
CONTINUOUS
 62
     7
100
AcDbCircle
 10
635.5699555502333
 20
158.3907954018108
 30
0.0
 40
1.0
100
AcDbArc
 50
0.0
 51
90.0
  0
LINE
  5
1FDAA
330
18
100
AcDbEntity
  8
1
  6
CONTINUOUS
 62
     7
100
AcDbLine
 10
635.569955521581
 20
159.3907950172448
 30
0.0
 11
627.0751022466843
 21
159.3907950172448
 31
0.0
  0
LINE
  5
1FDAB
330
18
100
AcDbEntity
  8
1
  6
CONTINUOUS
 62
     7
100
AcDbLine
 10
634.0949554660742
 20
141.0907953704023
 30
0.0
 11
630.7449555688922
 21
141.0907953704023
 31
0.0
  0
LINE
  5
1FDAC
330
18
100
AcDbEntity
  8
1
  6
CONTINUOUS
 62
     7
100
AcDbLine
 10
620.8949555375998
 20
155.4157957161093
 30
0.0
 11
617.5449547090952
 21
155.4157957161093
 31
0.0
  0
LINE
  5
1FDAD
330
18
100
AcDbEntity
  8
1
  6
CONTINUOUS
 62
     7
100
AcDbLine
 10
624.5648088598077
 20
159.3907950172448
 30
0.0
 11
616.0699558177416
 21
159.3907950172448
 31
0.0
  0
ARC
  5
1FDAE
330
18
100
AcDbEntity
  8
1
  6
CONTINUOUS
 62
     7
100
AcDbCircle
 10
616.0699555502333
 20
158.3907954018108
 30
0.0
 40
1.0
100
AcDbArc
 50
90.0
 51
180.0
  0
LINE
  5
1FDAF
330
18
100
AcDbEntity
  8
1
  6
CONTINUOUS
 62
     7
100
AcDbLine
 10
615.0699556538289
 20
158.3907957846546
 30
0.0
 11
615.0699556538289
 21
152.7907955186689
 31
0.0
  0
LINE
  5
1FDB0
330
18
100
AcDbEntity
  8
1
  6
CONTINUOUS
 62
     7
100
AcDbLine
 10
615.0699556538289
 20
148.690795382137
 30
0.0
 11
615.0699556538289
 21
140.4907954583192
 31
0.0
  0
LINE
  5
1FDB1
330
18
100
AcDbEntity
  8
1
  6
CONTINUOUS
 62
     7
100
AcDbLine
 10
615.0699556538289
 20
136.3907949725413
 30
0.0
 11
615.0699556538289
 21
130.7907961035395
 31
0.0
  0
ARC
  5
1FDB2
330
18
100
AcDbEntity
  8
1
  6
CONTINUOUS
 62
     7
100
AcDbCircle
 10
616.0699555502333
 20
130.7907954018108
 30
0.0
 40
1.0
100
AcDbArc
 50
180.0
 51
270.0
  0
LINE
  5
1FDB3
330
18
100
AcDbEntity
  8
1
  6
CONTINUOUS
 62
     7
100
AcDbLine
 10
627.0751022466843
 20
129.7907959396267
 30
0.0
 11
635.569955521581
 21
129.7907959396267
 31
0.0
  0
LINE
  5
1FDB4
330
18
100
AcDbEntity
  8
1
  6
CONTINUOUS
 62
     7
100
AcDbLine
 10
622.819955527169
 20
140.2907953324044
 30
0.0
 11
623.2199557789986
 21
133.7907956639552
 31
0.0
  0
LINE
  5
1FDB5
330
18
100
AcDbEntity
  8
1
  6
CONTINUOUS
 62
     7
100
AcDbLine
 10
620.8949555375998
 20
133.4657957503819
 30
0.0
 11
620.8949555375998
 21
134.765795404675
 31
0.0
  0
LINE
  5
1FDB6
330
18
100
AcDbEntity
  8
1
  6
CONTINUOUS
 62
     7
100
AcDbLine
 10
620.8949555375998
 20
134.765795404675
 30
0.0
 11
617.5449547090952
 21
134.765795404675
 31
0.0
  0
LINE
  5
1FDB7
330
18
100
AcDbEntity
  8
1
  6
CONTINUOUS
 62
     7
100
AcDbLine
 10
617.5449547090952
 20
134.765795404675
 30
0.0
 11
617.5449547090952
 21
133.4657957503819
 31
0.0
  0
LINE
  5
1FDB8
330
18
100
AcDbEntity
  8
1
  6
CONTINUOUS
 62
     7
100
AcDbLine
 10
634.0949554660742
 20
151.3157952303314
 30
0.0
 11
630.7449555688922
 21
151.3157952303314
 31
0.0
  0
LINE
  5
1FDB9
330
18
100
AcDbEntity
  8
1
  6
CONTINUOUS
 62
     7
100
AcDbLine
 10
630.7449555688922
 20
151.3157952303314
 30
0.0
 11
630.7449555688922
 21
148.4657954151058
 31
0.0
  0
LINE
  5
1FDBA
330
18
100
AcDbEntity
  8
1
  6
CONTINUOUS
 62
     7
100
AcDbLine
 10
630.7449555688922
 20
148.4657954151058
 30
0.0
 11
634.0949554660742
 21
148.4657954151058
 31
0.0
  0
LINE
  5
1FDBB
330
18
100
AcDbEntity
  8
1
  6
CONTINUOUS
 62
     7
100
AcDbLine
 10
634.0949554660742
 20
148.4657954151058
 30
0.0
 11
634.0949554660742
 21
151.3157952303314
 31
0.0
  0
LINE
  5
1FDBC
330
18
100
AcDbEntity
  8
1
  6
CONTINUOUS
 62
     7
100
AcDbLine
 10
626.3449555927341
 20
155.4157957161093
 30
0.0
 11
626.3449555927341
 21
152.5657954352224
 31
0.0
  0
LINE
  5
1FDBD
330
18
100
AcDbEntity
  8
1
  6
CONTINUOUS
 62
     7
100
AcDbLine
 10
620.8949555375998
 20
145.0157954549664
 30
0.0
 11
617.5449547090952
 21
145.0157954549664
 31
0.0
  0
LINE
  5
1FDBE
330
18
100
AcDbEntity
  8
1
  6
CONTINUOUS
 62
     7
100
AcDbLine
 10
617.5449547090952
 20
145.0157954549664
 30
0.0
 11
617.5449547090952
 21
142.1657954069102
 31
0.0
  0
LINE
  5
1FDBF
330
18
100
AcDbEntity
  8
1
  6
CONTINUOUS
 62
     7
100
AcDbLine
 10
627.0751022466843
 20
158.6907952750349
 30
0.0
 11
624.5648088598077
 21
158.6907952750349
 31
0.0
  0
LINE
  5
1FDC0
330
18
100
AcDbEntity
  8
1
  6
CONTINUOUS
 62
     7
100
AcDbLine
 10
620.8949555375998
 20
142.1657954069102
 30
0.0
 11
620.8949555375998
 21
145.0157954549664
 31
0.0
  0
LINE
  5
1FDC1
330
18
100
AcDbEntity
  8
1
  6
CONTINUOUS
 62
     7
100
AcDbLine
 10
621.944955616576
 20
155.4157957161093
 30
0.0
 11
621.944955616576
 21
152.5657954352224
 31
0.0
  0
LINE
  5
1FDC2
330
18
100
AcDbEntity
  8
1
  6
CONTINUOUS
 62
     7
100
AcDbLine
 10
625.2949555137579
 20
145.0157954549664
 30
0.0
 11
621.944955616576
 21
145.0157954549664
 31
0.0
  0
LINE
  5
1FDC3
330
18
100
AcDbEntity
  8
1
  6
CONTINUOUS
 62
     7
100
AcDbLine
 10
621.944955616576
 20
145.0157954549664
 30
0.0
 11
621.944955616576
 21
142.1657954069102
 31
0.0
  0
LINE
  5
1FDC4
330
18
100
AcDbEntity
  8
1
  6
CONTINUOUS
 62
     7
100
AcDbLine
 10
621.944955616576
 20
142.1657954069102
 30
0.0
 11
625.2949555137579
 21
142.1657954069102
 31
0.0
  0
LINE
  5
1FDC5
330
18
100
AcDbEntity
  8
1
  6
CONTINUOUS
 62
     7
100
AcDbLine
 10
625.2949555137579
 20
142.1657954069102
 30
0.0
 11
625.2949555137579
 21
145.0157954549664
 31
0.0
  0
LINE
  5
1FDC6
330
18
100
AcDbEntity
  8
1
  6
CONTINUOUS
 62
     7
100
AcDbLine
 10
629.6949554899161
 20
145.0157954549664
 30
0.0
 11
626.3449555927341
 21
145.0157954549664
 31
0.0
  0
LINE
  5
1FDC7
330
18
100
AcDbEntity
  8
1
  6
CONTINUOUS
 62
     7
100
AcDbLine
 10
626.3449555927341
 20
145.0157954549664
 30
0.0
 11
626.3449555927341
 21
142.1657954069102
 31
0.0
  0
LINE
  5
1FDC8
330
18
100
AcDbEntity
  8
1
  6
CONTINUOUS
 62
     7
100
AcDbLine
 10
626.3449555927341
 20
142.1657954069102
 30
0.0
 11
629.6949554899161
 21
142.1657954069102
 31
0.0
  0
LINE
  5
1FDC9
330
18
100
AcDbEntity
  8
1
  6
CONTINUOUS
 62
     7
100
AcDbLine
 10
629.6949554899161
 20
142.1657954069102
 30
0.0
 11
629.6949554899161
 21
145.0157954549664
 31
0.0
  0
LINE
  5
1FDCA
330
18
100
AcDbEntity
  8
1
  6
CONTINUOUS
 62
     7
100
AcDbLine
 10
617.5449547090952
 20
133.4657957503819
 30
0.0
 11
620.8949555375998
 21
133.4657957503819
 31
0.0
  0
LINE
  5
1FDCB
330
18
100
AcDbEntity
  8
1
  6
CONTINUOUS
 62
     7
100
AcDbLine
 10
630.7449555688922
 20
145.0157954549664
 30
0.0
 11
630.7449555688922
 21
142.1657954069102
 31
0.0
  0
LINE
  5
1FDCC
330
18
100
AcDbEntity
  8
1
  6
CONTINUOUS
 62
     7
100
AcDbLine
 10
630.7449555688922
 20
142.1657954069102
 30
0.0
 11
634.0949554660742
 21
142.1657954069102
 31
0.0
  0
LINE
  5
1FDCD
330
18
100
AcDbEntity
  8
1
  6
CONTINUOUS
 62
     7
100
AcDbLine
 10
634.0949554660742
 20
142.1657954069102
 30
0.0
 11
634.0949554660742
 21
145.0157954549664
 31
0.0
  0
LINE
  5
1FDCE
330
18
100
AcDbEntity
  8
1
  6
CONTINUOUS
 62
     7
100
AcDbLine
 10
634.0949554660742
 20
146.0907953750589
 30
0.0
 11
634.0949554660742
 21
147.3907954077018
 31
0.0
  0
LINE
  5
1FDCF
330
18
100
AcDbEntity
  8
1
  6
CONTINUOUS
 62
     7
100
AcDbLine
 10
620.8949555375998
 20
138.7157952139401
 30
0.0
 11
617.5449547090952
 21
138.7157952139401
 31
0.0
  0
LINE
  5
1FDD0
330
18
100
AcDbEntity
  8
1
  6
CONTINUOUS
 62
     7
100
AcDbLine
 10
617.5449547090952
 20
138.7157952139401
 30
0.0
 11
617.5449547090952
 21
135.8657953987145
 31
0.0
  0
LINE
  5
1FDD1
330
18
100
AcDbEntity
  8
1
  6
CONTINUOUS
 62
     7
100
AcDbLine
 10
617.5449547090952
 20
135.8657953987145
 30
0.0
 11
620.8949555375998
 21
135.8657953987145
 31
0.0
  0
LINE
  5
1FDD2
330
18
100
AcDbEntity
  8
1
  6
CONTINUOUS
 62
     7
100
AcDbLine
 10
620.8949555375998
 20
135.8657953987145
 30
0.0
 11
620.8949555375998
 21
138.7157952139401
 31
0.0
  0
LINE
  5
1FDD3
330
18
100
AcDbEntity
  8
1
  6
CONTINUOUS
 62
     7
100
AcDbLine
 10
634.0949554660742
 20
138.7157952139401
 30
0.0
 11
630.7449555688922
 21
138.7157952139401
 31
0.0
  0
LINE
  5
1FDD4
330
18
100
AcDbEntity
  8
1
  6
CONTINUOUS
 62
     7
100
AcDbLine
 10
630.7449555688922
 20
138.7157952139401
 30
0.0
 11
630.7449555688922
 21
135.8657953987145
 31
0.0
  0
LINE
  5
1FDD5
330
18
100
AcDbEntity
  8
1
  6
CONTINUOUS
 62
     7
100
AcDbLine
 10
630.7449555688922
 20
135.8657953987145
 30
0.0
 11
634.0949554660742
 21
135.8657953987145
 31
0.0
  0
LINE
  5
1FDD6
330
18
100
AcDbEntity
  8
1
  6
CONTINUOUS
 62
     7
100
AcDbLine
 10
634.0949554660742
 20
135.8657953987145
 30
0.0
 11
634.0949554660742
 21
138.7157952139401
 31
0.0
  0
LINE
  5
1FDD7
330
18
100
AcDbEntity
  8
1
  6
CONTINUOUS
 62
     7
100
AcDbLine
 10
629.6949554899161
 20
151.3157952303314
 30
0.0
 11
626.3449555927341
 21
151.3157952303314
 31
0.0
  0
LINE
  5
1FDD8
330
18
100
AcDbEntity
  8
1
  6
CONTINUOUS
 62
     7
100
AcDbLine
 10
626.3449555927341
 20
151.3157952303314
 30
0.0
 11
626.3449555927341
 21
148.4657954151058
 31
0.0
  0
LINE
  5
1FDD9
330
18
100
AcDbEntity
  8
1
  6
CONTINUOUS
 62
     7
100
AcDbLine
 10
626.3449555927341
 20
148.4657954151058
 30
0.0
 11
629.6949554899161
 21
148.4657954151058
 31
0.0
  0
LINE
  5
1FDDA
330
18
100
AcDbEntity
  8
1
  6
CONTINUOUS
 62
     7
100
AcDbLine
 10
629.6949554899161
 20
148.4657954151058
 30
0.0
 11
629.6949554899161
 21
151.3157952303314
 31
0.0
  0
LINE
  5
1FDDB
330
18
100
AcDbEntity
  8
1
  6
CONTINUOUS
 62
     7
100
AcDbLine
 10
617.5449547090952
 20
139.790795250448
 30
0.0
 11
620.8949555375998
 21
139.790795250448
 31
0.0
  0
LINE
  5
1FDDC
330
18
100
AcDbEntity
  8
1
  6
CONTINUOUS
 62
     7
100
AcDbLine
 10
625.2949555137579
 20
151.3157952303314
 30
0.0
 11
621.944955616576
 21
151.3157952303314
 31
0.0
  0
LINE
  5
1FDDD
330
18
100
AcDbEntity
  8
1
  6
CONTINUOUS
 62
     7
100
AcDbLine
 10
621.944955616576
 20
151.3157952303314
 30
0.0
 11
621.944955616576
 21
148.4657954151058
 31
0.0
  0
LINE
  5
1FDDE
330
18
100
AcDbEntity
  8
1
  6
CONTINUOUS
 62
     7
100
AcDbLine
 10
621.944955616576
 20
148.4657954151058
 30
0.0
 11
625.2949555137579
 21
148.4657954151058
 31
0.0
  0
LINE
  5
1FDDF
330
18
100
AcDbEntity
  8
1
  6
CONTINUOUS
 62
     7
100
AcDbLine
 10
625.2949555137579
 20
148.4657954151058
 30
0.0
 11
625.2949555137579
 21
151.3157952303314
 31
0.0
  0
LINE
  5
1FDE0
330
18
100
AcDbEntity
  8
1
  6
CONTINUOUS
 62
     7
100
AcDbLine
 10
634.0949554660742
 20
145.0157954549664
 30
0.0
 11
630.7449555688922
 21
145.0157954549664
 31
0.0
  0
LINE
  5
1FDE1
330
18
100
AcDbEntity
  8
1
  6
CONTINUOUS
 62
     7
100
AcDbLine
 10
620.8949555375998
 20
151.3157952303314
 30
0.0
 11
617.5449547090952
 21
151.3157952303314
 31
0.0
  0
LINE
  5
1FDE2
330
18
100
AcDbEntity
  8
1
  6
CONTINUOUS
 62
     7
100
AcDbLine
 10
617.5449547090952
 20
151.3157952303314
 30
0.0
 11
617.5449547090952
 21
148.4657954151058
 31
0.0
  0
LINE
  5
1FDE3
330
18
100
AcDbEntity
  8
1
  6
CONTINUOUS
 62
     7
100
AcDbLine
 10
617.5449547090952
 20
148.4657954151058
 30
0.0
 11
620.8949555375998
 21
148.4657954151058
 31
0.0
  0
LINE
  5
1FDE4
330
18
100
AcDbEntity
  8
1
  6
CONTINUOUS
 62
     7
100
AcDbLine
 10
620.8949555375998
 20
148.4657954151058
 30
0.0
 11
620.8949555375998
 21
151.3157952303314
 31
0.0
  0
LINE
  5
1FDE5
330
18
100
AcDbEntity
  8
1
  6
CONTINUOUS
 62
     7
100
AcDbLine
 10
615.0699556538289
 20
136.3907949725413
 30
0.0
 11
616.0699558177416
 21
136.3907949725413
 31
0.0
  0
LINE
  5
1FDE6
330
18
100
AcDbEntity
  8
1
  6
CONTINUOUS
 62
     7
100
AcDbLine
 10
616.0699558177416
 20
136.3907949725413
 30
0.0
 11
616.0699558177416
 21
140.4907954583192
 31
0.0
  0
LINE
  5
1FDE7
330
18
100
AcDbEntity
  8
1
  6
CONTINUOUS
 62
     7
100
AcDbLine
 10
616.0699558177416
 20
140.4907954583192
 30
0.0
 11
615.0699556538289
 21
140.4907954583192
 31
0.0
  0
LINE
  5
1FDE8
330
18
100
AcDbEntity
  8
1
  6
CONTINUOUS
 62
     7
100
AcDbLine
 10
634.0949554660742
 20
152.5657954352224
 30
0.0
 11
634.0949554660742
 21
155.4157957161093
 31
0.0
  0
LINE
  5
1FDE9
330
18
100
AcDbEntity
  8
1
  6
CONTINUOUS
 62
     7
100
AcDbLine
 10
635.569955521581
 20
140.4907954583192
 30
0.0
 11
635.569955521581
 21
136.3907949725413
 31
0.0
  0
LINE
  5
1FDEA
330
18
100
AcDbEntity
  8
1
  6
CONTINUOUS
 62
     7
100
AcDbLine
 10
635.569955521581
 20
136.3907949725413
 30
0.0
 11
636.5699555545266
 21
136.3907949725413
 31
0.0
  0
LINE
  5
1FDEB
330
18
100
AcDbEntity
  8
1
  6
CONTINUOUS
 62
     7
100
AcDbLine
 10
636.5699555545266
 20
140.4907954583192
 30
0.0
 11
635.569955521581
 21
140.4907954583192
 31
0.0
  0
LINE
  5
1FDEC
330
18
100
AcDbEntity
  8
1
  6
CONTINUOUS
 62
     7
100
AcDbLine
 10
629.6949554899161
 20
152.5657954352224
 30
0.0
 11
629.6949554899161
 21
155.4157957161093
 31
0.0
  0
LINE
  5
1FDED
330
18
100
AcDbEntity
  8
1
  6
CONTINUOUS
 62
     7
100
AcDbLine
 10
635.569955521581
 20
152.7907955186689
 30
0.0
 11
635.569955521581
 21
148.690795382137
 31
0.0
  0
LINE
  5
1FDEE
330
18
100
AcDbEntity
  8
1
  6
CONTINUOUS
 62
     7
100
AcDbLine
 10
635.569955521581
 20
148.690795382137
 30
0.0
 11
636.5699555545266
 21
148.690795382137
 31
0.0
  0
LINE
  5
1FDEF
330
18
100
AcDbEntity
  8
1
  6
CONTINUOUS
 62
     7
100
AcDbLine
 10
636.5699555545266
 20
152.7907955186689
 30
0.0
 11
635.569955521581
 21
152.7907955186689
 31
0.0
  0
LINE
  5
1FDF0
330
18
100
AcDbEntity
  8
1
  6
CONTINUOUS
 62
     7
100
AcDbLine
 10
621.944955616576
 20
152.5657954352224
 30
0.0
 11
625.2949555137579
 21
152.5657954352224
 31
0.0
  0
LINE
  5
1FDF1
330
18
100
AcDbEntity
  8
1
  6
CONTINUOUS
 62
     7
100
AcDbLine
 10
615.0699556538289
 20
148.690795382137
 30
0.0
 11
616.0699558177416
 21
148.690795382137
 31
0.0
  0
LINE
  5
1FDF2
330
18
100
AcDbEntity
  8
1
  6
CONTINUOUS
 62
     7
100
AcDbLine
 10
616.0699558177416
 20
148.690795382137
 30
0.0
 11
616.0699558177416
 21
152.7907955186689
 31
0.0
  0
LINE
  5
1FDF3
330
18
100
AcDbEntity
  8
1
  6
CONTINUOUS
 62
     7
100
AcDbLine
 10
616.0699558177416
 20
152.7907955186689
 30
0.0
 11
615.0699556538289
 21
152.7907955186689
 31
0.0
  0
LINE
  5
1FDF4
330
18
100
AcDbEntity
  8
1
  6
CONTINUOUS
 62
     7
100
AcDbLine
 10
617.5449547090952
 20
155.4157957161093
 30
0.0
 11
617.5449547090952
 21
152.5657954352224
 31
0.0
  0
LINE
  5
1FDF5
330
18
100
AcDbEntity
  8
1
  6
CONTINUOUS
 62
     7
100
AcDbLine
 10
617.5449547090952
 20
152.5657954352224
 30
0.0
 11
620.8949555375998
 21
152.5657954352224
 31
0.0
  0
LINE
  5
1FDF6
330
18
100
AcDbEntity
  8
1
  6
CONTINUOUS
 62
     7
100
AcDbLine
 10
623.2199557789986
 20
133.7907956639552
 30
0.0
 11
628.4199553274934
 21
133.7907956639552
 31
0.0
  0
LINE
  5
1FDF7
330
18
100
AcDbEntity
  8
1
  6
CONTINUOUS
 62
     7
100
AcDbLine
 10
628.4199553274934
 20
133.7907956639552
 30
0.0
 11
628.819955579323
 21
140.2907953324044
 31
0.0
  0
LINE
  5
1FDF8
330
18
100
AcDbEntity
  8
1
  6
CONTINUOUS
 62
     7
100
AcDbLine
 10
628.819955579323
 20
140.2907953324044
 30
0.0
 11
622.819955527169
 21
140.2907953324044
 31
0.0
  0
LINE
  5
1FDF9
330
18
100
AcDbEntity
  8
1
  6
CONTINUOUS
 62
     7
100
AcDbLine
 10
626.4199559309905
 20
129.7907959396267
 30
0.0
 11
626.4199559309905
 21
130.490794750514
 31
0.0
  0
LINE
  5
1FDFA
330
18
100
AcDbEntity
  8
1
  6
CONTINUOUS
 62
     7
100
AcDbLine
 10
627.0751022466843
 20
129.7907959396267
 30
0.0
 11
626.4199559309905
 21
129.7907959396267
 31
0.0
  0
LINE
  5
1FDFB
330
18
100
AcDbEntity
  8
1
  6
CONTINUOUS
 62
     7
100
AcDbLine
 10
625.2199551755016
 20
159.3907950172448
 30
0.0
 11
625.2199551755016
 21
158.6907952750349
 31
0.0
  0
LINE
  5
1FDFC
330
18
100
AcDbEntity
  8
1
  6
CONTINUOUS
 62
     7
100
AcDbLine
 10
624.5648088598077
 20
159.3907950172448
 30
0.0
 11
625.2199551755016
 21
159.3907950172448
 31
0.0
  0
LINE
  5
1FDFD
330
18
100
AcDbEntity
  8
1
  6
CONTINUOUS
 62
     7
100
AcDbLine
 10
625.2199551755016
 20
130.490794750514
 30
0.0
 11
625.2199551755016
 21
129.7907959396267
 31
0.0
  0
LINE
  5
1FDFE
330
18
100
AcDbEntity
  8
1
  6
CONTINUOUS
 62
     7
100
AcDbLine
 10
625.2199551755016
 20
129.7907959396267
 30
0.0
 11
624.5648088598077
 21
129.7907959396267
 31
0.0
  0
LINE
  5
1FDFF
330
18
100
AcDbEntity
  8
1
  6
CONTINUOUS
 62
     7
100
AcDbLine
 10
626.4199559309905
 20
158.6907952750349
 30
0.0
 11
626.4199559309905
 21
159.3907950172448
 31
0.0
  0
LINE
  5
1FE00
330
18
100
AcDbEntity
  8
1
  6
CONTINUOUS
 62
     7
100
AcDbLine
 10
626.4199559309905
 20
159.3907950172448
 30
0.0
 11
627.0751022466843
 21
159.3907950172448
 31
0.0
  0
CIRCLE
  5
1FE01
330
18
100
AcDbEntity
  8
1
  6
CONTINUOUS
 62
     7
100
AcDbCircle
 10
625.8199555502333
 20
137.7907954018108
 30
0.0
 40
2.0
  0
LINE
  5
1FE02
330
18
100
AcDbEntity
  8
1
  6
CONTINUOUS
 62
     7
100
AcDbLine
 10
623.1338019215887
 20
135.190795148375
 30
0.0
 11
628.5061091849034
 21
135.190795148375
 31
0.0
  0
LINE
  5
1FE03
330
18
100
AcDbEntity
  8
1
  6
CONTINUOUS
 62
     7
100
AcDbLine
 10
623.195339992029
 20
134.1907949844623
 30
0.0
 11
628.4445711144631
 21
134.1907949844623
 31
0.0
  0
LINE
  5
1FE04
330
18
100
AcDbEntity
  8
1
  6
CONTINUOUS
 62
     7
100
AcDbLine
 10
615.0699556538289
 20
140.4907954583192
 30
0.0
 11
615.0699556538289
 21
136.3907949725413
 31
0.0
  0
LINE
  5
1FE05
330
18
100
AcDbEntity
  8
1
  6
CONTINUOUS
 62
     7
100
AcDbLine
 10
636.5699555545266
 20
148.690795382137
 30
0.0
 11
636.5699555545266
 21
152.7907955186689
 31
0.0
  0
LINE
  5
1FE06
330
18
100
AcDbEntity
  8
1
  6
CONTINUOUS
 62
     7
100
AcDbLine
 10
615.0699556538289
 20
152.7907955186689
 30
0.0
 11
615.0699556538289
 21
148.690795382137
 31
0.0
  0
LINE
  5
1FE07
330
18
100
AcDbEntity
  8
1
  6
CONTINUOUS
 62
     7
100
AcDbLine
 10
636.5699555545266
 20
136.3907949725413
 30
0.0
 11
636.5699555545266
 21
140.4907954583192
 31
0.0
  0
LINE
  5
1FE08
330
18
100
AcDbEntity
  8
1
  6
CONTINUOUS
 62
     7
100
AcDbLine
 10
630.7449555688922
 20
153.7157953443253
 30
0.0
 11
630.8824555681472
 21
153.7157953443253
 31
0.0
  0
LINE
  5
1FE09
330
18
100
AcDbEntity
  8
1
  6
CONTINUOUS
 62
     7
100
AcDbLine
 10
633.9574554668193
 20
153.7157953443253
 30
0.0
 11
634.0949554660742
 21
153.7157953443253
 31
0.0
  0
LINE
  5
1FE0A
330
18
100
AcDbEntity
  8
1
  6
CONTINUOUS
 62
     7
100
AcDbLine
 10
617.5449547090952
 20
149.6157953242087
 30
0.0
 11
617.6824551740115
 21
149.6157953242087
 31
0.0
  0
LINE
  5
1FE0B
330
18
100
AcDbEntity
  8
1
  6
CONTINUOUS
 62
     7
100
AcDbLine
 10
620.7574550726836
 20
149.6157953242087
 30
0.0
 11
620.8949555375998
 21
149.6157953242087
 31
0.0
  0
LINE
  5
1FE0C
330
18
100
AcDbEntity
  8
1
  6
CONTINUOUS
 62
     7
100
AcDbLine
 10
633.9574554668193
 20
152.9657952213907
 30
0.0
 11
634.0949554660742
 21
152.9657952213907
 31
0.0
  0
LINE
  5
1FE0D
330
18
100
AcDbEntity
  8
1
  6
CONTINUOUS
 62
     7
100
AcDbLine
 10
630.7449555688922
 20
152.9657952213907
 30
0.0
 11
630.8824555681472
 21
152.9657952213907
 31
0.0
  0
LINE
  5
1FE0E
330
18
100
AcDbEntity
  8
1
  6
CONTINUOUS
 62
     7
100
AcDbLine
 10
633.9574554668193
 20
148.8657954341048
 30
0.0
 11
634.0949554660742
 21
148.8657954341048
 31
0.0
  0
LINE
  5
1FE0F
330
18
100
AcDbEntity
  8
1
  6
CONTINUOUS
 62
     7
100
AcDbLine
 10
630.7449555688922
 20
148.8657954341048
 30
0.0
 11
630.8824555681472
 21
148.8657954341048
 31
0.0
  0
LINE
  5
1FE10
330
18
100
AcDbEntity
  8
1
  6
CONTINUOUS
 62
     7
100
AcDbLine
 10
630.7449555688922
 20
149.6157953242087
 30
0.0
 11
630.8824555681472
 21
149.6157953242087
 31
0.0
  0
LINE
  5
1FE11
330
18
100
AcDbEntity
  8
1
  6
CONTINUOUS
 62
     7
100
AcDbLine
 10
633.9574554668193
 20
149.6157953242087
 30
0.0
 11
634.0949554660742
 21
149.6157953242087
 31
0.0
  0
LINE
  5
1FE13
330
18
100
AcDbEntity
  8
1
  6
CONTINUOUS
 62
     7
100
AcDbLine
 10
621.944955616576
 20
142.5657951930785
 30
0.0
 11
625.2949555137579
 21
142.5657951930785
 31
0.0
  0
LINE
  5
1FE15
330
18
100
AcDbEntity
  8
1
  6
CONTINUOUS
 62
     7
100
AcDbLine
 10
621.944955616576
 20
143.3157953160131
 30
0.0
 11
625.2949555137579
 21
143.3157953160131
 31
0.0
  0
LINE
  5
1FE16
330
18
100
AcDbEntity
  8
1
  6
CONTINUOUS
 62
     7
100
AcDbLine
 10
621.944955616576
 20
153.7157953443253
 30
0.0
 11
625.2949555137579
 21
153.7157953443253
 31
0.0
  0
LINE
  5
1FE19
330
18
100
AcDbEntity
  8
1
  6
CONTINUOUS
 62
     7
100
AcDbLine
 10
621.944955616576
 20
152.9657952213907
 30
0.0
 11
625.2949555137579
 21
152.9657952213907
 31
0.0
  0
LINE
  5
1FE1A
330
18
100
AcDbEntity
  8
1
  6
CONTINUOUS
 62
     7
100
AcDbLine
 10
626.3449555927341
 20
149.6157953242087
 30
0.0
 11
629.6949554899161
 21
149.6157953242087
 31
0.0
  0
LINE
  5
1FE1C
330
18
100
AcDbEntity
  8
1
  6
CONTINUOUS
 62
     7
100
AcDbLine
 10
617.5449547090952
 20
143.3157953160131
 30
0.0
 11
617.6824551740115
 21
143.3157953160131
 31
0.0
  0
LINE
  5
1FE1D
330
18
100
AcDbEntity
  8
1
  6
CONTINUOUS
 62
     7
100
AcDbLine
 10
620.7574550726836
 20
143.3157953160131
 30
0.0
 11
620.8949555375998
 21
143.3157953160131
 31
0.0
  0
LINE
  5
1FE1E
330
18
100
AcDbEntity
  8
1
  6
CONTINUOUS
 62
     7
100
AcDbLine
 10
620.7574550726836
 20
148.8657954341048
 30
0.0
 11
620.8949555375998
 21
148.8657954341048
 31
0.0
  0
LINE
  5
1FE1F
330
18
100
AcDbEntity
  8
1
  6
CONTINUOUS
 62
     7
100
AcDbLine
 10
617.5449547090952
 20
148.8657954341048
 30
0.0
 11
617.6824551740115
 21
148.8657954341048
 31
0.0
  0
LINE
  5
1FE20
330
18
100
AcDbEntity
  8
1
  6
CONTINUOUS
 62
     7
100
AcDbLine
 10
630.7449555688922
 20
137.0157953078175
 30
0.0
 11
630.8824555681472
 21
137.0157953078175
 31
0.0
  0
LINE
  5
1FE21
330
18
100
AcDbEntity
  8
1
  6
CONTINUOUS
 62
     7
100
AcDbLine
 10
633.9574554668193
 20
137.0157953078175
 30
0.0
 11
634.0949554660742
 21
137.0157953078175
 31
0.0
  0
LINE
  5
1FE22
330
18
100
AcDbEntity
  8
1
  6
CONTINUOUS
 62
     7
100
AcDbLine
 10
633.9574554668193
 20
136.2657956505442
 30
0.0
 11
634.0949554660742
 21
136.2657956505442
 31
0.0
  0
LINE
  5
1FE23
330
18
100
AcDbEntity
  8
1
  6
CONTINUOUS
 62
     7
100
AcDbLine
 10
630.7449555688922
 20
136.2657956505442
 30
0.0
 11
630.8824555681472
 21
136.2657956505442
 31
0.0
  0
LINE
  5
1FE24
330
18
100
AcDbEntity
  8
1
  6
CONTINUOUS
 62
     7
100
AcDbLine
 10
617.5449547090952
 20
137.0157953078175
 30
0.0
 11
617.6824551740115
 21
137.0157953078175
 31
0.0
  0
LINE
  5
1FE25
330
18
100
AcDbEntity
  8
1
  6
CONTINUOUS
 62
     7
100
AcDbLine
 10
620.7574550726836
 20
137.0157953078175
 30
0.0
 11
620.8949555375998
 21
137.0157953078175
 31
0.0
  0
LINE
  5
1FE26
330
18
100
AcDbEntity
  8
1
  6
CONTINUOUS
 62
     7
100
AcDbLine
 10
617.5449547090952
 20
153.7157953443253
 30
0.0
 11
617.6824551740115
 21
153.7157953443253
 31
0.0
  0
LINE
  5
1FE27
330
18
100
AcDbEntity
  8
1
  6
CONTINUOUS
 62
     7
100
AcDbLine
 10
620.7574550726836
 20
153.7157953443253
 30
0.0
 11
620.8949555375998
 21
153.7157953443253
 31
0.0
  0
LINE
  5
1FE29
330
18
100
AcDbEntity
  8
1
  6
CONTINUOUS
 62
     7
100
AcDbLine
 10
626.3449555927341
 20
148.8657954341048
 30
0.0
 11
629.6949554899161
 21
148.8657954341048
 31
0.0
  0
LINE
  5
1FE2A
330
18
100
AcDbEntity
  8
1
  6
CONTINUOUS
 62
     7
100
AcDbLine
 10
621.944955616576
 20
149.6157953242087
 30
0.0
 11
625.2949555137579
 21
149.6157953242087
 31
0.0
  0
LINE
  5
1FE2C
330
18
100
AcDbEntity
  8
1
  6
CONTINUOUS
 62
     7
100
AcDbLine
 10
620.7574550726836
 20
136.2657956505442
 30
0.0
 11
620.8949555375998
 21
136.2657956505442
 31
0.0
  0
LINE
  5
1FE2D
330
18
100
AcDbEntity
  8
1
  6
CONTINUOUS
 62
     7
100
AcDbLine
 10
617.5449547090952
 20
136.2657956505442
 30
0.0
 11
617.6824551740115
 21
136.2657956505442
 31
0.0
  0
LINE
  5
1FE2F
330
18
100
AcDbEntity
  8
1
  6
CONTINUOUS
 62
     7
100
AcDbLine
 10
626.3449555927341
 20
143.3157953160131
 30
0.0
 11
629.6949554899161
 21
143.3157953160131
 31
0.0
  0
LINE
  5
1FE30
330
18
100
AcDbEntity
  8
1
  6
CONTINUOUS
 62
     7
100
AcDbLine
 10
620.7574550726836
 20
152.9657952213907
 30
0.0
 11
620.8949555375998
 21
152.9657952213907
 31
0.0
  0
LINE
  5
1FE31
330
18
100
AcDbEntity
  8
1
  6
CONTINUOUS
 62
     7
100
AcDbLine
 10
617.5449547090952
 20
152.9657952213907
 30
0.0
 11
617.6824551740115
 21
152.9657952213907
 31
0.0
  0
LINE
  5
1FE32
330
18
100
AcDbEntity
  8
1
  6
CONTINUOUS
 62
     7
100
AcDbLine
 10
633.9574554668193
 20
142.5657951930785
 30
0.0
 11
634.0949554660742
 21
142.5657951930785
 31
0.0
  0
LINE
  5
1FE33
330
18
100
AcDbEntity
  8
1
  6
CONTINUOUS
 62
     7
100
AcDbLine
 10
630.7449555688922
 20
142.5657951930785
 30
0.0
 11
630.8824555681472
 21
142.5657951930785
 31
0.0
  0
LINE
  5
1FE34
330
18
100
AcDbEntity
  8
1
  6
CONTINUOUS
 62
     7
100
AcDbLine
 10
630.7449555688922
 20
143.3157953160131
 30
0.0
 11
630.8824555681472
 21
143.3157953160131
 31
0.0
  0
LINE
  5
1FE35
330
18
100
AcDbEntity
  8
1
  6
CONTINUOUS
 62
     7
100
AcDbLine
 10
633.9574554668193
 20
143.3157953160131
 30
0.0
 11
634.0949554660742
 21
143.3157953160131
 31
0.0
  0
LINE
  5
1FE36
330
18
100
AcDbEntity
  8
1
  6
CONTINUOUS
 62
     7
100
AcDbLine
 10
626.3449555927341
 20
153.7157953443253
 30
0.0
 11
629.6949554899161
 21
153.7157953443253
 31
0.0
  0
LINE
  5
1FE39
330
18
100
AcDbEntity
  8
1
  6
CONTINUOUS
 62
     7
100
AcDbLine
 10
621.944955616576
 20
148.8657954341048
 30
0.0
 11
625.2949555137579
 21
148.8657954341048
 31
0.0
  0
LINE
  5
1FE3A
330
18
100
AcDbEntity
  8
1
  6
CONTINUOUS
 62
     7
100
AcDbLine
 10
620.7574550726836
 20
142.5657951930785
 30
0.0
 11
620.8949555375998
 21
142.5657951930785
 31
0.0
  0
LINE
  5
1FE3B
330
18
100
AcDbEntity
  8
1
  6
CONTINUOUS
 62
     7
100
AcDbLine
 10
617.5449547090952
 20
142.5657951930785
 30
0.0
 11
617.6824551740115
 21
142.5657951930785
 31
0.0
  0
LINE
  5
1FE3D
330
18
100
AcDbEntity
  8
1
  6
CONTINUOUS
 62
     7
100
AcDbLine
 10
626.3449555927341
 20
142.5657951930785
 30
0.0
 11
629.6949554899161
 21
142.5657951930785
 31
0.0
  0
LINE
  5
1FE3F
330
18
100
AcDbEntity
  8
1
  6
CONTINUOUS
 62
     7
100
AcDbLine
 10
626.3449555927341
 20
152.9657952213907
 30
0.0
 11
629.6949554899161
 21
152.9657952213907
 31
0.0
  0
LINE
  5
1FE40
330
18
100
AcDbEntity
  8
1
  6
CONTINUOUS
 62
     7
100
AcDbLine
 10
633.6699554895436
 20
148.5407954041162
 30
0.0
 11
633.6699554895436
 21
148.4657954151058
 31
0.0
  0
LINE
  5
1FE41
330
18
100
AcDbEntity
  8
1
  6
CONTINUOUS
 62
     7
100
AcDbLine
 10
624.8699557700579
 20
148.8657954341048
 30
0.0
 11
624.8699557700579
 21
148.4657954151058
 31
0.0
  0
LINE
  5
1FE42
330
18
100
AcDbEntity
  8
1
  6
CONTINUOUS
 62
     7
100
AcDbLine
 10
617.9699563154404
 20
142.1657954069102
 30
0.0
 11
617.9699563154404
 21
142.2407952795052
 31
0.0
  0
LINE
  5
1FE43
330
18
100
AcDbEntity
  8
1
  6
CONTINUOUS
 62
     7
100
AcDbLine
 10
622.369955360276
 20
148.4657954151058
 30
0.0
 11
622.369955360276
 21
148.8657954341048
 31
0.0
  0
LINE
  5
1FE44
330
18
100
AcDbEntity
  8
1
  6
CONTINUOUS
 62
     7
100
AcDbLine
 10
633.6699554895436
 20
152.6407953078175
 30
0.0
 11
633.6699554895436
 21
152.5657954352224
 31
0.0
  0
LINE
  5
1FE45
330
18
100
AcDbEntity
  8
1
  6
CONTINUOUS
 62
     7
100
AcDbLine
 10
622.369955360276
 20
142.1657954069102
 30
0.0
 11
622.369955360276
 21
142.5657951930785
 31
0.0
  0
LINE
  5
1FE46
330
18
100
AcDbEntity
  8
1
  6
CONTINUOUS
 62
     7
100
AcDbLine
 10
620.4699557938998
 20
142.2407952795052
 30
0.0
 11
620.4699557938998
 21
142.1657954069102
 31
0.0
  0
LINE
  5
1FE47
330
18
100
AcDbEntity
  8
1
  6
CONTINUOUS
 62
     7
100
AcDbLine
 10
631.1699557782536
 20
152.5657954352224
 30
0.0
 11
631.1699557782536
 21
152.6407953078175
 31
0.0
  0
LINE
  5
1FE48
330
18
100
AcDbEntity
  8
1
  6
CONTINUOUS
 62
     7
100
AcDbLine
 10
622.369955360276
 20
152.5657954352224
 30
0.0
 11
622.369955360276
 21
152.9657952213907
 31
0.0
  0
LINE
  5
1FE49
330
18
100
AcDbEntity
  8
1
  6
CONTINUOUS
 62
     7
100
AcDbLine
 10
626.7699553364341
 20
152.5657954352224
 30
0.0
 11
626.7699553364341
 21
152.9657952213907
 31
0.0
  0
LINE
  5
1FE4A
330
18
100
AcDbEntity
  8
1
  6
CONTINUOUS
 62
     7
100
AcDbLine
 10
631.1699557782536
 20
148.4657954151058
 30
0.0
 11
631.1699557782536
 21
148.5407954041162
 31
0.0
  0
LINE
  5
1FE4B
330
18
100
AcDbEntity
  8
1
  6
CONTINUOUS
 62
     7
100
AcDbLine
 10
617.9699563154404
 20
148.4657954151058
 30
0.0
 11
617.9699563154404
 21
148.5407954041162
 31
0.0
  0
LINE
  5
1FE4C
330
18
100
AcDbEntity
  8
1
  6
CONTINUOUS
 62
     7
100
AcDbLine
 10
631.1699557782536
 20
135.8657953987145
 30
0.0
 11
631.1699557782536
 21
135.9407957369709
 31
0.0
  0
LINE
  5
1FE4D
330
18
100
AcDbEntity
  8
1
  6
CONTINUOUS
 62
     7
100
AcDbLine
 10
626.7699553364341
 20
148.4657954151058
 30
0.0
 11
626.7699553364341
 21
148.8657954341048
 31
0.0
  0
LINE
  5
1FE4E
330
18
100
AcDbEntity
  8
1
  6
CONTINUOUS
 62
     7
100
AcDbLine
 10
633.6699554895436
 20
142.2407952795052
 30
0.0
 11
633.6699554895436
 21
142.1657954069102
 31
0.0
  0
LINE
  5
1FE4F
330
18
100
AcDbEntity
  8
1
  6
CONTINUOUS
 62
     7
100
AcDbLine
 10
624.8699557700579
 20
152.9657952213907
 30
0.0
 11
624.8699557700579
 21
152.5657954352224
 31
0.0
  0
LINE
  5
1FE50
330
18
100
AcDbEntity
  8
1
  6
CONTINUOUS
 62
     7
100
AcDbLine
 10
629.269955746216
 20
152.9657952213907
 30
0.0
 11
629.269955746216
 21
152.5657954352224
 31
0.0
  0
LINE
  5
1FE51
330
18
100
AcDbEntity
  8
1
  6
CONTINUOUS
 62
     7
100
AcDbLine
 10
620.4699557938998
 20
148.5407954041162
 30
0.0
 11
620.4699557938998
 21
148.4657954151058
 31
0.0
  0
LINE
  5
1FE52
330
18
100
AcDbEntity
  8
1
  6
CONTINUOUS
 62
     7
100
AcDbLine
 10
624.8699557700579
 20
142.5657951930785
 30
0.0
 11
624.8699557700579
 21
142.1657954069102
 31
0.0
  0
LINE
  5
1FE53
330
18
100
AcDbEntity
  8
1
  6
CONTINUOUS
 62
     7
100
AcDbLine
 10
631.1699557782536
 20
142.1657954069102
 30
0.0
 11
631.1699557782536
 21
142.2407952795052
 31
0.0
  0
LINE
  5
1FE54
330
18
100
AcDbEntity
  8
1
  6
CONTINUOUS
 62
     7
100
AcDbLine
 10
626.7699553364341
 20
142.1657954069102
 30
0.0
 11
626.7699553364341
 21
142.5657951930785
 31
0.0
  0
LINE
  5
1FE55
330
18
100
AcDbEntity
  8
1
  6
CONTINUOUS
 62
     7
100
AcDbLine
 10
633.6699554895436
 20
135.9407957369709
 30
0.0
 11
633.6699554895436
 21
135.8657953987145
 31
0.0
  0
LINE
  5
1FE56
330
18
100
AcDbEntity
  8
1
  6
CONTINUOUS
 62
     7
100
AcDbLine
 10
629.269955746216
 20
148.8657954341048
 30
0.0
 11
629.269955746216
 21
148.4657954151058
 31
0.0
  0
LINE
  5
1FE57
330
18
100
AcDbEntity
  8
1
  6
CONTINUOUS
 62
     7
100
AcDbLine
 10
629.269955746216
 20
142.5657951930785
 30
0.0
 11
629.269955746216
 21
142.1657954069102
 31
0.0
  0
LINE
  5
1FE58
330
18
100
AcDbEntity
  8
1
  6
CONTINUOUS
 62
     7
100
AcDbLine
 10
617.9699563154404
 20
135.8657953987145
 30
0.0
 11
617.9699563154404
 21
135.9407957369709
 31
0.0
  0
LINE
  5
1FE59
330
18
100
AcDbEntity
  8
1
  6
CONTINUOUS
 62
     7
100
AcDbLine
 10
620.4699557938998
 20
135.9407957369709
 30
0.0
 11
620.4699557938998
 21
135.8657953987145
 31
0.0
  0
LINE
  5
1FE5A
330
18
100
AcDbEntity
  8
1
  6
CONTINUOUS
 62
     7
100
AcDbLine
 10
617.9699563154404
 20
152.5657954352224
 30
0.0
 11
617.9699563154404
 21
152.6407953078175
 31
0.0
  0
LINE
  5
1FE5B
330
18
100
AcDbEntity
  8
1
  6
CONTINUOUS
 62
     7
100
AcDbLine
 10
620.4699557938998
 20
152.6407953078175
 30
0.0
 11
620.4699557938998
 21
152.5657954352224
 31
0.0
  0
LINE
  5
1FE5C
330
18
100
AcDbEntity
  8
1
  6
CONTINUOUS
 62
     7
100
AcDbLine
 10
564.9237055028149
 20
135.8525734121227
 30
0.0
 11
569.2737246560224
 21
135.8525734121227
 31
0.0
  0
LINE
  5
1FE5D
330
18
100
AcDbEntity
  8
1
  6
CONTINUOUS
 62
     7
100
AcDbLine
 10
564.873724214203
 20
135.8653465012336
 30
0.0
 11
564.9223737115332
 21
135.8534684131169
 31
0.0
  0
LINE
  5
1FE5E
330
18
100
AcDbEntity
  8
1
  6
CONTINUOUS
 62
     7
100
AcDbLine
 10
564.9237055028149
 20
142.1525738859796
 30
0.0
 11
569.2737246560224
 21
142.1525738859796
 31
0.0
  0
LINE
  5
1FE5F
330
18
100
AcDbEntity
  8
1
  6
CONTINUOUS
 62
     7
100
AcDbLine
 10
564.873724214203
 20
142.1653460437679
 30
0.0
 11
564.9223737115332
 21
142.1534688869739
 31
0.0
  0
LINE
  5
1FE60
330
18
100
AcDbEntity
  8
1
  6
CONTINUOUS
 62
     7
100
AcDbLine
 10
564.9237055028149
 20
152.5525734486306
 30
0.0
 11
569.2737246560224
 21
152.5525734486306
 31
0.0
  0
LINE
  5
1FE61
330
18
100
AcDbEntity
  8
1
  6
CONTINUOUS
 62
     7
100
AcDbLine
 10
564.873724214203
 20
152.5653460720801
 30
0.0
 11
564.9223737115332
 21
152.5534684496248
 31
0.0
  0
LINE
  5
1FE62
330
18
100
AcDbEntity
  8
1
  6
CONTINUOUS
 62
     7
100
AcDbLine
 10
564.9237055028149
 20
148.4525736613446
 30
0.0
 11
569.2737246560224
 21
148.4525736613446
 31
0.0
  0
LINE
  5
1FE63
330
18
100
AcDbEntity
  8
1
  6
CONTINUOUS
 62
     7
100
AcDbLine
 10
564.873724214203
 20
148.4653461683789
 30
0.0
 11
564.9223737115332
 21
148.4534686623388
 31
0.0
  0
LINE
  5
1FE64
330
18
100
AcDbEntity
  8
1
  6
CONTINUOUS
 62
     7
100
AcDbLine
 10
564.4737248936959
 20
156.2907956267023
 30
0.0
 11
563.3737248996564
 21
156.2907956267023
 31
0.0
  0
ARC
  5
1FE65
330
18
100
AcDbEntity
  8
1
  6
CONTINUOUS
 62
     7
100
AcDbCircle
 10
564.473724562152
 20
155.8907954018108
 30
0.0
 40
0.4000000000000341
100
AcDbArc
 50
0.0
 51
90.0
  0
ARC
  5
1FE66
330
18
100
AcDbEntity
  8
1
  6
CONTINUOUS
 62
     7
100
AcDbCircle
 10
564.473724562152
 20
133.2907954018108
 30
0.0
 40
0.4000000000000057
100
AcDbArc
 50
270.0
 51
0.0
  0
LINE
  5
1FE67
330
18
100
AcDbEntity
  8
1
  6
CONTINUOUS
 62
     7
100
AcDbLine
 10
563.3737248996564
 20
132.8907953301692
 30
0.0
 11
564.4737248936959
 21
132.8907953301692
 31
0.0
  0
LINE
  5
1FE68
330
18
100
AcDbEntity
  8
1
  6
CONTINUOUS
 62
     7
100
AcDbLine
 10
564.9237241292664
 20
135.9407957369709
 30
0.0
 11
564.873724214203
 21
135.9417289221907
 31
0.0
  0
LINE
  5
1FE69
330
18
100
AcDbEntity
  8
1
  6
CONTINUOUS
 62
     7
100
AcDbLine
 10
564.9237241292664
 20
135.859261239531
 30
0.0
 11
564.9237241292664
 21
135.9407957369709
 31
0.0
  0
LINE
  5
1FE6A
330
18
100
AcDbEntity
  8
1
  6
CONTINUOUS
 62
     7
100
AcDbLine
 10
564.9237055028149
 20
135.8589203754687
 30
0.0
 11
564.9237241292664
 21
135.859261239531
 31
0.0
  0
LINE
  5
1FE6B
330
18
100
AcDbEntity
  8
1
  6
CONTINUOUS
 62
     7
100
AcDbLine
 10
564.9237241292664
 20
135.9407957369709
 30
0.0
 11
564.9237241292664
 21
136.1907953122878
 31
0.0
  0
LINE
  5
1FE6C
330
18
100
AcDbEntity
  8
1
  6
CONTINUOUS
 62
     7
100
AcDbLine
 10
564.883129640884
 20
136.1907953122878
 30
0.0
 11
564.9237241292664
 21
136.1907953122878
 31
0.0
  0
LINE
  5
1FE6D
330
18
100
AcDbEntity
  8
1
  6
CONTINUOUS
 62
     7
100
AcDbLine
 10
568.698724701471
 20
136.1907953122878
 30
0.0
 11
564.9237241292664
 21
136.1907953122878
 31
0.0
  0
LINE
  5
1FE6E
330
18
100
AcDbEntity
  8
1
  6
CONTINUOUS
 62
     7
100
AcDbLine
 10
568.698724701471
 20
135.9407957369709
 30
0.0
 11
564.9237241292664
 21
135.9407957369709
 31
0.0
  0
ARC
  5
1FE6F
330
18
100
AcDbEntity
  8
1
  6
CONTINUOUS
 62
     7
100
AcDbCircle
 10
568.814475867961
 20
134.7162009763498
 30
0.0
 40
1.230053112790057
100
AcDbArc
 50
68.32241636357013
 51
95.39966980867663
  0
ARC
  5
1FE70
330
18
100
AcDbEntity
  8
1
  6
CONTINUOUS
 62
     7
100
AcDbCircle
 10
568.8143019111573
 20
134.9641136938165
 30
0.0
 40
1.232114395863576
100
AcDbArc
 50
68.35550240084874
 51
95.38248436447435
  0
LINE
  5
1FE71
330
18
100
AcDbEntity
  8
1
  6
CONTINUOUS
 62
     7
100
AcDbLine
 10
569.2687630350061
 20
136.1093520844603
 30
0.0
 11
569.2726813419082
 21
136.1060086364174
 31
0.0
  0
ELLIPSE
  5
1FE72
330
18
100
AcDbEntity
  8
1
  6
CONTINUOUS
 62
     7
100
AcDbEllipse
 10
568.698724562152
 20
135.8936152010959
 30
0.0
 11
0.0
 21
3.527443358609673
 31
0.0
210
0.0
220
0.0
230
1.0
 40
0.1630075784481587
 41
4.712388980384691
 42
4.772637168280443
  0
LINE
  5
1FE73
330
18
100
AcDbEntity
  8
1
  6
CONTINUOUS
 62
     7
100
AcDbLine
 10
569.2737246560224
 20
135.8936149353409
 30
0.0
 11
569.2737246560224
 21
135.8526199782515
 31
0.0
  0
LINE
  5
1FE74
330
18
100
AcDbEntity
  8
1
  6
CONTINUOUS
 62
     7
100
AcDbLine
 10
569.2737246560224
 20
135.8526199782515
 30
0.0
 11
569.2688368423202
 21
135.859261239531
 31
0.0
  0
LINE
  5
1FE75
330
18
100
AcDbEntity
  8
1
  6
CONTINUOUS
 62
     7
100
AcDbLine
 10
569.2726813419082
 20
136.1060086364174
 30
0.0
 11
569.2687630350061
 21
136.1093520844603
 31
0.0
  0
LINE
  5
1FE76
330
18
100
AcDbEntity
  8
1
  6
CONTINUOUS
 62
     7
100
AcDbLine
 10
564.9237241292664
 20
142.2407952795052
 30
0.0
 11
564.873724214203
 21
142.2417289303863
 31
0.0
  0
LINE
  5
1FE77
330
18
100
AcDbEntity
  8
1
  6
CONTINUOUS
 62
     7
100
AcDbLine
 10
564.9237241292664
 20
142.1592612477267
 30
0.0
 11
564.9237241292664
 21
142.2407952795052
 31
0.0
  0
LINE
  5
1FE78
330
18
100
AcDbEntity
  8
1
  6
CONTINUOUS
 62
     7
100
AcDbLine
 10
564.9237055028149
 20
142.1589199180031
 30
0.0
 11
564.9237241292664
 21
142.1592612477267
 31
0.0
  0
LINE
  5
1FE79
330
18
100
AcDbEntity
  8
1
  6
CONTINUOUS
 62
     7
100
AcDbLine
 10
564.9237241292664
 20
142.2407952795052
 30
0.0
 11
564.9237241292664
 21
142.4907953204834
 31
0.0
  0
LINE
  5
1FE7A
330
18
100
AcDbEntity
  8
1
  6
CONTINUOUS
 62
     7
100
AcDbLine
 10
568.698724701471
 20
142.4907953204834
 30
0.0
 11
564.9237241292664
 21
142.4907953204834
 31
0.0
  0
LINE
  5
1FE7B
330
18
100
AcDbEntity
  8
1
  6
CONTINUOUS
 62
     7
100
AcDbLine
 10
568.698724701471
 20
142.2407952795052
 30
0.0
 11
564.9237241292664
 21
142.2407952795052
 31
0.0
  0
LINE
  5
1FE7C
330
18
100
AcDbEntity
  8
1
  6
CONTINUOUS
 62
     7
100
AcDbLine
 10
564.883129640884
 20
142.4907953204834
 30
0.0
 11
564.9237241292664
 21
142.4907953204834
 31
0.0
  0
ARC
  5
1FE7D
330
18
100
AcDbEntity
  8
1
  6
CONTINUOUS
 62
     7
100
AcDbCircle
 10
568.814478335283
 20
141.0162112428864
 30
0.0
 40
1.230042668561752
100
AcDbArc
 50
68.32234665924155
 51
95.39983123414133
  0
ARC
  5
1FE7E
330
18
100
AcDbEntity
  8
1
  6
CONTINUOUS
 62
     7
100
AcDbCircle
 10
568.8142993725075
 20
141.2640893852909
 30
0.0
 40
1.232138367238802
100
AcDbArc
 50
68.35581773617368
 51
95.38226076579828
  0
LINE
  5
1FE7F
330
18
100
AcDbEntity
  8
1
  6
CONTINUOUS
 62
     7
100
AcDbLine
 10
569.2687630350061
 20
142.4093525583172
 30
0.0
 11
569.2726813419082
 21
142.406008644613
 31
0.0
  0
ELLIPSE
  5
1FE80
330
18
100
AcDbEntity
  8
1
  6
CONTINUOUS
 62
     7
100
AcDbEllipse
 10
568.698724562152
 20
142.1936152010959
 30
0.0
 11
0.0
 21
3.527443358609702
 31
0.0
210
0.0
220
0.0
230
1.0
 40
0.1630075784481574
 41
4.712388980384691
 42
4.77263716828045
  0
LINE
  5
1FE81
330
18
100
AcDbEntity
  8
1
  6
CONTINUOUS
 62
     7
100
AcDbLine
 10
569.2737246560224
 20
142.1936154091978
 30
0.0
 11
569.2737246560224
 21
142.1526195207858
 31
0.0
  0
LINE
  5
1FE82
330
18
100
AcDbEntity
  8
1
  6
CONTINUOUS
 62
     7
100
AcDbLine
 10
569.2737246560224
 20
142.1526195207858
 30
0.0
 11
569.2688368423202
 21
142.1592612477267
 31
0.0
  0
LINE
  5
1FE83
330
18
100
AcDbEntity
  8
1
  6
CONTINUOUS
 62
     7
100
AcDbLine
 10
569.2726813419082
 20
142.406008644613
 30
0.0
 11
569.2687630350061
 21
142.4093525583172
 31
0.0
  0
LINE
  5
1FE84
330
18
100
AcDbEntity
  8
1
  6
CONTINUOUS
 62
     7
100
AcDbLine
 10
564.9237241292664
 20
152.6407953078175
 30
0.0
 11
564.873724214203
 21
152.6417289586985
 31
0.0
  0
LINE
  5
1FE85
330
18
100
AcDbEntity
  8
1
  6
CONTINUOUS
 62
     7
100
AcDbLine
 10
564.9237241292664
 20
152.5592612760389
 30
0.0
 11
564.9237241292664
 21
152.6407953078175
 31
0.0
  0
LINE
  5
1FE86
330
18
100
AcDbEntity
  8
1
  6
CONTINUOUS
 62
     7
100
AcDbLine
 10
564.9237055028149
 20
152.5589199463153
 30
0.0
 11
564.9237241292664
 21
152.5592612760389
 31
0.0
  0
LINE
  5
1FE87
330
18
100
AcDbEntity
  8
1
  6
CONTINUOUS
 62
     7
100
AcDbLine
 10
564.9237241292664
 20
152.6407953078175
 30
0.0
 11
564.9237241292664
 21
152.8907953487956
 31
0.0
  0
LINE
  5
1FE88
330
18
100
AcDbEntity
  8
1
  6
CONTINUOUS
 62
     7
100
AcDbLine
 10
564.883129640884
 20
152.8907953487956
 30
0.0
 11
564.9237241292664
 21
152.8907953487956
 31
0.0
  0
LINE
  5
1FE89
330
18
100
AcDbEntity
  8
1
  6
CONTINUOUS
 62
     7
100
AcDbLine
 10
568.698724701471
 20
152.6407953078175
 30
0.0
 11
564.9237241292664
 21
152.6407953078175
 31
0.0
  0
ARC
  5
1FE8A
330
18
100
AcDbEntity
  8
1
  6
CONTINUOUS
 62
     7
100
AcDbCircle
 10
568.814478335283
 20
151.4162112711986
 30
0.0
 40
1.230042668561752
100
AcDbArc
 50
68.32234665924155
 51
95.39983123414133
  0
LINE
  5
1FE8B
330
18
100
AcDbEntity
  8
1
  6
CONTINUOUS
 62
     7
100
AcDbLine
 10
568.698724701471
 20
152.8907953487956
 30
0.0
 11
564.9237241292664
 21
152.8907953487956
 31
0.0
  0
ARC
  5
1FE8C
330
18
100
AcDbEntity
  8
1
  6
CONTINUOUS
 62
     7
100
AcDbCircle
 10
568.8142993725075
 20
151.6640894136031
 30
0.0
 40
1.232138367238802
100
AcDbArc
 50
68.35581773617368
 51
95.38226076579828
  0
LINE
  5
1FE8D
330
18
100
AcDbEntity
  8
1
  6
CONTINUOUS
 62
     7
100
AcDbLine
 10
569.2687630350061
 20
152.8093525866294
 30
0.0
 11
569.2726813419082
 21
152.8060086729252
 31
0.0
  0
ELLIPSE
  5
1FE8E
330
18
100
AcDbEntity
  8
1
  6
CONTINUOUS
 62
     7
100
AcDbEllipse
 10
568.698724562152
 20
152.5936152010959
 30
0.0
 11
0.0
 21
3.527443358609645
 31
0.0
210
0.0
220
0.0
230
1.0
 40
0.1630075784481601
 41
4.712388980384691
 42
4.772637168280435
  0
LINE
  5
1FE8F
330
18
100
AcDbEntity
  8
1
  6
CONTINUOUS
 62
     7
100
AcDbLine
 10
569.2737246560224
 20
152.5936149718487
 30
0.0
 11
569.2737246560224
 21
152.552619549098
 31
0.0
  0
LINE
  5
1FE90
330
18
100
AcDbEntity
  8
1
  6
CONTINUOUS
 62
     7
100
AcDbLine
 10
569.2737246560224
 20
152.552619549098
 30
0.0
 11
569.2688368423202
 21
152.5592612760389
 31
0.0
  0
LINE
  5
1FE91
330
18
100
AcDbEntity
  8
1
  6
CONTINUOUS
 62
     7
100
AcDbLine
 10
569.2726813419082
 20
152.8060086729252
 30
0.0
 11
569.2687630350061
 21
152.8093525866294
 31
0.0
  0
LINE
  5
1FE92
330
18
100
AcDbEntity
  8
1
  6
CONTINUOUS
 62
     7
100
AcDbLine
 10
564.9237241292664
 20
148.5407954041162
 30
0.0
 11
564.873724214203
 21
148.5417290549973
 31
0.0
  0
LINE
  5
1FE93
330
18
100
AcDbEntity
  8
1
  6
CONTINUOUS
 62
     7
100
AcDbLine
 10
564.9237241292664
 20
148.4592612559223
 30
0.0
 11
564.9237241292664
 21
148.5407954041162
 31
0.0
  0
LINE
  5
1FE94
330
18
100
AcDbEntity
  8
1
  6
CONTINUOUS
 62
     7
100
AcDbLine
 10
564.9237055028149
 20
148.4589201590294
 30
0.0
 11
564.9237241292664
 21
148.4592612559223
 31
0.0
  0
LINE
  5
1FE95
330
18
100
AcDbEntity
  8
1
  6
CONTINUOUS
 62
     7
100
AcDbLine
 10
564.9237241292664
 20
148.5407954041162
 30
0.0
 11
564.9237241292664
 21
148.7907954450944
 31
0.0
  0
LINE
  5
1FE96
330
18
100
AcDbEntity
  8
1
  6
CONTINUOUS
 62
     7
100
AcDbLine
 10
564.883129640884
 20
148.7907954450944
 30
0.0
 11
564.9237241292664
 21
148.7907954450944
 31
0.0
  0
LINE
  5
1FE97
330
18
100
AcDbEntity
  8
1
  6
CONTINUOUS
 62
     7
100
AcDbLine
 10
568.698724701471
 20
148.5407954041162
 30
0.0
 11
564.9237241292664
 21
148.5407954041162
 31
0.0
  0
ARC
  5
1FE98
330
18
100
AcDbEntity
  8
1
  6
CONTINUOUS
 62
     7
100
AcDbCircle
 10
568.8144775443344
 20
147.3162074689976
 30
0.0
 40
1.23004647532888
100
AcDbArc
 50
68.3223774968403
 51
95.39977746625887
  0
LINE
  5
1FE99
330
18
100
AcDbEntity
  8
1
  6
CONTINUOUS
 62
     7
100
AcDbLine
 10
568.698724701471
 20
148.7907954450944
 30
0.0
 11
564.9237241292664
 21
148.7907954450944
 31
0.0
  0
ARC
  5
1FE9A
330
18
100
AcDbEntity
  8
1
  6
CONTINUOUS
 62
     7
100
AcDbCircle
 10
568.8142992118279
 20
147.5640900223173
 30
0.0
 40
1.232137842010828
100
AcDbArc
 50
68.35580000579722
 51
95.38225556201695
  0
LINE
  5
1FE9B
330
18
100
AcDbEntity
  8
1
  6
CONTINUOUS
 62
     7
100
AcDbLine
 10
569.2687630350061
 20
148.7093525665128
 30
0.0
 11
569.2726813419082
 21
148.706008769224
 31
0.0
  0
ELLIPSE
  5
1FE9C
330
18
100
AcDbEntity
  8
1
  6
CONTINUOUS
 62
     7
100
AcDbEllipse
 10
568.698724562152
 20
148.4936152010959
 30
0.0
 11
0.0
 21
3.527443358609673
 31
0.0
210
0.0
220
0.0
230
1.0
 40
0.1630075784481587
 41
4.712388980384691
 42
4.772637168280443
  0
LINE
  5
1FE9D
330
18
100
AcDbEntity
  8
1
  6
CONTINUOUS
 62
     7
100
AcDbLine
 10
569.2737246560224
 20
148.4936151845628
 30
0.0
 11
569.2737246560224
 21
148.4526195289814
 31
0.0
  0
LINE
  5
1FE9E
330
18
100
AcDbEntity
  8
1
  6
CONTINUOUS
 62
     7
100
AcDbLine
 10
569.2737246560224
 20
148.4526195289814
 30
0.0
 11
569.2688368423202
 21
148.4592612559223
 31
0.0
  0
LINE
  5
1FE9F
330
18
100
AcDbEntity
  8
1
  6
CONTINUOUS
 62
     7
100
AcDbLine
 10
569.2726813419082
 20
148.706008769224
 30
0.0
 11
569.2687630350061
 21
148.7093525665128
 31
0.0
  0
LINE
  5
1FEA0
330
18
100
AcDbEntity
  8
1
  6
CONTINUOUS
 62
     7
100
AcDbLine
 10
563.3737248996564
 20
157.2907957906151
 30
0.0
 11
557.3737248475023
 21
157.2907957906151
 31
0.0
  0
LINE
  5
1FEA1
330
18
100
AcDbEntity
  8
1
  6
CONTINUOUS
 62
     7
100
AcDbLine
 10
563.3737248996564
 20
157.2907957906151
 30
0.0
 11
563.3737248996564
 21
156.2907956267023
 31
0.0
  0
LINE
  5
1FEA2
330
18
100
AcDbEntity
  8
1
  6
CONTINUOUS
 62
     7
100
AcDbLine
 10
563.3737248996564
 20
132.8907953301692
 30
0.0
 11
563.3737248996564
 21
131.8907951662564
 31
0.0
  0
LINE
  5
1FEA3
330
18
100
AcDbEntity
  8
1
  6
CONTINUOUS
 62
     7
100
AcDbLine
 10
563.3737248996564
 20
131.8907951662564
 30
0.0
 11
557.3737248475023
 21
131.8907951662564
 31
0.0
  0
LINE
  5
1FEA4
330
18
100
AcDbEntity
  8
1
  6
CONTINUOUS
 62
     7
100
AcDbLine
 10
563.3737248996564
 20
136.3907949725413
 30
0.0
 11
563.3737248996564
 21
140.4907954583192
 31
0.0
  0
LINE
  5
1FEA5
330
18
100
AcDbEntity
  8
1
  6
CONTINUOUS
 62
     7
100
AcDbLine
 10
560.3737244079181
 20
136.3907949725413
 30
0.0
 11
560.3737244079181
 21
140.4907954583192
 31
0.0
  0
LINE
  5
1FEA6
330
18
100
AcDbEntity
  8
1
  6
CONTINUOUS
 62
     7
100
AcDbLine
 10
563.3737248996564
 20
136.3907949725413
 30
0.0
 11
563.3737248996564
 21
132.8907953301692
 31
0.0
  0
LINE
  5
1FEA7
330
18
100
AcDbEntity
  8
1
  6
CONTINUOUS
 62
     7
100
AcDbLine
 10
557.3737248475023
 20
130.7907961035395
 30
0.0
 11
557.3737248475023
 21
132.8907953301692
 31
0.0
  0
LINE
  5
1FEA8
330
18
100
AcDbEntity
  8
1
  6
CONTINUOUS
 62
     7
100
AcDbLine
 10
559.8737243259617
 20
136.3907949725413
 30
0.0
 11
559.8737243259617
 21
140.4907954583192
 31
0.0
  0
LINE
  5
1FEA9
330
18
100
AcDbEntity
  8
1
  6
CONTINUOUS
 62
     7
100
AcDbLine
 10
559.8737243259617
 20
140.4907954583192
 30
0.0
 11
554.3737252870866
 21
140.4907954583192
 31
0.0
  0
LINE
  5
1FEAA
330
18
100
AcDbEntity
  8
1
  6
CONTINUOUS
 62
     7
100
AcDbLine
 10
559.8737243259617
 20
148.690795382137
 30
0.0
 11
559.8737243259617
 21
152.7907955186689
 31
0.0
  0
LINE
  5
1FEAB
330
18
100
AcDbEntity
  8
1
  6
CONTINUOUS
 62
     7
100
AcDbLine
 10
557.3737248475023
 20
156.2907956267023
 30
0.0
 11
557.3737248475023
 21
158.3907957846546
 31
0.0
  0
LINE
  5
1FEAC
330
18
100
AcDbEntity
  8
1
  6
CONTINUOUS
 62
     7
100
AcDbLine
 10
563.3737248996564
 20
156.2907956267023
 30
0.0
 11
563.3737248996564
 21
152.7907955186689
 31
0.0
  0
LINE
  5
1FEAD
330
18
100
AcDbEntity
  8
1
  6
CONTINUOUS
 62
     7
100
AcDbLine
 10
560.3737244079181
 20
152.7907955186689
 30
0.0
 11
563.3737248996564
 21
152.7907955186689
 31
0.0
  0
LINE
  5
1FEAE
330
18
100
AcDbEntity
  8
1
  6
CONTINUOUS
 62
     7
100
AcDbLine
 10
560.3737244079181
 20
148.690795382137
 30
0.0
 11
560.3737244079181
 21
152.7907955186689
 31
0.0
  0
LINE
  5
1FEAF
330
18
100
AcDbEntity
  8
1
  6
CONTINUOUS
 62
     7
100
AcDbLine
 10
560.3737244079181
 20
148.690795382137
 30
0.0
 11
563.3737248996564
 21
148.690795382137
 31
0.0
  0
LINE
  5
1FEB0
330
18
100
AcDbEntity
  8
1
  6
CONTINUOUS
 62
     7
100
AcDbLine
 10
563.3737248996564
 20
148.690795382137
 30
0.0
 11
563.3737248996564
 21
140.4907954583192
 31
0.0
  0
LINE
  5
1FEB1
330
18
100
AcDbEntity
  8
1
  6
CONTINUOUS
 62
     7
100
AcDbLine
 10
559.8737243259617
 20
152.7907955186689
 30
0.0
 11
554.3737252870866
 21
152.7907955186689
 31
0.0
  0
LINE
  5
1FEB2
330
18
100
AcDbEntity
  8
1
  6
CONTINUOUS
 62
     7
100
AcDbLine
 10
559.8737243259617
 20
136.3907949725413
 30
0.0
 11
554.3737252870866
 21
136.3907949725413
 31
0.0
  0
LINE
  5
1FEB3
330
18
100
AcDbEntity
  8
1
  6
CONTINUOUS
 62
     7
100
AcDbLine
 10
560.3737244079181
 20
140.4907954583192
 30
0.0
 11
563.3737248996564
 21
140.4907954583192
 31
0.0
  0
LINE
  5
1FEB4
330
18
100
AcDbEntity
  8
1
  6
CONTINUOUS
 62
     7
100
AcDbLine
 10
560.3737244079181
 20
136.3907949725413
 30
0.0
 11
563.3737248996564
 21
136.3907949725413
 31
0.0
  0
LINE
  5
1FEB5
330
18
100
AcDbEntity
  8
1
  6
CONTINUOUS
 62
     7
100
AcDbLine
 10
554.3737252870866
 20
152.7907955186689
 30
0.0
 11
554.3737252870866
 21
158.3907957846546
 31
0.0
  0
LINE
  5
1FEB6
330
18
100
AcDbEntity
  8
1
  6
CONTINUOUS
 62
     7
100
AcDbLine
 10
554.3737252870866
 20
140.4907954583192
 30
0.0
 11
554.3737252870866
 21
148.690795382137
 31
0.0
  0
LINE
  5
1FEB7
330
18
100
AcDbEntity
  8
1
  6
CONTINUOUS
 62
     7
100
AcDbLine
 10
554.3737252870866
 20
130.7907961035395
 30
0.0
 11
554.3737252870866
 21
136.3907949725413
 31
0.0
  0
LINE
  5
1FEB8
330
18
100
AcDbEntity
  8
1
  6
CONTINUOUS
 62
     7
100
AcDbLine
 10
559.8737243259617
 20
148.690795382137
 30
0.0
 11
554.3737252870866
 21
148.690795382137
 31
0.0
  0
LINE
  5
1FEB9
330
18
100
AcDbEntity
  8
1
  6
CONTINUOUS
 62
     7
100
AcDbLine
 10
557.3737248475023
 20
129.7907959396267
 30
0.0
 11
554.3737252870866
 21
129.7907959396267
 31
0.0
  0
LINE
  5
1FEBA
330
18
100
AcDbEntity
  8
1
  6
CONTINUOUS
 62
     7
100
AcDbLine
 10
557.3737248475023
 20
129.7907959396267
 30
0.0
 11
557.3737248475023
 21
130.7907961035395
 31
0.0
  0
LINE
  5
1FEBB
330
18
100
AcDbEntity
  8
1
  6
CONTINUOUS
 62
     7
100
AcDbLine
 10
554.3737252870866
 20
129.7907959396267
 30
0.0
 11
554.3737252870866
 21
130.7907961035395
 31
0.0
  0
LINE
  5
1FEBC
330
18
100
AcDbEntity
  8
1
  6
CONTINUOUS
 62
     7
100
AcDbLine
 10
563.3737248996564
 20
148.690795382137
 30
0.0
 11
563.3737248996564
 21
152.7907955186689
 31
0.0
  0
LINE
  5
1FEBD
330
18
100
AcDbEntity
  8
1
  6
CONTINUOUS
 62
     7
100
AcDbLine
 10
557.3737248475023
 20
159.3907950172448
 30
0.0
 11
554.3737252870866
 21
159.3907950172448
 31
0.0
  0
LINE
  5
1FEBE
330
18
100
AcDbEntity
  8
1
  6
CONTINUOUS
 62
     7
100
AcDbLine
 10
557.3737248475023
 20
158.3907957846546
 30
0.0
 11
557.3737248475023
 21
159.3907950172448
 31
0.0
  0
LINE
  5
1FEBF
330
18
100
AcDbEntity
  8
1
  6
CONTINUOUS
 62
     7
100
AcDbLine
 10
554.3737252870866
 20
158.3907957846546
 30
0.0
 11
554.3737252870866
 21
159.3907950172448
 31
0.0
  0
LINE
  5
1FEC0
330
18
100
AcDbEntity
  8
1
  6
CONTINUOUS
 62
     7
100
AcDbLine
 10
554.3737252870866
 20
152.7907955186689
 30
0.0
 11
554.3737252870866
 21
148.690795382137
 31
0.0
  0
LINE
  5
1FEC1
330
18
100
AcDbEntity
  8
1
  6
CONTINUOUS
 62
     7
100
AcDbLine
 10
554.3737252870866
 20
140.4907954583192
 30
0.0
 11
554.3737252870866
 21
136.3907949725413
 31
0.0
  0
LINE
  5
1FEC2
330
18
100
AcDbEntity
  8
1
  6
CONTINUOUS
 62
     7
100
AcDbLine
 10
564.873724214203
 20
133.2907955819988
 30
0.0
 11
564.873724214203
 21
155.8907953748727
 31
0.0
  0
LINE
  5
1FEC3
330
18
100
AcDbEntity
  8
1
  6
CONTINUOUS
 62
     7
100
AcDbLine
 10
632.0199557313149
 20
209.6361798482652
 30
0.0
 11
632.8199557693129
 21
209.6361798482652
 31
0.0
  0
LINE
  5
1FEC4
330
18
100
AcDbEntity
  8
1
  6
CONTINUOUS
 62
     7
100
AcDbLine
 10
632.0199557313149
 20
209.6361798482652
 30
0.0
 11
632.0199557313149
 21
210.0361791687722
 31
0.0
  0
LINE
  5
1FEC5
330
18
100
AcDbEntity
  8
1
  6
CONTINUOUS
 62
     7
100
AcDbLine
 10
632.8199557693129
 20
209.6361798482652
 30
0.0
 11
632.8199557693129
 21
210.0361791687722
 31
0.0
  0
LINE
  5
1FEC6
330
18
100
AcDbEntity
  8
1
  6
CONTINUOUS
 62
     7
100
AcDbLine
 10
632.3405439698522
 20
208.4861985656138
 30
0.0
 11
632.4993670651143
 21
208.4861985656138
 31
0.0
  0
LINE
  5
1FEC7
330
18
100
AcDbEntity
  8
1
  6
CONTINUOUS
 62
     7
100
AcDbLine
 10
632.3384517536883
 20
208.4861799391623
 30
0.0
 11
632.3405439698522
 21
208.4861985656138
 31
0.0
  0
LINE
  5
1FEC8
330
18
100
AcDbEntity
  8
1
  6
CONTINUOUS
 62
     7
100
AcDbLine
 10
632.4993670651143
 20
208.4861985656138
 30
0.0
 11
632.5014592812781
 21
208.4861799391623
 31
0.0
  0
LINE
  5
1FEC9
330
18
100
AcDbEntity
  8
1
  6
CONTINUOUS
 62
     7
100
AcDbLine
 10
632.4267285609071
 20
204.1361794124062
 30
0.0
 11
632.5014592812781
 21
204.1410672261084
 31
0.0
  0
LINE
  5
1FECA
330
18
100
AcDbEntity
  8
1
  6
CONTINUOUS
 62
     7
100
AcDbLine
 10
632.4267285609071
 20
204.1361794124062
 30
0.0
 11
632.4131824740593
 21
204.1361794124062
 31
0.0
  0
LINE
  5
1FECB
330
18
100
AcDbEntity
  8
1
  6
CONTINUOUS
 62
     7
100
AcDbLine
 10
632.3384517536883
 20
204.1410672261084
 30
0.0
 11
632.4131824740593
 21
204.1361794124062
 31
0.0
  0
ARC
  5
1FECC
330
18
100
AcDbEntity
  8
1
  6
CONTINUOUS
 62
     7
100
AcDbCircle
 10
632.4173652401081
 20
204.7080200297857
 30
0.0
 40
0.5724183958753158
100
AcDbArc
 50
179.683766967722
 51
262.075978950178
  0
ARC
  5
1FECD
330
18
100
AcDbEntity
  8
1
  6
CONTINUOUS
 62
     7
100
AcDbCircle
 10
632.4225457948584
 20
204.7080200297857
 30
0.0
 40
0.5724183958753443
100
AcDbArc
 50
277.9240210498216
 51
0.316233032278057
  0
LINE
  5
1FECE
330
18
100
AcDbEntity
  8
1
  6
CONTINUOUS
 62
     7
100
AcDbLine
 10
631.8449555629318
 20
208.4861799391623
 30
0.0
 11
632.3384517536883
 21
208.4861799391623
 31
0.0
  0
SPLINE
  5
1FECF
330
18
100
AcDbEntity
  8
1
  6
CONTINUOUS
 62
     7
100
AcDbSpline
210
0.0
220
0.0
230
1.0
 70
     8
 71
     3
 72
    12
 73
     8
 74
     0
 42
0.000000001
 43
0.00000001
 40
0.0
 40
0.0
 40
0.0
 40
0.0
 40
0.2195026965591036
 40
0.4390354023708211
 40
0.6560231450058892
 40
0.866539289499298
 40
1.0
 40
1.0
 40
1.0
 40
1.0
 10
631.4900825464551
 20
208.8361793446059
 30
0.0
 10
631.5306204387973
 20
208.8322065201857
 30
0.0
 10
631.6117017656087
 20
208.8242603282014
 30
0.0
 10
631.7195080236045
 20
208.762551015337
 30
0.0
 10
631.7993071946071
 20
208.672054696494
 30
0.0
 10
631.8395129161634
 20
208.5740834066173
 30
0.0
 10
631.8434341503803
 20
208.5107520718763
 30
0.0
 10
631.8449555629318
 20
208.4861799391623
 30
0.0
  0
LINE
  5
1FED0
330
18
100
AcDbEntity
  8
1
  6
CONTINUOUS
 62
     7
100
AcDbLine
 10
632.4199555174832
 20
208.8361793446059
 30
0.0
 11
631.4900825464551
 21
208.8361793446059
 31
0.0
  0
SPLINE
  5
1FED1
330
18
100
AcDbEntity
  8
1
  6
CONTINUOUS
 62
     7
100
AcDbSpline
210
0.0
220
0.0
230
1.0
 70
     8
 71
     3
 72
    12
 73
     8
 74
     0
 42
0.000000001
 43
0.00000001
 40
0.0
 40
0.0
 40
0.0
 40
0.0
 40
0.2116693955814692
 40
0.423418981824475
 40
0.633185199402983
 40
0.845097866469587
 40
1.0
 40
1.0
 40
1.0
 40
1.0
 10
632.9949554720347
 20
208.4861799391623
 30
0.0
 10
632.9987255498926
 20
208.5252889573136
 30
0.0
 10
633.0062671338972
 20
208.6035218100144
 30
0.0
 10
633.0659388777873
 20
208.7075495540229
 30
0.0
 10
633.1540209867034
 20
208.7859473109627
 30
0.0
 10
633.2537166502966
 20
208.8294305900923
 30
0.0
 10
633.3212922413294
 20
208.8341755827871
 30
0.0
 10
633.349828721342
 20
208.8361793446059
 30
0.0
  0
LINE
  5
1FED2
330
18
100
AcDbEntity
  8
1
  6
CONTINUOUS
 62
     7
100
AcDbLine
 10
632.5014592812781
 20
208.4861799391623
 30
0.0
 11
632.9949554720347
 21
208.4861799391623
 31
0.0
  0
LINE
  5
1FED3
330
18
100
AcDbEntity
  8
1
  6
CONTINUOUS
 62
     7
100
AcDbLine
 10
633.349828721342
 20
208.8361793446059
 30
0.0
 11
632.4199555174832
 21
208.8361793446059
 31
0.0
  0
LINE
  5
1FED4
330
18
100
AcDbEntity
  8
1
  6
CONTINUOUS
 62
     7
100
AcDbLine
 10
632.9949554720347
 20
204.7111793669577
 30
0.0
 11
632.9949554720347
 21
208.4861799391623
 31
0.0
  0
LINE
  5
1FED5
330
18
100
AcDbEntity
  8
1
  6
CONTINUOUS
 62
     7
100
AcDbLine
 10
631.8449555629318
 20
204.7111793669577
 30
0.0
 11
631.8449555629318
 21
208.4861799391623
 31
0.0
  0
LINE
  5
1FED6
330
18
100
AcDbEntity
  8
1
  6
CONTINUOUS
 62
     7
100
AcDbLine
 10
633.5449554690545
 20
210.0361791687722
 30
0.0
 11
633.5449554690545
 21
208.8361793446059
 31
0.0
  0
LINE
  5
1FED7
330
18
100
AcDbEntity
  8
1
  6
CONTINUOUS
 62
     7
100
AcDbLine
 10
633.5449554690545
 20
208.8361793446059
 30
0.0
 11
633.349828721342
 21
208.8361793446059
 31
0.0
  0
LINE
  5
1FED8
330
18
100
AcDbEntity
  8
1
  6
CONTINUOUS
 62
     7
100
AcDbLine
 10
631.4900825464551
 20
208.8361793446059
 30
0.0
 11
631.294955565912
 21
208.8361793446059
 31
0.0
  0
LINE
  5
1FED9
330
18
100
AcDbEntity
  8
1
  6
CONTINUOUS
 62
     7
100
AcDbLine
 10
631.294955565912
 20
208.8361793446059
 30
0.0
 11
631.294955565912
 21
210.0361791687722
 31
0.0
  0
LINE
  5
1FEF1
330
18
100
AcDbEntity
  8
1
  6
CONTINUOUS
 62
     7
100
AcDbLine
 10
618.8199558028405
 20
209.6361798482652
 30
0.0
 11
619.6199563064997
 21
209.6361798482652
 31
0.0
  0
LINE
  5
1FEF2
330
18
100
AcDbEntity
  8
1
  6
CONTINUOUS
 62
     7
100
AcDbLine
 10
618.8199558028405
 20
209.6361798482652
 30
0.0
 11
618.8199558028405
 21
210.0361791687722
 31
0.0
  0
LINE
  5
1FEF3
330
18
100
AcDbEntity
  8
1
  6
CONTINUOUS
 62
     7
100
AcDbLine
 10
619.6199563064997
 20
209.6361798482652
 30
0.0
 11
619.6199563064997
 21
210.0361791687722
 31
0.0
  0
LINE
  5
1FEF4
330
18
100
AcDbEntity
  8
1
  6
CONTINUOUS
 62
     7
100
AcDbLine
 10
619.1405449727004
 20
208.4861985656138
 30
0.0
 11
619.2993671366398
 21
208.4861985656138
 31
0.0
  0
LINE
  5
1FEF5
330
18
100
AcDbEntity
  8
1
  6
CONTINUOUS
 62
     7
100
AcDbLine
 10
619.1384513595526
 20
208.4861799391623
 30
0.0
 11
619.1405449727004
 21
208.4861985656138
 31
0.0
  0
LINE
  5
1FEF6
330
18
100
AcDbEntity
  8
1
  6
CONTINUOUS
 62
     7
100
AcDbLine
 10
619.2993671366398
 20
208.4861985656138
 30
0.0
 11
619.3014588871424
 21
208.4861799391623
 31
0.0
  0
LINE
  5
1FEF7
330
18
100
AcDbEntity
  8
1
  6
CONTINUOUS
 62
     7
100
AcDbLine
 10
619.2267295637553
 20
204.1361794124062
 30
0.0
 11
619.3014588871424
 21
204.1410672261084
 31
0.0
  0
LINE
  5
1FEF8
330
18
100
AcDbEntity
  8
1
  6
CONTINUOUS
 62
     7
100
AcDbLine
 10
619.2267295637553
 20
204.1361794124062
 30
0.0
 11
619.2131825455849
 21
204.1361794124062
 31
0.0
  0
LINE
  5
1FEF9
330
18
100
AcDbEntity
  8
1
  6
CONTINUOUS
 62
     7
100
AcDbLine
 10
619.1384513595526
 20
204.1410672261084
 30
0.0
 11
619.2131825455849
 21
204.1361794124062
 31
0.0
  0
ARC
  5
1FEFA
330
18
100
AcDbEntity
  8
1
  6
CONTINUOUS
 62
     7
100
AcDbCircle
 10
619.2225468626067
 20
204.7080192318976
 30
0.0
 40
0.5724174040720917
100
AcDbArc
 50
277.9238871306246
 51
0.316313445564844
  0
ARC
  5
1FEFB
330
18
100
AcDbEntity
  8
1
  6
CONTINUOUS
 62
     7
100
AcDbCircle
 10
619.2173669951171
 20
204.7080223576521
 30
0.0
 40
0.5724209977981298
100
AcDbArc
 50
179.6840014136459
 51
262.0757980101594
  0
LINE
  5
1FEFC
330
18
100
AcDbEntity
  8
1
  6
CONTINUOUS
 62
     7
100
AcDbLine
 10
618.6449547031348
 20
208.4861799391623
 30
0.0
 11
619.1384513595526
 21
208.4861799391623
 31
0.0
  0
SPLINE
  5
1FEFD
330
18
100
AcDbEntity
  8
1
  6
CONTINUOUS
 62
     7
100
AcDbSpline
210
0.0
220
0.0
230
1.0
 70
     8
 71
     3
 72
    12
 73
     8
 74
     0
 42
0.000000001
 43
0.00000001
 40
0.0
 40
0.0
 40
0.0
 40
0.0
 40
0.2195024465577906
 40
0.4390349023340163
 40
0.6560229548764839
 40
0.8665397938090534
 40
1.0
 40
1.0
 40
1.0
 40
1.0
 10
618.2900816866581
 20
208.8361793446059
 30
0.0
 10
618.3306195703709
 20
208.8322065228355
 30
0.0
 10
618.4117008799225
 20
208.8242603361512
 30
0.0
 10
618.5195073584216
 20
208.7625509312874
 30
0.0
 10
618.5993061996863
 20
208.6720545133921
 30
0.0
 10
618.6395149283553
 20
208.5740838100181
 30
0.0
 10
618.6434340981511
 20
208.5107521079595
 30
0.0
 10
618.6449547031348
 20
208.4861799391623
 30
0.0
  0
LINE
  5
1FEFE
330
18
100
AcDbEntity
  8
1
  6
CONTINUOUS
 62
     7
100
AcDbLine
 10
619.2199551233475
 20
208.8361793446059
 30
0.0
 11
618.2900816866581
 21
208.8361793446059
 31
0.0
  0
SPLINE
  5
1FEFF
330
18
100
AcDbEntity
  8
1
  6
CONTINUOUS
 62
     7
100
AcDbSpline
210
0.0
220
0.0
230
1.0
 70
     8
 71
     3
 72
    12
 73
     8
 74
     0
 42
0.000000001
 43
0.00000001
 40
0.0
 40
0.0
 40
0.0
 40
0.0
 40
0.2116695573041551
 40
0.4234199178301533
 40
0.6331856660749112
 40
0.8450973291874958
 40
1.0
 40
1.0
 40
1.0
 40
1.0
 10
619.7949555435603
 20
208.4861799391623
 30
0.0
 10
619.7987255599766
 20
208.5252889940913
 30
0.0
 10
619.8062670319839
 20
208.6035220335296
 30
0.0
 10
619.8659397634547
 20
208.7075492057696
 30
0.0
 10
619.9540211278998
 20
208.7859472658699
 30
0.0
 10
620.0537165382613
 20
208.8294306926051
 30
0.0
 10
620.1212919995356
 20
208.8341756065452
 30
0.0
 10
620.1498285600369
 20
208.8361793446059
 30
0.0
  0
LINE
  5
1FF00
330
18
100
AcDbEntity
  8
1
  6
CONTINUOUS
 62
     7
100
AcDbLine
 10
619.3014588871424
 20
208.4861799391623
 30
0.0
 11
619.7949555435603
 21
208.4861799391623
 31
0.0
  0
LINE
  5
1FF01
330
18
100
AcDbEntity
  8
1
  6
CONTINUOUS
 62
     7
100
AcDbLine
 10
620.1498285600369
 20
208.8361793446059
 30
0.0
 11
619.2199551233475
 21
208.8361793446059
 31
0.0
  0
LINE
  5
1FF02
330
18
100
AcDbEntity
  8
1
  6
CONTINUOUS
 62
     7
100
AcDbLine
 10
619.7949555435603
 20
204.7111793669577
 30
0.0
 11
619.7949555435603
 21
208.4861799391623
 31
0.0
  0
LINE
  5
1FF03
330
18
100
AcDbEntity
  8
1
  6
CONTINUOUS
 62
     7
100
AcDbLine
 10
618.6449547031348
 20
204.7111793669577
 30
0.0
 11
618.6449547031348
 21
208.4861799391623
 31
0.0
  0
LINE
  5
1FF04
330
18
100
AcDbEntity
  8
1
  6
CONTINUOUS
 62
     7
100
AcDbLine
 10
620.34495554058
 20
210.0361791687722
 30
0.0
 11
620.34495554058
 21
208.8361793446059
 31
0.0
  0
LINE
  5
1FF05
330
18
100
AcDbEntity
  8
1
  6
CONTINUOUS
 62
     7
100
AcDbLine
 10
620.34495554058
 20
208.8361793446059
 30
0.0
 11
620.1498285600369
 21
208.8361793446059
 31
0.0
  0
LINE
  5
1FF06
330
18
100
AcDbEntity
  8
1
  6
CONTINUOUS
 62
     7
100
AcDbLine
 10
618.2900816866581
 20
208.8361793446059
 30
0.0
 11
618.094954706115
 21
208.8361793446059
 31
0.0
  0
LINE
  5
1FF07
330
18
100
AcDbEntity
  8
1
  6
CONTINUOUS
 62
     7
100
AcDbLine
 10
618.094954706115
 20
208.8361793446059
 30
0.0
 11
618.094954706115
 21
210.0361791687722
 31
0.0
  0
LINE
  5
1FF1F
330
18
100
AcDbEntity
  8
1
  6
CONTINUOUS
 62
     7
100
AcDbLine
 10
626.4199559309905
 20
216.0361792209263
 30
0.0
 11
626.4199559309905
 21
217.2361799764152
 31
0.0
  0
LINE
  5
1FF20
330
18
100
AcDbEntity
  8
1
  6
CONTINUOUS
 62
     7
100
AcDbLine
 10
626.4199559309905
 20
216.0361792209263
 30
0.0
 11
635.569955521581
 21
216.0361792209263
 31
0.0
  0
LINE
  5
1FF21
330
18
100
AcDbEntity
  8
1
  6
CONTINUOUS
 62
     7
100
AcDbLine
 10
627.0751022466843
 20
219.036178781342
 30
0.0
 11
626.4199559309905
 21
217.2361799764152
 31
0.0
  0
LINE
  5
1FF22
330
18
100
AcDbEntity
  8
1
  6
CONTINUOUS
 62
     7
100
AcDbLine
 10
627.0751022466843
 20
219.036178781342
 30
0.0
 11
635.569955521581
 21
219.036178781342
 31
0.0
  0
LINE
  5
1FF23
330
18
100
AcDbEntity
  8
1
  6
CONTINUOUS
 62
     7
100
AcDbLine
 10
615.0699556538289
 20
216.0361792209263
 30
0.0
 11
615.0699556538289
 21
219.036178781342
 31
0.0
  0
LINE
  5
1FF24
330
18
100
AcDbEntity
  8
1
  6
CONTINUOUS
 62
     7
100
AcDbLine
 10
615.0699556538289
 20
219.036178781342
 30
0.0
 11
616.0699558177416
 21
219.036178781342
 31
0.0
  0
LINE
  5
1FF25
330
18
100
AcDbEntity
  8
1
  6
CONTINUOUS
 62
     7
100
AcDbLine
 10
615.0699556538289
 20
216.0361792209263
 30
0.0
 11
616.0699558177416
 21
216.0361792209263
 31
0.0
  0
LINE
  5
1FF26
330
18
100
AcDbEntity
  8
1
  6
CONTINUOUS
 62
     7
100
AcDbLine
 10
625.2199551755016
 20
217.2361799764152
 30
0.0
 11
624.5648088598077
 21
219.036178781342
 31
0.0
  0
LINE
  5
1FF27
330
18
100
AcDbEntity
  8
1
  6
CONTINUOUS
 62
     7
100
AcDbLine
 10
625.2199551755016
 20
216.0361792209263
 30
0.0
 11
625.2199551755016
 21
217.2361799764152
 31
0.0
  0
LINE
  5
1FF28
330
18
100
AcDbEntity
  8
1
  6
CONTINUOUS
 62
     7
100
AcDbLine
 10
616.0699558177416
 20
219.036178781342
 30
0.0
 11
624.5648088598077
 21
219.036178781342
 31
0.0
  0
LINE
  5
1FF29
330
18
100
AcDbEntity
  8
1
  6
CONTINUOUS
 62
     7
100
AcDbLine
 10
616.0699558177416
 20
216.0361792209263
 30
0.0
 11
625.2199551755016
 21
216.0361792209263
 31
0.0
  0
LINE
  5
1FF2A
330
18
100
AcDbEntity
  8
1
  6
CONTINUOUS
 62
     7
100
AcDbLine
 10
636.5699555545266
 20
216.0361792209263
 30
0.0
 11
636.5699555545266
 21
219.036178781342
 31
0.0
  0
LINE
  5
1FF2B
330
18
100
AcDbEntity
  8
1
  6
CONTINUOUS
 62
     7
100
AcDbLine
 10
635.569955521581
 20
216.0361792209263
 30
0.0
 11
636.5699555545266
 21
216.0361792209263
 31
0.0
  0
LINE
  5
1FF2C
330
18
100
AcDbEntity
  8
1
  6
CONTINUOUS
 62
     7
100
AcDbLine
 10
635.569955521581
 20
219.036178781342
 30
0.0
 11
636.5699555545266
 21
219.036178781342
 31
0.0
  0
LINE
  5
1FF2D
330
18
100
AcDbEntity
  8
1
  6
CONTINUOUS
 62
     7
100
AcDbLine
 10
626.4199559309905
 20
217.2361799764152
 30
0.0
 11
625.2199551755016
 21
217.2361799764152
 31
0.0
  0
LINE
  5
1FF2E
330
18
100
AcDbEntity
  8
1
  6
CONTINUOUS
 62
     7
100
AcDbLine
 10
624.5648088598077
 20
219.036178781342
 30
0.0
 11
627.0751022466843
 21
219.036178781342
 31
0.0
  0
LINE
  5
1FF2F
330
18
100
AcDbEntity
  8
1
  6
CONTINUOUS
 62
     7
100
AcDbLine
 10
620.8874546655838
 20
210.7111794191117
 30
0.0
 11
620.8874546655838
 21
210.0361791687722
 31
0.0
  0
LINE
  5
1FF30
330
18
100
AcDbEntity
  8
1
  6
CONTINUOUS
 62
     7
100
AcDbLine
 10
620.8874546655838
 20
210.0361791687722
 30
0.0
 11
616.0699558177416
 21
210.0361791687722
 31
0.0
  0
LINE
  5
1FF31
330
18
100
AcDbEntity
  8
1
  6
CONTINUOUS
 62
     7
100
AcDbLine
 10
635.569955521581
 20
210.0361791687722
 30
0.0
 11
630.7524555095856
 21
210.0361791687722
 31
0.0
  0
LINE
  5
1FF32
330
18
100
AcDbEntity
  8
1
  6
CONTINUOUS
 62
     7
100
AcDbLine
 10
630.7524555095856
 20
210.7111794191117
 30
0.0
 11
630.7524555095856
 21
210.0361791687722
 31
0.0
  0
LINE
  5
1FF33
330
18
100
AcDbEntity
  8
1
  6
CONTINUOUS
 62
     7
100
AcDbLine
 10
630.7524555095856
 20
210.7111794191117
 30
0.0
 11
629.6874555492227
 21
210.7111794191117
 31
0.0
  0
LINE
  5
1FF34
330
18
100
AcDbEntity
  8
1
  6
CONTINUOUS
 62
     7
100
AcDbLine
 10
629.6874555492227
 20
210.7111794191117
 30
0.0
 11
629.6874555492227
 21
210.0361791687722
 31
0.0
  0
LINE
  5
1FF35
330
18
100
AcDbEntity
  8
1
  6
CONTINUOUS
 62
     7
100
AcDbLine
 10
629.6874555492227
 20
210.0361791687722
 30
0.0
 11
621.9524555572693
 21
210.0361791687722
 31
0.0
  0
LINE
  5
1FF36
330
18
100
AcDbEntity
  8
1
  6
CONTINUOUS
 62
     7
100
AcDbLine
 10
621.9524555572693
 20
210.7111794191117
 30
0.0
 11
621.9524555572693
 21
210.0361791687722
 31
0.0
  0
LINE
  5
1FF37
330
18
100
AcDbEntity
  8
1
  6
CONTINUOUS
 62
     7
100
AcDbLine
 10
621.9524555572693
 20
210.7111794191117
 30
0.0
 11
620.8874546655838
 21
210.7111794191117
 31
0.0
  0
LINE
  5
1FF38
330
18
100
AcDbEntity
  8
1
  6
CONTINUOUS
 62
     7
100
AcDbLine
 10
636.5699555545266
 20
210.0361791687722
 30
0.0
 11
635.569955521581
 21
210.0361791687722
 31
0.0
  0
LINE
  5
1FF39
330
18
100
AcDbEntity
  8
1
  6
CONTINUOUS
 62
     7
100
AcDbLine
 10
636.5699555545266
 20
210.0361791687722
 30
0.0
 11
636.5699555545266
 21
216.0361792209263
 31
0.0
  0
LINE
  5
1FF3A
330
18
100
AcDbEntity
  8
1
  6
CONTINUOUS
 62
     7
100
AcDbLine
 10
616.0699558177416
 20
210.0361791687722
 30
0.0
 11
615.0699556538289
 21
210.0361791687722
 31
0.0
  0
LINE
  5
1FF3B
330
18
100
AcDbEntity
  8
1
  6
CONTINUOUS
 62
     7
100
AcDbLine
 10
615.0699556538289
 20
210.0361791687722
 30
0.0
 11
615.0699556538289
 21
216.0361792209263
 31
0.0
  0
ARC
  5
1FF3C
330
18
100
AcDbEntity
  8
1
  6
CONTINUOUS
 62
     7
100
AcDbCircle
 10
634.6199555502333
 20
208.9361795062766
 30
0.0
 40
0.4000000000000057
100
AcDbArc
 50
270.0
 51
0.0
  0
ARC
  5
1FF3D
330
18
100
AcDbEntity
  8
1
  6
CONTINUOUS
 62
     7
100
AcDbCircle
 10
634.6199555502333
 20
208.9361795062766
 30
0.0
 40
0.4000000000000057
100
AcDbArc
 50
180.0
 51
270.0
  0
ARC
  5
1FF3E
330
18
100
AcDbEntity
  8
1
  6
CONTINUOUS
 62
     7
100
AcDbCircle
 10
617.0199555502334
 20
208.9361795062766
 30
0.0
 40
0.4000000000000057
100
AcDbArc
 50
270.0
 51
0.0
  0
ARC
  5
1FF3F
330
18
100
AcDbEntity
  8
1
  6
CONTINUOUS
 62
     7
100
AcDbCircle
 10
617.0199555502334
 20
208.9361795062766
 30
0.0
 40
0.4000000000000057
100
AcDbArc
 50
180.0
 51
270.0
  0
LINE
  5
1FF40
330
18
100
AcDbEntity
  8
1
  6
CONTINUOUS
 62
     7
100
AcDbLine
 10
617.4199563184206
 20
208.9361791747327
 30
0.0
 11
617.4199563184206
 21
210.0361791687722
 31
0.0
  0
LINE
  5
1FF41
330
18
100
AcDbEntity
  8
1
  6
CONTINUOUS
 62
     7
100
AcDbLine
 10
616.6199558147614
 20
208.9361791747327
 30
0.0
 11
616.6199558147614
 21
210.0361791687722
 31
0.0
  0
LINE
  5
1FF42
330
18
100
AcDbEntity
  8
1
  6
CONTINUOUS
 62
     7
100
AcDbLine
 10
635.0199555245613
 20
208.9361791747327
 30
0.0
 11
635.0199555245613
 21
210.0361791687722
 31
0.0
  0
LINE
  5
1FF43
330
18
100
AcDbEntity
  8
1
  6
CONTINUOUS
 62
     7
100
AcDbLine
 10
634.2199554865633
 20
208.9361791747327
 30
0.0
 11
634.2199554865633
 21
210.0361791687722
 31
0.0
  0
LINE
  5
1FF45
330
18
100
AcDbEntity
  8
OSIE
100
AcDbLine
 10
625.819955553246
 20
162.7251544534222
 30
0.0
 11
625.819955553246
 21
126.5598535733426
 31
0.0
  0
LINE
  5
1FF46
330
18
100
AcDbEntity
  8
OSIE
100
AcDbLine
 10
622.4849987827198
 20
137.7907954018108
 30
0.0
 11
629.2881472931628
 21
137.7907954018108
 31
0.0
  0
DIMENSION
  5
1FF47
330
18
100
AcDbEntity
  8
WY
100
AcDbDimension
  2
*D230
 10
645.1924172857789
 20
149.753295789125
 30
0.0
 11
645.1924172857789
 21
151.8032960320139
 31
0.0
 70
   160
  3
STANDARD
100
AcDbAlignedDimension
 13
635.3328546643628
 23
153.8532962749028
 33
0.0
 14
635.3328546643628
 24
149.753295789125
 34
0.0
 50
90.0
100
AcDbRotatedDimension
1001
ACAD
1000
DSTYLE
1002
{
1070
   287
1070
     3
1070
     7
1000
OBLIQUE
1070
     6
1000

1070
     5
1000

1070
   173
1070
     1
1070
   172
1070
     1
1070
    41
1040
2.0
1070
   147
1040
0.75
1070
   174
1070
     1
1070
   279
1070
     0
1070
    74
1070
     1
1070
   140
1040
1.5
1070
   284
1070
     8
1070
    78
1070
     8
1002
}
  0
DIMENSION
  5
1FF48
330
18
100
AcDbEntity
  8
WY
100
AcDbDimension
  2
*D231
 10
645.1924172857789
 20
149.753295789125
 30
0.0
 11
643.6924172857789
 21
146.6032960178578
 31
0.0
 70
    32
  3
STANDARD
100
AcDbAlignedDimension
 13
635.3328546643628
 23
143.4532962465906
 33
0.0
 14
635.3328546643628
 24
149.753295789125
 34
0.0
 50
90.0
100
AcDbRotatedDimension
1001
ACAD
1000
DSTYLE
1002
{
1070
   287
1070
     3
1070
     7
1000
NONE
1070
     6
1000
NONE
1070
     5
1000

1070
   172
1070
     1
1070
   173
1070
     1
1070
    41
1040
2.0
1070
   147
1040
0.75
1070
   174
1070
     1
1070
   279
1070
     0
1070
    74
1070
     0
1070
   140
1040
1.5
1070
   284
1070
     8
1070
    78
1070
     8
1002
}
  0
DIMENSION
  5
1FF49
330
18
100
AcDbEntity
  8
WY
100
AcDbDimension
  2
*D232
 10
645.1924172857789
 20
143.4532962465906
 30
0.0
 11
645.1924172857789
 21
140.3032962424928
 31
0.0
 70
   160
  3
STANDARD
100
AcDbAlignedDimension
 13
635.1941634721192
 23
137.1532971697175
 33
0.0
 14
635.3328546643628
 24
143.4532962465906
 34
0.0
 50
90.0
100
AcDbRotatedDimension
1001
ACAD
1000
DSTYLE
1002
{
1070
   287
1070
     3
1070
     7
1000
OBLIQUE
1070
     6
1000

1070
     5
1000

1070
   173
1070
     1
1070
   172
1070
     1
1070
    41
1040
2.0
1070
   147
1040
0.75
1070
   174
1070
     1
1070
   279
1070
     0
1070
    74
1070
     1
1070
   140
1040
1.5
1070
   284
1070
     8
1070
    78
1070
     8
1002
}
  0
LINE
  5
1FF4A
330
18
100
AcDbEntity
  8
OSIE
100
AcDbLine
 10
635.3328546643628
 20
149.7532976517701
 30
0.0
 11
616.3070573734517
 21
149.7532976517701
 31
0.0
  0
LINE
  5
1FF4B
330
18
100
AcDbEntity
  8
OSIE
100
AcDbLine
 10
635.3328546643628
 20
153.8532962749028
 30
0.0
 11
616.3070573734517
 21
153.8532962749028
 31
0.0
  0
LINE
  5
1FF4C
330
18
100
AcDbEntity
  8
OSIE
100
AcDbLine
 10
632.419955051822
 20
157.2231588454203
 30
0.0
 11
632.419955051822
 21
131.8866122535489
 31
0.0
  0
LINE
  5
1FF4D
330
18
100
AcDbEntity
  8
OSIE
100
AcDbLine
 10
628.0199560069864
 20
157.2231588454203
 30
0.0
 11
628.0199560069864
 21
140.9951960035018
 31
0.0
  0
LINE
  5
1FF4E
330
18
100
AcDbEntity
  8
OSIE
100
AcDbLine
 10
619.2199551233475
 20
157.2231588454203
 30
0.0
 11
619.2199551233475
 21
131.8866122535489
 31
0.0
  0
LINE
  5
1FF4F
330
18
100
AcDbEntity
  8
OSIE
100
AcDbLine
 10
623.6199560308282
 20
157.2231588454203
 30
0.0
 11
623.6199560308282
 21
140.9951960035018
 31
0.0
  0
LINE
  5
1FF50
330
18
100
AcDbEntity
  8
OSIE
100
AcDbLine
 10
635.3328546643628
 20
143.4532971779132
 30
0.0
 11
616.3070573734517
 21
143.4532971779132
 31
0.0
  0
LINE
  5
1FF51
330
18
100
AcDbEntity
  8
OSIE
100
AcDbLine
 10
635.1941634721192
 20
137.1532971697175
 30
0.0
 11
629.6457466315248
 21
137.1532971697175
 31
0.0
  0
LINE
  5
1FF52
330
18
100
AcDbEntity
  8
OSIE
100
AcDbLine
 10
621.9941635436447
 20
137.1532971697175
 30
0.0
 11
616.4457467030504
 21
137.1532971697175
 31
0.0
  0
DIMENSION
  5
1FF54
330
18
100
AcDbEntity
  8
WY
100
AcDbDimension
  2
*D234
 10
632.419955051822
 20
119.4473337656352
 30
0.0
 11
625.8199550875847
 21
120.9473337656352
 31
0.0
 70
    32
  3
STANDARD
100
AcDbAlignedDimension
 13
619.2199551233475
 23
131.8866122535489
 33
0.0
 14
632.419955051822
 24
131.8866122535489
 34
0.0
100
AcDbRotatedDimension
1001
ACAD
1000
DSTYLE
1002
{
1070
   287
1070
     4
1070
    41
1040
2.0
1070
   147
1040
0.75
1070
   174
1070
     1
1070
   279
1070
     1
1070
    74
1070
     1
1070
   140
1040
1.5
1070
   284
1070
     8
1070
    78
1070
     8
1002
}
  0
DIMENSION
  5
1FFA1
330
18
100
AcDbEntity
  8
WY
100
AcDbDimension
  2
*D236
 10
557.3737257788249
 20
120.8837019924735
 30
0.0
 11
555.8737255329557
 21
122.3837019924735
 31
0.0
 70
    32
  3
STANDARD
100
AcDbAlignedDimension
 13
554.3737252870866
 23
129.7907959396267
 33
0.0
 14
557.3737257788249
 24
129.7907959396267
 34
0.0
100
AcDbRotatedDimension
1001
ACAD
1000
DSTYLE
1002
{
1070
   287
1070
     3
1070
   172
1070
     1
1070
    41
1040
2.0
1070
   147
1040
0.75
1070
   174
1070
     1
1070
   279
1070
     0
1070
    74
1070
     0
1070
   140
1040
1.5
1070
   284
1070
     8
1070
    78
1070
     8
1002
}
  0
DIMENSION
  5
1FFA2
330
18
100
AcDbEntity
  8
WY
100
AcDbDimension
  2
*D237
 10
564.8737253783562
 20
115.8415543503966
 30
0.0
 11
559.6237253327214
 21
117.3415543503966
 31
0.0
 70
    32
  3
STANDARD
100
AcDbAlignedDimension
 13
554.3737252870866
 23
129.7907959396267
 33
0.0
 14
564.8737253783562
 24
133.2907962804908
 34
0.0
100
AcDbRotatedDimension
1001
ACAD
1000
DSTYLE
1002
{
1070
   287
1070
     3
1070
   172
1070
     1
1070
    41
1040
2.0
1070
   147
1040
0.75
1070
   174
1070
     1
1070
   279
1070
     0
1070
    74
1070
     0
1070
   140
1040
1.5
1070
   284
1070
     8
1070
    78
1070
     8
1002
}
  0
DIMENSION
  5
1FFA3
330
18
100
AcDbEntity
  8
WY
100
AcDbDimension
  2
*D238
 10
543.8533185583298
 20
129.7907959396267
 30
0.0
 11
542.3533185583298
 21
144.5907955948511
 31
0.0
 70
    32
  3
STANDARD
100
AcDbAlignedDimension
 13
554.3737252870866
 23
159.3907952500755
 33
0.0
 14
554.3737252870866
 24
129.7907959396267
 34
0.0
 50
90.0
100
AcDbRotatedDimension
1001
ACAD
1000
DSTYLE
1002
{
1070
   287
1070
     3
1070
   172
1070
     1
1070
    41
1040
2.0
1070
   147
1040
0.75
1070
   174
1070
     1
1070
   279
1070
     0
1070
    74
1070
     0
1070
   140
1040
1.5
1070
   284
1070
     8
1070
    78
1070
     8
1002
}
  0
DIMENSION
  5
1FFA4
330
18
100
AcDbEntity
  8
WY
100
AcDbDimension
  2
*D239
 10
580.3446078000784
 20
157.2907969547683
 30
0.0
 11
578.8446078000784
 21
144.5907964097583
 31
0.0
 70
    32
  3
STANDARD
100
AcDbAlignedDimension
 13
563.3737253653177
 23
131.8907958647484
 33
0.0
 14
563.3737253653177
 24
157.2907969547683
 34
0.0
 50
90.0
100
AcDbRotatedDimension
1001
ACAD
1000
DSTYLE
1002
{
1070
   287
1070
     3
1070
   172
1070
     1
1070
    41
1040
2.0
1070
   147
1040
0.75
1070
   174
1070
     1
1070
   279
1070
     0
1070
    74
1070
     0
1070
   140
1040
1.5
1070
   284
1070
     8
1070
    78
1070
     8
1002
}
  0
LINE
  5
1FFD7
330
18
100
AcDbEntity
  8
OSIE
100
AcDbLine
 10
551.8248491893489
 20
144.5907954202281
 30
0.0
 11
567.6840033530578
 21
144.5907954202281
 31
0.0
  0
DIMENSION
  5
1FFDA
330
18
100
AcDbEntity
  8
WY
100
AcDbDimension
  2
*D240
 10
574.8623525819045
 20
152.6462539397603
 30
0.0
 11
574.8623525819045
 21
145.7712539397603
 31
0.0
 70
   160
  3
STANDARD
100
AcDbAlignedDimension
 13
568.8142993725075
 23
152.8962277808419
 33
0.0
 14
568.814478335283
 24
152.6462539397603
 34
0.0
 50
90.0
100
AcDbRotatedDimension
1001
ACAD
1000
DSTYLE
1002
{
1070
   287
1070
     3
1070
   172
1070
     1
1070
    41
1040
2.0
1070
   147
1040
0.75
1070
   174
1070
     1
1070
   279
1070
     0
1070
    74
1070
     0
1070
   140
1040
1.5
1070
   284
1070
     8
1070
    78
1070
     8
1002
}
  0
DIMENSION
  5
1FFEB
330
18
100
AcDbEntity
  8
WY
100
AcDbDimension
  2
*D241
 10
619.7949555435603
 20
197.1480309321081
 30
0.0
 11
628.0449555435603
 21
197.1480309321081
 31
0.0
 70
   160
  3
STANDARD
100
AcDbAlignedDimension
 13
618.6449547031348
 23
204.7111793669577
 33
0.0
 14
619.7949555435603
 24
204.7111793669577
 34
0.0
100
AcDbRotatedDimension
1001
ACAD
1000
DSTYLE
1002
{
1070
   287
1070
     3
1070
     3
1000
-0,1
1070
   271
1070
     1
1070
   172
1070
     1
1070
    41
1040
2.0
1070
   147
1040
0.75
1070
   174
1070
     1
1070
   279
1070
     0
1070
    74
1070
     0
1070
   140
1040
1.5
1070
   284
1070
     8
1070
    78
1070
     8
1002
}
  0
LINE
  5
20002
330
18
100
AcDbEntity
  8
OSIE
100
AcDbLine
 10
619.2267295637553
 20
202.910076893095
 30
0.0
 11
619.2267295637553
 21
211.0561302864533
 31
0.0
  0
LINE
  5
20005
330
18
100
AcDbEntity
  8
OSIE
100
AcDbLine
 10
632.4267294922297
 20
202.910076893095
 30
0.0
 11
632.4267294922297
 21
211.0561302864533
 31
0.0
  0
LINE
  5
20006
330
18
100
AcDbEntity
  8
OSIE
100
AcDbLine
 10
625.819955553246
 20
220.9399523014318
 30
0.0
 11
625.819955553246
 21
202.1807470438274
 31
0.0
  0
DIMENSION
  5
20008
330
18
100
AcDbEntity
  8
WY
100
AcDbDimension
  2
*D242
 10
636.5699555545266
 20
192.8628695014285
 30
0.0
 11
625.8199556041777
 21
194.3628695014285
 31
0.0
 70
    32
  3
STANDARD
100
AcDbAlignedDimension
 13
615.0699556538289
 23
210.0361791687722
 33
0.0
 14
636.5699555545266
 24
210.0361791687722
 34
0.0
100
AcDbRotatedDimension
1001
ACAD
1000
DSTYLE
1002
{
1070
   287
1070
     4
1070
    41
1040
2.0
1070
   147
1040
0.75
1070
   174
1070
     1
1070
   279
1070
     1
1070
    74
1070
     1
1070
   140
1040
1.5
1070
   284
1070
     8
1070
    78
1070
     8
1002
}
  0
DIMENSION
  5
20017
330
18
100
AcDbEntity
  8
WY
100
AcDbDimension
  2
*D243
 10
569.2737246560224
 20
111.231040193754
 30
0.0
 11
561.8237249715545
 21
112.731040193754
 31
0.0
 70
    32
  3
STANDARD
100
AcDbAlignedDimension
 13
554.3737252870866
 23
129.7907959396267
 33
0.0
 14
569.2737246560224
 24
135.8936149353409
 34
0.0
100
AcDbRotatedDimension
1001
ACAD
1000
DSTYLE
1002
{
1070
   287
1070
     4
1070
    41
1040
2.5
1070
   147
1040
0.75
1070
   174
1070
     1
1070
   279
1070
     1
1070
    74
1070
     1
1070
   140
1040
1.5
1070
   284
1070
     8
1070
    78
1070
     8
1002
}
  0
ENDSEC
  0
SECTION
  2
OBJECTS
  0
DICTIONARY
  5
C
330
0
100
AcDbDictionary
  3
ACAD_DETAILVIEWSTYLE
350
F5C4
  3
ACAD_GROUP
350
D
  3
ACAD_IMAGE_VARS
350
F140
  3
ACAD_MLINESTYLE
350
E
  3
ACAD_SCALELIST
350
20041
  3
ACAD_SECTIONVIEWSTYLE
350
F5C5
  3
ACDBVARIABLEDICTIONARY
350
C1B
  3
APPDATA
350
F13E
  3
DIMOFFSETDICTIONARY
350
13296
  3
DWGPROPS
350
20070
  0
DICTIONARY
  5
13241
330
2
100
AcDbDictionary
280
     1
  3
ACAD_LAYERSTATES
360
13242
  0
DICTIONARY
  5
F5C4
102
{ACAD_REACTORS
330
C
102
}
330
C
100
AcDbDictionary
  0
DICTIONARY
  5
D
102
{ACAD_REACTORS
330
C
102
}
330
C
100
AcDbDictionary
  0
RASTERVARIABLES
  5
F140
102
{ACAD_REACTORS
330
C
102
}
330
C
100
AcDbRasterVariables
 90
        0
 70
     1
 71
     1
 72
     0
  0
DICTIONARY
  5
E
102
{ACAD_REACTORS
330
C
102
}
330
C
100
AcDbDictionary
  3
STANDARD
350
1B
  0
DICTIONARY
  5
20041
102
{ACAD_REACTORS
330
C
102
}
330
C
100
AcDbDictionary
  0
DICTIONARY
  5
F5C5
102
{ACAD_REACTORS
330
C
102
}
330
C
100
AcDbDictionary
  0
DICTIONARY
  5
C1B
102
{ACAD_REACTORS
330
C
102
}
330
C
100
AcDbDictionary
  3
HPTRANSPARENCY
350
13295
  3
SORTENTS
350
C1C
  0
DICTIONARY
  5
F13E
102
{ACAD_REACTORS
330
C
102
}
330
C
100
AcDbDictionary
  0
DICTIONARY
  5
13296
102
{ACAD_REACTORS
330
C
102
}
330
C
100
AcDbDictionary
  3
DIMRAILANGLE
350
173E2
  3
DIMRAILFIRSTOFFSET
350
173E0
  3
DIMRAILOFFSET
350
173E1
  3
DIMRAILSENABLED
350
173E3
  0
XRECORD
  5
20070
102
{ACAD_REACTORS
330
C
102
}
330
C
100
AcDbXrecord
  1
DWGPROPS COOKIE
  2

  3

  4

  6

  7

  8
pikusl
  9

300
=
301
=
302
=
303
=
304
=
305
=
306
=
307
=
308
=
309
=
 40
0.0
 41
2448721.315803356
 42
2457541.269471296
  1

 90
        0
  0
DICTIONARY
  5
13242
102
{ACAD_REACTORS
330
13241
102
}
330
13241
100
AcDbDictionary
  0
MLINESTYLE
  5
1B
102
{ACAD_REACTORS
330
E
102
}
330
E
100
AcDbMlineStyle
  2
STANDARD
 70
     0
  3

 62
     0
 51
90.0
 52
90.0
 71
     2
 49
0.5
 62
   256
  6
BYLAYER
 49
-0.5
 62
   256
  6
BYLAYER
  0
DICTIONARYVAR
  5
13295
102
{ACAD_REACTORS
330
C1B
102
}
330
C1B
100
DictionaryVariables
280
     0
  1
ByLayer
  0
DICTIONARYVAR
  5
C1C
102
{ACAD_REACTORS
330
C1B
102
}
330
C1B
100
DictionaryVariables
280
     0
  1
96
  0
DICTIONARYVAR
  5
173E2
102
{ACAD_REACTORS
330
13296
102
}
330
13296
100
DictionaryVariables
280
     0
  1
0.261799
  0
DICTIONARYVAR
  5
173E0
102
{ACAD_REACTORS
330
13296
102
}
330
13296
100
DictionaryVariables
280
     0
  1
0.400000
  0
DICTIONARYVAR
  5
173E1
102
{ACAD_REACTORS
330
13296
102
}
330
13296
100
DictionaryVariables
280
     0
  1
0.250000
  0
DICTIONARYVAR
  5
173E3
102
{ACAD_REACTORS
330
13296
102
}
330
13296
100
DictionaryVariables
280
     0
  1
1
  0
ENDSEC
  0
EOF
