  0
SECTION
  2
HEADER
  9
$ACADVER
  1
AC1014
  9
$ACADMAINTVER
 70
     9
  9
$DWGCODEPAGE
  3
ANSI_1250
  9
$INSBASE
 10
0.0
 20
0.0
 30
0.0
  9
$EXTMIN
 10
0.0
 20
0.0
 30
0.0
  9
$EXTMAX
 10
201.630407
 20
297.0
 30
0.0
  9
$LIMMIN
 10
0.0
 20
0.0
  9
$LIMMAX
 10
210.0
 20
297.0
  9
$ORTHOMODE
 70
     0
  9
$REGENMODE
 70
     1
  9
$FILLMODE
 70
     1
  9
$QTEXTMODE
 70
     0
  9
$MIRRTEXT
 70
     1
  9
$DRAGMODE
 70
     2
  9
$LTSCALE
 40
1.0
  9
$OSMODE
 70
  9143
  9
$ATTMODE
 70
     1
  9
$TEXTSIZE
 40
2.5
  9
$TRACEWID
 40
1.0
  9
$TEXTSTYLE
  7
STANDARD
  9
$CLAYER
  8
OSIE
  9
$CELTYPE
  6
BYLAYER
  9
$CECOLOR
 62
   256
  9
$CELTSCALE
 40
1.0
  9
$DELOBJ
 70
     1
  9
$DISPSILH
 70
     0
  9
$DIMSCALE
 40
1.0
  9
$DIMASZ
 40
2.0
  9
$DIMEXO
 40
1.0
  9
$DIMDLI
 40
3.75
  9
$DIMRND
 40
0.0
  9
$DIMDLE
 40
0.0
  9
$DIMEXE
 40
1.0
  9
$DIMTP
 40
0.0
  9
$DIMTM
 40
0.0
  9
$DIMTXT
 40
2.0
  9
$DIMCEN
 40
2.5
  9
$DIMTSZ
 40
0.0
  9
$DIMTOL
 70
     0
  9
$DIMLIM
 70
     0
  9
$DIMTIH
 70
     0
  9
$DIMTOH
 70
     1
  9
$DIMSE1
 70
     0
  9
$DIMSE2
 70
     0
  9
$DIMTAD
 70
     1
  9
$DIMZIN
 70
     8
  9
$DIMBLK
  1

  9
$DIMASO
 70
     1
  9
$DIMSHO
 70
     1
  9
$DIMPOST
  1

  9
$DIMAPOST
  1

  9
$DIMALT
 70
     0
  9
$DIMALTD
 70
     3
  9
$DIMALTF
 40
0.0393700787401575
  9
$DIMLFAC
 40
1.0
  9
$DIMTOFL
 70
     1
  9
$DIMTVP
 40
0.0
  9
$DIMTIX
 70
     1
  9
$DIMSOXD
 70
     0
  9
$DIMSAH
 70
     0
  9
$DIMBLK1
  1

  9
$DIMBLK2
  1

  9
$DIMSTYLE
  2
ISO-25
  9
$DIMCLRD
 70
     0
  9
$DIMCLRE
 70
     0
  9
$DIMCLRT
 70
     0
  9
$DIMTFAC
 40
1.0
  9
$DIMGAP
 40
1.0
  9
$DIMJUST
 70
     0
  9
$DIMSD1
 70
     0
  9
$DIMSD2
 70
     0
  9
$DIMTOLJ
 70
     0
  9
$DIMTZIN
 70
     8
  9
$DIMALTZ
 70
     0
  9
$DIMALTTZ
 70
     0
  9
$DIMFIT
 70
     3
  9
$DIMUPT
 70
     0
  9
$DIMUNIT
 70
     2
  9
$DIMDEC
 70
     2
  9
$DIMTDEC
 70
     2
  9
$DIMALTU
 70
     2
  9
$DIMALTTD
 70
     3
  9
$DIMTXSTY
  7
STANDARD
  9
$DIMAUNIT
 70
     0
  9
$LUNITS
 70
     2
  9
$LUPREC
 70
     2
  9
$SKETCHINC
 40
1.0
  9
$FILLETRAD
 40
10.0
  9
$AUNITS
 70
     0
  9
$AUPREC
 70
     2
  9
$MENU
  1
.
  9
$ELEVATION
 40
0.0
  9
$PELEVATION
 40
0.0
  9
$THICKNESS
 40
0.0
  9
$LIMCHECK
 70
     0
  9
$CHAMFERA
 40
0.0
  9
$CHAMFERB
 40
0.0
  9
$CHAMFERC
 40
0.0
  9
$CHAMFERD
 40
0.0
  9
$SKPOLY
 70
     0
  9
$TDCREATE
 40
2457525.56523897
  9
$TDUPDATE
 40
2457526.572489826
  9
$TDINDWG
 40
0.0035568403
  9
$TDUSRTIMER
 40
2457526.48811022
  9
$USRTIMER
 70
     1
  9
$ANGBASE
 50
0.0
  9
$ANGDIR
 70
     0
  9
$PDMODE
 70
     0
  9
$PDSIZE
 40
-1.0
  9
$PLINEWID
 40
0.0
  9
$COORDS
 70
     1
  9
$SPLFRAME
 70
     0
  9
$SPLINETYPE
 70
     6
  9
$SPLINESEGS
 70
     8
  9
$ATTDIA
 70
     0
  9
$ATTREQ
 70
     1
  9
$HANDLING
 70
     1
  9
$HANDSEED
  5
FF9
  9
$SURFTAB1
 70
     6
  9
$SURFTAB2
 70
     6
  9
$SURFTYPE
 70
     6
  9
$SURFU
 70
     6
  9
$SURFV
 70
     6
  9
$UCSNAME
  2

  9
$UCSORG
 10
0.0
 20
0.0
 30
0.0
  9
$UCSXDIR
 10
1.0
 20
0.0
 30
0.0
  9
$UCSYDIR
 10
0.0
 20
1.0
 30
0.0
  9
$PUCSNAME
  2

  9
$PUCSORG
 10
0.0
 20
0.0
 30
0.0
  9
$PUCSXDIR
 10
1.0
 20
0.0
 30
0.0
  9
$PUCSYDIR
 10
0.0
 20
1.0
 30
0.0
  9
$USERI1
 70
     0
  9
$USERI2
 70
     0
  9
$USERI3
 70
     0
  9
$USERI4
 70
     0
  9
$USERI5
 70
     0
  9
$USERR1
 40
0.0
  9
$USERR2
 40
0.0
  9
$USERR3
 40
0.0
  9
$USERR4
 40
0.0
  9
$USERR5
 40
0.0
  9
$WORLDVIEW
 70
     1
  9
$SHADEDGE
 70
     3
  9
$SHADEDIF
 70
    70
  9
$TILEMODE
 70
     1
  9
$MAXACTVP
 70
    64
  9
$PINSBASE
 10
0.0
 20
0.0
 30
0.0
  9
$PLIMCHECK
 70
     0
  9
$PEXTMIN
 10
1.000000000000000E+20
 20
1.000000000000000E+20
 30
1.000000000000000E+20
  9
$PEXTMAX
 10
-1.000000000000000E+20
 20
-1.000000000000000E+20
 30
-1.000000000000000E+20
  9
$PLIMMIN
 10
0.0
 20
0.0
  9
$PLIMMAX
 10
0.0
 20
0.0
  9
$UNITMODE
 70
     0
  9
$VISRETAIN
 70
     1
  9
$PLINEGEN
 70
     0
  9
$PSLTSCALE
 70
     1
  9
$TREEDEPTH
 70
  3020
  9
$PICKSTYLE
 70
     1
  9
$CMLSTYLE
  2
STANDARD
  9
$CMLJUST
 70
     0
  9
$CMLSCALE
 40
20.0
  9
$PROXYGRAPHICS
 70
     1
  9
$MEASUREMENT
 70
     1
  0
ENDSEC
  0
SECTION
  2
CLASSES
  0
CLASS
  1
ACDBDICTIONARYWDFLT
  2
AcDbDictionaryWithDefault
  3
ObjectDBX Classes
 90
        0
280
     0
281
     0
  0
CLASS
  1
VISUALSTYLE
  2
AcDbVisualStyle
  3
ObjectDBX Classes
 90
     4095
280
     0
281
     0
  0
CLASS
  1
MATERIAL
  2
AcDbMaterial
  3
ObjectDBX Classes
 90
     1153
280
     0
281
     0
  0
CLASS
  1
SCALE
  2
AcDbScale
  3
ObjectDBX Classes
 90
     1153
280
     0
281
     0
  0
CLASS
  1
TABLESTYLE
  2
AcDbTableStyle
  3
ObjectDBX Classes
 90
     4095
280
     0
281
     0
  0
CLASS
  1
MLEADERSTYLE
  2
AcDbMLeaderStyle
  3
ACDB_MLEADERSTYLE_CLASS
 90
     4095
280
     0
281
     0
  0
CLASS
  1
SUN
  2
AcDbSun
  3
SCENEOE
 90
     1153
280
     0
281
     0
  0
CLASS
  1
ACDBPLACEHOLDER
  2
AcDbPlaceHolder
  3
ObjectDBX Classes
 90
        0
280
     0
281
     0
  0
CLASS
  1
LAYOUT
  2
AcDbLayout
  3
ObjectDBX Classes
 90
        0
280
     0
281
     0
  0
CLASS
  1
RASTERVARIABLES
  2
AcDbRasterVariables
  3
ISM
 90
        0
280
     0
281
     0
  0
CLASS
  1
DICTIONARYVAR
  2
AcDbDictionaryVar
  3
ObjectDBX Classes
 90
        0
280
     0
281
     0
  0
CLASS
  1
DIMASSOC
  2
AcDbDimAssoc
  3
"AcDbDimAssoc|Product Desc:     AcDim ARX App For Dimension|Company:          Autodesk, Inc.|WEB Address:      www.autodesk.com"
 90
        0
280
     0
281
     0
  0
CLASS
  1
XRECORD
  2
AcDbXrecord
  3
ObjectDBX Classes
 90
        0
280
     0
281
     0
  0
CLASS
  1
LWPOLYLINE
  2
AcDbPolyline
  3
ObjectDBX Classes
 90
        0
280
     0
281
     1
  0
CLASS
  1
HATCH
  2
AcDbHatch
  3
ObjectDBX Classes
 90
        0
280
     0
281
     1
  0
ENDSEC
  0
SECTION
  2
TABLES
  0
TABLE
  2
VPORT
  5
8
330
0
100
AcDbSymbolTable
 70
     1
  0
VPORT
  5
29
330
8
100
AcDbSymbolTableRecord
100
AcDbViewportTableRecord
  2
*ACTIVE
 70
     0
 10
0.0
 20
0.0
 11
1.0
 21
1.0
 12
100.8152035
 22
148.5
 13
0.0
 23
0.0
 14
10.0
 24
10.0
 15
10.0
 25
10.0
 16
0.0
 26
0.0
 36
1.0
 17
0.0
 27
0.0
 37
0.0
 40
302.94
 41
2.811127379209371
 42
50.0
 43
0.0
 44
0.0
 50
0.0
 51
0.0
 71
    16
 72
  2000
 73
     1
 74
     3
 75
     0
 76
     0
 77
     0
 78
     0
  0
ENDTAB
  0
TABLE
  2
LTYPE
  5
5
330
0
100
AcDbSymbolTable
 70
     6
  0
LTYPE
  5
14
330
5
100
AcDbSymbolTableRecord
100
AcDbLinetypeTableRecord
  2
BYBLOCK
 70
     0
  3

 72
    65
 73
     0
 40
0.0
  0
LTYPE
  5
15
330
5
100
AcDbSymbolTableRecord
100
AcDbLinetypeTableRecord
  2
BYLAYER
 70
     0
  3

 72
    65
 73
     0
 40
0.0
  0
LTYPE
  5
16
330
5
100
AcDbSymbolTableRecord
100
AcDbLinetypeTableRecord
  2
CONTINUOUS
 70
     0
  3
Solid line
 72
    65
 73
     0
 40
0.0
  0
LTYPE
  5
6E
330
5
100
AcDbSymbolTableRecord
100
AcDbLinetypeTableRecord
  2
HIDDEN
 70
     0
  3
Hidden __ __ __ __ __ __ __ __ __ __ __ __ __ __
 72
    65
 73
     2
 40
1.905
 49
1.27
 74
     0
 49
-0.635
 74
     0
  0
LTYPE
  5
6F
330
5
100
AcDbSymbolTableRecord
100
AcDbLinetypeTableRecord
  2
PHANTOM
 70
     0
  3
Phantom ______  __  __  ______  __  __  ______
 72
    65
 73
     6
 40
12.7
 49
6.35
 74
     0
 49
-1.27
 74
     0
 49
1.27
 74
     0
 49
-1.27
 74
     0
 49
1.27
 74
     0
 49
-1.27
 74
     0
  0
LTYPE
  5
70
330
5
100
AcDbSymbolTableRecord
100
AcDbLinetypeTableRecord
  2
CENTER
 70
     0
  3
Center ____ _ ____ _ ____ _ ____ _ ____ _ ____
 72
    65
 73
     4
 40
10.16
 49
6.35
 74
     0
 49
-1.27
 74
     0
 49
1.27
 74
     0
 49
-1.27
 74
     0
  0
LTYPE
  5
71
330
5
100
AcDbSymbolTableRecord
100
AcDbLinetypeTableRecord
  2
CENTERX2
 70
     0
  3
Center (2x) ________  __  ________  __  _____
 72
    65
 73
     4
 40
20.32
 49
12.7
 74
     0
 49
-2.54
 74
     0
 49
2.54
 74
     0
 49
-2.54
 74
     0
  0
LTYPE
  5
72
330
5
100
AcDbSymbolTableRecord
100
AcDbLinetypeTableRecord
  2
DOT2
 70
     0
  3
Dot (.5x) ........................................
 72
    65
 73
     2
 40
0.635
 49
0.0
 74
     0
 49
-0.635
 74
     0
  0
ENDTAB
  0
TABLE
  2
LAYER
  5
2
102
{ACAD_XDICTIONARY
360
596
102
}
330
0
100
AcDbSymbolTable
 70
     9
  0
LAYER
  5
10
330
2
100
AcDbSymbolTableRecord
100
AcDbLayerTableRecord
  2
0
 70
     0
 62
     7
  6
CONTINUOUS
  0
LAYER
  5
73
330
2
100
AcDbSymbolTableRecord
100
AcDbLayerTableRecord
  2
FORMAT
 70
     0
 62
     7
  6
CONTINUOUS
  0
LAYER
  5
26D
330
2
100
AcDbSymbolTableRecord
100
AcDbLayerTableRecord
  2
DEFPOINTS
 70
     0
 62
     7
  6
CONTINUOUS
  0
LAYER
  5
26E
330
2
100
AcDbSymbolTableRecord
100
AcDbLayerTableRecord
  2
1
 70
     0
 62
     3
  6
CONTINUOUS
  0
LAYER
  5
270
330
2
100
AcDbSymbolTableRecord
100
AcDbLayerTableRecord
  2
2
 70
     0
 62
     6
  6
CONTINUOUS
  0
LAYER
  5
271
330
2
100
AcDbSymbolTableRecord
100
AcDbLayerTableRecord
  2
3
 70
     0
 62
     4
  6
HIDDEN
  0
LAYER
  5
273
330
2
100
AcDbSymbolTableRecord
100
AcDbLayerTableRecord
  2
OSIE
 70
     0
 62
     2
  6
CENTER
  0
LAYER
  5
275
330
2
100
AcDbSymbolTableRecord
100
AcDbLayerTableRecord
  2
WY
 70
     0
 62
     1
  6
CONTINUOUS
  0
LAYER
  5
276
330
2
100
AcDbSymbolTableRecord
100
AcDbLayerTableRecord
  2
WYMIARY
 70
     0
 62
     1
  6
CONTINUOUS
  0
ENDTAB
  0
TABLE
  2
STYLE
  5
3
330
0
100
AcDbSymbolTable
 70
     5
  0
STYLE
  5
11
330
3
100
AcDbSymbolTableRecord
100
AcDbTextStyleTableRecord
  2
STANDARD
 70
     0
 40
0.0
 41
1.0
 50
0.0
 71
     0
 42
2.5
  3
txt
  4

  0
STYLE
  5
125
330
3
100
AcDbSymbolTableRecord
100
AcDbTextStyleTableRecord
  2
SLDTEXTSTYLE0
 70
     0
 40
0.0
 41
0.75
 50
0.0
 71
     0
 42
2.5
  3
TXT
  4

  0
STYLE
  5
127
330
3
100
AcDbSymbolTableRecord
100
AcDbTextStyleTableRecord
  2
SLDTEXTSTYLE1
 70
     0
 40
0.0
 41
0.75
 50
0.0
 71
     0
 42
2.5
  3
TXT
  4
bigfont
  0
STYLE
  5
146
330
3
100
AcDbSymbolTableRecord
100
AcDbTextStyleTableRecord
  2
SLDTEXTSTYLE2
 70
     0
 40
0.0
 41
0.605
 50
0.0
 71
     0
 42
2.5
  3
TXT
  4

  0
STYLE
  5
279
330
3
100
AcDbSymbolTableRecord
100
AcDbTextStyleTableRecord
  2
ITALIC
 70
     0
 40
0.0
 41
1.0
 50
15.0
 71
     0
 42
2.5
  3
simplex
  4

  0
ENDTAB
  0
TABLE
  2
VIEW
  5
6
330
0
100
AcDbSymbolTable
 70
     0
  0
ENDTAB
  0
TABLE
  2
UCS
  5
7
330
0
100
AcDbSymbolTable
 70
     0
  0
ENDTAB
  0
TABLE
  2
APPID
  5
9
330
0
100
AcDbSymbolTable
 70
     1
  0
APPID
  5
12
330
9
100
AcDbSymbolTableRecord
100
AcDbRegAppTableRecord
  2
ACAD
 70
     0
  0
ENDTAB
  0
TABLE
  2
DIMSTYLE
  5
A
330
0
100
AcDbSymbolTable
 70
     1
  0
DIMSTYLE
105
27
102
{ACAD_REACTORS
330
EAD
330
EC0
330
ECF
330
EDE
330
EED
330
EFF
330
F0E
330
F20
330
F31
330
F40
330
F4F
330
F61
330
F84
330
F96
102
}
330
A
100
AcDbSymbolTableRecord
100
AcDbDimStyleTableRecord
  2
ISO-25
 70
     0
  3

  4

  5

  6

  7

 40
1.0
 41
2.5
 42
0.625
 43
3.75
 44
1.25
 45
0.0
 46
0.0
 47
0.0
 48
0.0
140
2.5
141
2.5
142
0.0
143
0.03937007874016
144
1.0
145
0.0
146
1.0
147
0.625
 71
     0
 72
     0
 73
     0
 74
     0
 75
     0
 76
     0
 77
     1
 78
     8
170
     0
171
     3
172
     1
173
     0
174
     0
175
     0
176
     0
177
     0
178
     0
270
     2
271
     2
272
     2
273
     2
274
     3
340
11
275
     0
280
     0
281
     0
282
     0
283
     0
284
     8
285
     0
286
     0
287
     3
288
     0
  0
ENDTAB
  0
TABLE
  2
BLOCK_RECORD
  5
1
330
0
100
AcDbSymbolTable
 70
    44
  0
BLOCK_RECORD
  5
1F
330
1
100
AcDbSymbolTableRecord
100
AcDbBlockTableRecord
  2
*MODEL_SPACE
  0
BLOCK_RECORD
  5
1B
330
1
100
AcDbSymbolTableRecord
100
AcDbBlockTableRecord
  2
*PAPER_SPACE
  0
BLOCK_RECORD
  5
23
330
1
100
AcDbSymbolTableRecord
100
AcDbBlockTableRecord
  2
*PAPER_SPACE0
  0
BLOCK_RECORD
  5
14E
330
1
100
AcDbSymbolTableRecord
100
AcDbBlockTableRecord
  2
SW_NOTE_0
  0
BLOCK_RECORD
  5
5A0
330
1
100
AcDbSymbolTableRecord
100
AcDbBlockTableRecord
  2
_NONE
  0
BLOCK_RECORD
  5
EB0
330
1
100
AcDbSymbolTableRecord
100
AcDbBlockTableRecord
  2
*D29
  0
BLOCK_RECORD
  5
EC3
330
1
100
AcDbSymbolTableRecord
100
AcDbBlockTableRecord
  2
*D30
  0
BLOCK_RECORD
  5
ED2
330
1
100
AcDbSymbolTableRecord
100
AcDbBlockTableRecord
  2
*D31
  0
BLOCK_RECORD
  5
EE1
330
1
100
AcDbSymbolTableRecord
100
AcDbBlockTableRecord
  2
*D32
  0
BLOCK_RECORD
  5
EF0
330
1
100
AcDbSymbolTableRecord
100
AcDbBlockTableRecord
  2
*D33
  0
BLOCK_RECORD
  5
F02
330
1
100
AcDbSymbolTableRecord
100
AcDbBlockTableRecord
  2
*D34
  0
BLOCK_RECORD
  5
F11
330
1
100
AcDbSymbolTableRecord
100
AcDbBlockTableRecord
  2
*D35
  0
BLOCK_RECORD
  5
F23
330
1
100
AcDbSymbolTableRecord
100
AcDbBlockTableRecord
  2
*D36
  0
BLOCK_RECORD
  5
F34
330
1
100
AcDbSymbolTableRecord
100
AcDbBlockTableRecord
  2
*D37
  0
BLOCK_RECORD
  5
F43
330
1
100
AcDbSymbolTableRecord
100
AcDbBlockTableRecord
  2
*D38
  0
BLOCK_RECORD
  5
F52
330
1
100
AcDbSymbolTableRecord
100
AcDbBlockTableRecord
  2
*D39
  0
BLOCK_RECORD
  5
F64
330
1
100
AcDbSymbolTableRecord
100
AcDbBlockTableRecord
  2
*D40
  0
BLOCK_RECORD
  5
F87
330
1
100
AcDbSymbolTableRecord
100
AcDbBlockTableRecord
  2
*D42
  0
BLOCK_RECORD
  5
F99
330
1
100
AcDbSymbolTableRecord
100
AcDbBlockTableRecord
  2
*D43
  0
ENDTAB
  0
ENDSEC
  0
SECTION
  2
BLOCKS
  0
BLOCK
  5
20
330
1F
100
AcDbEntity
  8
0
100
AcDbBlockBegin
  2
*MODEL_SPACE
 70
     0
 10
0.0
 20
0.0
 30
0.0
  3
*MODEL_SPACE
  1

  0
ENDBLK
  5
21
330
1F
100
AcDbEntity
  8
0
100
AcDbBlockEnd
  0
BLOCK
  5
1C
330
1B
100
AcDbEntity
 67
     1
  8
0
100
AcDbBlockBegin
  2
*PAPER_SPACE
 70
     0
 10
0.0
 20
0.0
 30
0.0
  3
*PAPER_SPACE
  1

  0
ENDBLK
  5
1D
330
1B
100
AcDbEntity
 67
     1
  8
0
100
AcDbBlockEnd
  0
BLOCK
  5
24
330
23
100
AcDbEntity
  8
0
100
AcDbBlockBegin
  2
*PAPER_SPACE0
 70
     0
 10
0.0
 20
0.0
 30
0.0
  3
*PAPER_SPACE0
  1
*PAPER_SPACE0
  0
ENDBLK
  5
25
330
23
100
AcDbEntity
  8
0
100
AcDbBlockEnd
  0
BLOCK
  5
14F
330
14E
100
AcDbEntity
  8
0
100
AcDbBlockBegin
  2
SW_NOTE_0
 70
     0
 10
0.0
 20
0.0
 30
0.0
  3
SW_NOTE_0
  1
SW_NOTE_0
  0
MTEXT
  5
151
330
14E
100
AcDbEntity
  8
0
  6
CONTINUOUS
 62
     0
100
AcDbMText
 10
0.0
 20
3.867203219315898
 30
0.0
 40
3.0
 41
0.0
 71
     1
 72
     1
  1
%%p
  7
SLDTEXTSTYLE2
  0
MTEXT
  5
152
330
14E
100
AcDbEntity
  8
0
  6
CONTINUOUS
 62
     0
100
AcDbMText
 10
2.762499963864684
 20
3.867203219315898
 30
0.0
 40
3.0
 41
0.0
 71
     1
 72
     1
  1
0,03
  7
SLDTEXTSTYLE2
  0
ENDBLK
  5
150
330
14E
100
AcDbEntity
  8
0
100
AcDbBlockEnd
  0
BLOCK
  5
5A1
330
5A0
100
AcDbEntity
  8
0
100
AcDbBlockBegin
  2
_NONE
 70
     0
 10
0.0
 20
0.0
 30
0.0
  3
_NONE
  1
_NONE
  0
ENDBLK
  5
5A2
330
5A0
100
AcDbEntity
  8
0
100
AcDbBlockEnd
  0
BLOCK
  5
EB1
330
EB0
100
AcDbEntity
  8
0
100
AcDbBlockBegin
  2
*D29
 70
     1
 10
0.0
 20
0.0
 30
0.0
  3
*D29
  1
*D29
  0
LINE
  5
EB3
330
EB0
100
AcDbEntity
  8
WY
 62
     0
100
AcDbLine
 10
86.41136307718935
 20
212.5784264462803
 30
0.0
 11
96.03647094101828
 21
212.5784264462803
 31
0.0
  0
LINE
  5
EB4
330
EB0
100
AcDbEntity
  8
WY
 62
     0
100
AcDbLine
 10
86.41136307718935
 20
197.8784262719367
 30
0.0
 11
96.03647094101828
 21
197.8784262719367
 31
0.0
  0
LINE
  5
EB5
330
EB0
100
AcDbEntity
  8
WY
 62
     0
100
AcDbLine
 10
95.03647094101828
 20
210.5784264462803
 30
0.0
 11
95.03647094101828
 21
199.8784262719367
 31
0.0
  0
SOLID
  5
EB6
330
EB0
100
AcDbEntity
  8
WY
 62
     0
100
AcDbTrace
 10
95.36980427435161
 20
210.5784264462803
 30
0.0
 11
94.70313760768495
 21
210.5784264462803
 31
0.0
 12
95.03647094101828
 22
212.5784264462803
 32
0.0
 13
95.03647094101828
 23
212.5784264462803
 33
0.0
  0
SOLID
  5
EB7
330
EB0
100
AcDbEntity
  8
WY
 62
     0
100
AcDbTrace
 10
94.70313760768495
 20
199.8784262719367
 30
0.0
 11
95.36980427435161
 21
199.8784262719367
 31
0.0
 12
95.03647094101828
 22
197.8784262719367
 32
0.0
 13
95.03647094101828
 23
197.8784262719367
 33
0.0
  0
MTEXT
  5
EB8
330
EB0
100
AcDbEntity
  8
WY
 62
     0
100
AcDbMText
 10
93.03647094101828
 20
205.2284263591085
 30
0.0
 40
2.0
 41
0.0
 71
     5
 72
     1
  1
14.7
 11
0.0
 21
1.0
 31
0.0
  0
POINT
  5
EB9
330
EB0
100
AcDbEntity
  8
DEFPOINTS
 62
     0
100
AcDbPoint
 10
85.41136307718935
 20
212.5784264462803
 30
0.0
  0
POINT
  5
EBA
330
EB0
100
AcDbEntity
  8
DEFPOINTS
 62
     0
100
AcDbPoint
 10
85.41136307718935
 20
197.8784262719367
 30
0.0
  0
POINT
  5
EBB
330
EB0
100
AcDbEntity
  8
DEFPOINTS
 62
     0
100
AcDbPoint
 10
95.03647094101828
 20
197.8784262719367
 30
0.0
  0
ENDBLK
  5
EB2
330
EB0
100
AcDbEntity
  8
0
100
AcDbBlockEnd
  0
BLOCK
  5
EC4
330
EC3
100
AcDbEntity
  8
0
100
AcDbBlockBegin
  2
*D30
 70
     1
 10
0.0
 20
0.0
 30
0.0
  3
*D30
  1
*D30
  0
LINE
  5
EC6
330
EC3
100
AcDbEntity
  8
WY
 62
     0
100
AcDbLine
 10
86.18322515260675
 20
217.728426545373
 30
0.0
 11
100.7072641982
 21
217.728426545373
 31
0.0
  0
LINE
  5
EC7
330
EC3
100
AcDbEntity
  8
WY
 62
     0
100
AcDbLine
 10
86.18322576355436
 20
192.7284263591085
 30
0.0
 11
100.7072641982
 21
192.7284263591085
 31
0.0
  0
LINE
  5
EC8
330
EC3
100
AcDbEntity
  8
WY
 62
     0
100
AcDbLine
 10
99.70726419820002
 20
215.728426545373
 30
0.0
 11
99.70726419820002
 21
194.7284263591085
 31
0.0
  0
SOLID
  5
EC9
330
EC3
100
AcDbEntity
  8
WY
 62
     0
100
AcDbTrace
 10
100.0405975315334
 20
215.728426545373
 30
0.0
 11
99.3739308648667
 21
215.728426545373
 31
0.0
 12
99.70726419820002
 22
217.728426545373
 32
0.0
 13
99.70726419820002
 23
217.728426545373
 33
0.0
  0
SOLID
  5
ECA
330
EC3
100
AcDbEntity
  8
WY
 62
     0
100
AcDbTrace
 10
99.3739308648667
 20
194.7284263591085
 30
0.0
 11
100.0405975315334
 21
194.7284263591085
 31
0.0
 12
99.70726419820002
 22
192.7284263591085
 32
0.0
 13
99.70726419820002
 23
192.7284263591085
 33
0.0
  0
MTEXT
  5
ECB
330
EC3
100
AcDbEntity
  8
WY
 62
     0
100
AcDbMText
 10
97.70726419820002
 20
205.2284264522407
 30
0.0
 40
2.0
 41
0.0
 71
     5
 72
     1
  1
25
 11
0.0
 21
1.0
 31
0.0
  0
POINT
  5
ECC
330
EC3
100
AcDbEntity
  8
DEFPOINTS
 62
     0
100
AcDbPoint
 10
85.18322515260675
 20
217.728426545373
 30
0.0
  0
POINT
  5
ECD
330
EC3
100
AcDbEntity
  8
DEFPOINTS
 62
     0
100
AcDbPoint
 10
85.18322576355436
 20
192.7284263591085
 30
0.0
  0
POINT
  5
ECE
330
EC3
100
AcDbEntity
  8
DEFPOINTS
 62
     0
100
AcDbPoint
 10
99.70726419820002
 20
192.7284263591085
 30
0.0
  0
ENDBLK
  5
EC5
330
EC3
100
AcDbEntity
  8
0
100
AcDbBlockEnd
  0
BLOCK
  5
ED3
330
ED2
100
AcDbEntity
  8
0
100
AcDbBlockBegin
  2
*D31
 70
     1
 10
0.0
 20
0.0
 30
0.0
  3
*D31
  1
*D31
  0
LINE
  5
ED5
330
ED2
100
AcDbEntity
  8
WY
 62
     0
100
AcDbLine
 10
49.65856126676763
 20
94.50922749346637
 30
0.0
 11
49.65856126676763
 21
86.33765926332364
 31
0.0
  0
LINE
  5
ED6
330
ED2
100
AcDbEntity
  8
WY
 62
     0
100
AcDbLine
 10
72.45285641092326
 20
94.50922749346637
 30
0.0
 11
72.45285641092326
 21
86.33765926332364
 31
0.0
  0
LINE
  5
ED7
330
ED2
100
AcDbEntity
  8
WY
 62
     0
100
AcDbLine
 10
51.65856126676763
 20
87.33765926332364
 30
0.0
 11
70.45285641092326
 21
87.33765926332364
 31
0.0
  0
SOLID
  5
ED8
330
ED2
100
AcDbEntity
  8
WY
 62
     0
100
AcDbTrace
 10
51.65856126676763
 20
87.67099259665697
 30
0.0
 11
51.65856126676763
 21
87.00432592999032
 31
0.0
 12
49.65856126676763
 22
87.33765926332364
 32
0.0
 13
49.65856126676763
 23
87.33765926332364
 33
0.0
  0
SOLID
  5
ED9
330
ED2
100
AcDbEntity
  8
WY
 62
     0
100
AcDbTrace
 10
70.45285641092326
 20
87.00432592999032
 30
0.0
 11
70.45285641092326
 21
87.67099259665697
 31
0.0
 12
72.45285641092326
 22
87.33765926332364
 32
0.0
 13
72.45285641092326
 23
87.33765926332364
 33
0.0
  0
MTEXT
  5
EDA
330
ED2
100
AcDbEntity
  8
WY
 62
     0
100
AcDbMText
 10
61.05570883884545
 20
89.33765926332364
 30
0.0
 40
2.0
 41
0.0
 71
     5
 72
     1
  1
22.8
  0
POINT
  5
EDB
330
ED2
100
AcDbEntity
  8
DEFPOINTS
 62
     0
100
AcDbPoint
 10
49.65856126676763
 20
95.50922749346637
 30
0.0
  0
POINT
  5
EDC
330
ED2
100
AcDbEntity
  8
DEFPOINTS
 62
     0
100
AcDbPoint
 10
72.45285641092326
 20
95.50922749346637
 30
0.0
  0
POINT
  5
EDD
330
ED2
100
AcDbEntity
  8
DEFPOINTS
 62
     0
100
AcDbPoint
 10
72.45285641092326
 20
87.33765926332364
 30
0.0
  0
ENDBLK
  5
ED4
330
ED2
100
AcDbEntity
  8
0
100
AcDbBlockEnd
  0
BLOCK
  5
EE2
330
EE1
100
AcDbEntity
  8
0
100
AcDbBlockBegin
  2
*D32
 70
     1
 10
0.0
 20
0.0
 30
0.0
  3
*D32
  1
*D32
  0
LINE
  5
EE4
330
EE1
100
AcDbEntity
  8
WY
 62
     0
100
AcDbLine
 10
72.45285641092326
 20
94.50922749346637
 30
0.0
 11
72.45285641092326
 21
86.33765926332364
 31
0.0
  0
LINE
  5
EE5
330
EE1
100
AcDbEntity
  8
WY
 62
     0
100
AcDbLine
 10
82.45281083347427
 20
94.50922749346637
 30
0.0
 11
82.45281083347427
 21
86.33765926332364
 31
0.0
  0
LINE
  5
EE6
330
EE1
100
AcDbEntity
  8
WY
 62
     0
100
AcDbLine
 10
74.45285641092326
 20
87.33765926332364
 30
0.0
 11
80.45281083347427
 21
87.33765926332364
 31
0.0
  0
SOLID
  5
EE7
330
EE1
100
AcDbEntity
  8
WY
 62
     0
100
AcDbTrace
 10
74.45285641092326
 20
87.67099259665697
 30
0.0
 11
74.45285641092326
 21
87.00432592999032
 31
0.0
 12
72.45285641092326
 22
87.33765926332364
 32
0.0
 13
72.45285641092326
 23
87.33765926332364
 33
0.0
  0
SOLID
  5
EE8
330
EE1
100
AcDbEntity
  8
WY
 62
     0
100
AcDbTrace
 10
80.45281083347427
 20
87.00432592999032
 30
0.0
 11
80.45281083347427
 21
87.67099259665697
 31
0.0
 12
82.45281083347427
 22
87.33765926332364
 32
0.0
 13
82.45281083347427
 23
87.33765926332364
 33
0.0
  0
MTEXT
  5
EE9
330
EE1
100
AcDbEntity
  8
WY
 62
     0
100
AcDbMText
 10
77.45283362219877
 20
89.33765926332364
 30
0.0
 40
2.0
 41
0.0
 71
     5
 72
     1
  1
10
  0
POINT
  5
EEA
330
EE1
100
AcDbEntity
  8
DEFPOINTS
 62
     0
100
AcDbPoint
 10
72.45285641092326
 20
95.50922749346637
 30
0.0
  0
POINT
  5
EEB
330
EE1
100
AcDbEntity
  8
DEFPOINTS
 62
     0
100
AcDbPoint
 10
82.45281083347427
 20
95.50922749346637
 30
0.0
  0
POINT
  5
EEC
330
EE1
100
AcDbEntity
  8
DEFPOINTS
 62
     0
100
AcDbPoint
 10
82.45281083347427
 20
87.33765926332364
 30
0.0
  0
ENDBLK
  5
EE3
330
EE1
100
AcDbEntity
  8
0
100
AcDbBlockEnd
  0
BLOCK
  5
EF1
330
EF0
100
AcDbEntity
  8
0
100
AcDbBlockBegin
  2
*D33
 70
     1
 10
0.0
 20
0.0
 30
0.0
  3
*D33
  1
*D33
  0
LINE
  5
EF3
330
EF0
100
AcDbEntity
  8
WY
 62
     0
100
AcDbLine
 10
46.14850513027682
 20
100.4159265998427
 30
0.0
 11
46.14850513027682
 21
86.33765926332364
 31
0.0
  0
LINE
  5
EF4
330
EF0
100
AcDbEntity
  8
WY
 62
     0
100
AcDbLine
 10
49.65856126676763
 20
94.50922749346637
 30
0.0
 11
49.65856126676763
 21
86.33765926332364
 31
0.0
  0
LINE
  5
EF5
330
EF0
100
AcDbEntity
  8
WY
 62
     0
100
AcDbLine
 10
46.14850513027682
 20
87.33765926332364
 30
0.0
 11
36.14850513027682
 21
87.33765926332364
 31
0.0
  0
LINE
  5
EF6
330
EF0
100
AcDbEntity
  8
WY
 62
     0
100
AcDbLine
 10
46.14850513027682
 20
87.33765926332364
 30
0.0
 11
49.65856126676763
 21
87.33765926332364
 31
0.0
  0
LINE
  5
EF7
330
EF0
100
AcDbEntity
  8
WY
 62
     0
100
AcDbLine
 10
44.14850513027682
 20
87.33765926332364
 30
0.0
 11
42.14850513027682
 21
87.33765926332364
 31
0.0
  0
LINE
  5
EF8
330
EF0
100
AcDbEntity
  8
WY
 62
     0
100
AcDbLine
 10
51.65856126676763
 20
87.33765926332364
 30
0.0
 11
53.65856126676763
 21
87.33765926332364
 31
0.0
  0
SOLID
  5
EF9
330
EF0
100
AcDbEntity
  8
WY
 62
     0
100
AcDbTrace
 10
44.14850513027682
 20
87.00432592999032
 30
0.0
 11
44.14850513027682
 21
87.67099259665697
 31
0.0
 12
46.14850513027682
 22
87.33765926332364
 32
0.0
 13
46.14850513027682
 23
87.33765926332364
 33
0.0
  0
SOLID
  5
EFA
330
EF0
100
AcDbEntity
  8
WY
 62
     0
100
AcDbTrace
 10
51.65856126676763
 20
87.67099259665697
 30
0.0
 11
51.65856126676763
 21
87.00432592999032
 31
0.0
 12
49.65856126676763
 22
87.33765926332364
 32
0.0
 13
49.65856126676763
 23
87.33765926332364
 33
0.0
  0
MTEXT
  5
EFB
330
EF0
100
AcDbEntity
  8
WY
 62
     0
100
AcDbMText
 10
39.14850513027682
 20
89.33765926332364
 30
0.0
 40
2.0
 41
0.0
 71
     5
 72
     1
  1
3.5
  0
POINT
  5
EFC
330
EF0
100
AcDbEntity
  8
DEFPOINTS
 62
     0
100
AcDbPoint
 10
46.14850513027682
 20
101.4159265998427
 30
0.0
  0
POINT
  5
EFD
330
EF0
100
AcDbEntity
  8
DEFPOINTS
 62
     0
100
AcDbPoint
 10
49.65856126676763
 20
95.50922749346637
 30
0.0
  0
POINT
  5
EFE
330
EF0
100
AcDbEntity
  8
DEFPOINTS
 62
     0
100
AcDbPoint
 10
49.65856126676763
 20
87.33765926332364
 30
0.0
  0
ENDBLK
  5
EF2
330
EF0
100
AcDbEntity
  8
0
100
AcDbBlockEnd
  0
BLOCK
  5
F03
330
F02
100
AcDbEntity
  8
0
100
AcDbBlockBegin
  2
*D34
 70
     1
 10
0.0
 20
0.0
 30
0.0
  3
*D34
  1
*D34
  0
LINE
  5
F05
330
F02
100
AcDbEntity
  8
WY
 62
     0
100
AcDbLine
 10
85.99171544717123
 20
150.5159270111148
 30
0.0
 11
99.73090702543445
 21
150.5159270111148
 31
0.0
  0
LINE
  5
F06
330
F02
100
AcDbEntity
  8
WY
 62
     0
100
AcDbLine
 10
87.18979350175138
 20
101.4159265998427
 30
0.0
 11
99.73090702543445
 21
101.4159265998427
 31
0.0
  0
LINE
  5
F07
330
F02
100
AcDbEntity
  8
WY
 62
     0
100
AcDbLine
 10
98.73090702543445
 20
148.5159270111148
 30
0.0
 11
98.73090702543445
 21
103.4159265998427
 31
0.0
  0
SOLID
  5
F08
330
F02
100
AcDbEntity
  8
WY
 62
     0
100
AcDbTrace
 10
99.06424035876778
 20
148.5159270111148
 30
0.0
 11
98.39757369210112
 21
148.5159270111148
 31
0.0
 12
98.73090702543445
 22
150.5159270111148
 32
0.0
 13
98.73090702543445
 23
150.5159270111148
 33
0.0
  0
SOLID
  5
F09
330
F02
100
AcDbEntity
  8
WY
 62
     0
100
AcDbTrace
 10
98.39757369210112
 20
103.4159265998427
 30
0.0
 11
99.06424035876778
 21
103.4159265998427
 31
0.0
 12
98.73090702543445
 22
101.4159265998427
 32
0.0
 13
98.73090702543445
 23
101.4159265998427
 33
0.0
  0
MTEXT
  5
F0A
330
F02
100
AcDbEntity
  8
WY
 62
     0
100
AcDbMText
 10
96.73090702543445
 20
125.9659268054788
 30
0.0
 40
2.0
 41
0.0
 71
     5
 72
     1
  1
49.1
 11
0.0
 21
1.0
 31
0.0
  0
POINT
  5
F0B
330
F02
100
AcDbEntity
  8
DEFPOINTS
 62
     0
100
AcDbPoint
 10
84.99171544717123
 20
150.5159270111148
 30
0.0
  0
POINT
  5
F0C
330
F02
100
AcDbEntity
  8
DEFPOINTS
 62
     0
100
AcDbPoint
 10
86.18979350175138
 20
101.4159265998427
 30
0.0
  0
POINT
  5
F0D
330
F02
100
AcDbEntity
  8
DEFPOINTS
 62
     0
100
AcDbPoint
 10
98.73090702543445
 20
101.4159265998427
 30
0.0
  0
ENDBLK
  5
F04
330
F02
100
AcDbEntity
  8
0
100
AcDbBlockEnd
  0
BLOCK
  5
F12
330
F11
100
AcDbEntity
  8
0
100
AcDbBlockBegin
  2
*D35
 70
     1
 10
0.0
 20
0.0
 30
0.0
  3
*D35
  1
*D35
  0
LINE
  5
F14
330
F11
100
AcDbEntity
  8
WY
 62
     0
100
AcDbLine
 10
87.18979350175138
 20
101.4159265998427
 30
0.0
 11
93.80614149159518
 21
101.4159265998427
 31
0.0
  0
LINE
  5
F15
330
F11
100
AcDbEntity
  8
WY
 62
     0
100
AcDbLine
 10
87.2179463966028
 20
103.4159269276683
 30
0.0
 11
93.80614149159518
 21
103.4159269276683
 31
0.0
  0
LINE
  5
F16
330
F11
100
AcDbEntity
  8
WY
 62
     0
100
AcDbLine
 10
92.80614149159518
 20
101.4159265998427
 30
0.0
 11
92.80614149159518
 21
94.08259326650939
 31
0.0
  0
LINE
  5
F17
330
F11
100
AcDbEntity
  8
WY
 62
     0
100
AcDbLine
 10
92.80614149159518
 20
101.4159265998427
 30
0.0
 11
92.80614149159518
 21
103.4159269276683
 31
0.0
  0
LINE
  5
F18
330
F11
100
AcDbEntity
  8
WY
 62
     0
100
AcDbLine
 10
92.80614149159518
 20
99.41592659984275
 30
0.0
 11
92.80614149159518
 21
97.41592659984275
 31
0.0
  0
LINE
  5
F19
330
F11
100
AcDbEntity
  8
WY
 62
     0
100
AcDbLine
 10
92.80614149159518
 20
105.4159269276683
 30
0.0
 11
92.80614149159518
 21
107.4159269276683
 31
0.0
  0
SOLID
  5
F1A
330
F11
100
AcDbEntity
  8
WY
 62
     0
100
AcDbTrace
 10
93.13947482492851
 20
99.41592659984275
 30
0.0
 11
92.47280815826186
 21
99.41592659984275
 31
0.0
 12
92.80614149159518
 22
101.4159265998427
 32
0.0
 13
92.80614149159518
 23
101.4159265998427
 33
0.0
  0
SOLID
  5
F1B
330
F11
100
AcDbEntity
  8
WY
 62
     0
100
AcDbTrace
 10
92.47280815826186
 20
105.4159269276683
 30
0.0
 11
93.13947482492851
 21
105.4159269276683
 31
0.0
 12
92.80614149159518
 22
103.4159269276683
 32
0.0
 13
92.80614149159518
 23
103.4159269276683
 33
0.0
  0
MTEXT
  5
F1C
330
F11
100
AcDbEntity
  8
WY
 62
     0
100
AcDbMText
 10
90.80614149159518
 20
95.74925993317606
 30
0.0
 40
2.0
 41
0.0
 71
     5
 72
     1
  1
2
 11
0.0
 21
1.0
 31
0.0
  0
POINT
  5
F1D
330
F11
100
AcDbEntity
  8
DEFPOINTS
 62
     0
100
AcDbPoint
 10
86.18979350175138
 20
101.4159265998427
 30
0.0
  0
POINT
  5
F1E
330
F11
100
AcDbEntity
  8
DEFPOINTS
 62
     0
100
AcDbPoint
 10
86.2179463966028
 20
103.4159269276683
 30
0.0
  0
POINT
  5
F1F
330
F11
100
AcDbEntity
  8
DEFPOINTS
 62
     0
100
AcDbPoint
 10
92.80614149159518
 20
103.4159269276683
 30
0.0
  0
ENDBLK
  5
F13
330
F11
100
AcDbEntity
  8
0
100
AcDbBlockEnd
  0
BLOCK
  5
F24
330
F23
100
AcDbEntity
  8
0
100
AcDbBlockBegin
  2
*D36
 70
     1
 10
0.0
 20
0.0
 30
0.0
  3
*D36
  1
*D36
  0
LINE
  5
F26
330
F23
100
AcDbEntity
  8
WY
 62
     0
100
AcDbLine
 10
48.25856377904114
 20
96.91592679355784
 30
0.0
 11
39.56564937670382
 21
96.91592679355784
 31
0.0
  0
LINE
  5
F27
330
F23
100
AcDbEntity
  8
WY
 62
     0
100
AcDbLine
 10
45.14850513027682
 20
101.4159265998427
 30
0.0
 11
39.56564937670382
 21
101.4159265998427
 31
0.0
  0
LINE
  5
F28
330
F23
100
AcDbEntity
  8
WY
 62
     0
100
AcDbLine
 10
40.56564937670382
 20
96.91592679355784
 30
0.0
 11
40.56564937670382
 21
101.4159265998427
 31
0.0
  0
LINE
  5
F29
330
F23
100
AcDbEntity
  8
WY
 62
     0
100
AcDbLine
 10
40.56564937670382
 20
94.91592679355784
 30
0.0
 11
40.56564937670382
 21
92.91592679355784
 31
0.0
  0
LINE
  5
F2A
330
F23
100
AcDbEntity
  8
WY
 62
     0
100
AcDbLine
 10
40.56564937670382
 20
103.4159265998427
 30
0.0
 11
40.56564937670382
 21
105.4159265998427
 31
0.0
  0
SOLID
  5
F2B
330
F23
100
AcDbEntity
  8
WY
 62
     0
100
AcDbTrace
 10
40.89898271003715
 20
94.91592679355784
 30
0.0
 11
40.23231604337048
 21
94.91592679355784
 31
0.0
 12
40.56564937670382
 22
96.91592679355784
 32
0.0
 13
40.56564937670382
 23
96.91592679355784
 33
0.0
  0
SOLID
  5
F2C
330
F23
100
AcDbEntity
  8
WY
 62
     0
100
AcDbTrace
 10
40.23231604337048
 20
103.4159265998427
 30
0.0
 11
40.89898271003715
 21
103.4159265998427
 31
0.0
 12
40.56564937670382
 22
101.4159265998427
 32
0.0
 13
40.56564937670382
 23
101.4159265998427
 33
0.0
  0
MTEXT
  5
F2D
330
F23
100
AcDbEntity
  8
WY
 62
     0
100
AcDbMText
 10
38.56564937670382
 20
99.1659266967003
 30
0.0
 40
2.0
 41
0.0
 71
     5
 72
     1
  1
4.5
 11
0.0
 21
1.0
 31
0.0
  0
POINT
  5
F2E
330
F23
100
AcDbEntity
  8
DEFPOINTS
 62
     0
100
AcDbPoint
 10
49.25856377904114
 20
96.91592679355784
 30
0.0
  0
POINT
  5
F2F
330
F23
100
AcDbEntity
  8
DEFPOINTS
 62
     0
100
AcDbPoint
 10
46.14850513027682
 20
101.4159265998427
 30
0.0
  0
POINT
  5
F30
330
F23
100
AcDbEntity
  8
DEFPOINTS
 62
     0
100
AcDbPoint
 10
40.56564937670382
 20
101.4159265998427
 30
0.0
  0
ENDBLK
  5
F25
330
F23
100
AcDbEntity
  8
0
100
AcDbBlockEnd
  0
BLOCK
  5
F35
330
F34
100
AcDbEntity
  8
0
100
AcDbBlockBegin
  2
*D37
 70
     1
 10
0.0
 20
0.0
 30
0.0
  3
*D37
  1
*D37
  0
LINE
  5
F37
330
F34
100
AcDbEntity
  8
WY
 62
     0
100
AcDbLine
 10
46.1832262105892
 20
217.7284263814602
 30
0.0
 11
46.1832262105892
 21
225.0808377103862
 31
0.0
  0
LINE
  5
F38
330
F34
100
AcDbEntity
  8
WY
 62
     0
100
AcDbLine
 10
86.18322576355436
 20
217.7284263591085
 30
0.0
 11
86.18322576355436
 21
225.0808377103862
 31
0.0
  0
LINE
  5
F39
330
F34
100
AcDbEntity
  8
WY
 62
     0
100
AcDbLine
 10
48.1832262105892
 20
224.0808377103862
 30
0.0
 11
84.18322576355436
 21
224.0808377103862
 31
0.0
  0
SOLID
  5
F3A
330
F34
100
AcDbEntity
  8
WY
 62
     0
100
AcDbTrace
 10
48.1832262105892
 20
224.4141710437195
 30
0.0
 11
48.1832262105892
 21
223.7475043770528
 31
0.0
 12
46.1832262105892
 22
224.0808377103862
 32
0.0
 13
46.1832262105892
 23
224.0808377103862
 33
0.0
  0
SOLID
  5
F3B
330
F34
100
AcDbEntity
  8
WY
 62
     0
100
AcDbTrace
 10
84.18322576355436
 20
223.7475043770528
 30
0.0
 11
84.18322576355436
 21
224.4141710437195
 31
0.0
 12
86.18322576355436
 22
224.0808377103862
 32
0.0
 13
86.18322576355436
 23
224.0808377103862
 33
0.0
  0
MTEXT
  5
F3C
330
F34
100
AcDbEntity
  8
WY
 62
     0
100
AcDbMText
 10
66.18322598707178
 20
226.0808377103862
 30
0.0
 40
2.0
 41
0.0
 71
     5
 72
     1
  1
40
  0
POINT
  5
F3D
330
F34
100
AcDbEntity
  8
DEFPOINTS
 62
     0
100
AcDbPoint
 10
46.1832262105892
 20
216.7284263814602
 30
0.0
  0
POINT
  5
F3E
330
F34
100
AcDbEntity
  8
DEFPOINTS
 62
     0
100
AcDbPoint
 10
86.18322576355436
 20
216.7284263591085
 30
0.0
  0
POINT
  5
F3F
330
F34
100
AcDbEntity
  8
DEFPOINTS
 62
     0
100
AcDbPoint
 10
86.18322576355436
 20
224.0808377103862
 30
0.0
  0
ENDBLK
  5
F36
330
F34
100
AcDbEntity
  8
0
100
AcDbBlockEnd
  0
BLOCK
  5
F44
330
F43
100
AcDbEntity
  8
0
100
AcDbBlockBegin
  2
*D38
 70
     1
 10
0.0
 20
0.0
 30
0.0
  3
*D38
  1
*D38
  0
LINE
  5
F46
330
F43
100
AcDbEntity
  8
WY
 62
     0
100
AcDbLine
 10
139.2338186762771
 20
100.4159265998427
 30
0.0
 11
139.2338186762771
 21
82.18328643930914
 31
0.0
  0
LINE
  5
F47
330
F43
100
AcDbEntity
  8
WY
 62
     0
100
AcDbLine
 10
164.2338190488061
 20
100.4159265998427
 30
0.0
 11
164.2338190488061
 21
82.18328643930914
 31
0.0
  0
LINE
  5
F48
330
F43
100
AcDbEntity
  8
WY
 62
     0
100
AcDbLine
 10
141.2338186762771
 20
83.18328643930914
 30
0.0
 11
162.2338190488061
 21
83.18328643930914
 31
0.0
  0
SOLID
  5
F49
330
F43
100
AcDbEntity
  8
WY
 62
     0
100
AcDbTrace
 10
141.2338186762771
 20
83.51661977264247
 30
0.0
 11
141.2338186762771
 21
82.84995310597581
 31
0.0
 12
139.2338186762771
 22
83.18328643930914
 32
0.0
 13
139.2338186762771
 23
83.18328643930914
 33
0.0
  0
SOLID
  5
F4A
330
F43
100
AcDbEntity
  8
WY
 62
     0
100
AcDbTrace
 10
162.2338190488061
 20
82.84995310597581
 30
0.0
 11
162.2338190488061
 21
83.51661977264247
 31
0.0
 12
164.2338190488061
 22
83.18328643930914
 32
0.0
 13
164.2338190488061
 23
83.18328643930914
 33
0.0
  0
MTEXT
  5
F4B
330
F43
100
AcDbEntity
  8
WY
 62
     0
100
AcDbMText
 10
151.7338188625416
 20
85.18328643930914
 30
0.0
 40
2.0
 41
0.0
 71
     5
 72
     1
  1
25
  0
POINT
  5
F4C
330
F43
100
AcDbEntity
  8
DEFPOINTS
 62
     0
100
AcDbPoint
 10
139.2338186762771
 20
101.4159265998427
 30
0.0
  0
POINT
  5
F4D
330
F43
100
AcDbEntity
  8
DEFPOINTS
 62
     0
100
AcDbPoint
 10
164.2338190488061
 20
101.4159265998427
 30
0.0
  0
POINT
  5
F4E
330
F43
100
AcDbEntity
  8
DEFPOINTS
 62
     0
100
AcDbPoint
 10
164.2338190488061
 20
83.18328643930914
 30
0.0
  0
ENDBLK
  5
F45
330
F43
100
AcDbEntity
  8
0
100
AcDbBlockEnd
  0
BLOCK
  5
F53
330
F52
100
AcDbEntity
  8
0
100
AcDbBlockBegin
  2
*D39
 70
     1
 10
0.0
 20
0.0
 30
0.0
  3
*D39
  1
*D39
  0
LINE
  5
F55
330
F52
100
AcDbEntity
  8
WY
 62
     0
100
AcDbLine
 10
83.48322617780664
 20
193.6284266705428
 30
0.0
 11
83.48322617780664
 21
182.8811467395772
 31
0.0
  0
LINE
  5
F56
330
F52
100
AcDbEntity
  8
WY
 62
     0
100
AcDbLine
 10
81.4832258499811
 20
193.6284266705428
 30
0.0
 11
81.4832258499811
 21
182.8811467395772
 31
0.0
  0
LINE
  5
F57
330
F52
100
AcDbEntity
  8
WY
 62
     0
100
AcDbLine
 10
83.48322617780664
 20
183.8811467395772
 30
0.0
 11
90.81655951114
 21
183.8811467395772
 31
0.0
  0
LINE
  5
F58
330
F52
100
AcDbEntity
  8
WY
 62
     0
100
AcDbLine
 10
83.48322617780664
 20
183.8811467395772
 30
0.0
 11
81.4832258499811
 21
183.8811467395772
 31
0.0
  0
LINE
  5
F59
330
F52
100
AcDbEntity
  8
WY
 62
     0
100
AcDbLine
 10
85.48322617780664
 20
183.8811467395772
 30
0.0
 11
87.48322617780664
 21
183.8811467395772
 31
0.0
  0
LINE
  5
F5A
330
F52
100
AcDbEntity
  8
WY
 62
     0
100
AcDbLine
 10
79.4832258499811
 20
183.8811467395772
 30
0.0
 11
77.4832258499811
 21
183.8811467395772
 31
0.0
  0
SOLID
  5
F5B
330
F52
100
AcDbEntity
  8
WY
 62
     0
100
AcDbTrace
 10
85.48322617780664
 20
184.2144800729106
 30
0.0
 11
85.48322617780664
 21
183.5478134062439
 31
0.0
 12
83.48322617780664
 22
183.8811467395772
 32
0.0
 13
83.48322617780664
 23
183.8811467395772
 33
0.0
  0
SOLID
  5
F5C
330
F52
100
AcDbEntity
  8
WY
 62
     0
100
AcDbTrace
 10
79.4832258499811
 20
183.5478134062439
 30
0.0
 11
79.4832258499811
 21
184.2144800729106
 31
0.0
 12
81.4832258499811
 22
183.8811467395772
 32
0.0
 13
81.4832258499811
 23
183.8811467395772
 33
0.0
  0
MTEXT
  5
F5D
330
F52
100
AcDbEntity
  8
WY
 62
     0
100
AcDbMText
 10
89.14989284447333
 20
185.8811467395772
 30
0.0
 40
2.0
 41
0.0
 71
     5
 72
     1
  1
2
  0
POINT
  5
F5E
330
F52
100
AcDbEntity
  8
DEFPOINTS
 62
     0
100
AcDbPoint
 10
83.48322617780664
 20
194.6284266705428
 30
0.0
  0
POINT
  5
F5F
330
F52
100
AcDbEntity
  8
DEFPOINTS
 62
     0
100
AcDbPoint
 10
81.4832258499811
 20
194.6284266705428
 30
0.0
  0
POINT
  5
F60
330
F52
100
AcDbEntity
  8
DEFPOINTS
 62
     0
100
AcDbPoint
 10
81.4832258499811
 20
183.8811467395772
 30
0.0
  0
ENDBLK
  5
F54
330
F52
100
AcDbEntity
  8
0
100
AcDbBlockEnd
  0
BLOCK
  5
F65
330
F64
100
AcDbEntity
  8
0
100
AcDbBlockBegin
  2
*D40
 70
     1
 10
0.0
 20
0.0
 30
0.0
  3
*D40
  1
*D40
  0
LINE
  5
F67
330
F64
100
AcDbEntity
  8
WY
 62
     0
100
AcDbLine
 10
49.28322653245428
 20
195.4784263218556
 30
0.0
 11
49.28322653245428
 21
182.8811467395772
 31
0.0
  0
LINE
  5
F68
330
F64
100
AcDbEntity
  8
WY
 62
     0
100
AcDbLine
 10
50.08322517346838
 20
195.4784263218556
 30
0.0
 11
50.08322517346838
 21
182.8811467395772
 31
0.0
  0
LINE
  5
F69
330
F64
100
AcDbEntity
  8
WY
 62
     0
100
AcDbLine
 10
49.28322653245428
 20
183.8811467395772
 30
0.0
 11
39.6165598657876
 21
183.8811467395772
 31
0.0
  0
LINE
  5
F6A
330
F64
100
AcDbEntity
  8
WY
 62
     0
100
AcDbLine
 10
49.28322653245428
 20
183.8811467395772
 30
0.0
 11
50.08322517346838
 21
183.8811467395772
 31
0.0
  0
LINE
  5
F6B
330
F64
100
AcDbEntity
  8
WY
 62
     0
100
AcDbLine
 10
47.28322653245428
 20
183.8811467395772
 30
0.0
 11
45.28322653245428
 21
183.8811467395772
 31
0.0
  0
LINE
  5
F6C
330
F64
100
AcDbEntity
  8
WY
 62
     0
100
AcDbLine
 10
52.08322517346838
 20
183.8811467395772
 30
0.0
 11
54.08322517346838
 21
183.8811467395772
 31
0.0
  0
SOLID
  5
F6D
330
F64
100
AcDbEntity
  8
WY
 62
     0
100
AcDbTrace
 10
47.28322653245428
 20
183.5478134062439
 30
0.0
 11
47.28322653245428
 21
184.2144800729106
 31
0.0
 12
49.28322653245428
 22
183.8811467395772
 32
0.0
 13
49.28322653245428
 23
183.8811467395772
 33
0.0
  0
SOLID
  5
F6E
330
F64
100
AcDbEntity
  8
WY
 62
     0
100
AcDbTrace
 10
52.08322517346838
 20
184.2144800729106
 30
0.0
 11
52.08322517346838
 21
183.5478134062439
 31
0.0
 12
50.08322517346838
 22
183.8811467395772
 32
0.0
 13
50.08322517346838
 23
183.8811467395772
 33
0.0
  0
MTEXT
  5
F6F
330
F64
100
AcDbEntity
  8
WY
 62
     0
100
AcDbMText
 10
42.44989319912094
 20
185.8811467395772
 30
0.0
 40
2.0
 41
0.0
 71
     5
 72
     1
  1
0.8
  0
POINT
  5
F70
330
F64
100
AcDbEntity
  8
DEFPOINTS
 62
     0
100
AcDbPoint
 10
49.28322653245428
 20
196.4784263218556
 30
0.0
  0
POINT
  5
F71
330
F64
100
AcDbEntity
  8
DEFPOINTS
 62
     0
100
AcDbPoint
 10
50.08322517346838
 20
196.4784263218556
 30
0.0
  0
POINT
  5
F72
330
F64
100
AcDbEntity
  8
DEFPOINTS
 62
     0
100
AcDbPoint
 10
50.08322517346838
 20
183.8811467395772
 30
0.0
  0
ENDBLK
  5
F66
330
F64
100
AcDbEntity
  8
0
100
AcDbBlockEnd
  0
BLOCK
  5
F88
330
F87
100
AcDbEntity
  8
0
100
AcDbBlockBegin
  2
*D42
 70
     1
 10
0.0
 20
0.0
 30
0.0
  3
*D42
  1
*D42
  0
LINE
  5
F8A
330
F87
100
AcDbEntity
  8
WY
 62
     0
100
AcDbLine
 10
142.9838188252887
 20
96.91592695747062
 30
0.0
 11
142.9838188252887
 21
87.66521467160817
 31
0.0
  0
LINE
  5
F8B
330
F87
100
AcDbEntity
  8
WY
 62
     0
100
AcDbLine
 10
145.7838187254509
 20
96.91592695747062
 30
0.0
 11
145.7838187254509
 21
87.66521467160817
 31
0.0
  0
LINE
  5
F8C
330
F87
100
AcDbEntity
  8
WY
 62
     0
100
AcDbLine
 10
142.9838188252887
 20
88.66521467160817
 30
0.0
 11
132.9838188252887
 21
88.66521467160817
 31
0.0
  0
LINE
  5
F8D
330
F87
100
AcDbEntity
  8
WY
 62
     0
100
AcDbLine
 10
142.9838188252887
 20
88.66521467160817
 30
0.0
 11
145.7838187254509
 21
88.66521467160817
 31
0.0
  0
LINE
  5
F8E
330
F87
100
AcDbEntity
  8
WY
 62
     0
100
AcDbLine
 10
140.9838188252887
 20
88.66521467160817
 30
0.0
 11
138.9838188252887
 21
88.66521467160817
 31
0.0
  0
LINE
  5
F8F
330
F87
100
AcDbEntity
  8
WY
 62
     0
100
AcDbLine
 10
147.7838187254509
 20
88.66521467160817
 30
0.0
 11
149.7838187254509
 21
88.66521467160817
 31
0.0
  0
SOLID
  5
F90
330
F87
100
AcDbEntity
  8
WY
 62
     0
100
AcDbTrace
 10
140.9838188252887
 20
88.33188133827484
 30
0.0
 11
140.9838188252887
 21
88.9985480049415
 31
0.0
 12
142.9838188252887
 22
88.66521467160817
 32
0.0
 13
142.9838188252887
 23
88.66521467160817
 33
0.0
  0
SOLID
  5
F91
330
F87
100
AcDbEntity
  8
WY
 62
     0
100
AcDbTrace
 10
147.7838187254509
 20
88.9985480049415
 30
0.0
 11
147.7838187254509
 21
88.33188133827484
 31
0.0
 12
145.7838187254509
 22
88.66521467160817
 32
0.0
 13
145.7838187254509
 23
88.66521467160817
 33
0.0
  0
MTEXT
  5
F92
330
F87
100
AcDbEntity
  8
WY
 62
     0
100
AcDbMText
 10
135.9838188252887
 20
90.66521467160817
 30
0.0
 40
2.0
 41
0.0
 71
     5
 72
     1
  1
2.8
  0
POINT
  5
F93
330
F87
100
AcDbEntity
  8
DEFPOINTS
 62
     0
100
AcDbPoint
 10
142.9838188252887
 20
97.91592695747062
 30
0.0
  0
POINT
  5
F94
330
F87
100
AcDbEntity
  8
DEFPOINTS
 62
     0
100
AcDbPoint
 10
145.7838187254509
 20
97.91592695747062
 30
0.0
  0
POINT
  5
F95
330
F87
100
AcDbEntity
  8
DEFPOINTS
 62
     0
100
AcDbPoint
 10
145.7838187254509
 20
88.66521467160817
 30
0.0
  0
ENDBLK
  5
F89
330
F87
100
AcDbEntity
  8
0
100
AcDbBlockEnd
  0
BLOCK
  5
F9A
330
F99
100
AcDbEntity
  8
0
100
AcDbBlockBegin
  2
*D43
 70
     1
 10
0.0
 20
0.0
 30
0.0
  3
*D43
  1
*D43
  0
LINE
  5
F9C
330
F99
100
AcDbEntity
  8
WY
 62
     0
100
AcDbLine
 10
155.8338188826582
 20
96.91592695747062
 30
0.0
 11
155.8338188826582
 21
87.66521467160817
 31
0.0
  0
LINE
  5
F9D
330
F99
100
AcDbEntity
  8
WY
 62
     0
100
AcDbLine
 10
162.3338185511073
 20
96.91592695747062
 30
0.0
 11
162.3338185511073
 21
87.66521467160817
 31
0.0
  0
LINE
  5
F9E
330
F99
100
AcDbEntity
  8
WY
 62
     0
100
AcDbLine
 10
157.8338188826582
 20
88.66521467160817
 30
0.0
 11
160.3338185511073
 21
88.66521467160817
 31
0.0
  0
SOLID
  5
F9F
330
F99
100
AcDbEntity
  8
WY
 62
     0
100
AcDbTrace
 10
157.8338188826582
 20
88.9985480049415
 30
0.0
 11
157.8338188826582
 21
88.33188133827484
 31
0.0
 12
155.8338188826582
 22
88.66521467160817
 32
0.0
 13
155.8338188826582
 23
88.66521467160817
 33
0.0
  0
SOLID
  5
FA0
330
F99
100
AcDbEntity
  8
WY
 62
     0
100
AcDbTrace
 10
160.3338185511073
 20
88.33188133827484
 30
0.0
 11
160.3338185511073
 21
88.9985480049415
 31
0.0
 12
162.3338185511073
 22
88.66521467160817
 32
0.0
 13
162.3338185511073
 23
88.66521467160817
 33
0.0
  0
MTEXT
  5
FA1
330
F99
100
AcDbEntity
  8
WY
 62
     0
100
AcDbMText
 10
159.0838187168827
 20
90.66521467160817
 30
0.0
 40
2.0
 41
0.0
 71
     5
 72
     1
  1
6.5
  0
POINT
  5
FA2
330
F99
100
AcDbEntity
  8
DEFPOINTS
 62
     0
100
AcDbPoint
 10
155.8338188826582
 20
97.91592695747062
 30
0.0
  0
POINT
  5
FA3
330
F99
100
AcDbEntity
  8
DEFPOINTS
 62
     0
100
AcDbPoint
 10
162.3338185511073
 20
97.91592695747062
 30
0.0
  0
POINT
  5
FA4
330
F99
100
AcDbEntity
  8
DEFPOINTS
 62
     0
100
AcDbPoint
 10
162.3338185511073
 20
88.66521467160817
 30
0.0
  0
ENDBLK
  5
F9B
330
F99
100
AcDbEntity
  8
0
100
AcDbBlockEnd
  0
ENDSEC
  0
SECTION
  2
ENTITIES
  0
LINE
  5
743
330
1F
100
AcDbEntity
  8
WYMIARY
 62
     6
100
AcDbLine
 10
0.0
 20
0.0
 30
0.0
 11
0.0
 21
297.0
 31
0.0
  0
LINE
  5
744
330
1F
100
AcDbEntity
  8
WYMIARY
 62
     6
100
AcDbLine
 10
11.63040699999999
 20
292.0
 30
0.0
 11
11.63040699999999
 21
4.999999999999999
 31
0.0
  0
LINE
  5
745
330
1F
100
AcDbEntity
  8
2
100
AcDbLine
 10
196.630407
 20
4.999999999999999
 30
0.0
 11
196.630407
 21
292.0
 31
0.0
  0
LINE
  5
746
330
1F
100
AcDbEntity
  8
2
100
AcDbLine
 10
201.630407
 20
0.0
 30
0.0
 11
201.630407
 21
297.0
 31
0.0
  0
LINE
  5
747
330
1F
100
AcDbEntity
  8
WY
  6
CONTINUOUS
 62
     3
100
AcDbLine
 10
196.630407
 20
19.689837
 30
0.0
 11
11.63040699999999
 21
19.689837
 31
0.0
  0
LINE
  5
748
330
1F
100
AcDbEntity
  8
2
100
AcDbLine
 10
11.63040699999999
 20
4.999999999999999
 30
0.0
 11
196.630407
 21
4.999999999999999
 31
0.0
  0
LINE
  5
749
330
1F
100
AcDbEntity
  8
2
 62
     6
100
AcDbLine
 10
11.63040699999999
 20
0.0
 30
0.0
 11
201.630407
 21
0.0
 31
0.0
  0
LINE
  5
74A
330
1F
100
AcDbEntity
  8
0
100
AcDbLine
 10
43.65642300000002
 20
11.742481
 30
0.0
 11
42.75401199999999
 21
11.742481
 31
0.0
  0
ELLIPSE
  5
74B
330
1F
100
AcDbEntity
  8
0
100
AcDbEllipse
 10
43.65642300000002
 20
11.742481
 30
0.0
 11
-1.203215696869327
 21
1.967000000000000E-13
 31
0.0
210
0.0
220
0.0
230
1.0
 40
0.958812
 41
-1.570796326794739
 42
0.0000000000001705
  0
TEXT
  5
74C
330
1F
100
AcDbEntity
  8
1
100
AcDbText
 10
29.56633399999998
 20
8.797457000000001
 30
0.0
 40
5.0
  1
A4
 51
15.0
  7
ITALIC
100
AcDbText
  0
LINE
  5
74D
330
1F
100
AcDbEntity
  8
WYMIARY
 62
     6
100
AcDbLine
 10
11.63040699999999
 20
0.0
 30
0.0
 11
0.0
 21
0.0
 31
0.0
  0
TEXT
  5
74E
330
1F
100
AcDbEntity
  8
WY
100
AcDbText
 10
16.89552099999997
 20
16.373844
 30
0.0
 40
1.999999999999999
  1
Skala
 41
1.000000000000001
 51
15.0
  7
ITALIC
100
AcDbText
  0
TEXT
  5
74F
330
1F
100
AcDbEntity
  8
WY
100
AcDbText
 10
29.00097500000004
 20
16.329369
 30
0.0
 40
1.999999999999999
  1
Format
 41
1.000000000000001
 51
15.0
  7
ITALIC
100
AcDbText
  0
LINE
  5
750
330
1F
100
AcDbEntity
  8
0
100
AcDbLine
 10
42.45320800000002
 20
11.742481
 30
0.0
 11
42.75401199999999
 21
11.742481
 31
0.0
  0
LINE
  5
751
330
1F
100
AcDbEntity
  8
0
100
AcDbLine
 10
73.84597599999995
 20
17.211264
 30
0.0
 11
73.84597599999995
 21
9.015264000000002
 31
0.0
  0
LINE
  5
752
330
1F
100
AcDbEntity
  8
0
100
AcDbLine
 10
64.85197600000004
 20
9.438264
 30
0.0
 11
64.85197600000004
 21
7.416264000000001
 31
0.0
  0
ARC
  5
753
330
1F
100
AcDbEntity
  8
0
100
AcDbCircle
 10
65.50155600000005
 20
9.724764
 30
0.0
 40
0.709955
100
AcDbArc
 50
203.8000800000036
 51
272.0519180000003
  0
LINE
  5
754
330
1F
100
AcDbEntity
  8
0
100
AcDbLine
 10
63.30697599999996
 20
7.416264000000001
 30
0.0
 11
63.30697599999996
 21
15.612264
 31
0.0
  0
ARC
  5
755
330
1F
100
AcDbEntity
  8
0
100
AcDbCircle
 10
65.94088199999999
 20
10.136416
 30
0.0
 40
1.128907
100
AcDbArc
 50
276.7195760000022
 51
2.175193999999967
  0
ARC
  5
756
330
1F
100
AcDbEntity
  8
0
100
AcDbCircle
 10
69.20181500000001
 20
10.503572
 30
0.0
 40
1.488419
100
AcDbArc
 50
191.6342679999998
 51
270.699112999999
  0
ARC
  5
757
330
1F
100
AcDbEntity
  8
0
100
AcDbCircle
 10
70.168137
 20
10.503572
 30
0.0
 40
1.488419
100
AcDbArc
 50
269.300887000001
 51
348.365732
  0
LINE
  5
758
330
1F
100
AcDbEntity
  8
0
100
AcDbLine
 10
72.30097599999999
 20
9.015264000000002
 30
0.0
 11
72.30097599999999
 21
17.211264
 31
0.0
  0
ARC
  5
759
330
1F
100
AcDbEntity
  8
0
100
AcDbCircle
 10
59.01534700000002
 20
10.472364
 30
0.0
 40
1.425319
100
AcDbArc
 50
269.7036710000015
 51
350.4651709999993
  0
ARC
  5
75A
330
1F
100
AcDbEntity
  8
0
100
AcDbCircle
 10
58.16060400000003
 20
10.472364
 30
0.0
 40
1.425319
100
AcDbArc
 50
189.5348290000001
 51
270.2963289999985
  0
LINE
  5
75B
330
1F
100
AcDbEntity
  8
0
100
AcDbLine
 10
61.10797600000001
 20
9.015264000000002
 30
0.0
 11
61.10797600000001
 21
17.211264
 31
0.0
  0
LINE
  5
75C
330
1F
100
AcDbEntity
  8
0
100
AcDbLine
 10
62.65297599999997
 20
17.211264
 30
0.0
 11
62.65297599999997
 21
9.015264000000002
 31
0.0
  0
LINE
  5
75D
330
1F
100
AcDbEntity
  8
0
100
AcDbLine
 10
53.85099200000002
 20
14.361264
 30
0.0
 11
53.86256500000002
 21
9.015264000000002
 31
0.0
  0
LINE
  5
75E
330
1F
100
AcDbEntity
  8
0
100
AcDbLine
 10
52.32045000000005
 20
9.015264000000002
 30
0.0
 11
52.32045000000005
 21
15.60367
 31
0.0
  0
LINE
  5
75F
330
1F
100
AcDbEntity
  8
0
100
AcDbLine
 10
43.65642300000002
 20
9.895061000000002
 30
0.0
 11
43.65642300000002
 21
8.185369000000001
 31
0.0
  0
LINE
  5
760
330
1F
100
AcDbEntity
  8
0
100
AcDbLine
 10
49.57223399999998
 20
8.185369000000001
 30
0.0
 11
49.57223399999998
 21
11.742481
 31
0.0
  0
LINE
  5
761
330
1F
100
AcDbEntity
  8
1
100
AcDbLine
 10
77.42861900000003
 20
4.999999999999999
 30
0.0
 11
77.42861900000003
 21
19.689837
 31
0.0
  0
LINE
  5
762
330
1F
100
AcDbEntity
  8
0
100
AcDbLine
 10
44.45856700000002
 20
7.416263
 30
0.0
 11
48.77008999999998
 21
7.416263
 31
0.0
  0
ELLIPSE
  5
763
330
1F
100
AcDbEntity
  8
0
100
AcDbEllipse
 10
44.45856700000002
 20
8.185369000000001
 30
0.0
 11
-0.8021437979128705
 21
1.540000000000000E-14
 31
0.0
210
0.0
220
0.0
230
1.0
 40
0.958812
 41
0.00000000000002
 42
1.570796326794914
  0
ELLIPSE
  5
764
330
1F
100
AcDbEntity
  8
0
100
AcDbEllipse
 10
48.77008999999998
 20
8.185369000000001
 30
0.0
 11
0.8021437979128704
 21
1.602000000000000E-13
 31
0.0
210
0.0
220
0.0
230
1.0
 40
0.958812
 41
4.712388980384497
 42
6.283185307179378
  0
LINE
  5
765
330
1F
100
AcDbEntity
  8
0
100
AcDbLine
 10
53.85099200000002
 20
9.015264000000002
 30
0.0
 11
53.86256500000002
 21
9.022759
 31
0.0
  0
LINE
  5
766
330
1F
100
AcDbEntity
  8
0
100
AcDbLine
 10
52.32045000000005
 20
9.015264000000002
 30
0.0
 11
53.86256500000002
 21
9.015264000000002
 31
0.0
  0
LINE
  5
767
330
1F
100
AcDbEntity
  8
0
100
AcDbLine
 10
58.153233
 20
9.047064000000002
 30
0.0
 11
59.00797599999999
 21
9.047064000000002
 31
0.0
  0
LINE
  5
768
330
1F
100
AcDbEntity
  8
0
100
AcDbLine
 10
64.85197600000004
 20
7.416264000000001
 30
0.0
 11
63.30697599999996
 21
7.416264000000001
 31
0.0
  0
LINE
  5
769
330
1F
100
AcDbEntity
  8
0
100
AcDbLine
 10
62.65297599999997
 20
9.015264000000002
 30
0.0
 11
61.10797600000001
 21
9.015264000000002
 31
0.0
  0
LINE
  5
76A
330
1F
100
AcDbEntity
  8
0
100
AcDbLine
 10
65.53502200000003
 20
9.015264000000002
 30
0.0
 11
66.07297600000004
 21
9.015264000000002
 31
0.0
  0
LINE
  5
76B
330
1F
100
AcDbEntity
  8
0
100
AcDbLine
 10
69.21997599999997
 20
9.015264000000002
 30
0.0
 11
70.14997600000004
 21
9.015264000000002
 31
0.0
  0
LINE
  5
76C
330
1F
100
AcDbEntity
  8
0
100
AcDbLine
 10
73.84597599999995
 20
9.015264000000002
 30
0.0
 11
72.30097599999999
 21
9.015264000000002
 31
0.0
  0
ARC
  5
76D
330
1F
100
AcDbEntity
  8
0
100
AcDbCircle
 10
59.01534700000002
 20
14.17837
 30
0.0
 40
1.425319
100
AcDbArc
 50
9.53482900000062
 51
90.29632899999848
  0
LINE
  5
76E
330
1F
100
AcDbEntity
  8
0
100
AcDbLine
 10
60.420976
 20
11.81167
 30
0.0
 11
58.29697599999997
 21
11.81167
 31
0.0
  0
LINE
  5
76F
330
1F
100
AcDbEntity
  8
0
100
AcDbLine
 10
58.97197600000004
 20
11.13667
 30
0.0
 11
60.420976
 21
11.13667
 31
0.0
  0
LINE
  5
770
330
1F
100
AcDbEntity
  8
0
100
AcDbLine
 10
43.65642300000002
 20
13.461283
 30
0.0
 11
43.65642300000002
 21
16.260974
 31
0.0
  0
ELLIPSE
  5
771
330
1F
100
AcDbEntity
  8
0
100
AcDbEllipse
 10
46.58926199999996
 20
15.17942
 30
0.0
 11
2.983077570132104
 21
2.996000000000000E-13
 31
0.0
210
0.0
220
0.0
230
1.0
 40
0.9588119999999999
 41
-1.562393163247347
 42
0.0084031635475457
  0
ELLIPSE
  5
772
330
1F
100
AcDbEntity
  8
0
100
AcDbEllipse
 10
46.54608599999995
 20
15.509539
 30
0.0
 11
-4.072692107280919
 21
9.250000000000000E-14
 31
0.0
210
0.0
220
0.0
230
1.0
 40
0.958812
 41
1.587553347046634
 42
2.408388587343224
  0
LINE
  5
773
330
1F
100
AcDbEntity
  8
0
100
AcDbLine
 10
43.65642300000002
 20
11.742481
 30
0.0
 11
43.65642300000002
 21
11.034514
 31
0.0
  0
LINE
  5
774
330
1F
100
AcDbEntity
  8
0
100
AcDbLine
 10
43.65642300000002
 20
13.461283
 30
0.0
 11
43.65642300000002
 21
12.896138
 31
0.0
  0
ELLIPSE
  5
775
330
1F
100
AcDbEntity
  8
0
100
AcDbEllipse
 10
46.20835399999999
 20
9.872487
 30
0.0
 11
2.960559210508897
 21
0.3570763225581005
 31
0.0
210
0.0
220
0.0
230
1.0
 40
0.820999
 41
1.335209029023201
 42
2.503032872947537
  0
ELLIPSE
  5
776
330
1F
100
AcDbEntity
  8
0
100
AcDbEllipse
 10
46.43885999999998
 20
8.937306
 30
0.0
 11
3.015746449176215
 21
0.7746519372140024
 31
0.0
210
0.0
220
0.0
230
1.0
 40
0.8467749999999999
 41
1.29973646820557
 42
2.479974117225238
  0
LINE
  5
777
330
1F
100
AcDbEntity
  8
0
100
AcDbLine
 10
50.77544999999998
 20
12.896138
 30
0.0
 11
50.47464600000001
 21
12.896138
 31
0.0
  0
LINE
  5
778
330
1F
100
AcDbEntity
  8
0
100
AcDbLine
 10
49.57223399999998
 20
12.896138
 30
0.0
 11
50.47464600000001
 21
12.896138
 31
0.0
  0
ELLIPSE
  5
779
330
1F
100
AcDbEntity
  8
0
100
AcDbEllipse
 10
49.57223399999998
 20
12.896138
 30
0.0
 11
1.203215696869352
 21
8.930000000000000E-14
 31
0.0
210
0.0
220
0.0
230
1.0
 40
0.9588119999999999
 41
4.712388980384611
 42
6.283185307179508
  0
LINE
  5
77A
330
1F
100
AcDbEntity
  8
0
100
AcDbLine
 10
44.45856700000002
 20
17.030079
 30
0.0
 11
48.77008999999998
 21
17.030079
 31
0.0
  0
ELLIPSE
  5
77B
330
1F
100
AcDbEntity
  8
0
100
AcDbEllipse
 10
44.45856700000002
 20
16.260974
 30
0.0
 11
0.8021437979128704
 21
3.800000000000000E-14
 31
0.0
210
0.0
220
0.0
230
1.0
 40
0.958812
 41
1.570796326794851
 42
3.141592653589743
  0
LINE
  5
77C
330
1F
100
AcDbEntity
  8
0
100
AcDbLine
 10
49.57223399999998
 20
15.155385
 30
0.0
 11
49.57223399999998
 21
16.260974
 31
0.0
  0
ELLIPSE
  5
77D
330
1F
100
AcDbEntity
  8
0
100
AcDbEllipse
 10
48.77008999999998
 20
16.260974
 30
0.0
 11
-0.8021437979128705
 21
3.800000000000000E-14
 31
0.0
210
0.0
220
0.0
230
1.0
 40
0.958812
 41
3.141592653589842
 42
4.712388980384734
  0
ARC
  5
77E
330
1F
100
AcDbEntity
  8
0
100
AcDbCircle
 10
54.75765000000001
 20
14.34127
 30
0.0
 40
1.377457
100
AcDbArc
 50
16.26506100000005
 51
130.5272989999999
  0
ARC
  5
77F
330
1F
100
AcDbEntity
  8
0
100
AcDbCircle
 10
58.16060400000003
 20
14.17837
 30
0.0
 40
1.425319
100
AcDbArc
 50
89.70367100000153
 51
170.4651709999999
  0
LINE
  5
780
330
1F
100
AcDbEntity
  8
0
100
AcDbLine
 10
54.86990300000002
 20
12.93607
 30
0.0
 11
56.07997599999999
 21
12.93607
 31
0.0
  0
LINE
  5
781
330
1F
100
AcDbEntity
  8
0
100
AcDbLine
 10
54.53756499999997
 20
12.93607
 30
0.0
 11
56.07997599999999
 21
12.93607
 31
0.0
  0
ARC
  5
782
330
1F
100
AcDbEntity
  8
0
100
AcDbCircle
 10
54.188492
 20
14.361264
 30
0.0
 40
0.3375
100
AcDbArc
 50
0.0
 51
180.0
  0
LINE
  5
783
330
1F
100
AcDbEntity
  8
0
100
AcDbLine
 10
54.52599199999997
 20
14.361264
 30
0.0
 11
54.53756499999997
 21
12.93607
 31
0.0
  0
ARC
  5
784
330
1F
100
AcDbEntity
  8
0
100
AcDbCircle
 10
58.63447599999995
 20
14.361264
 30
0.0
 40
0.3375
100
AcDbArc
 50
0.0
 51
180.0
  0
LINE
  5
785
330
1F
100
AcDbEntity
  8
0
100
AcDbLine
 10
58.29697599999997
 20
11.81167
 30
0.0
 11
58.29697599999997
 21
10.236264
 31
0.0
  0
LINE
  5
786
330
1F
100
AcDbEntity
  8
0
100
AcDbLine
 10
58.29697599999997
 20
12.71167
 30
0.0
 11
58.97197600000004
 21
12.71167
 31
0.0
  0
LINE
  5
787
330
1F
100
AcDbEntity
  8
0
100
AcDbLine
 10
58.97197600000004
 20
11.13667
 30
0.0
 11
58.97197600000004
 21
10.252764
 31
0.0
  0
LINE
  5
788
330
1F
100
AcDbEntity
  8
0
100
AcDbLine
 10
58.29697599999997
 20
11.81167
 30
0.0
 11
58.29697599999997
 21
10.252764
 31
0.0
  0
ARC
  5
789
330
1F
100
AcDbEntity
  8
0
100
AcDbCircle
 10
58.63447599999995
 20
10.252764
 30
0.0
 40
0.3375
100
AcDbArc
 50
180.0
 51
0.0
  0
LINE
  5
78A
330
1F
100
AcDbEntity
  8
0
100
AcDbLine
 10
58.97197600000004
 20
14.361264
 30
0.0
 11
58.97197600000004
 21
12.71167
 31
0.0
  0
LINE
  5
78B
330
1F
100
AcDbEntity
  8
0
100
AcDbLine
 10
58.29697599999997
 20
14.361264
 30
0.0
 11
58.29697599999997
 21
12.71167
 31
0.0
  0
LINE
  5
78C
330
1F
100
AcDbEntity
  8
0
100
AcDbLine
 10
56.07997599999999
 20
12.93607
 30
0.0
 11
56.07997599999999
 21
14.72707
 31
0.0
  0
LINE
  5
78D
330
1F
100
AcDbEntity
  8
0
100
AcDbLine
 10
56.75497599999994
 20
10.236264
 30
0.0
 11
56.75497599999994
 21
14.41447
 31
0.0
  0
LINE
  5
78E
330
1F
100
AcDbEntity
  8
0
100
AcDbLine
 10
53.86256500000002
 20
15.60367
 30
0.0
 11
53.86256500000002
 21
15.38827
 31
0.0
  0
LINE
  5
78F
330
1F
100
AcDbEntity
  8
0
100
AcDbLine
 10
52.32045000000005
 20
15.60367
 30
0.0
 11
53.86256500000002
 21
15.60367
 31
0.0
  0
LINE
  5
790
330
1F
100
AcDbEntity
  8
0
100
AcDbLine
 10
58.153233
 20
15.60367
 30
0.0
 11
59.00797599999999
 21
15.60367
 31
0.0
  0
ARC
  5
791
330
1F
100
AcDbEntity
  8
0
100
AcDbCircle
 10
69.20181500000001
 20
14.124104
 30
0.0
 40
1.488419
100
AcDbArc
 50
89.30088700000103
 51
168.3657320000002
  0
ARC
  5
792
330
1F
100
AcDbEntity
  8
0
100
AcDbCircle
 10
65.711003
 20
14.207365
 30
0.0
 40
1.409039
100
AcDbArc
 50
15.47254999999875
 51
127.5645399999992
  0
LINE
  5
793
330
1F
100
AcDbEntity
  8
0
100
AcDbLine
 10
60.420976
 20
11.13667
 30
0.0
 11
60.420976
 21
10.236264
 31
0.0
  0
LINE
  5
794
330
1F
100
AcDbEntity
  8
0
100
AcDbLine
 10
60.420976
 20
11.81167
 30
0.0
 11
60.420976
 21
14.41447
 31
0.0
  0
LINE
  5
795
330
1F
100
AcDbEntity
  8
0
100
AcDbLine
 10
67.06897600000002
 20
14.583264
 30
0.0
 11
67.06897600000002
 21
10.179264
 31
0.0
  0
LINE
  5
796
330
1F
100
AcDbEntity
  8
0
100
AcDbLine
 10
65.52697599999999
 20
14.361264
 30
0.0
 11
65.52697599999999
 21
10.252764
 31
0.0
  0
LINE
  5
797
330
1F
100
AcDbEntity
  8
0
100
AcDbLine
 10
64.85197600000004
 20
14.361264
 30
0.0
 11
64.85197600000004
 21
10.252764
 31
0.0
  0
ARC
  5
798
330
1F
100
AcDbEntity
  8
0
100
AcDbCircle
 10
65.18947600000001
 20
10.252764
 30
0.0
 40
0.3375
100
AcDbArc
 50
180.0
 51
0.0
  0
ARC
  5
799
330
1F
100
AcDbEntity
  8
0
100
AcDbCircle
 10
65.18947600000001
 20
14.361264
 30
0.0
 40
0.3375
100
AcDbArc
 50
0.0
 51
180.0
  0
LINE
  5
79A
330
1F
100
AcDbEntity
  8
0
100
AcDbLine
 10
63.30697599999996
 20
15.612264
 30
0.0
 11
64.85197600000004
 21
15.612264
 31
0.0
  0
LINE
  5
79B
330
1F
100
AcDbEntity
  8
0
100
AcDbLine
 10
61.10797600000001
 20
17.211264
 30
0.0
 11
62.65297599999997
 21
17.211264
 31
0.0
  0
LINE
  5
79C
330
1F
100
AcDbEntity
  8
0
100
AcDbLine
 10
64.85197600000004
 20
15.612264
 30
0.0
 11
64.85197600000004
 21
15.324264
 31
0.0
  0
ARC
  5
79D
330
1F
100
AcDbEntity
  8
0
100
AcDbCircle
 10
70.168137
 20
14.124104
 30
0.0
 40
1.488419
100
AcDbArc
 50
11.63426799999984
 51
90.69911299999899
  0
LINE
  5
79E
330
1F
100
AcDbEntity
  8
0
100
AcDbLine
 10
71.62597600000004
 20
14.424264
 30
0.0
 11
71.62597600000004
 21
10.203412
 31
0.0
  0
ARC
  5
79F
330
1F
100
AcDbEntity
  8
0
100
AcDbCircle
 10
69.684976
 20
14.361264
 30
0.0
 40
0.3375
100
AcDbArc
 50
0.0
 51
180.0
  0
ARC
  5
7A0
330
1F
100
AcDbEntity
  8
0
100
AcDbCircle
 10
69.684976
 20
10.252764
 30
0.0
 40
0.3375
100
AcDbArc
 50
180.0
 51
0.0
  0
LINE
  5
7A1
330
1F
100
AcDbEntity
  8
0
100
AcDbLine
 10
69.34747600000003
 20
14.361264
 30
0.0
 11
69.34747600000003
 21
10.252764
 31
0.0
  0
LINE
  5
7A2
330
1F
100
AcDbEntity
  8
0
100
AcDbLine
 10
70.02247599999998
 20
14.361264
 30
0.0
 11
70.02247599999998
 21
10.252764
 31
0.0
  0
LINE
  5
7A3
330
1F
100
AcDbEntity
  8
0
100
AcDbLine
 10
67.74397599999998
 20
10.203412
 30
0.0
 11
67.74397599999998
 21
14.424264
 31
0.0
  0
LINE
  5
7A4
330
1F
100
AcDbEntity
  8
0
100
AcDbLine
 10
69.21997599999997
 20
15.612412
 30
0.0
 11
70.14997600000004
 21
15.612412
 31
0.0
  0
LINE
  5
7A5
330
1F
100
AcDbEntity
  8
0
100
AcDbLine
 10
72.30097599999999
 20
17.211264
 30
0.0
 11
73.84597599999995
 21
17.211264
 31
0.0
  0
TEXT
  5
7A6
330
1F
100
AcDbEntity
  8
WY
100
AcDbText
 10
78.37616300000002
 20
11.60401
 30
0.0
 40
1.999999999999998
  1
16-05-2016
 41
1.000000000000001
 51
15.0
  7
ITALIC
100
AcDbText
  0
TEXT
  5
7A7
330
1F
100
AcDbEntity
  8
WY
100
AcDbText
 10
82.80753200000004
 20
16.149239
 30
0.0
 40
1.999999999999999
  1
Data
 41
1.000000000000001
 51
15.0
  7
ITALIC
100
AcDbText
  0
TEXT
  5
7A8
330
1F
100
AcDbEntity
  8
1
100
AcDbText
 10
151.38151
 20
9.064009000000002
 30
0.0
 40
5.0
  1
RS50
 41
0.8
 51
15.0
  7
ITALIC
100
AcDbText
  0
LINE
  5
7A9
330
1F
100
AcDbEntity
  8
1
100
AcDbLine
 10
141.35299
 20
4.999999999999999
 30
0.0
 11
141.35299
 21
19.689837
 31
0.0
  0
TEXT
  5
7AA
330
1F
100
AcDbEntity
  8
WY
100
AcDbText
 10
143.544188
 20
16.599248
 30
0.0
 40
1.999999999999999
  1
Product type
 41
1.000000000000001
 51
15.0
  7
ITALIC
100
AcDbText
  0
LINE
  5
7AB
330
1F
100
AcDbEntity
  8
2
100
AcDbLine
 10
196.630407
 20
292.0
 30
0.0
 11
11.63040699999999
 21
292.0
 31
0.0
  0
LINE
  5
7AC
330
1F
100
AcDbEntity
  8
2
100
AcDbLine
 10
201.630407
 20
297.0
 30
0.0
 11
11.63040699999999
 21
297.0
 31
0.0
  0
LINE
  5
7AD
330
1F
100
AcDbEntity
  8
WYMIARY
 62
     6
100
AcDbLine
 10
11.63040699999999
 20
297.0
 30
0.0
 11
0.0
 21
297.0
 31
0.0
  0
TEXT
  5
7AE
330
1F
100
AcDbEntity
  8
1
100
AcDbText
 10
14.260741
 20
8.797457000000001
 30
0.0
 40
5.0
  1
1:1
 51
15.0
  7
ITALIC
100
AcDbText
  0
LINE
  5
7AF
330
1F
100
AcDbEntity
  8
WYMIARY
 62
     6
100
AcDbLine
 10
201.630407
 20
0.0
 30
0.0
 11
201.630407
 21
297.0
 31
0.0
  0
LINE
  5
7B0
330
1F
100
AcDbEntity
  8
WYMIARY
 62
     3
100
AcDbLine
 10
26.63040699999999
 20
19.689837
 30
0.0
 11
26.63040699999999
 21
4.999999999999999
 31
0.0
  0
LINE
  5
7B1
330
1F
100
AcDbEntity
  8
WYMIARY
 62
     3
100
AcDbLine
 10
41.63040699999999
 20
19.689837
 30
0.0
 11
41.63040699999999
 21
4.999999999999999
 31
0.0
  0
LINE
  5
7B2
330
1F
100
AcDbEntity
  8
WYMIARY
 62
     3
100
AcDbLine
 10
100.331943
 20
19.689837
 30
0.0
 11
100.331943
 21
4.999999999999999
 31
0.0
  0
TEXT
  5
7B3
330
1F
100
AcDbEntity
  8
WY
100
AcDbText
 10
101.520952
 20
16.599248
 30
0.0
 40
1.999999999999999
  1
Draw. No.
 41
1.000000000000001
 51
15.0
  7
ITALIC
100
AcDbText
  0
TEXT
  5
7B4
330
1F
100
AcDbEntity
  8
1
100
AcDbText
 10
105.893897
 20
9.064009000000002
 30
0.0
 40
3.999999999999995
  1
RS50-01A
 41
0.7000000000000008
 51
15.0
  7
ITALIC
100
AcDbText
  0
LINE
  5
7B5
330
1F
100
AcDbEntity
  8
WYMIARY
 62
     6
100
AcDbLine
 10
201.630407
 20
0.0
 30
0.0
 11
201.630407
 21
297.0
 31
0.0
  0
LINE
  5
7B6
330
1F
100
AcDbEntity
  8
WYMIARY
 62
     6
100
AcDbLine
 10
201.630407
 20
0.0
 30
0.0
 11
201.630407
 21
297.0
 31
0.0
  0
LINE
  5
7B7
330
1F
100
AcDbEntity
  8
2
100
AcDbLine
 10
201.630407
 20
0.0
 30
0.0
 11
201.630407
 21
297.0
 31
0.0
  0
LINE
  5
7B8
330
1F
100
AcDbEntity
  8
WYMIARY
 62
     6
100
AcDbLine
 10
201.630407
 20
0.0
 30
0.0
 11
201.630407
 21
297.0
 31
0.0
  0
LINE
  5
7B9
330
1F
100
AcDbEntity
  8
2
100
AcDbLine
 10
201.630407
 20
0.0
 30
0.0
 11
201.630407
 21
297.0
 31
0.0
  0
TEXT
  5
7BA
330
1F
100
AcDbEntity
  8
1
100
AcDbText
 10
98.36702256954607
 20
274.4436562884334
 30
0.0
 40
5.0
  1
RS35 
 41
0.8
 51
15.0
  7
ITALIC
100
AcDbText
  0
LINE
  5
7BB
330
1F
100
AcDbEntity
  8
2
100
AcDbLine
 10
201.630407
 20
0.0
 30
0.0
 11
11.63040699999999
 21
0.0
 31
0.0
  0
LINE
  5
7BC
330
1F
100
AcDbEntity
  8
WYMIARY
 62
     6
100
AcDbLine
 10
11.63040699999999
 20
0.0
 30
0.0
 11
0.0
 21
0.0
 31
0.0
  0
LINE
  5
7BD
330
1F
100
AcDbEntity
  8
WYMIARY
 62
     6
100
AcDbLine
 10
201.630407
 20
0.0
 30
0.0
 11
201.630407
 21
297.0
 31
0.0
  0
LINE
  5
7BE
330
1F
100
AcDbEntity
  8
2
100
AcDbLine
 10
201.630407
 20
0.0
 30
0.0
 11
11.63040699999999
 21
0.0
 31
0.0
  0
TEXT
  5
7BF
330
1F
100
AcDbEntity
  8
1
100
AcDbText
 10
35.76269640849188
 20
250.6819662884334
 30
0.0
 40
5.0
  1
RS50 - for PCB
 41
0.8
 51
15.0
  7
ITALIC
100
AcDbText
  0
TEXT
  5
7C0
330
1F
100
AcDbEntity
  8
1
100
AcDbText
 10
35.76269640849193
 20
259.7611412884334
 30
0.0
 40
5.0
  1
RS50- do lutowania w obwodach drukowanych
 41
0.8
 51
15.0
  7
ITALIC
100
AcDbText
  0
LINE
  5
CA4
330
1F
100
AcDbEntity
  8
1
  6
CONTINUOUS
 62
     7
100
AcDbLine
 10
71.48322560783723
 20
195.2057768176113
 30
0.0
 11
73.48322593566277
 21
195.2057768176113
 31
0.0
  0
LINE
  5
CA5
330
1F
100
AcDbEntity
  8
1
  6
CONTINUOUS
 62
     7
100
AcDbLine
 10
71.48322560783723
 20
200.5510761919234
 30
0.0
 11
71.48322560783723
 21
195.2057768176113
 31
0.0
  0
LINE
  5
CA6
330
1F
100
AcDbEntity
  8
1
  6
CONTINUOUS
 62
     7
100
AcDbLine
 10
73.48322593566277
 20
200.5510761919234
 30
0.0
 11
71.48322560783723
 21
200.5510761919234
 31
0.0
  0
LINE
  5
CA7
330
1F
100
AcDbEntity
  8
1
  6
CONTINUOUS
 62
     7
100
AcDbLine
 10
73.48322593566277
 20
195.2057768176113
 30
0.0
 11
73.48322593566277
 21
200.5510761919234
 31
0.0
  0
LINE
  5
CA8
330
1F
100
AcDbEntity
  8
1
  6
CONTINUOUS
 62
     7
100
AcDbLine
 10
50.08322517346838
 20
198.7010760749493
 30
0.0
 11
49.28322653245428
 21
198.7010760749493
 31
0.0
  0
LINE
  5
CA9
330
1F
100
AcDbEntity
  8
1
  6
CONTINUOUS
 62
     7
100
AcDbLine
 10
49.28322653245428
 20
198.7010760749493
 30
0.0
 11
49.28322653245428
 21
199.2784262220178
 31
0.0
  0
LINE
  5
CAA
330
1F
100
AcDbEntity
  8
1
  6
CONTINUOUS
 62
     7
100
AcDbLine
 10
49.28322653245428
 20
199.2784262220178
 30
0.0
 11
50.08322517346838
 21
199.2784262220178
 31
0.0
  0
LINE
  5
CAB
330
1F
100
AcDbEntity
  8
1
  6
CONTINUOUS
 62
     7
100
AcDbLine
 10
50.08322517346838
 20
199.2784262220178
 30
0.0
 11
50.08322517346838
 21
198.7010760749493
 31
0.0
  0
LINE
  5
CAC
330
1F
100
AcDbEntity
  8
1
  6
CONTINUOUS
 62
     7
100
AcDbLine
 10
49.28322653245428
 20
197.0557764689241
 30
0.0
 11
50.08322517346838
 21
197.0557764689241
 31
0.0
  0
LINE
  5
CAD
330
1F
100
AcDbEntity
  8
1
  6
CONTINUOUS
 62
     7
100
AcDbLine
 10
49.28322653245428
 20
198.7010760749493
 30
0.0
 11
49.28322653245428
 21
197.0557764689241
 31
0.0
  0
LINE
  5
CAE
330
1F
100
AcDbEntity
  8
1
  6
CONTINUOUS
 62
     7
100
AcDbLine
 10
50.08322517346838
 20
197.0557764689241
 30
0.0
 11
50.08322517346838
 21
198.7010760749493
 31
0.0
  0
LINE
  5
CAF
330
1F
100
AcDbEntity
  8
1
  6
CONTINUOUS
 62
     7
100
AcDbLine
 10
73.48322593566277
 20
215.2510759006057
 30
0.0
 11
71.48322560783723
 21
215.2510759006057
 31
0.0
  0
LINE
  5
CB0
330
1F
100
AcDbEntity
  8
1
  6
CONTINUOUS
 62
     7
100
AcDbLine
 10
71.48322560783723
 20
215.2510759006057
 30
0.0
 11
71.48322560783723
 21
215.8284260476742
 31
0.0
  0
LINE
  5
CB1
330
1F
100
AcDbEntity
  8
1
  6
CONTINUOUS
 62
     7
100
AcDbLine
 10
71.48322560783723
 20
215.8284260476742
 30
0.0
 11
73.48322593566277
 21
215.8284260476742
 31
0.0
  0
LINE
  5
CB2
330
1F
100
AcDbEntity
  8
1
  6
CONTINUOUS
 62
     7
100
AcDbLine
 10
73.48322593566277
 20
215.8284260476742
 30
0.0
 11
73.48322593566277
 21
215.2510759006057
 31
0.0
  0
LINE
  5
CB3
330
1F
100
AcDbEntity
  8
1
  6
CONTINUOUS
 62
     7
100
AcDbLine
 10
71.48322560783723
 20
209.9057765262936
 30
0.0
 11
73.48322593566277
 21
209.9057765262936
 31
0.0
  0
LINE
  5
CB4
330
1F
100
AcDbEntity
  8
1
  6
CONTINUOUS
 62
     7
100
AcDbLine
 10
73.48322593566277
 20
209.9057765262936
 30
0.0
 11
73.48322593566277
 21
209.328426379225
 31
0.0
  0
LINE
  5
CB5
330
1F
100
AcDbEntity
  8
1
  6
CONTINUOUS
 62
     7
100
AcDbLine
 10
73.48322593566277
 20
209.328426379225
 30
0.0
 11
71.48322560783723
 21
209.328426379225
 31
0.0
  0
LINE
  5
CB6
330
1F
100
AcDbEntity
  8
1
  6
CONTINUOUS
 62
     7
100
AcDbLine
 10
71.48322560783723
 20
209.328426379225
 30
0.0
 11
71.48322560783723
 21
209.9057765262936
 31
0.0
  0
LINE
  5
CB7
330
1F
100
AcDbEntity
  8
1
  6
CONTINUOUS
 62
     7
100
AcDbLine
 10
83.48322617780664
 20
215.2510759006057
 30
0.0
 11
81.4832258499811
 21
215.2510759006057
 31
0.0
  0
LINE
  5
CB8
330
1F
100
AcDbEntity
  8
1
  6
CONTINUOUS
 62
     7
100
AcDbLine
 10
81.4832258499811
 20
215.2510759006057
 30
0.0
 11
81.4832258499811
 21
215.8284260476742
 31
0.0
  0
LINE
  5
CB9
330
1F
100
AcDbEntity
  8
1
  6
CONTINUOUS
 62
     7
100
AcDbLine
 10
81.4832258499811
 20
215.8284260476742
 30
0.0
 11
83.48322617780664
 21
215.8284260476742
 31
0.0
  0
LINE
  5
CBA
330
1F
100
AcDbEntity
  8
1
  6
CONTINUOUS
 62
     7
100
AcDbLine
 10
83.48322617780664
 20
215.8284260476742
 30
0.0
 11
83.48322617780664
 21
215.2510759006057
 31
0.0
  0
LINE
  5
CBB
330
1F
100
AcDbEntity
  8
1
  6
CONTINUOUS
 62
     7
100
AcDbLine
 10
81.4832258499811
 20
209.9057765262936
 30
0.0
 11
83.48322617780664
 21
209.9057765262936
 31
0.0
  0
LINE
  5
CBC
330
1F
100
AcDbEntity
  8
1
  6
CONTINUOUS
 62
     7
100
AcDbLine
 10
83.48322617780664
 20
209.9057765262936
 30
0.0
 11
83.48322617780664
 21
209.328426379225
 31
0.0
  0
LINE
  5
CBD
330
1F
100
AcDbEntity
  8
1
  6
CONTINUOUS
 62
     7
100
AcDbLine
 10
83.48322617780664
 20
209.328426379225
 30
0.0
 11
81.4832258499811
 21
209.328426379225
 31
0.0
  0
LINE
  5
CBE
330
1F
100
AcDbEntity
  8
1
  6
CONTINUOUS
 62
     7
100
AcDbLine
 10
81.4832258499811
 20
209.328426379225
 30
0.0
 11
81.4832258499811
 21
209.9057765262936
 31
0.0
  0
LINE
  5
CBF
330
1F
100
AcDbEntity
  8
1
  6
CONTINUOUS
 62
     7
100
AcDbLine
 10
81.4832258499811
 20
195.2057768176113
 30
0.0
 11
83.48322617780664
 21
195.2057768176113
 31
0.0
  0
LINE
  5
CC0
330
1F
100
AcDbEntity
  8
1
  6
CONTINUOUS
 62
     7
100
AcDbLine
 10
83.48322617780664
 20
195.2057768176113
 30
0.0
 11
83.48322617780664
 21
194.6284266705428
 31
0.0
  0
LINE
  5
CC1
330
1F
100
AcDbEntity
  8
1
  6
CONTINUOUS
 62
     7
100
AcDbLine
 10
83.48322617780664
 20
194.6284266705428
 30
0.0
 11
81.4832258499811
 21
194.6284266705428
 31
0.0
  0
LINE
  5
CC2
330
1F
100
AcDbEntity
  8
1
  6
CONTINUOUS
 62
     7
100
AcDbLine
 10
81.4832258499811
 20
194.6284266705428
 30
0.0
 11
81.4832258499811
 21
195.2057768176113
 31
0.0
  0
LINE
  5
CC3
330
1F
100
AcDbEntity
  8
1
  6
CONTINUOUS
 62
     7
100
AcDbLine
 10
83.48322617780664
 20
200.5510761919234
 30
0.0
 11
81.4832258499811
 21
200.5510761919234
 31
0.0
  0
LINE
  5
CC4
330
1F
100
AcDbEntity
  8
1
  6
CONTINUOUS
 62
     7
100
AcDbLine
 10
81.4832258499811
 20
200.5510761919234
 30
0.0
 11
81.4832258499811
 21
201.1284263389919
 31
0.0
  0
LINE
  5
CC5
330
1F
100
AcDbEntity
  8
1
  6
CONTINUOUS
 62
     7
100
AcDbLine
 10
81.4832258499811
 20
201.1284263389919
 30
0.0
 11
83.48322617780664
 21
201.1284263389919
 31
0.0
  0
LINE
  5
CC6
330
1F
100
AcDbEntity
  8
1
  6
CONTINUOUS
 62
     7
100
AcDbLine
 10
83.48322617780664
 20
201.1284263389919
 30
0.0
 11
83.48322617780664
 21
200.5510761919234
 31
0.0
  0
LINE
  5
CC7
330
1F
100
AcDbEntity
  8
1
  6
CONTINUOUS
 62
     7
100
AcDbLine
 10
71.48322560783723
 20
201.1284263389919
 30
0.0
 11
73.48322593566277
 21
201.1284263389919
 31
0.0
  0
LINE
  5
CC8
330
1F
100
AcDbEntity
  8
1
  6
CONTINUOUS
 62
     7
100
AcDbLine
 10
73.48322593566277
 20
201.1284263389919
 30
0.0
 11
73.48322593566277
 21
200.5510761919234
 31
0.0
  0
LINE
  5
CC9
330
1F
100
AcDbEntity
  8
1
  6
CONTINUOUS
 62
     7
100
AcDbLine
 10
71.48322560783723
 20
200.5510761919234
 30
0.0
 11
71.48322560783723
 21
201.1284263389919
 31
0.0
  0
LINE
  5
CCA
330
1F
100
AcDbEntity
  8
1
  6
CONTINUOUS
 62
     7
100
AcDbLine
 10
73.48322593566277
 20
195.2057768176113
 30
0.0
 11
73.48322593566277
 21
194.6284266705428
 31
0.0
  0
LINE
  5
CCB
330
1F
100
AcDbEntity
  8
1
  6
CONTINUOUS
 62
     7
100
AcDbLine
 10
73.48322593566277
 20
194.6284266705428
 30
0.0
 11
71.48322560783723
 21
194.6284266705428
 31
0.0
  0
LINE
  5
CCC
330
1F
100
AcDbEntity
  8
1
  6
CONTINUOUS
 62
     7
100
AcDbLine
 10
71.48322560783723
 20
194.6284266705428
 30
0.0
 11
71.48322560783723
 21
195.2057768176113
 31
0.0
  0
LINE
  5
CCD
330
1F
100
AcDbEntity
  8
1
  6
CONTINUOUS
 62
     7
100
AcDbLine
 10
50.08322517346838
 20
213.4010762492929
 30
0.0
 11
49.28322653245428
 21
213.4010762492929
 31
0.0
  0
LINE
  5
CCE
330
1F
100
AcDbEntity
  8
1
  6
CONTINUOUS
 62
     7
100
AcDbLine
 10
49.28322653245428
 20
213.4010762492929
 30
0.0
 11
49.28322653245428
 21
213.9784263963614
 31
0.0
  0
LINE
  5
CCF
330
1F
100
AcDbEntity
  8
1
  6
CONTINUOUS
 62
     7
100
AcDbLine
 10
49.28322653245428
 20
213.9784263963614
 30
0.0
 11
50.08322517346838
 21
213.9784263963614
 31
0.0
  0
LINE
  5
CD0
330
1F
100
AcDbEntity
  8
1
  6
CONTINUOUS
 62
     7
100
AcDbLine
 10
50.08322517346838
 20
213.9784263963614
 30
0.0
 11
50.08322517346838
 21
213.4010762492929
 31
0.0
  0
LINE
  5
CD1
330
1F
100
AcDbEntity
  8
1
  6
CONTINUOUS
 62
     7
100
AcDbLine
 10
49.28322653245428
 20
211.7557766432677
 30
0.0
 11
50.08322517346838
 21
211.7557766432677
 31
0.0
  0
LINE
  5
CD2
330
1F
100
AcDbEntity
  8
1
  6
CONTINUOUS
 62
     7
100
AcDbLine
 10
50.08322517346838
 20
211.7557766432677
 30
0.0
 11
50.08322517346838
 21
211.1784264961992
 31
0.0
  0
LINE
  5
CD3
330
1F
100
AcDbEntity
  8
1
  6
CONTINUOUS
 62
     7
100
AcDbLine
 10
50.08322517346838
 20
211.1784264961992
 30
0.0
 11
49.28322653245428
 21
211.1784264961992
 31
0.0
  0
LINE
  5
CD4
330
1F
100
AcDbEntity
  8
1
  6
CONTINUOUS
 62
     7
100
AcDbLine
 10
49.28322653245428
 20
211.1784264961992
 30
0.0
 11
49.28322653245428
 21
211.7557766432677
 31
0.0
  0
LINE
  5
CD5
330
1F
100
AcDbEntity
  8
1
  6
CONTINUOUS
 62
     7
100
AcDbLine
 10
50.08322517346838
 20
196.4784263218556
 30
0.0
 11
49.28322653245428
 21
196.4784263218556
 31
0.0
  0
LINE
  5
CD6
330
1F
100
AcDbEntity
  8
1
  6
CONTINUOUS
 62
     7
100
AcDbLine
 10
49.28322653245428
 20
196.4784263218556
 30
0.0
 11
49.28322653245428
 21
197.0557764689241
 31
0.0
  0
LINE
  5
CD7
330
1F
100
AcDbEntity
  8
1
  6
CONTINUOUS
 62
     7
100
AcDbLine
 10
50.08322517346838
 20
197.0557764689241
 30
0.0
 11
50.08322517346838
 21
196.4784263218556
 31
0.0
  0
LINE
  5
CD8
330
1F
100
AcDbEntity
  8
1
  6
CONTINUOUS
 62
     7
100
AcDbLine
 10
71.48322560783723
 20
215.2510759006057
 30
0.0
 11
71.48322560783723
 21
209.9057765262936
 31
0.0
  0
LINE
  5
CD9
330
1F
100
AcDbEntity
  8
1
  6
CONTINUOUS
 62
     7
100
AcDbLine
 10
73.48322593566277
 20
209.9057765262936
 30
0.0
 11
73.48322593566277
 21
215.2510759006057
 31
0.0
  0
LINE
  5
CDA
330
1F
100
AcDbEntity
  8
1
  6
CONTINUOUS
 62
     7
100
AcDbLine
 10
83.48322617780664
 20
195.2057768176113
 30
0.0
 11
83.48322617780664
 21
200.5510761919234
 31
0.0
  0
LINE
  5
CDB
330
1F
100
AcDbEntity
  8
1
  6
CONTINUOUS
 62
     7
100
AcDbLine
 10
81.4832258499811
 20
200.5510761919234
 30
0.0
 11
81.4832258499811
 21
195.2057768176113
 31
0.0
  0
LINE
  5
CDC
330
1F
100
AcDbEntity
  8
1
  6
CONTINUOUS
 62
     7
100
AcDbLine
 10
49.28322653245428
 20
213.4010762492929
 30
0.0
 11
49.28322653245428
 21
211.7557766432677
 31
0.0
  0
LINE
  5
CDD
330
1F
100
AcDbEntity
  8
1
  6
CONTINUOUS
 62
     7
100
AcDbLine
 10
50.08322517346838
 20
211.7557766432677
 30
0.0
 11
50.08322517346838
 21
213.4010762492929
 31
0.0
  0
LINE
  5
CDE
330
1F
100
AcDbEntity
  8
1
  6
CONTINUOUS
 62
     7
100
AcDbLine
 10
83.48322617780664
 20
209.9057765262936
 30
0.0
 11
83.48322617780664
 21
215.2510759006057
 31
0.0
  0
LINE
  5
CDF
330
1F
100
AcDbEntity
  8
1
  6
CONTINUOUS
 62
     7
100
AcDbLine
 10
81.4832258499811
 20
215.2510759006057
 30
0.0
 11
81.4832258499811
 21
209.9057765262936
 31
0.0
  0
LINE
  5
CE0
330
1F
100
AcDbEntity
  8
1
  6
CONTINUOUS
 62
     7
100
AcDbLine
 10
64.83322572853663
 20
192.728426172844
 30
0.0
 11
67.53322579857209
 21
192.728426172844
 31
0.0
  0
LINE
  5
CE1
330
1F
100
AcDbEntity
  8
1
  6
CONTINUOUS
 62
     7
100
AcDbLine
 10
64.83322572853663
 20
194.4284260789667
 30
0.0
 11
64.83322572853663
 21
192.728426172844
 31
0.0
  0
LINE
  5
CE2
330
1F
100
AcDbEntity
  8
1
  6
CONTINUOUS
 62
     7
100
AcDbLine
 10
67.53322579857209
 20
192.728426172844
 30
0.0
 11
67.53322579857209
 21
194.4284260789667
 31
0.0
  0
ARC
  5
CE3
330
1F
100
AcDbEntity
  8
1
  6
CONTINUOUS
 62
     7
100
AcDbCircle
 10
65.33322576355437
 20
194.4284263591085
 30
0.0
 40
0.5
100
AcDbArc
 50
90.0
 51
180.0
  0
LINE
  5
CE4
330
1F
100
AcDbEntity
  8
1
  6
CONTINUOUS
 62
     7
100
AcDbLine
 10
67.03322577482336
 20
194.9284261609231
 30
0.0
 11
65.33322575228536
 21
194.9284261609231
 31
0.0
  0
ARC
  5
CE5
330
1F
100
AcDbEntity
  8
1
  6
CONTINUOUS
 62
     7
100
AcDbCircle
 10
67.03322576355436
 20
194.4284263591085
 30
0.0
 40
0.5
100
AcDbArc
 50
0.0
 51
90.0
  0
LINE
  5
CE6
330
1F
100
AcDbEntity
  8
1
  6
CONTINUOUS
 62
     7
100
AcDbLine
 10
67.53322579857209
 20
217.728426545373
 30
0.0
 11
64.83322572853663
 21
217.728426545373
 31
0.0
  0
LINE
  5
CE7
330
1F
100
AcDbEntity
  8
1
  6
CONTINUOUS
 62
     7
100
AcDbLine
 10
65.33322575228536
 20
215.5284265572939
 30
0.0
 11
67.03322577482336
 21
215.5284265572939
 31
0.0
  0
LINE
  5
CE8
330
1F
100
AcDbEntity
  8
1
  6
CONTINUOUS
 62
     7
100
AcDbLine
 10
67.53322579857209
 20
216.0284266392503
 30
0.0
 11
67.53322579857209
 21
217.728426545373
 31
0.0
  0
ARC
  5
CE9
330
1F
100
AcDbEntity
  8
1
  6
CONTINUOUS
 62
     7
100
AcDbCircle
 10
67.03322576355436
 20
216.0284263591085
 30
0.0
 40
0.5
100
AcDbArc
 50
270.0
 51
0.0
  0
ARC
  5
CEA
330
1F
100
AcDbEntity
  8
1
  6
CONTINUOUS
 62
     7
100
AcDbCircle
 10
65.33322576355437
 20
216.0284263591085
 30
0.0
 40
0.5
100
AcDbArc
 50
180.0
 51
270.0
  0
LINE
  5
CEB
330
1F
100
AcDbEntity
  8
1
  6
CONTINUOUS
 62
     7
100
AcDbLine
 10
64.83322572853663
 20
217.728426545373
 30
0.0
 11
64.83322572853663
 21
216.0284266392503
 31
0.0
  0
ARC
  5
CEC
330
1F
100
AcDbEntity
  8
1
  6
CONTINUOUS
 62
     7
100
AcDbCircle
 10
47.18322576355436
 20
193.7284263591085
 30
0.0
 40
1.0
100
AcDbArc
 50
179.9999999999984
 51
270.0000000000016
  0
LINE
  5
CED
330
1F
100
AcDbEntity
  8
1
  6
CONTINUOUS
 62
     7
100
AcDbLine
 10
48.38322619866827
 20
192.728426172844
 30
0.0
 11
48.38322619866827
 21
194.4284260789667
 31
0.0
  0
LINE
  5
CEE
330
1F
100
AcDbEntity
  8
1
  6
CONTINUOUS
 62
     7
100
AcDbLine
 10
47.18322637450197
 20
192.728426172844
 30
0.0
 11
48.38322619866827
 21
192.728426172844
 31
0.0
  0
LINE
  5
CEF
330
1F
100
AcDbEntity
  8
1
  6
CONTINUOUS
 62
     7
100
AcDbLine
 10
47.88322518538931
 20
194.9284261609231
 30
0.0
 11
46.1832262105892
 21
194.9284261609231
 31
0.0
  0
ARC
  5
CF0
330
1F
100
AcDbEntity
  8
1
  6
CONTINUOUS
 62
     7
100
AcDbCircle
 10
47.88322576355435
 20
194.4284263591085
 30
0.0
 40
0.5
100
AcDbArc
 50
0.0
 51
90.0
  0
LINE
  5
CF1
330
1F
100
AcDbEntity
  8
1
  6
CONTINUOUS
 62
     7
100
AcDbLine
 10
46.1832262105892
 20
194.9284261609231
 30
0.0
 11
46.1832262105892
 21
193.7284263367568
 31
0.0
  0
LINE
  5
CF2
330
1F
100
AcDbEntity
  8
1
  6
CONTINUOUS
 62
     7
100
AcDbLine
 10
83.98322532844045
 20
206.9284263816465
 30
0.0
 11
83.98322532844045
 21
203.5284263365705
 31
0.0
  0
LINE
  5
CF3
330
1F
100
AcDbEntity
  8
1
  6
CONTINUOUS
 62
     7
100
AcDbLine
 10
86.18322531651953
 20
203.0284263710294
 30
0.0
 11
86.18322531651953
 21
207.4284263471876
 31
0.0
  0
LINE
  5
CF4
330
1F
100
AcDbEntity
  8
1
  6
CONTINUOUS
 62
     7
100
AcDbLine
 10
84.48322634171942
 20
203.0284263710294
 30
0.0
 11
86.18322531651953
 21
203.0284263710294
 31
0.0
  0
ARC
  5
CF5
330
1F
100
AcDbEntity
  8
1
  6
CONTINUOUS
 62
     7
100
AcDbCircle
 10
84.48322576355437
 20
203.5284263591085
 30
0.0
 40
0.5
100
AcDbArc
 50
180.0
 51
270.0
  0
ARC
  5
CF6
330
1F
100
AcDbEntity
  8
1
  6
CONTINUOUS
 62
     7
100
AcDbCircle
 10
84.48322576355437
 20
206.9284263591085
 30
0.0
 40
0.5
100
AcDbArc
 50
90.0
 51
180.0
  0
LINE
  5
CF7
330
1F
100
AcDbEntity
  8
1
  6
CONTINUOUS
 62
     7
100
AcDbLine
 10
86.18322531651953
 20
207.4284263471876
 30
0.0
 11
84.48322634171942
 21
207.4284263471876
 31
0.0
  0
ARC
  5
CF8
330
1F
100
AcDbEntity
  8
1
  6
CONTINUOUS
 62
     7
100
AcDbCircle
 10
47.88322576355435
 20
216.0284263591085
 30
0.0
 40
0.5
100
AcDbArc
 50
270.0
 51
0.0000000000065138
  0
ARC
  5
CF9
330
1F
100
AcDbEntity
  8
1
  6
CONTINUOUS
 62
     7
100
AcDbCircle
 10
47.18322576355436
 20
216.7284263591085
 30
0.0
 40
1.0
100
AcDbArc
 50
90.0
 51
180.0
  0
LINE
  5
CFA
330
1F
100
AcDbEntity
  8
1
  6
CONTINUOUS
 62
     7
100
AcDbLine
 10
48.38322619866827
 20
216.0284266392503
 30
0.0
 11
48.38322619866827
 21
217.728426545373
 31
0.0
  0
LINE
  5
CFB
330
1F
100
AcDbEntity
  8
1
  6
CONTINUOUS
 62
     7
100
AcDbLine
 10
46.1832262105892
 20
216.7284263814602
 30
0.0
 11
46.1832262105892
 21
215.5284265572939
 31
0.0
  0
LINE
  5
CFC
330
1F
100
AcDbEntity
  8
1
  6
CONTINUOUS
 62
     7
100
AcDbLine
 10
48.38322619866827
 20
217.728426545373
 30
0.0
 11
47.18322637450197
 21
217.728426545373
 31
0.0
  0
LINE
  5
CFD
330
1F
100
AcDbEntity
  8
1
  6
CONTINUOUS
 62
     7
100
AcDbLine
 10
46.1832262105892
 20
215.5284265572939
 30
0.0
 11
47.88322518538931
 21
215.5284265572939
 31
0.0
  0
LINE
  5
CFE
330
1F
100
AcDbEntity
  8
1
  6
CONTINUOUS
 62
     7
100
AcDbLine
 10
61.73322587233284
 20
204.228426311611
 30
0.0
 11
83.98322532844045
 21
204.228426311611
 31
0.0
  0
LINE
  5
CFF
330
1F
100
AcDbEntity
  8
1
  6
CONTINUOUS
 62
     7
100
AcDbLine
 10
61.73322587233284
 20
196.9284264887486
 30
0.0
 11
61.73322587233284
 21
204.228426311611
 31
0.0
  0
ARC
  5
D00
330
1F
100
AcDbEntity
  8
1
  6
CONTINUOUS
 62
     7
100
AcDbCircle
 10
61.23322576355437
 20
196.9284263591085
 30
0.0
 40
0.5
100
AcDbArc
 50
270.0
 51
0.0
  0
LINE
  5
D01
330
1F
100
AcDbEntity
  8
1
  6
CONTINUOUS
 62
     7
100
AcDbLine
 10
60.23322562646368
 20
196.4284264067922
 30
0.0
 11
61.23322579037645
 21
196.4284264067922
 31
0.0
  0
ARC
  5
D02
330
1F
100
AcDbEntity
  8
1
  6
CONTINUOUS
 62
     7
100
AcDbCircle
 10
60.23322576355437
 20
196.9284263591085
 30
0.0
 40
0.5000000000000142
100
AcDbArc
 50
180.0
 51
270.0
  0
LINE
  5
D03
330
1F
100
AcDbEntity
  8
1
  6
CONTINUOUS
 62
     7
100
AcDbLine
 10
50.63322610181072
 20
204.228426311611
 30
0.0
 11
59.73322554450729
 21
204.228426311611
 31
0.0
  0
ARC
  5
D04
330
1F
100
AcDbEntity
  8
1
  6
CONTINUOUS
 62
     7
100
AcDbCircle
 10
50.63322576355438
 20
204.7284263591085
 30
0.0
 40
0.5
100
AcDbArc
 50
180.0
 51
270.0
  0
LINE
  5
D05
330
1F
100
AcDbEntity
  8
1
  6
CONTINUOUS
 62
     7
100
AcDbLine
 10
50.13322601985433
 20
205.7284263828572
 30
0.0
 11
50.13322601985433
 21
204.7284263353598
 31
0.0
  0
ARC
  5
D06
330
1F
100
AcDbEntity
  8
1
  6
CONTINUOUS
 62
     7
100
AcDbCircle
 10
50.63322576355438
 20
205.7284263591085
 30
0.0
 40
0.5000000000000568
100
AcDbArc
 50
90.0
 51
180.0
  0
LINE
  5
D07
330
1F
100
AcDbEntity
  8
1
  6
CONTINUOUS
 62
     7
100
AcDbLine
 10
59.73322554450729
 20
206.2284264066059
 30
0.0
 11
50.63322610181072
 21
206.2284264066059
 31
0.0
  0
LINE
  5
D08
330
1F
100
AcDbEntity
  8
1
  6
CONTINUOUS
 62
     7
100
AcDbLine
 10
59.73322554450729
 20
213.5284262294684
 30
0.0
 11
59.73322554450729
 21
206.2284264066059
 31
0.0
  0
ARC
  5
D09
330
1F
100
AcDbEntity
  8
1
  6
CONTINUOUS
 62
     7
100
AcDbCircle
 10
60.23322576355437
 20
213.5284263591085
 30
0.0
 40
0.5000000000000142
100
AcDbArc
 50
90.0
 51
180.0
  0
LINE
  5
D0A
330
1F
100
AcDbEntity
  8
1
  6
CONTINUOUS
 62
     7
100
AcDbLine
 10
61.23322579037645
 20
214.0284263114248
 30
0.0
 11
60.23322562646368
 21
214.0284263114248
 31
0.0
  0
ARC
  5
D0B
330
1F
100
AcDbEntity
  8
1
  6
CONTINUOUS
 62
     7
100
AcDbCircle
 10
61.23322576355437
 20
213.5284263591085
 30
0.0
 40
0.5
100
AcDbArc
 50
0.0
 51
90.0
  0
LINE
  5
D0C
330
1F
100
AcDbEntity
  8
1
  6
CONTINUOUS
 62
     7
100
AcDbLine
 10
83.98322532844045
 20
206.2284264066059
 30
0.0
 11
61.73322587233284
 21
206.2284264066059
 31
0.0
  0
LINE
  5
D0D
330
1F
100
AcDbEntity
  8
1
  6
CONTINUOUS
 62
     7
100
AcDbLine
 10
59.73322554450729
 20
204.228426311611
 30
0.0
 11
59.73322554450729
 21
196.9284264887486
 31
0.0
  0
LINE
  5
D0E
330
1F
100
AcDbEntity
  8
1
  6
CONTINUOUS
 62
     7
100
AcDbLine
 10
61.73322587233284
 20
206.2284264066059
 30
0.0
 11
61.73322587233284
 21
213.5284262294684
 31
0.0
  0
LINE
  5
D0F
330
1F
100
AcDbEntity
  8
1
  6
CONTINUOUS
 62
     7
100
AcDbLine
 10
78.92168736975887
 20
213.2194515834365
 30
0.0
 11
78.94732854288318
 21
212.9630417148385
 31
0.0
  0
SPLINE
  5
D10
330
1F
100
AcDbEntity
  8
1
  6
CONTINUOUS
 62
     7
100
AcDbSpline
210
0.0
220
0.0
230
1.0
 70
     8
 71
     3
 72
    23
 73
    19
 74
     0
 42
0.000000001
 43
0.00000001
 40
0.0
 40
0.0
 40
0.0
 40
0.0
 40
0.0773613371189756
 40
0.1504798322806811
 40
0.219977236852074
 40
0.28668099686244
 40
0.3496784941856634
 40
0.4106796250174848
 40
0.4694271135192898
 40
0.52675570142713
 40
0.5831419808348377
 40
0.638824427778625
 40
0.6952634704038128
 40
0.7526958048985348
 40
0.8108491833348943
 40
0.8713563036360846
 40
0.934436430984128
 40
1.0
 40
1.0
 40
1.0
 40
1.0
 10
78.94732832765695
 20
212.9630417437239
 30
0.0
 10
78.93288101694398
 20
212.9605028796361
 30
0.0
 10
78.9047787506963
 20
212.9555643941296
 30
0.0
 10
78.86409988676692
 20
212.9461535641886
 30
0.0
 10
78.82630808515134
 20
212.9339315749509
 30
0.0
 10
78.79107604726235
 20
212.9201988244795
 30
0.0
 10
78.75877630778567
 20
212.9038751337771
 30
0.0
 10
78.72889887073146
 20
212.8861882796604
 30
0.0
 10
78.70250429197662
 20
212.8653302498896
 30
0.0
 10
78.67821211015817
 20
212.8434008321163
 30
0.0
 10
78.656806401853
 20
212.8193316204777
 30
0.0
 10
78.638760651294
 20
212.7928903651023
 30
0.0
 10
78.62301682667308
 20
212.764814794349
 30
0.0
 10
78.61012648252509
 20
212.7347629583498
 30
0.0
 10
78.60069142947705
 20
212.7026887991656
 30
0.0
 10
78.59322992224904
 20
212.6690005351256
 30
0.0
 10
78.58947010394789
 20
212.6332643688808
 30
0.0
 10
78.58873077132873
 20
212.6088818265558
 30
0.0
 10
78.58835396868258
 20
212.5964552052624
 30
0.0
  0
SPLINE
  5
D11
330
1F
100
AcDbEntity
  8
1
  6
CONTINUOUS
 62
     7
100
AcDbSpline
210
0.0
220
0.0
230
1.0
 70
     8
 71
     3
 72
    23
 73
    19
 74
     0
 42
0.000000001
 43
0.00000001
 40
0.0
 40
0.0
 40
0.0
 40
0.0
 40
0.0657969014422169
 40
0.1286687074936949
 40
0.1886640150334367
 40
0.2473878658315842
 40
0.3048931163760727
 40
0.3618260165874504
 40
0.4195591944128803
 40
0.478714584800727
 40
0.5387984953904645
 40
0.598824274980328
 40
0.6602056418727786
 40
0.7229689455157905
 40
0.7880060156074512
 40
0.855412857564677
 40
0.9261577032060914
 40
1.0
 40
1.0
 40
1.0
 40
1.0
 10
78.58835396868258
 20
212.5964552052624
 30
0.0
 10
78.5887265454534
 20
212.5812121619152
 30
0.0
 10
78.58945513556162
 20
212.5514037265214
 30
0.0
 10
78.59548854321977
 20
212.5080105967571
 30
0.0
 10
78.60573370631622
 20
212.4671694109359
 30
0.0
 10
78.6190320001086
 20
212.4284925186769
 30
0.0
 10
78.6372389522995
 20
212.3925978637512
 30
0.0
 10
78.65971700836505
 20
212.3595918063486
 30
0.0
 10
78.6852156304162
 20
212.3283095389132
 30
0.0
 10
78.71553783121672
 20
212.3005696352445
 30
0.0
 10
78.74856837871923
 20
212.2753266017323
 30
0.0
 10
78.78461721225202
 20
212.253537848773
 30
0.0
 10
78.82318476300767
 20
212.2351953611356
 30
0.0
 10
78.86426188945941
 20
212.2197528359573
 30
0.0
 10
78.90808373406989
 20
212.2083496973605
 30
0.0
 10
78.95441703833197
 20
212.1999617567859
 30
0.0
 10
79.0032913546053
 20
212.1945770366107
 30
0.0
 10
79.03679046440439
 20
212.1940699495948
 30
0.0
 10
79.05389884047744
 20
212.1938109744931
 30
0.0
  0
SPLINE
  5
D12
330
1F
100
AcDbEntity
  8
1
  6
CONTINUOUS
 62
     7
100
AcDbSpline
210
0.0
220
0.0
230
1.0
 70
     8
 71
     3
 72
    23
 73
    19
 74
     0
 42
0.000000001
 43
0.00000001
 40
0.0
 40
0.0
 40
0.0
 40
0.0
 40
0.0728659334565347
 40
0.1418868719641261
 40
0.2074526264147113
 40
0.2704376800000965
 40
0.3316408722476699
 40
0.3901075774931572
 40
0.4480692869488367
 40
0.5055029519245362
 40
0.5624881528337238
 40
0.6190843288847289
 40
0.6764155306922386
 40
0.7354523604507937
 40
0.7962407694486784
 40
0.8604056780892028
 40
0.9283049272851054
 40
1.0
 40
1.0
 40
1.0
 40
1.0
 10
79.05389884047744
 20
212.1938109744931
 30
0.0
 10
79.07020290006759
 20
212.1941053213276
 30
0.0
 10
79.10195068542927
 20
212.1946784828812
 30
0.0
 10
79.14818073953049
 20
212.19950543826
 30
0.0
 10
79.19165098090443
 20
212.2076490802558
 30
0.0
 10
79.23284052748548
 20
212.2181861904863
 30
0.0
 10
79.27110574187995
 20
212.2327102678953
 30
0.0
 10
79.30700143228378
 20
212.2499366415237
 30
0.0
 10
79.33976578646744
 20
212.2710396732168
 30
0.0
 10
79.370418967765
 20
212.2945181885123
 30
0.0
 10
79.39789830965023
 20
212.3213336171339
 30
0.0
 10
79.4211011333575
 20
212.3518482310165
 30
0.0
 10
79.4414082899572
 20
212.3848649598743
 30
0.0
 10
79.45787612712635
 20
212.4210487944501
 30
0.0
 10
79.4701111113292
 20
212.4604210415412
 30
0.0
 10
79.47952483075463
 20
212.5025904495027
 30
0.0
 10
79.484476061702
 20
212.5479945884061
 30
0.0
 10
79.48534406379443
 20
212.5792173827361
 30
0.0
 10
79.4857898661185
 20
212.5952532821855
 30
0.0
  0
SPLINE
  5
D13
330
1F
100
AcDbEntity
  8
1
  6
CONTINUOUS
 62
     7
100
AcDbSpline
210
0.0
220
0.0
230
1.0
 70
     8
 71
     3
 72
    15
 73
    11
 74
     0
 42
0.000000001
 43
0.00000001
 40
0.0
 40
0.0
 40
0.0
 40
0.0
 40
0.1478291835026776
 40
0.2835029195388445
 40
0.4122844643765186
 40
0.533686497031319
 40
0.6521173733609419
 40
0.7687107057448093
 40
0.8836763648571923
 40
1.0
 40
1.0
 40
1.0
 40
1.0
 10
79.4857898661185
 20
212.5952532821855
 30
0.0
 10
79.48520335241349
 20
212.6151916059148
 30
0.0
 10
79.48407855185818
 20
212.6534287986942
 30
0.0
 10
79.47471104847185
 20
212.7083963563995
 30
0.0
 10
79.45937790815461
 20
212.7582887838204
 30
0.0
 10
79.43728056635675
 20
212.8030147892175
 30
0.0
 10
79.41015985366235
 20
212.8428401619566
 30
0.0
 10
79.37911517270774
 20
212.8784470456098
 30
0.0
 10
79.34498207501869
 20
212.9108363868711
 30
0.0
 10
79.31924618407285
 20
212.9285113491603
 30
0.0
 10
79.30630268663131
 20
212.9374007180829
 30
0.0
  0
LINE
  5
D14
330
1F
100
AcDbEntity
  8
1
  6
CONTINUOUS
 62
     7
100
AcDbLine
 10
79.30630310397842
 20
212.9374005417142
 30
0.0
 11
79.33194334578016
 21
213.1938113416348
 31
0.0
  0
LINE
  5
D15
330
1F
100
AcDbEntity
  8
1
  6
CONTINUOUS
 62
     7
100
AcDbLine
 10
79.33194334578016
 20
213.1938113416348
 30
0.0
 11
80.35758468281725
 21
212.9886828879629
 31
0.0
  0
LINE
  5
D16
330
1F
100
AcDbEntity
  8
1
  6
CONTINUOUS
 62
     7
100
AcDbLine
 10
80.35758468281725
 20
212.9886828879629
 30
0.0
 11
80.35758468281725
 21
212.0399646046374
 31
0.0
  0
LINE
  5
D17
330
1F
100
AcDbEntity
  8
1
  6
CONTINUOUS
 62
     7
100
AcDbLine
 10
80.35758468281725
 20
212.0399646046374
 30
0.0
 11
80.10117481421926
 21
212.0399646046374
 31
0.0
  0
LINE
  5
D18
330
1F
100
AcDbEntity
  8
1
  6
CONTINUOUS
 62
     7
100
AcDbLine
 10
80.10117481421926
 20
212.0399646046374
 30
0.0
 11
80.10117481421926
 21
212.7791474158678
 31
0.0
  0
LINE
  5
D19
330
1F
100
AcDbEntity
  8
1
  6
CONTINUOUS
 62
     7
100
AcDbLine
 10
80.10117481421926
 20
212.7791474158678
 30
0.0
 11
79.5831452585409
 21
212.8809102396283
 31
0.0
  0
SPLINE
  5
D1A
330
1F
100
AcDbEntity
  8
1
  6
CONTINUOUS
 62
     7
100
AcDbSpline
210
0.0
220
0.0
230
1.0
 70
     8
 71
     3
 72
    15
 73
    11
 74
     0
 42
0.000000001
 43
0.00000001
 40
0.0
 40
0.0
 40
0.0
 40
0.0
 40
0.1367294018595729
 40
0.2685149167908312
 40
0.3955294046848075
 40
0.5199999535658139
 40
0.64049647684127
 40
0.7612361017625321
 40
0.8801067171759525
 40
1.0
 40
1.0
 40
1.0
 40
1.0
 10
79.58314563534921
 20
212.8809103334675
 30
0.0
 10
79.59376251631451
 20
212.866762302203
 30
0.0
 10
79.61461239110511
 20
212.8389778067979
 30
0.0
 10
79.64191255385421
 20
212.7956389741696
 30
0.0
 10
79.66492477065319
 20
212.7516804417058
 30
0.0
 10
79.68376984110469
 20
212.7073581032187
 30
0.0
 10
79.69845011783585
 20
212.6623198872914
 30
0.0
 10
79.7086492962226
 20
212.6168375753675
 30
0.0
 10
79.71554250111345
 20
212.5707563078182
 30
0.0
 10
79.71621926539646
 20
212.5398561000301
 30
0.0
 10
79.71655909688772
 20
212.524339820647
 30
0.0
  0
SPLINE
  5
D1B
330
1F
100
AcDbEntity
  8
1
  6
CONTINUOUS
 62
     7
100
AcDbSpline
210
0.0
220
0.0
230
1.0
 70
     8
 71
     3
 72
    23
 73
    19
 74
     0
 42
0.000000001
 43
0.00000001
 40
0.0
 40
0.0
 40
0.0
 40
0.0
 40
0.0619902369008655
 40
0.1220738106381443
 40
0.1813542991188395
 40
0.2394802622662309
 40
0.2978011947175459
 40
0.3566174458467404
 40
0.4170123029745349
 40
0.4793636629244318
 40
0.5422160392608361
 40
0.6050081833109215
 40
0.6670296109523874
 40
0.7302474964743385
 40
0.7941967075742653
 40
0.8604743085653801
 40
0.9285864539421099
 40
1.0
 40
1.0
 40
1.0
 40
1.0
 10
79.71655909688772
 20
212.524339820647
 30
0.0
 10
79.71602983981617
 20
212.5041465462777
 30
0.0
 10
79.71498760428429
 20
212.4643810916714
 30
0.0
 10
79.70642965109957
 20
212.4057833934176
 30
0.0
 10
79.69188844155107
 20
212.3497615925525
 30
0.0
 10
79.6723499641582
 20
212.2958410661079
 30
0.0
 10
79.64630919528125
 20
212.2449273438533
 30
0.0
 10
79.61542437645792
 20
212.1959372523539
 30
0.0
 10
79.57819026970876
 20
212.1498595027684
 30
0.0
 10
79.5360425001991
 20
212.1064196391761
 30
0.0
 10
79.48919139513967
 20
212.0668723853481
 30
0.0
 10
79.43894849736816
 20
212.0318671631535
 30
0.0
 10
79.38486631463084
 20
212.0029238754416
 30
0.0
 10
79.3280976549922
 20
211.9787245182536
 30
0.0
 10
79.26771409086555
 20
211.9604475654654
 30
0.0
 10
79.20454524563345
 20
211.9465817288659
 30
0.0
 10
79.13780895562584
 20
211.9391665968707
 30
0.0
 10
79.09237678408763
 20
211.9379985569091
 30
0.0
 10
79.06912319945181
 20
211.9374007180829
 30
0.0
  0
SPLINE
  5
D1C
330
1F
100
AcDbEntity
  8
1
  6
CONTINUOUS
 62
     7
100
AcDbSpline
210
0.0
220
0.0
230
1.0
 70
     8
 71
     3
 72
    15
 73
    11
 74
     0
 42
0.000000001
 43
0.00000001
 40
0.0
 40
0.0
 40
0.0
 40
0.0
 40
0.1324616222426371
 40
0.2616495010354882
 40
0.3875466984163669
 40
0.5107816292933457
 40
0.6326753605997109
 40
0.7546603541381358
 40
0.8765227798028649
 40
1.0
 40
1.0
 40
1.0
 40
1.0
 10
79.06912319945181
 20
211.9374007180829
 30
0.0
 10
79.04693548115867
 20
211.9378547170959
 30
0.0
 10
79.00310840640137
 20
211.9387514946924
 30
0.0
 10
78.93852110973947
 20
211.9461007725717
 30
0.0
 10
78.87628616570171
 20
211.9582069612546
 30
0.0
 10
78.81621927747844
 20
211.9744138073475
 30
0.0
 10
78.75866157852826
 20
211.9963114313653
 30
0.0
 10
78.70342715281615
 20
212.0228711996809
 30
0.0
 10
78.64993964781362
 20
212.0535093821813
 30
0.0
 10
78.6169676879961
 20
212.0780796145911
 30
0.0
 10
78.60037319945181
 20
212.0904455898777
 30
0.0
  0
SPLINE
  5
D1D
330
1F
100
AcDbEntity
  8
1
  6
CONTINUOUS
 62
     7
100
AcDbSpline
210
0.0
220
0.0
230
1.0
 70
     8
 71
     3
 72
    15
 73
    11
 74
     0
 42
0.000000001
 43
0.00000001
 40
0.0
 40
0.0
 40
0.0
 40
0.0
 40
0.1278829696493945
 40
0.2515595312796918
 40
0.3727646915574483
 40
0.4930749058244789
 40
0.6136192248323035
 40
0.7378284322692573
 40
0.8661899985982181
 40
1.0
 40
1.0
 40
1.0
 40
1.0
 10
78.60037319945181
 20
212.0904455898777
 30
0.0
 10
78.58100580314371
 20
212.1061581022458
 30
0.0
 10
78.54290805525173
 20
212.1370663010261
 30
0.0
 10
78.49339892949016
 20
212.1905501150915
 30
0.0
 10
78.45151766960291
 20
212.2482272264687
 30
0.0
 10
78.41667184908655
 20
212.3097599495248
 30
0.0
 10
78.3899633231151
 20
212.3759178540846
 30
0.0
 10
78.37151306009898
 20
212.4463522866503
 30
0.0
 10
78.35930601717862
 20
212.520845415794
 30
0.0
 10
78.35816639220954
 20
212.571966188481
 30
0.0
 10
78.35758473791336
 20
212.5980577693649
 30
0.0
  0
SPLINE
  5
D1E
330
1F
100
AcDbEntity
  8
1
  6
CONTINUOUS
 62
     7
100
AcDbSpline
210
0.0
220
0.0
230
1.0
 70
     8
 71
     3
 72
    23
 73
    19
 74
     0
 42
0.000000001
 43
0.00000001
 40
0.0
 40
0.0
 40
0.0
 40
0.0
 40
0.069307195753092
 40
0.1355787869482105
 40
0.1996973841147838
 40
0.2617508792831993
 40
0.3228698755054121
 40
0.3829182538841755
 40
0.4432924166226569
 40
0.5037691745503124
 40
0.5640006394049222
 40
0.6239302520114607
 40
0.6835875121494384
 40
0.7438143682173718
 40
0.8051660614027286
 40
0.8676312249341046
 40
0.9327691867317449
 40
1.0
 40
1.0
 40
1.0
 40
1.0
 10
78.35758473791336
 20
212.5980577693649
 30
0.0
 10
78.35802248661847
 20
212.6195800921979
 30
0.0
 10
78.35887881095508
 20
212.6616820758417
 30
0.0
 10
78.36628725063443
 20
212.723335739353
 30
0.0
 10
78.37818583960157
 20
212.7819420920441
 30
0.0
 10
78.39497251121227
 20
212.8377242092827
 30
0.0
 10
78.4171965982919
 20
212.8901757754289
 30
0.0
 10
78.44366327694152
 20
212.9400432575518
 30
0.0
 10
78.47552233025627
 20
212.9864124561534
 30
0.0
 10
78.51143747215335
 20
213.0297794138157
 30
0.0
 10
78.55171216159013
 20
213.0689225008334
 30
0.0
 10
78.59488225694432
 20
213.104447989744
 30
0.0
 10
78.6417505233795
 20
213.1349729437416
 30
0.0
 10
78.6916622267689
 20
213.1610947673292
 30
0.0
 10
78.74461054995746
 20
213.1828373405907
 30
0.0
 10
78.80092197008489
 20
213.199478690244
 30
0.0
 10
78.86005357034301
 20
213.2126579176667
 30
0.0
 10
78.90092730977491
 20
213.2171635600953
 30
0.0
 10
78.9216873020159
 20
213.2194520001342
 30
0.0
  0
LINE
  5
D1F
330
1F
100
AcDbEntity
  8
1
  6
CONTINUOUS
 62
     7
100
AcDbLine
 10
51.33963613730171
 20
197.2630413765822
 30
0.0
 11
51.08322533738115
 21
197.2630413765822
 31
0.0
  0
LINE
  5
D20
330
1F
100
AcDbEntity
  8
1
  6
CONTINUOUS
 62
     7
100
AcDbLine
 10
51.08322533738115
 20
197.2630413765822
 30
0.0
 11
51.08322533738115
 21
198.5707342210029
 31
0.0
  0
SPLINE
  5
D21
330
1F
100
AcDbEntity
  8
1
  6
CONTINUOUS
 62
     7
100
AcDbSpline
210
0.0
220
0.0
230
1.0
 70
     8
 71
     3
 72
    11
 73
     7
 74
     0
 42
0.000000001
 43
0.00000001
 40
0.0
 40
0.0
 40
0.0
 40
0.0
 40
0.2526501895044235
 40
0.5022501643010235
 40
0.7504000252033945
 40
1.0
 40
1.0
 40
1.0
 40
1.0
 10
51.08322576355437
 20
198.5707340514162
 30
0.0
 10
51.09846603694362
 20
198.5707696069653
 30
0.0
 10
51.12876258977323
 20
198.5708402888057
 30
0.0
 10
51.17374605494709
 20
198.5655850264981
 30
0.0
 10
51.21817439245908
 20
198.5576654131596
 30
0.0
 10
51.24677061328606
 20
198.5484914484744
 30
0.0
 10
51.26111037893898
 20
198.5438911026982
 30
0.0
  0
SPLINE
  5
D22
330
1F
100
AcDbEntity
  8
1
  6
CONTINUOUS
 62
     7
100
AcDbSpline
210
0.0
220
0.0
230
1.0
 70
     8
 71
     3
 72
    19
 73
    15
 74
     0
 42
0.000000001
 43
0.00000001
 40
0.0
 40
0.0
 40
0.0
 40
0.0
 40
0.1003902036867515
 40
0.2039291335428308
 40
0.3106719343739723
 40
0.4221454331984474
 40
0.4806748014235235
 40
0.5432287790499554
 40
0.6094914892291329
 40
0.6795480313759167
 40
0.7538361694451032
 40
0.8316372207794286
 40
0.9138109377463682
 40
1.0
 40
1.0
 40
1.0
 40
1.0
 10
51.26111037893898
 20
198.5438911026982
 30
0.0
 10
51.28455423922503
 20
198.5354294078682
 30
0.0
 10
51.33217727353974
 20
198.5182406182089
 30
0.0
 10
51.40082986932109
 20
198.4828900394618
 30
0.0
 10
51.46947213797159
 20
198.4421029181989
 30
0.0
 10
51.52521677842591
 20
198.4018539357901
 30
0.0
 10
51.56973022697369
 20
198.3651560029317
 30
0.0
 10
51.60454900664195
 20
198.3343657323867
 30
0.0
 10
51.6401924226939
 20
198.300248671759
 30
0.0
 10
51.67665105540499
 20
198.2628271310194
 30
0.0
 10
51.71416188358006
 20
198.2224627324876
 30
0.0
 10
51.75284975663462
 20
198.1790999722875
 30
0.0
 10
51.79199375527256
 20
198.1322269283358
 30
0.0
 10
51.81794002337332
 20
198.0995046328859
 30
0.0
 10
51.83122255842616
 20
198.0827532821854
 30
0.0
  0
SPLINE
  5
D23
330
1F
100
AcDbEntity
  8
1
  6
CONTINUOUS
 62
     7
100
AcDbSpline
210
0.0
220
0.0
230
1.0
 70
     8
 71
     3
 72
    23
 73
    19
 74
     0
 42
0.000000001
 43
0.00000001
 40
0.0
 40
0.0
 40
0.0
 40
0.0
 40
0.1114069722005854
 40
0.2145211916453915
 40
0.3094097605219017
 40
0.3960776348968155
 40
0.4742727739618103
 40
0.5443607482092246
 40
0.6064049324812083
 40
0.6605656653455918
 40
0.7097766937535549
 40
0.7560555340500245
 40
0.8007645578783271
 40
0.8431644975605257
 40
0.8842900859594652
 40
0.9234489124930927
 40
0.9623596182637247
 40
1.0
 40
1.0
 40
1.0
 40
1.0
 10
51.83122255842616
 20
198.0827532821854
 30
0.0
 10
51.85288262811696
 20
198.057019072863
 30
0.0
 10
51.89459046622986
 20
198.0074662204621
 30
0.0
 10
51.95648100937584
 20
197.9374897890178
 30
0.0
 10
52.01394996568135
 20
197.873577846231
 30
0.0
 10
52.06800424076314
 20
197.8167475205878
 30
0.0
 10
52.11812068632653
 20
197.766535937135
 30
0.0
 10
52.16418211064331
 20
197.722819033374
 30
0.0
 10
52.20605619966963
 20
197.6852400128208
 30
0.0
 10
52.24522283638376
 20
197.6541977335059
 30
0.0
 10
52.28219910316776
 20
197.6282122968497
 30
0.0
 10
52.31806744139783
 20
197.6056512568932
 30
0.0
 10
52.35408381005999
 20
197.5875399822121
 30
0.0
 10
52.38956423050348
 20
197.5719977868405
 30
0.0
 10
52.42464881773483
 20
197.559940008381
 30
0.0
 10
52.45965182461322
 20
197.5514540628618
 30
0.0
 10
52.49424190672059
 20
197.5459704559666
 30
0.0
 10
52.51736761115157
 20
197.5453822488456
 30
0.0
 10
52.52873858406718
 20
197.5450930257752
 30
0.0
  0
SPLINE
  5
D24
330
1F
100
AcDbEntity
  8
1
  6
CONTINUOUS
 62
     7
100
AcDbSpline
210
0.0
220
0.0
230
1.0
 70
     8
 71
     3
 72
    23
 73
    19
 74
     0
 42
0.000000001
 43
0.00000001
 40
0.0
 40
0.0
 40
0.0
 40
0.0
 40
0.0617483467540244
 40
0.1211468981571241
 40
0.1793812882109709
 40
0.2367904764744168
 40
0.2942559850799888
 40
0.353111989319298
 40
0.4132009037062653
 40
0.474988529194926
 40
0.5375091399025105
 40
0.6000297506100956
 40
0.6624424740747286
 40
0.7253070797346297
 40
0.7903633313534463
 40
0.8577561137907103
 40
0.927248223308985
 40
0.9999999999999999
 40
0.9999999999999999
 40
0.9999999999999999
 40
0.9999999999999999
 10
52.52873858406718
 20
197.5450930257752
 30
0.0
 10
52.5399787405216
 20
197.5453713930511
 30
0.0
 10
52.56203131619105
 20
197.5459175345076
 30
0.0
 10
52.59430467606697
 20
197.5511003734851
 30
0.0
 10
52.6253864180334
 20
197.5583129401001
 30
0.0
 10
52.65470889842962
 20
197.5699825255239
 30
0.0
 10
52.68317089278028
 20
197.5838417302807
 30
0.0
 10
52.70984510751094
 20
197.601798702474
 30
0.0
 10
52.73573931167365
 20
197.6221246999567
 30
0.0
 10
52.75949944852792
 20
197.6458696892675
 30
0.0
 10
52.78176113725286
 20
197.6716266519649
 30
0.0
 10
52.80038720297725
 20
197.7002856461331
 30
0.0
 10
52.81649425371003
 20
197.7304354190631
 30
0.0
 10
52.83001954077426
 20
197.7623814859724
 30
0.0
 10
52.83982445546516
 20
197.7965974425279
 30
0.0
 10
52.84698057085072
 20
197.8326495728321
 30
0.0
 10
52.85150767348122
 20
197.870567486973
 30
0.0
 10
52.85213545095837
 20
197.8964424180426
 30
0.0
 10
52.85245653278511
 20
197.9096763591085
 30
0.0
  0
SPLINE
  5
D25
330
1F
100
AcDbEntity
  8
1
  6
CONTINUOUS
 62
     7
100
AcDbSpline
210
0.0
220
0.0
230
1.0
 70
     8
 71
     3
 72
    23
 73
    19
 74
     0
 42
0.000000001
 43
0.00000001
 40
0.0
 40
0.0
 40
0.0
 40
0.0
 40
0.0706750984532912
 40
0.1383163614016495
 40
0.203308351164204
 40
0.26561984201779
 40
0.3271568769825304
 40
0.386079319996367
 40
0.4454073226661969
 40
0.5047042269181264
 40
0.5632931180759401
 40
0.6218387048231495
 40
0.680301530442407
 40
0.7398738658452951
 40
0.8008614183933672
 40
0.8642805276109602
 40
0.9306520814850818
 40
1.0
 40
1.0
 40
1.0
 40
1.0
 10
52.85245653278511
 20
197.9096763591085
 30
0.0
 10
52.85213702714802
 20
197.9235782482234
 30
0.0
 10
52.85151173113653
 20
197.9507852668347
 30
0.0
 10
52.8469667398827
 20
197.9905567317471
 30
0.0
 10
52.84000579042532
 20
198.0283049947478
 30
0.0
 10
52.82942285891184
 20
198.0639760602707
 30
0.0
 10
52.81591098323645
 20
198.0973393155641
 30
0.0
 10
52.79964131180495
 20
198.1287877429852
 30
0.0
 10
52.78051001579007
 20
198.1580879528416
 30
0.0
 10
52.75803330133695
 20
198.1848250924741
 30
0.0
 10
52.73305966931872
 20
198.2089845564203
 30
0.0
 10
52.7058751671114
 20
198.2304177604216
 30
0.0
 10
52.67587960292749
 20
198.2481171701479
 30
0.0
 10
52.6436501433887
 20
198.2624185570541
 30
0.0
 10
52.60938860866457
 20
198.274205365499
 30
0.0
 10
52.57275470843629
 20
198.2826554752426
 30
0.0
 10
52.53379626292906
 20
198.2872806238833
 30
0.0
 10
52.50711524416317
 20
198.2882086039202
 30
0.0
 10
52.49348217381078
 20
198.2886827693649
 30
0.0
  0
LINE
  5
D26
330
1F
100
AcDbEntity
  8
1
  6
CONTINUOUS
 62
     7
100
AcDbLine
 10
52.49348240863779
 20
198.2886827136193
 30
0.0
 11
52.5191235817621
 21
198.5450930478786
 31
0.0
  0
SPLINE
  5
D27
330
1F
100
AcDbEntity
  8
1
  6
CONTINUOUS
 62
     7
100
AcDbSpline
210
0.0
220
0.0
230
1.0
 70
     8
 71
     3
 72
    23
 73
    19
 74
     0
 42
0.000000001
 43
0.00000001
 40
0.0
 40
0.0
 40
0.0
 40
0.0
 40
0.0706706870711217
 40
0.1374837388466197
 40
0.2014597033030644
 40
0.2628522009053206
 40
0.3225290786082839
 40
0.3807124536490142
 40
0.4385133786555984
 40
0.4957773489735913
 40
0.5535127616227037
 40
0.6113715195290402
 40
0.6706651900230515
 40
0.731604430356771
 40
0.7941965987957572
 40
0.8594542663751552
 40
0.9282123112878731
 40
1.0
 40
1.0
 40
1.0
 40
1.0
 10
52.5191231994518
 20
198.5450930257752
 30
0.0
 10
52.54147001215046
 20
198.5424696251266
 30
0.0
 10
52.58494381279462
 20
198.5373660249691
 30
0.0
 10
52.64790775364773
 20
198.5246528979938
 30
0.0
 10
52.70648426512551
 20
198.5068075883078
 30
0.0
 10
52.76148080741635
 20
198.4854447903967
 30
0.0
 10
52.81199377727094
 20
198.4586982993262
 30
0.0
 10
52.85903643118274
 20
198.42828943985
 30
0.0
 10
52.90143994393341
 20
198.3928453558877
 30
0.0
 10
52.93994117968307
 20
198.3534022439012
 30
0.0
 10
52.97335620740731
 20
198.3095538185156
 30
0.0
 10
53.00301821527532
 20
198.2623422550079
 30
0.0
 10
53.02774400365959
 20
198.2112172016598
 30
0.0
 10
53.04824915463439
 20
198.1566666319683
 30
0.0
 10
53.06379823563995
 20
198.0985281987141
 30
0.0
 10
53.07495073861546
 20
198.0368945110223
 30
0.0
 10
53.08182467047752
 20
197.9716635332826
 30
0.0
 10
53.08275206877497
 20
197.9269209290273
 30
0.0
 10
53.08322576355434
 20
197.9040673847495
 30
0.0
  0
SPLINE
  5
D28
330
1F
100
AcDbEntity
  8
1
  6
CONTINUOUS
 62
     7
100
AcDbSpline
210
0.0
220
0.0
230
1.0
 70
     8
 71
     3
 72
    23
 73
    19
 74
     0
 42
0.000000001
 43
0.00000001
 40
0.0
 40
0.0
 40
0.0
 40
0.0
 40
0.0747133301205277
 40
0.1455420071450079
 40
0.2133431686312685
 40
0.2786204428906107
 40
0.3421007896365193
 40
0.403897859558324
 40
0.4650723150702242
 40
0.5265868843481682
 40
0.5873396527726056
 40
0.646392912474554
 40
0.7043588822209191
 40
0.7620736370035978
 40
0.8194143789440381
 40
0.8780370494084543
 40
0.9377943102283511
 40
1.0
 40
1.0
 40
1.0
 40
1.0
 10
53.08322576355434
 20
197.9040673847495
 30
0.0
 10
53.08282973824194
 20
197.8809402858549
 30
0.0
 10
53.0820582786007
 20
197.8358885609868
 30
0.0
 10
53.0741646966064
 20
197.7702409574857
 30
0.0
 10
53.06187051649019
 20
197.7083006256483
 30
0.0
 10
53.04473618687086
 20
197.6498405104363
 30
0.0
 10
53.02226799425873
 20
197.5952059435928
 30
0.0
 10
52.99481685515013
 20
197.5443551097186
 30
0.0
 10
52.96265090804727
 20
197.4970527747711
 30
0.0
 10
52.92538268027621
 20
197.4540921140118
 30
0.0
 10
52.88470211803769
 20
197.415345263959
 30
0.0
 10
52.84127298709609
 20
197.3814184452278
 30
0.0
 10
52.79524354262549
 20
197.3528863302203
 30
0.0
 10
52.74720421115651
 20
197.3290496792031
 30
0.0
 10
52.69650457206845
 20
197.3108254608233
 30
0.0
 10
52.64352535247795
 20
197.2983363688375
 30
0.0
 10
52.5881781966954
 20
197.2897465965846
 30
0.0
 10
52.55040710627117
 20
197.2890420927865
 30
0.0
 10
52.53114243022102
 20
197.2886827693649
 30
0.0
  0
SPLINE
  5
D29
330
1F
100
AcDbEntity
  8
1
  6
CONTINUOUS
 62
     7
100
AcDbSpline
210
0.0
220
0.0
230
1.0
 70
     8
 71
     3
 72
    17
 73
    13
 74
     0
 42
0.000000001
 43
0.00000001
 40
0.0
 40
0.0
 40
0.0
 40
0.0
 40
0.1242067915032879
 40
0.2373138022908337
 40
0.3395138796975771
 40
0.431277663818405
 40
0.5114836228714554
 40
0.5817371520005943
 40
0.6405241861382088
 40
0.6883397567316263
 40
0.8509037410336096
 40
1.0
 40
1.0
 40
1.0
 40
1.0
 10
51.71062960970821
 20
197.8435705898777
 30
0.0
 10
51.69640943009153
 20
197.8611226937956
 30
0.0
 10
51.6692398618799
 20
197.8946583521
 30
0.0
 10
51.62928304309818
 20
197.9417362115431
 30
0.0
 10
51.59365153862817
 20
197.9847371997985
 30
0.0
 10
51.56183757171956
 20
198.0231315579878
 30
0.0
 10
51.53320027266736
 20
198.0566081099681
 30
0.0
 10
51.50807060321253
 20
198.0851842714364
 30
0.0
 10
51.48687622527385
 20
198.1093807952239
 30
0.0
 10
51.45385507297837
 20
198.1455118103381
 30
0.0
 10
51.40673907016392
 20
198.1911232726207
 30
0.0
 10
51.36134990506753
 20
198.2251357686565
 30
0.0
 10
51.33963601996462
 20
198.2414071283393
 30
0.0
  0
LINE
  5
D2A
330
1F
100
AcDbEntity
  8
1
  6
CONTINUOUS
 62
     7
100
AcDbLine
 10
51.33963613730171
 20
198.2414069170867
 30
0.0
 11
51.33963613730171
 21
197.2630413765822
 31
0.0
  0
SPLINE
  5
D2B
330
1F
100
AcDbEntity
  8
1
  6
CONTINUOUS
 62
     7
100
AcDbSpline
210
0.0
220
0.0
230
1.0
 70
     8
 71
     3
 72
    23
 73
    19
 74
     0
 42
0.000000001
 43
0.00000001
 40
0.0
 40
0.0
 40
0.0
 40
0.0
 40
0.0579474123491405
 40
0.1160227047977905
 40
0.1748334384182106
 40
0.2343229813027767
 40
0.2968267288347674
 40
0.3640639780573544
 40
0.4361982241172382
 40
0.5139601476380474
 40
0.5566777954031932
 40
0.6045599228588415
 40
0.6576602137383386
 40
0.7157381399273797
 40
0.7788301165432219
 40
0.847494512917592
 40
0.9212247822364831
 40
1.0
 40
1.0
 40
1.0
 40
1.0
 10
52.53114243022102
 20
197.2886827693649
 30
0.0
 10
52.51135034803656
 20
197.2892326963095
 30
0.0
 10
52.47172250590299
 20
197.290333763794
 30
0.0
 10
52.41249928629159
 20
197.2989683805547
 30
0.0
 10
52.3540062400304
 20
197.3136000802392
 30
0.0
 10
52.29545687142874
 20
197.3334229662772
 30
0.0
 10
52.23636053945091
 20
197.3597971428415
 30
0.0
 10
52.176231878295
 20
197.3936957286107
 30
0.0
 10
52.11482007367107
 20
197.4353595359261
 30
0.0
 10
52.06293918639412
 20
197.4758533403278
 30
0.0
 10
52.01919751476515
 20
197.5131744795098
 30
0.0
 10
51.98319356436869
 20
197.5465328222206
 30
0.0
 10
51.94451178243153
 20
197.5846631615871
 30
0.0
 10
51.90270559101347
 20
197.6270213381552
 30
0.0
 10
51.8587395930231
 20
197.6746620651511
 30
0.0
 10
51.81141058441963
 20
197.726465826569
 30
0.0
 10
51.76191000211534
 20
197.7835110990502
 30
0.0
 10
51.72809593523485
 20
197.8231140651025
 30
0.0
 10
51.71062960970821
 20
197.8435705898777
 30
0.0
  0
LINE
  5
D2C
330
1F
100
AcDbEntity
  8
1
  6
CONTINUOUS
 62
     7
100
AcDbLine
 10
68.92168736044565
 20
213.2194515834365
 30
0.0
 11
68.94732830073931
 21
212.9630417148385
 31
0.0
  0
SPLINE
  5
D2D
330
1F
100
AcDbEntity
  8
1
  6
CONTINUOUS
 62
     7
100
AcDbSpline
210
0.0
220
0.0
230
1.0
 70
     8
 71
     3
 72
    23
 73
    19
 74
     0
 42
0.000000001
 43
0.00000001
 40
0.0
 40
0.0
 40
0.0
 40
0.0
 40
0.0825597182120931
 40
0.1597469302220876
 40
0.2331354007439666
 40
0.3019696705516627
 40
0.3657388698252575
 40
0.4264190566460563
 40
0.4841624077908837
 40
0.5395217727829413
 40
0.5931238170095737
 40
0.6470121528563552
 40
0.701405731096607
 40
0.7572132862136145
 40
0.8138548734319404
 40
0.8730683512724571
 40
0.9349679217075506
 40
0.9999999999999999
 40
0.9999999999999999
 40
0.9999999999999999
 40
0.9999999999999999
 10
68.94732832765692
 20
212.9630417437239
 30
0.0
 10
68.93192271411965
 20
212.9596212507616
 30
0.0
 10
68.90211399475794
 20
212.9530028506216
 30
0.0
 10
68.85939302415767
 20
212.9403069229854
 30
0.0
 10
68.81968479893229
 20
212.9267198858428
 30
0.0
 10
68.78383339870211
 20
212.9103968441928
 30
0.0
 10
68.75080853383588
 20
212.8937880287078
 30
0.0
 10
68.72153454527671
 20
212.8748256966826
 30
0.0
 10
68.6953116238291
 20
212.8543878238199
 30
0.0
 10
68.67226729458713
 20
212.832290258033
 30
0.0
 10
68.65244364031986
 20
212.8082381503816
 30
0.0
 10
68.63503098819925
 20
212.7825919216911
 30
0.0
 10
68.62071127681767
 20
212.7546425019567
 30
0.0
 10
68.60846218524614
 20
212.7251370081281
 30
0.0
 10
68.59997393427389
 20
212.6933937189241
 30
0.0
 10
68.59293100023038
 20
212.6601494957661
 30
0.0
 10
68.58893048907356
 20
212.6247310858431
 30
0.0
 10
68.58854927807661
 20
212.6004710927797
 30
0.0
 10
68.58835396868258
 20
212.5880417437239
 30
0.0
  0
SPLINE
  5
D2E
330
1F
100
AcDbEntity
  8
1
  6
CONTINUOUS
 62
     7
100
AcDbSpline
210
0.0
220
0.0
230
1.0
 70
     8
 71
     3
 72
    23
 73
    19
 74
     0
 42
0.000000001
 43
0.00000001
 40
0.0
 40
0.0
 40
0.0
 40
0.0
 40
0.069456601465763
 40
0.1356488576093701
 40
0.1996072199859656
 40
0.2614281420011499
 40
0.3220970204207962
 40
0.3823803551340464
 40
0.4432594092864683
 40
0.5049621518609265
 40
0.5668486316061064
 40
0.6276243567848871
 40
0.6874959659819599
 40
0.747367575179033
 40
0.8081866532359602
 40
0.8701418939385499
 40
0.9337250934245916
 40
1.0
 40
1.0
 40
1.0
 40
1.0
 10
68.58835396868258
 20
212.5880417437239
 30
0.0
 10
68.58856614542617
 20
212.573462458795
 30
0.0
 10
68.58898052695758
 20
212.5449890912011
 30
0.0
 10
68.59501226629612
 20
212.503472108742
 30
0.0
 10
68.60358320716401
 20
212.4641042717981
 30
0.0
 10
68.61592613398417
 20
212.4268843067483
 30
0.0
 10
68.63269499204125
 20
212.3923294551585
 30
0.0
 10
68.65233753177927
 20
212.3595800605927
 30
0.0
 10
68.67565227708863
 20
212.3290200597301
 30
0.0
 10
68.70250932220063
 20
212.3010631614586
 30
0.0
 10
68.73207279643097
 20
212.2760688581427
 30
0.0
 10
68.76329422190958
 20
212.2538059243728
 30
0.0
 10
68.79644623411244
 20
212.235397964176
 30
0.0
 10
68.83106024522644
 20
212.2198826933117
 30
0.0
 10
68.86769603484248
 20
212.2084304265468
 30
0.0
 10
68.90589665689257
 20
212.2000464341307
 30
0.0
 10
68.94583490255636
 20
212.1945674539123
 30
0.0
 10
68.9730845495101
 20
212.1940665949119
 30
0.0
 10
68.9869917891954
 20
212.1938109744931
 30
0.0
  0
SPLINE
  5
D2F
330
1F
100
AcDbEntity
  8
1
  6
CONTINUOUS
 62
     7
100
AcDbSpline
210
0.0
220
0.0
230
1.0
 70
     8
 71
     3
 72
    23
 73
    19
 74
     0
 42
0.000000001
 43
0.00000001
 40
0.0
 40
0.0
 40
0.0
 40
0.0
 40
0.0670509921880468
 40
0.1311799203918658
 40
0.1937216912651203
 40
0.2544994837594223
 40
0.3147627139698853
 40
0.3751170680683986
 40
0.4360228218750042
 40
0.4982967466743268
 40
0.5605706714736499
 40
0.6216191234624546
 40
0.6819734775609676
 40
0.7428529083782512
 40
0.8042715696802858
 40
0.8674725557694039
 40
0.932272823405128
 40
1.0
 40
1.0
 40
1.0
 40
1.0
 10
68.9869917891954
 20
212.1938109744931
 30
0.0
 10
69.00022665177565
 20
212.1941114036086
 30
0.0
 10
69.02611960522825
 20
212.1946991692204
 30
0.0
 10
69.06412490546231
 20
212.1995310777202
 30
0.0
 10
69.10020218637595
 20
212.2079626514992
 30
0.0
 10
69.13456024020451
 20
212.2196508281397
 30
0.0
 10
69.16714862695551
 20
212.2345859190541
 30
0.0
 10
69.19823682135191
 20
212.2525374583574
 30
0.0
 10
69.22714352522371
 20
212.2744936625708
 30
0.0
 10
69.25417922135074
 20
212.2992073066231
 30
0.0
 10
69.27908685448978
 20
212.3261626821894
 30
0.0
 10
69.30027400237418
 20
212.3556612004114
 30
0.0
 10
69.31855920135774
 20
212.3867047281105
 30
0.0
 10
69.33332378448148
 20
212.419663232969
 30
0.0
 10
69.34504251857365
 20
212.454399869871
 30
0.0
 10
69.35346500278266
 20
212.4908815242175
 30
0.0
 10
69.35829900818646
 20
212.5292835921376
 30
0.0
 10
69.35888687632382
 20
212.5554426037954
 30
0.0
 10
69.3591873020159
 20
212.5688109744931
 30
0.0
  0
SPLINE
  5
D30
330
1F
100
AcDbEntity
  8
1
  6
CONTINUOUS
 62
     7
100
AcDbSpline
210
0.0
220
0.0
230
1.0
 70
     8
 71
     3
 72
    11
 73
     7
 74
     0
 42
0.000000001
 43
0.00000001
 40
0.0
 40
0.0
 40
0.0
 40
0.0
 40
0.2094025526291383
 40
0.4444010364151518
 40
0.7082720668673778
 40
1.0
 40
1.0
 40
1.0
 40
1.0
 10
69.3591873020159
 20
212.5688109744931
 30
0.0
 10
69.35887547662526
 20
212.5805810129137
 30
0.0
 10
69.35821371044787
 20
212.6055597784877
 30
0.0
 10
69.35237056586521
 20
212.6449846295764
 30
0.0
 10
69.34418879297561
 20
212.6886543300002
 30
0.0
 10
69.33615959648236
 20
212.7188313393382
 30
0.0
 10
69.3319437122723
 20
212.7346763591085
 30
0.0
  0
LINE
  5
D31
330
1F
100
AcDbEntity
  8
1
  6
CONTINUOUS
 62
     7
100
AcDbLine
 10
69.33194380212822
 20
212.7346762972687
 30
0.0
 11
69.56271296326318
 21
212.7082341867302
 31
0.0
  0
SPLINE
  5
D32
330
1F
100
AcDbEntity
  8
1
  6
CONTINUOUS
 62
     7
100
AcDbSpline
210
0.0
220
0.0
230
1.0
 70
     8
 71
     3
 72
     9
 73
     5
 74
     0
 42
0.000000001
 43
0.00000001
 40
0.0
 40
0.0
 40
0.0
 40
0.0
 40
0.5660412240200207
 40
1.0
 40
1.0
 40
1.0
 40
1.0
 10
69.56271294304153
 20
212.7082340514162
 30
0.0
 10
69.56195482633007
 20
212.7012962082892
 30
0.0
 10
69.56061549505998
 20
212.6890394276298
 30
0.0
 10
69.56012242705148
 20
212.6767208373966
 30
0.0
 10
69.55990845586206
 20
212.6713750770572
 30
0.0
  0
SPLINE
  5
D33
330
1F
100
AcDbEntity
  8
1
  6
CONTINUOUS
 62
     7
100
AcDbSpline
210
0.0
220
0.0
230
1.0
 70
     8
 71
     3
 72
    19
 73
    15
 74
     0
 42
0.000000001
 43
0.00000001
 40
0.0
 40
0.0
 40
0.0
 40
0.0
 40
0.129830760495093
 40
0.254687142640626
 40
0.3788125754724675
 40
0.5033366466814345
 40
0.5654549753501211
 40
0.6247904587932503
 40
0.6839842808238478
 40
0.7426819024851775
 40
0.8026936085355715
 40
0.8651770865780569
 40
0.9307565800751881
 40
1.0
 40
1.0
 40
1.0
 40
1.0
 10
69.55990845586206
 20
212.6713750770572
 30
0.0
 10
69.56082053927662
 20
212.6477984759471
 30
0.0
 10
69.56260976024262
 20
212.6015485953562
 30
0.0
 10
69.57712727875247
 20
212.5340001146135
 30
0.0
 10
69.60088648601288
 20
212.4702975435144
 30
0.0
 10
69.62825449901484
 20
212.4207508814025
 30
0.0
 10
69.65429465383596
 20
212.384371296021
 30
0.0
 10
69.67723832140823
 20
212.3608174842819
 30
0.0
 10
69.70237643674875
 20
212.3405731078697
 30
0.0
 10
69.7305463435236
 20
212.3246236900432
 30
0.0
 10
69.76075583200335
 20
212.3113742440659
 30
0.0
 10
69.7939415189758
 20
212.3030317162584
 30
0.0
 10
69.82931884191083
 20
212.296982164429
 30
0.0
 10
69.85381692228717
 20
212.2965810728485
 30
0.0
 10
69.86639884047744
 20
212.2963750770572
 30
0.0
  0
SPLINE
  5
D34
330
1F
100
AcDbEntity
  8
1
  6
CONTINUOUS
 62
     7
100
AcDbSpline
210
0.0
220
0.0
230
1.0
 70
     8
 71
     3
 72
    23
 73
    19
 74
     0
 42
0.000000001
 43
0.00000001
 40
0.0
 40
0.0
 40
0.0
 40
0.0
 40
0.0650739195732828
 40
0.127266229716091
 40
0.188065864935369
 40
0.247056744723602
 40
0.3067568602927225
 40
0.3663403799551244
 40
0.4267474631397977
 40
0.4884671804910967
 40
0.5503645429877305
 40
0.6118346946563447
 40
0.6727485980479678
 40
0.734876139850214
 40
0.797915994829358
 40
0.8625157400386577
 40
0.9297963662572656
 40
0.9999999999999999
 40
0.9999999999999999
 40
0.9999999999999999
 40
0.9999999999999999
 10
69.86639884047744
 20
212.2963750770572
 30
0.0
 10
69.8765622423071
 20
212.2965641373132
 30
0.0
 10
69.89643898925019
 20
212.2969338858409
 30
0.0
 10
69.92557707858145
 20
212.3010678984019
 30
0.0
 10
69.95319898493511
 20
212.3078741755255
 30
0.0
 10
69.9796540146873
 20
212.3172191173936
 30
0.0
 10
70.00489690540991
 20
212.3290962506896
 30
0.0
 10
70.02857572259177
 20
212.3442206036746
 30
0.0
 10
70.05123475179059
 20
212.3613617844517
 30
0.0
 10
70.07185818005865
 20
212.381441072789
 30
0.0
 10
70.09073142900377
 20
212.4033777376268
 30
0.0
 10
70.10704323359602
 20
212.4271088404653
 30
0.0
 10
70.12152870252987
 20
212.4520900318151
 30
0.0
 10
70.13226521252349
 20
212.4791270013079
 30
0.0
 10
70.1420529587885
 20
212.5071483658369
 30
0.0
 10
70.14751175701394
 20
212.5371466103196
 30
0.0
 10
70.15196749417692
 20
212.5684112979602
 30
0.0
 10
70.15229122566623
 20
212.5898930316637
 30
0.0
 10
70.15245653278512
 20
212.6008622565444
 30
0.0
  0
SPLINE
  5
D35
330
1F
100
AcDbEntity
  8
1
  6
CONTINUOUS
 62
     7
100
AcDbSpline
210
0.0
220
0.0
230
1.0
 70
     8
 71
     3
 72
    19
 73
    15
 74
     0
 42
0.000000001
 43
0.00000001
 40
0.0
 40
0.0
 40
0.0
 40
0.0
 40
0.1277971582348369
 40
0.2467952527166554
 40
0.3622843155839152
 40
0.4776524647273045
 40
0.536236841728713
 40
0.5955904355162851
 40
0.6563437591396377
 40
0.7190851405078759
 40
0.7843491651281221
 40
0.8528755346365586
 40
0.9245512555166994
 40
1.0
 40
1.0
 40
1.0
 40
1.0
 10
70.15245653278512
 20
212.6008622565444
 30
0.0
 10
70.15161981248431
 20
212.6223212182013
 30
0.0
 10
70.15000398157738
 20
212.663761653484
 30
0.0
 10
70.13505419395193
 20
212.7230925782491
 30
0.0
 10
70.11086349226952
 20
212.7768571083708
 30
0.0
 10
70.08249455258289
 20
212.8166617743834
 30
0.0
 10
70.05537224151797
 20
212.8449265873558
 30
0.0
 10
70.03238295522604
 20
212.8642329517897
 30
0.0
 10
70.00699607877192
 20
212.8815014006806
 30
0.0
 10
69.97922066123292
 20
212.8967808759971
 30
0.0
 10
69.94894500002826
 20
212.9098649478651
 30
0.0
 10
69.91654416553592
 20
212.9216598752506
 30
0.0
 10
69.88149942016884
 20
212.9307902433922
 30
0.0
 10
69.85721686640011
 20
212.9351598733011
 30
0.0
 10
69.84476422509283
 20
212.9374007180829
 30
0.0
  0
LINE
  5
D36
330
1F
100
AcDbEntity
  8
1
  6
CONTINUOUS
 62
     7
100
AcDbLine
 10
69.84476423781612
 20
212.9374005417142
 30
0.0
 11
69.87040517810979
 21
213.1938113416348
 31
0.0
  0
SPLINE
  5
D37
330
1F
100
AcDbEntity
  8
1
  6
CONTINUOUS
 62
     7
100
AcDbSpline
210
0.0
220
0.0
230
1.0
 70
     8
 71
     3
 72
    23
 73
    19
 74
     0
 42
0.000000001
 43
0.00000001
 40
0.0
 40
0.0
 40
0.0
 40
0.0
 40
0.071036323012058
 40
0.1393433396034174
 40
0.2049584727025962
 40
0.2683315830770494
 40
0.3301292609669971
 40
0.3906639764805657
 40
0.4508614486151505
 40
0.5105872658343569
 40
0.5703738539616984
 40
0.6294550091547365
 40
0.687993523080573
 40
0.7475809941037842
 40
0.8078387614769665
 40
0.8700340388224012
 40
0.9338104563665495
 40
1.0
 40
1.0
 40
1.0
 40
1.0
 10
69.87040525073385
 20
213.1938109744931
 30
0.0
 10
69.8902311707406
 20
213.1897999527048
 30
0.0
 10
69.92912127354026
 20
213.1819320177174
 30
0.0
 10
69.98528917940527
 20
213.1659024719575
 30
0.0
 10
70.03801484800292
 20
213.1463546390322
 30
0.0
 10
70.08705654356493
 20
213.1228841806406
 30
0.0
 10
70.13300117822237
 20
213.0965999163646
 30
0.0
 10
70.17530377789035
 20
213.066279110531
 30
0.0
 10
70.21421583752021
 20
213.0326326346007
 30
0.0
 10
70.2496186690351
 20
212.9956007242634
 30
0.0
 10
70.28123735749782
 20
212.9556861090497
 30
0.0
 10
70.30851262494772
 20
212.913089828004
 30
0.0
 10
70.33163234464024
 20
212.8681614529933
 30
0.0
 10
70.35027092928394
 20
212.820858919672
 30
0.0
 10
70.36542692267528
 20
212.7712196800442
 30
0.0
 10
70.3754678058632
 20
212.7191025129893
 30
0.0
 10
70.38225995728462
 20
212.6647433191698
 30
0.0
 10
70.38289986764696
 20
212.6277269234665
 30
0.0
 10
70.38322576355438
 20
212.6088750770572
 30
0.0
  0
SPLINE
  5
D38
330
1F
100
AcDbEntity
  8
1
  6
CONTINUOUS
 62
     7
100
AcDbSpline
210
0.0
220
0.0
230
1.0
 70
     8
 71
     3
 72
    19
 73
    15
 74
     0
 42
0.000000001
 43
0.00000001
 40
0.0
 40
0.0
 40
0.0
 40
0.0
 40
0.0920412798443679
 40
0.1809829139315529
 40
0.2689579670944235
 40
0.356953213074032
 40
0.4435928247068717
 40
0.5264658133162992
 40
0.6074741174887733
 40
0.6880081260650277
 40
0.7678859011861827
 40
0.8455519165766047
 40
0.9225401399264841
 40
1.0
 40
1.0
 40
1.0
 40
1.0
 10
70.38322576355438
 20
212.6088750770572
 30
0.0
 10
70.3823906428301
 20
212.5827765300385
 30
0.0
 10
70.38074852548428
 20
212.5314583487091
 30
0.0
 10
70.36738130067562
 20
212.4561750929822
 30
0.0
 10
70.3463054353983
 20
212.3839575895936
 30
0.0
 10
70.31620088751737
 20
212.3156695331238
 30
0.0
 10
70.27896086302334
 20
212.252712410239
 30
0.0
 10
70.23503584157137
 20
212.1966325190592
 30
0.0
 10
70.18446606903254
 20
212.1489275815762
 30
0.0
 10
70.12820434983337
 20
212.1095692749759
 30
0.0
 10
70.06780313996916
 20
212.0790937675649
 30
0.0
 10
70.00527482734734
 20
212.0561271424152
 30
0.0
 10
69.94056954485274
 20
212.0425159883429
 30
0.0
 10
69.89677596031993
 20
212.0408169393358
 30
0.0
 10
69.8748123020159
 20
212.039964820647
 30
0.0
  0
SPLINE
  5
D39
330
1F
100
AcDbEntity
  8
1
  6
CONTINUOUS
 62
     7
100
AcDbSpline
210
0.0
220
0.0
230
1.0
 70
     8
 71
     3
 72
    15
 73
    11
 74
     0
 42
0.000000001
 43
0.00000001
 40
0.0
 40
0.0
 40
0.0
 40
0.0
 40
0.1219512022493436
 40
0.2407868053279244
 40
0.3585498723707454
 40
0.4790658414002765
 40
0.6015185447735335
 40
0.7275505189308977
 40
0.8599320866628439
 40
1.0
 40
1.0
 40
1.0
 40
1.0
 10
69.8748123020159
 20
212.039964820647
 30
0.0
 10
69.85404919543603
 20
212.0408269065919
 30
0.0
 10
69.8130534363961
 20
212.0425290539816
 30
0.0
 10
69.75311037439917
 20
212.055633578218
 30
0.0
 10
69.69632106370909
 20
212.0777776171075
 30
0.0
 10
69.6424862558681
 20
212.1077080431307
 30
0.0
 10
69.59277017289168
 20
212.1465204620354
 30
0.0
 10
69.54846861134604
 20
212.194108267923
 30
0.0
 10
69.50915767200564
 20
212.2497101805578
 30
0.0
 10
69.48869676283374
 20
212.2913791115878
 30
0.0
 10
69.47817768663128
 20
212.3128013591085
 30
0.0
  0
SPLINE
  5
D3A
330
1F
100
AcDbEntity
  8
1
  6
CONTINUOUS
 62
     7
100
AcDbSpline
210
0.0
220
0.0
230
1.0
 70
     8
 71
     3
 72
    23
 73
    19
 74
     0
 42
0.000000001
 43
0.00000001
 40
0.0
 40
0.0
 40
0.0
 40
0.0
 40
0.0635100007817775
 40
0.1248175317609249
 40
0.1849393806947997
 40
0.2444014434045474
 40
0.3038060144343493
 40
0.3638360850866956
 40
0.4250853208622787
 40
0.4881043208442437
 40
0.5514661952840646
 40
0.6138199475188386
 40
0.675606943750286
 40
0.7377098598079631
 40
0.8003964989820364
 40
0.864644426282248
 40
0.9309773943953299
 40
1.0
 40
1.0
 40
1.0
 40
1.0
 10
68.98498858406717
 20
211.9374007180829
 30
0.0
 10
68.96345624953108
 20
211.9378886147819
 30
0.0
 10
68.92113830248712
 20
211.9388474883604
 30
0.0
 10
68.85897353978348
 20
211.9479415589925
 30
0.0
 10
68.79940645375581
 20
211.9627942699334
 30
0.0
 10
68.74225786738282
 20
211.9833801678682
 30
0.0
 10
68.68731125174048
 20
212.0093018161784
 30
0.0
 10
68.63554730423328
 20
212.042247055512
 30
0.0
 10
68.58606194813032
 20
212.0804694486578
 30
0.0
 10
68.53950378390158
 20
212.123906296936
 30
0.0
 10
68.49680480909868
 20
212.1716418639346
 30
0.0
 10
68.45926792365617
 20
212.223059294779
 30
0.0
 10
68.42789626844066
 20
212.2779631369471
 30
0.0
 10
68.40221669558017
 20
212.3358485582547
 30
0.0
 10
68.38207499990727
 20
212.396767194215
 30
0.0
 10
68.36762820851342
 20
212.4607425469101
 30
0.0
 10
68.35913974415828
 20
212.527982749251
 30
0.0
 10
68.35810989467475
 20
212.5738613581618
 30
0.0
 10
68.35758473791333
 20
212.5972564873136
 30
0.0
  0
SPLINE
  5
D3B
330
1F
100
AcDbEntity
  8
1
  6
CONTINUOUS
 62
     7
100
AcDbSpline
210
0.0
220
0.0
230
1.0
 70
     8
 71
     3
 72
    23
 73
    19
 74
     0
 42
0.000000001
 43
0.00000001
 40
0.0
 40
0.0
 40
0.0
 40
0.0
 40
0.0677869948242487
 40
0.1333970927329896
 40
0.1969491567037127
 40
0.2584893225402772
 40
0.3197885427115509
 40
0.3802191808338351
 40
0.4410152775504473
 40
0.5028857756983852
 40
0.564817921076559
 40
0.6251977117527727
 40
0.6856283498750564
 40
0.7460589879973402
 40
0.8073582081686137
 40
0.8693098874205986
 40
0.9337967724829837
 40
1.0
 40
1.0
 40
1.0
 40
1.0
 10
68.35758473791333
 20
212.5972564873136
 30
0.0
 10
68.35804017042099
 20
212.6182430889829
 30
0.0
 10
68.35893640977511
 20
212.6595423331266
 30
0.0
 10
68.36619183444381
 20
212.7201787888078
 30
0.0
 10
68.37855276209339
 20
212.7779850919531
 30
0.0
 10
68.39604250267945
 20
212.833048856617
 30
0.0
 10
68.41789056714146
 20
212.8854866530432
 30
0.0
 10
68.44490487178146
 20
212.9352411408577
 30
0.0
 10
68.47732192178597
 20
212.9818370399871
 30
0.0
 10
68.51395843562366
 20
213.025794574177
 30
0.0
 10
68.55462142197581
 20
213.0658478394674
 30
0.0
 10
68.59809736544929
 20
213.1022105509449
 30
0.0
 10
68.6453323308015
 20
213.1326437461219
 30
0.0
 10
68.69469575112373
 20
213.1600271119333
 30
0.0
 10
68.74731297401041
 20
213.181875537002
 30
0.0
 10
68.80283103835805
 20
213.1992341487685
 30
0.0
 10
68.86116348505703
 20
213.2120851733301
 30
0.0
 10
68.90133683194736
 20
213.2169749853669
 30
0.0
 10
68.9216873020159
 20
213.2194520001342
 30
0.0
  0
SPLINE
  5
D3C
330
1F
100
AcDbEntity
  8
1
  6
CONTINUOUS
 62
     7
100
AcDbSpline
210
0.0
220
0.0
230
1.0
 70
     8
 71
     3
 72
    23
 73
    19
 74
     0
 42
0.000000001
 43
0.00000001
 40
0.0
 40
0.0
 40
0.0
 40
0.0
 40
0.0658158457682929
 40
0.1289140307560921
 40
0.1905799374827261
 40
0.2511850445888537
 40
0.3106274965920076
 40
0.3700699485951624
 40
0.4292628410212981
 40
0.489086518255275
 40
0.5495431438632518
 40
0.6101482509693791
 40
0.6709768493272992
 40
0.7329591616555494
 40
0.7967489988539274
 40
0.8618514091270405
 40
0.9299051820684774
 40
0.9999999999999999
 40
0.9999999999999999
 40
0.9999999999999999
 40
0.9999999999999999
 10
69.47817768663128
 20
212.3128013591085
 30
0.0
 10
69.47456622636525
 20
212.2984320470478
 30
0.0
 10
69.46749242985962
 20
212.2702867590049
 30
0.0
 10
69.45258705889353
 20
212.2300357097472
 30
0.0
 10
69.43611989407617
 20
212.1916720479257
 30
0.0
 10
69.41579076379153
 20
212.1561406946611
 30
0.0
 10
69.39345973944111
 20
212.1224365837747
 30
0.0
 10
69.3675980604906
 20
212.0917593592483
 30
0.0
 10
69.33951380275022
 20
212.0630044656079
 30
0.0
 10
69.30847893036608
 20
212.0371132144949
 30
0.0
 10
69.27548252436603
 20
212.0131851872624
 30
0.0
 10
69.23955002240393
 20
211.9934518528116
 30
0.0
 10
69.20211219017918
 20
211.9760695693595
 30
0.0
 10
69.16271339874294
 20
211.9613870289471
 30
0.0
 10
69.12102600669371
 20
211.9508124131947
 30
0.0
 10
69.0773504390458
 20
211.9432578195925
 30
0.0
 10
69.03184471030289
 20
211.9382706727319
 30
0.0
 10
69.00076037562746
 20
211.9376935451792
 30
0.0
 10
68.98498858406717
 20
211.9374007180829
 30
0.0
  0
SPLINE
  5
D3D
330
1F
100
AcDbEntity
  8
1
  6
CONTINUOUS
 62
     7
100
AcDbSpline
210
0.0
220
0.0
230
1.0
 70
     8
 71
     3
 72
    23
 73
    19
 74
     0
 42
0.000000001
 43
0.00000001
 40
0.0
 40
0.0
 40
0.0
 40
0.0
 40
0.0639648053401599
 40
0.1248536427375536
 40
0.1843832690019472
 40
0.2427484112953823
 40
0.2999004065254336
 40
0.3570586407157392
 40
0.4157193508918104
 40
0.4752579616300977
 40
0.5355080306549889
 40
0.5962913617088542
 40
0.6577282330120755
 40
0.7210515111823926
 40
0.7862613089946894
 40
0.853834348004313
 40
0.9253180038050911
 40
1.0
 40
1.0
 40
1.0
 40
1.0
 10
78.58835396868258
 20
197.8892436668008
 30
0.0
 10
78.58874099395328
 20
197.8749332317205
 30
0.0
 10
78.58949643305178
 20
197.8470005281121
 30
0.0
 10
78.59535032697491
 20
197.8061025141187
 30
0.0
 10
78.60435187545275
 20
197.7670812889318
 30
0.0
 10
78.6176516021134
 20
197.7301627976369
 30
0.0
 10
78.6346257106409
 20
197.6953971411439
 30
0.0
 10
78.65528431540534
 20
197.6626038068516
 30
0.0
 10
78.6796892664099
 20
197.6318040005056
 30
0.0
 10
78.70779576566608
 20
197.6033701172798
 30
0.0
 10
78.73905524430543
 20
197.5776720385856
 30
0.0
 10
78.77327587877036
 20
197.5553438155341
 30
0.0
 10
78.8098946507437
 20
197.5356259086703
 30
0.0
 10
78.84981145198523
 20
197.5207948949468
 30
0.0
 10
78.89200365355114
 20
197.5087097660421
 30
0.0
 10
78.93687019591002
 20
197.4998248884023
 30
0.0
 10
78.98446259330453
 20
197.4946085305762
 30
0.0
 10
79.01716023153105
 20
197.4940806766197
 30
0.0
 10
79.0338667891954
 20
197.4938109744931
 30
0.0
  0
SPLINE
  5
D3E
330
1F
100
AcDbEntity
  8
1
  6
CONTINUOUS
 62
     7
100
AcDbSpline
210
0.0
220
0.0
230
1.0
 70
     8
 71
     3
 72
    23
 73
    19
 74
     0
 42
0.000000001
 43
0.00000001
 40
0.0
 40
0.0
 40
0.0
 40
0.0
 40
0.0722196384296468
 40
0.1412346165580785
 40
0.2074128728434451
 40
0.2702109248198188
 40
0.3317548969651943
 40
0.3912331137444862
 40
0.4501244807328872
 40
0.5094290825799813
 40
0.5681481802612063
 40
0.6257726510103107
 40
0.6837476540344204
 40
0.7424390184150965
 40
0.8031186325228082
 40
0.8658821072448524
 40
0.9313872303989644
 40
1.0
 40
1.0
 40
1.0
 40
1.0
 10
79.0338667891954
 20
197.4938109744931
 30
0.0
 10
79.0499100829388
 20
197.4940605813884
 30
0.0
 10
79.08128476840446
 20
197.4945487191707
 30
0.0
 10
79.12706323978105
 20
197.5000606387001
 30
0.0
 10
79.17035455318339
 20
197.5080525128936
 30
0.0
 10
79.21084738771222
 20
197.52049164028
 30
0.0
 10
79.24896681470344
 20
197.5352813944122
 30
0.0
 10
79.28406763834587
 20
197.5545357215823
 30
0.0
 10
79.3168568675508
 20
197.5765854412123
 30
0.0
 10
79.34672112305404
 20
197.6022197066389
 30
0.0
 10
79.37370037443853
 20
197.6305043476251
 30
0.0
 10
79.396600500451
 20
197.6618113576114
 30
0.0
 10
79.41641358439293
 20
197.6951266268141
 30
0.0
 10
79.43254521931377
 20
197.7311417204563
 30
0.0
 10
79.44494018589646
 20
197.7697230092689
 30
0.0
 10
79.45352186726316
 20
197.8108271519061
 30
0.0
 10
79.45951461236947
 20
197.8542126211989
 30
0.0
 10
79.45993419042625
 20
197.8840138273888
 30
0.0
 10
79.46014884047744
 20
197.8992596924419
 30
0.0
  0
SPLINE
  5
D3F
330
1F
100
AcDbEntity
  8
1
  6
CONTINUOUS
 62
     7
100
AcDbSpline
210
0.0
220
0.0
230
1.0
 70
     8
 71
     3
 72
    23
 73
    19
 74
     0
 42
0.000000001
 43
0.00000001
 40
0.0
 40
0.0
 40
0.0
 40
0.0
 40
0.064802125356611
 40
0.1276987472815716
 40
0.1890575568165893
 40
0.2495249076909217
 40
0.3096921706043594
 40
0.3701595214786928
 40
0.4306669772303387
 40
0.4934834438921884
 40
0.5561333356735897
 40
0.6175924221463583
 40
0.6781492012856554
 40
0.7390838207933363
 40
0.8010990547220239
 40
0.8649759886896922
 40
0.9309000773256194
 40
1.0
 40
1.0
 40
1.0
 40
1.0
 10
79.46014884047744
 20
197.8992596924419
 30
0.0
 10
79.45992735470983
 20
197.913438368175
 30
0.0
 10
79.45949089595317
 20
197.9413787963518
 30
0.0
 10
79.45345142170672
 20
197.9823531122321
 30
0.0
 10
79.4448525055989
 20
198.0218461864427
 30
0.0
 10
79.4323301305972
 20
198.0596902295612
 30
0.0
 10
79.41624719100346
 20
198.0959355983378
 30
0.0
 10
79.39656212610205
 20
198.1303675744385
 30
0.0
 10
79.37342576077273
 20
198.1632901236031
 30
0.0
 10
79.34684052496382
 20
198.1941250235965
 30
0.0
 10
79.31744509130792
 20
198.2226107255936
 30
0.0
 10
79.28526077990628
 20
198.2471561300642
 30
0.0
 10
79.25080195710726
 20
198.2675694785729
 30
0.0
 10
79.21466049921443
 20
198.2851317670895
 30
0.0
 10
79.17590136537987
 20
198.298355726281
 30
0.0
 10
79.13489376440324
 20
198.3073675495305
 30
0.0
 10
79.09172332281983
 20
198.3131704126105
 30
0.0
 10
79.06219788743178
 20
198.3139333526272
 30
0.0
 10
79.04708794304153
 20
198.3143237950059
 30
0.0
  0
LINE
  5
D40
330
1F
100
AcDbEntity
  8
1
  6
CONTINUOUS
 62
     7
100
AcDbLine
 10
79.87040518742302
 20
197.2630413765822
 30
0.0
 11
79.8447640142987
 21
197.5194521765028
 31
0.0
  0
SPLINE
  5
D41
330
1F
100
AcDbEntity
  8
1
  6
CONTINUOUS
 62
     7
100
AcDbSpline
210
0.0
220
0.0
230
1.0
 70
     8
 71
     3
 72
    11
 73
     7
 74
     0
 42
0.000000001
 43
0.00000001
 40
0.0
 40
0.0
 40
0.0
 40
0.0
 40
0.2998017805186774
 40
0.5643307104009623
 40
0.7962039376405715
 40
1.0
 40
1.0
 40
1.0
 40
1.0
 10
79.8447642250928
 20
197.5194520001342
 30
0.0
 10
79.866816875139
 20
197.5249851271719
 30
0.0
 10
79.90832759480597
 20
197.5354003872365
 30
0.0
 10
79.96463062387951
 20
197.5572410901996
 30
0.0
 10
80.01225341016757
 20
197.5813090789844
 30
0.0
 10
80.03789696548714
 20
197.6022189301382
 30
0.0
 10
80.04989243022104
 20
197.6120000770572
 30
0.0
  0
SPLINE
  5
D42
330
1F
100
AcDbEntity
  8
1
  6
CONTINUOUS
 62
     7
100
AcDbSpline
210
0.0
220
0.0
230
1.0
 70
     8
 71
     3
 72
    15
 73
    11
 74
     0
 42
0.000000001
 43
0.00000001
 40
0.0
 40
0.0
 40
0.0
 40
0.0
 40
0.1285451174344135
 40
0.2528184904281091
 40
0.3752117264077498
 40
0.4971127859563167
 40
0.6185461982990195
 40
0.7422220788766132
 40
0.8694577042621544
 40
0.9999999999999999
 40
0.9999999999999999
 40
0.9999999999999999
 40
0.9999999999999999
 10
80.04989243022104
 20
197.6120000770572
 30
0.0
 10
80.05807399578671
 20
197.6203960540987
 30
0.0
 10
80.07416524138941
 20
197.6369089974422
 30
0.0
 10
80.09514029531866
 20
197.6640172400456
 30
0.0
 10
80.1129114128477
 20
197.6925938150702
 30
0.0
 10
80.12730871250236
 20
197.7227250916776
 30
0.0
 10
80.13868175274834
 20
197.7542482878914
 30
0.0
 10
80.14663780003545
 20
197.7872939792312
 30
0.0
 10
80.15156304464799
 20
197.8217873031959
 30
0.0
 10
80.15215616729407
 20
197.8452901957155
 30
0.0
 10
80.15245653278512
 20
197.8571923847495
 30
0.0
  0
SPLINE
  5
D43
330
1F
100
AcDbEntity
  8
1
  6
CONTINUOUS
 62
     7
100
AcDbSpline
210
0.0
220
0.0
230
1.0
 70
     8
 71
     3
 72
    11
 73
     7
 74
     0
 42
0.000000001
 43
0.00000001
 40
0.0
 40
0.0
 40
0.0
 40
0.0
 40
0.2525842206944849
 40
0.4990953890513565
 40
0.7471186819282112
 40
0.9999999999999999
 40
0.9999999999999999
 40
0.9999999999999999
 40
0.9999999999999999
 10
80.15245653278512
 20
197.8571923847495
 30
0.0
 10
80.15183524174458
 20
197.8764878809947
 30
0.0
 10
80.15060759778189
 20
197.9146149388884
 30
0.0
 10
80.13858905650378
 20
197.9705541471235
 30
0.0
 10
80.12060139213796
 20
198.0248868426433
 30
0.0
 10
80.10236718621039
 20
198.0585479558872
 30
0.0
 10
80.09316166099026
 20
198.0755417437239
 30
0.0
  0
SPLINE
  5
D44
330
1F
100
AcDbEntity
  8
1
  6
CONTINUOUS
 62
     7
100
AcDbSpline
210
0.0
220
0.0
230
1.0
 70
     8
 71
     3
 72
    19
 73
    15
 74
     0
 42
0.000000001
 43
0.00000001
 40
0.0
 40
0.0
 40
0.0
 40
0.0
 40
0.0886042344977304
 40
0.1818832936689479
 40
0.2803174874844204
 40
0.3865450582765739
 40
0.4441360182902473
 40
0.5064797997718345
 40
0.5744185947857992
 40
0.6476741494122291
 40
0.7264404318426133
 40
0.8114680825340606
 40
0.9027848525203173
 40
1.0
 40
1.0
 40
1.0
 40
1.0
 10
80.09316166099026
 20
198.0755417437239
 30
0.0
 10
80.07931783927503
 20
198.0922580658319
 30
0.0
 10
80.05089978561429
 20
198.1265726755148
 30
0.0
 10
79.99841832228148
 20
198.1712054181265
 30
0.0
 10
79.93756226394927
 20
198.2114698853264
 30
0.0
 10
79.88045113396217
 20
198.2410350255946
 30
0.0
 10
79.82904514693328
 20
198.261589529041
 30
0.0
 10
79.78508565627166
 20
198.2751337087637
 30
0.0
 10
79.73661375832646
 20
198.2865960816959
 30
0.0
 10
79.68364648456847
 20
198.2961681537726
 30
0.0
 10
79.62612745576698
 20
198.3035649191097
 30
0.0
 10
79.5640241644576
 20
198.309749227924
 30
0.0
 10
79.49717794546191
 20
198.3131692089157
 30
0.0
 10
79.45107099744754
 20
198.3139309886719
 30
0.0
 10
79.42729627637485
 20
198.3143237950059
 30
0.0
  0
SPLINE
  5
D45
330
1F
100
AcDbEntity
  8
1
  6
CONTINUOUS
 62
     7
100
AcDbSpline
210
0.0
220
0.0
230
1.0
 70
     8
 71
     3
 72
    15
 73
    11
 74
     0
 42
0.000000001
 43
0.00000001
 40
0.0
 40
0.0
 40
0.0
 40
0.0
 40
0.1355002045267474
 40
0.2652499164539034
 40
0.3908086516386324
 40
0.5154603956889382
 40
0.6383664903062227
 40
0.7594997889696985
 40
0.8788926136951238
 40
1.0
 40
1.0
 40
1.0
 40
1.0
 10
79.42729627637485
 20
198.3143237950059
 30
0.0
 10
79.44853565646477
 20
198.299206800008
 30
0.0
 10
79.49011303868392
 20
198.2696143600982
 30
0.0
 10
79.54449389741146
 20
198.2174094769805
 30
0.0
 10
79.59048362598296
 20
198.1604101647482
 30
0.0
 10
79.62712849552233
 20
198.0985252185594
 30
0.0
 10
79.65578628397023
 20
198.0335050751975
 30
0.0
 10
79.67543766477118
 20
197.9663634890954
 30
0.0
 10
79.68882681211275
 20
197.8979190039172
 30
0.0
 10
79.69021767963525
 20
197.851647114955
 30
0.0
 10
79.69091807124667
 20
197.8283462309034
 30
0.0
  0
SPLINE
  5
D46
330
1F
100
AcDbEntity
  8
1
  6
CONTINUOUS
 62
     7
100
AcDbSpline
210
0.0
220
0.0
230
1.0
 70
     8
 71
     3
 72
    23
 73
    19
 74
     0
 42
0.000000001
 43
0.00000001
 40
0.0
 40
0.0
 40
0.0
 40
0.0
 40
0.061348886789946
 40
0.1212063911487086
 40
0.179868244351231
 40
0.2381590330616797
 40
0.2962605282170141
 40
0.3552005626765283
 40
0.4156877399854035
 40
0.4783928644583811
 40
0.541539631141034
 40
0.604328547802114
 40
0.6665097616315536
 40
0.7294897846695989
 40
0.7937098329908073
 40
0.8601375197124479
 40
0.9284469336349125
 40
1.0
 40
1.0
 40
1.0
 40
1.0
 10
79.69091807124667
 20
197.8283462309034
 30
0.0
 10
79.6903784071558
 20
197.8082882506247
 30
0.0
 10
79.68931219812893
 20
197.7686598966231
 30
0.0
 10
79.68086297313587
 20
197.7103026680609
 30
0.0
 10
79.66608473083298
 20
197.6543552442355
 30
0.0
 10
79.64683256010412
 20
197.6003329902923
 30
0.0
 10
79.62054614376476
 20
197.5492732686885
 30
0.0
 10
79.58982345339982
 20
197.499932873822
 30
0.0
 10
79.552443753691
 20
197.4534432679311
 30
0.0
 10
79.51041936604756
 20
197.4092601373605
 30
0.0
 10
79.46370582497892
 20
197.3688311280484
 30
0.0
 10
79.41317776273482
 20
197.3336108962502
 30
0.0
 10
79.35946552672394
 20
197.3035379736209
 30
0.0
 10
79.30223921026871
 20
197.2796277576804
 30
0.0
 10
79.24175737082041
 20
197.2606806489903
 30
0.0
 10
79.17805516721049
 20
197.2471563263685
 30
0.0
 10
79.11100064412844
 20
197.239015402384
 30
0.0
 10
79.06527345203156
 20
197.2379472039719
 30
0.0
 10
79.04187960970822
 20
197.2374007180829
 30
0.0
  0
SPLINE
  5
D47
330
1F
100
AcDbEntity
  8
1
  6
CONTINUOUS
 62
     7
100
AcDbSpline
210
0.0
220
0.0
230
1.0
 70
     8
 71
     3
 72
    27
 73
    23
 74
     0
 42
0.000000001
 43
0.00000001
 40
0.0
 40
0.0
 40
0.0
 40
0.0
 40
0.0888980191893326
 40
0.1758168551598223
 40
0.2616408882627183
 40
0.3480170485842812
 40
0.3908257289368898
 40
0.4328196608305531
 40
0.4737813806400524
 40
0.5141714502377653
 40
0.5541112467729762
 40
0.5941249033741148
 40
0.6336242457218544
 40
0.67358806175152
 40
0.7134834766119029
 40
0.753362235610086
 40
0.792893335101687
 40
0.8330083272450072
 40
0.873644374503723
 40
0.9148934224809951
 40
0.9569505877026014
 40
1.0
 40
1.0
 40
1.0
 40
1.0
 10
79.04187960970822
 20
197.2374007180829
 30
0.0
 10
79.01096759789212
 20
197.2384118795937
 30
0.0
 10
78.94983178458918
 20
197.2404116905965
 30
0.0
 10
78.85994692664795
 20
197.256047037181
 30
0.0
 10
78.7734036220564
 20
197.2817279113303
 30
0.0
 10
78.70492720779956
 20
197.3120911923633
 30
0.0
 10
78.65238861475157
 20
197.3400835948639
 30
0.0
 10
78.61563930248573
 20
197.3638461256612
 30
0.0
 10
78.58110459625405
 20
197.3892565358582
 30
0.0
 10
78.54830875627866
 20
197.4158316468816
 30
0.0
 10
78.5187529234004
 20
197.4454994636385
 30
0.0
 10
78.49104440912444
 20
197.4764612276809
 30
0.0
 10
78.46614117981508
 20
197.509740375859
 30
0.0
 10
78.44321462270321
 20
197.5443581230815
 30
0.0
 10
78.42333495867169
 20
197.5809684249922
 30
0.0
 10
78.40566972910435
 20
197.6185060198615
 30
0.0
 10
78.3906222029145
 20
197.6572799114552
 30
0.0
 10
78.37880735476588
 20
197.6974152984876
 30
0.0
 10
78.36903269046351
 20
197.7387066265354
 30
0.0
 10
78.36231170712554
 20
197.7812913316747
 30
0.0
 10
78.35816670636873
 20
197.8250573380015
 30
0.0
 10
78.35778022936105
 20
197.8546456282894
 30
0.0
 10
78.35758473791336
 20
197.8696122565444
 30
0.0
  0
SPLINE
  5
D48
330
1F
100
AcDbEntity
  8
1
  6
CONTINUOUS
 62
     7
100
AcDbSpline
210
0.0
220
0.0
230
1.0
 70
     8
 71
     3
 72
    23
 73
    19
 74
     0
 42
0.000000001
 43
0.00000001
 40
0.0
 40
0.0
 40
0.0
 40
0.0
 40
0.0561566638067674
 40
0.1101330925141284
 40
0.1625371381772306
 40
0.2139124884561302
 40
0.2651461962449205
 40
0.3165104009872358
 40
0.3691785161241317
 40
0.4231231135699695
 40
0.4792758559041514
 40
0.5386907404023804
 40
0.6019784943490565
 40
0.6701250002959352
 40
0.7436502200618732
 40
0.8228100012991342
 40
0.9082614994691938
 40
1.0
 40
1.0
 40
1.0
 40
1.0
 10
78.35758473791336
 20
197.8696122565444
 30
0.0
 10
78.35828565042547
 20
197.8948880917613
 30
0.0
 10
78.35966026311272
 20
197.9444584492152
 30
0.0
 10
78.37022065847808
 20
198.0170119188841
 30
0.0
 10
78.38786856318885
 20
198.0859046112535
 30
0.0
 10
78.4125423294391
 20
198.1512830727732
 30
0.0
 10
78.44369245281209
 20
198.2133464662033
 30
0.0
 10
78.48274127974494
 20
198.2714831705682
 30
0.0
 10
78.52853095261426
 20
198.326014873
 30
0.0
 10
78.58132703372112
 20
198.3769836127333
 30
0.0
 10
78.64229062821525
 20
198.4231969240842
 30
0.0
 10
78.71266132272669
 20
198.4626929022142
 30
0.0
 10
78.79182313074747
 20
198.4963469815026
 30
0.0
 10
78.87999385176195
 20
198.5238899162437
 30
0.0
 10
78.97726569047748
 20
198.5447319669981
 30
0.0
 10
79.08342973678933
 20
198.5597391223346
 30
0.0
 10
79.19850119666191
 20
198.5689683561561
 30
0.0
 10
79.27823987129742
 20
198.5701317268726
 30
0.0
 10
79.31952384047744
 20
198.5707340514162
 30
0.0
  0
SPLINE
  5
D49
330
1F
100
AcDbEntity
  8
1
  6
CONTINUOUS
 62
     7
100
AcDbSpline
210
0.0
220
0.0
230
1.0
 70
     8
 71
     3
 72
    23
 73
    19
 74
     0
 42
0.000000001
 43
0.00000001
 40
0.0
 40
0.0
 40
0.0
 40
0.0
 40
0.080033636236931
 40
0.1578536902937586
 40
0.2325641746573273
 40
0.3047309509194754
 40
0.3743843190083576
 40
0.4416625497527571
 40
0.5060481917984226
 40
0.5686922589379365
 40
0.6287153332462724
 40
0.6872384655252933
 40
0.7432265702378961
 40
0.797567411391787
 40
0.8502389173987611
 40
0.9016288796169404
 40
0.9510666585259003
 40
1.0
 40
1.0
 40
1.0
 40
1.0
 10
79.31952384047744
 20
198.5707340514162
 30
0.0
 10
79.34303226339395
 20
198.5706341775681
 30
0.0
 10
79.3893989097796
 20
198.5704371921975
 30
0.0
 10
79.45763905570826
 20
198.5672718134096
 30
0.0
 10
79.52354141167663
 20
198.563640732938
 30
0.0
 10
79.58684305702738
 20
198.557419450085
 30
0.0
 10
79.64782870195396
 20
198.5500737475323
 30
0.0
 10
79.70613970604833
 20
198.5402159116501
 30
0.0
 10
79.76222930658273
 20
198.5296297842437
 30
0.0
 10
79.8156558945063
 20
198.516759213336
 30
0.0
 10
79.86692207573978
 20
198.5024116731691
 30
0.0
 10
79.91546454512715
 20
198.4858971551753
 30
0.0
 10
79.96191135779188
 20
198.4684537334095
 30
0.0
 10
80.00552981537217
 20
198.4486645342704
 30
0.0
 10
80.0470303141968
 20
198.4275738580876
 30
0.0
 10
80.08564487535048
 20
198.404261203112
 30
0.0
 10
80.12225643251602
 20
198.3798125616555
 30
0.0
 10
80.14483226773714
 20
198.3617635583586
 30
0.0
 10
80.1560623020159
 20
198.3527853334675
 30
0.0
  0
SPLINE
  5
D4A
330
1F
100
AcDbEntity
  8
1
  6
CONTINUOUS
 62
     7
100
AcDbSpline
210
0.0
220
0.0
230
1.0
 70
     8
 71
     3
 72
    15
 73
    11
 74
     0
 42
0.000000001
 43
0.00000001
 40
0.0
 40
0.0
 40
0.0
 40
0.0
 40
0.1256252946076525
 40
0.2476191198714976
 40
0.3685282895233579
 40
0.4881037300239335
 40
0.6098782614881922
 40
0.7353819182136054
 40
0.8644478927872976
 40
1.0
 40
1.0
 40
1.0
 40
1.0
 10
80.1560623020159
 20
198.3527853334675
 30
0.0
 10
80.17422974373088
 20
198.3366336682785
 30
0.0
 10
80.21003945818237
 20
198.3047972365229
 30
0.0
 10
80.25629712690059
 20
198.2503351114364
 30
0.0
 10
80.29580829259626
 20
198.1923011293368
 30
0.0
 10
80.32772989424504
 20
198.1297697181888
 30
0.0
 10
80.3526169993714
 20
198.0632188096664
 30
0.0
 10
80.37068283249786
 20
197.9926066820904
 30
0.0
 10
80.381159768613
 20
197.9177362943336
 30
0.0
 10
80.38252593639211
 20
197.8665737592728
 30
0.0
 10
80.38322576355435
 20
197.8403654616726
 30
0.0
  0
SPLINE
  5
D4B
330
1F
100
AcDbEntity
  8
1
  6
CONTINUOUS
 62
     7
100
AcDbSpline
210
0.0
220
0.0
230
1.0
 70
     8
 71
     3
 72
    23
 73
    19
 74
     0
 42
0.000000001
 43
0.00000001
 40
0.0
 40
0.0
 40
0.0
 40
0.0
 40
0.0684992740155346
 40
0.1345723412227605
 40
0.1982078938657568
 40
0.2597837111882081
 40
0.3199508629892121
 40
0.3795083209249195
 40
0.438814215083894
 40
0.4984970572803558
 40
0.5581817413977258
 40
0.6174375656882559
 40
0.6775224407104813
 40
0.7379594017204649
 40
0.8003299159233261
 40
0.8640897299070047
 40
0.930622075164176
 40
1.0
 40
1.0
 40
1.0
 40
1.0
 10
80.38322576355435
 20
197.8403654616726
 30
0.0
 10
80.38288079888068
 20
197.8208504743001
 30
0.0
 10
80.3822030879933
 20
197.7825117097306
 30
0.0
 10
80.37570038278713
 20
197.7263356343417
 30
0.0
 10
80.36483208687216
 20
197.6729023150153
 30
0.0
 10
80.35017197049748
 20
197.622092742004
 30
0.0
 10
80.33065748324927
 20
197.574202359204
 30
0.0
 10
80.30753070384068
 20
197.5286790483055
 30
0.0
 10
80.27971064167096
 20
197.4859850619435
 30
0.0
 10
80.2475773802669
 20
197.4464294820418
 30
0.0
 10
80.21204181063857
 20
197.4099143310443
 30
0.0
 10
80.17280552234328
 20
197.3772082182423
 30
0.0
 10
80.13035753458027
 20
197.3484343777577
 30
0.0
 10
80.08460956523103
 20
197.3233677956132
 30
0.0
 10
80.03577816948828
 20
197.3022324631818
 30
0.0
 10
79.98365347628894
 20
197.2848793050222
 30
0.0
 10
79.92824888057746
 20
197.2716897468523
 30
0.0
 10
79.88995372503805
 20
197.2659643692126
 30
0.0
 10
79.87040525073385
 20
197.2630417437239
 30
0.0
  0
SPLINE
  5
D4C
330
1F
100
AcDbEntity
  8
1
  6
CONTINUOUS
 62
     7
100
AcDbSpline
210
0.0
220
0.0
230
1.0
 70
     8
 71
     3
 72
    19
 73
    15
 74
     0
 42
0.000000001
 43
0.00000001
 40
0.0
 40
0.0
 40
0.0
 40
0.0
 40
0.0861976277555784
 40
0.171263643436992
 40
0.25708636405795
 40
0.3446849938168733
 40
0.4310637512833936
 40
0.5136728919389988
 40
0.5935873407577524
 40
0.6725386926572526
 40
0.7518103015857542
 40
0.8314525389600708
 40
0.9138023722444216
 40
1.0
 40
1.0
 40
1.0
 40
1.0
 10
79.04708794304153
 20
198.3143237950059
 30
0.0
 10
79.02701237456219
 20
198.3136066962481
 30
0.0
 10
78.98712479190627
 20
198.312181912885
 30
0.0
 10
78.9280225916431
 20
198.3014241027965
 30
0.0
 10
78.87043967600167
 20
198.2835607378865
 30
0.0
 10
78.81483518953368
 20
198.2594265895129
 30
0.0
 10
78.76307554565003
 20
198.2293126793534
 30
0.0
 10
78.71691543452627
 20
198.1939845414305
 30
0.0
 10
78.67756553073505
 20
198.1535391177952
 30
0.0
 10
78.64521424505435
 20
198.108244280555
 30
0.0
 10
78.62007992222365
 20
198.0587012590791
 30
0.0
 10
78.60122127722607
 20
198.0056177426936
 30
0.0
 10
78.59034107626283
 20
197.9485809620883
 30
0.0
 10
78.58902634262441
 20
197.9093215184108
 30
0.0
 10
78.58835396868258
 20
197.8892436668008
 30
0.0
  0
LINE
  5
D4D
330
1F
100
AcDbEntity
  8
1
  6
CONTINUOUS
 62
     7
100
AcDbLine
 10
51.08322533738115
 20
212.322016112021
 30
0.0
 11
51.08322533738115
 21
212.5784264462803
 31
0.0
  0
LINE
  5
D4E
330
1F
100
AcDbEntity
  8
1
  6
CONTINUOUS
 62
     7
100
AcDbLine
 10
51.08322533738115
 20
212.5784264462803
 30
0.0
 11
52.64171916019419
 21
212.5784264462803
 31
0.0
  0
SPLINE
  5
D4F
330
1F
100
AcDbEntity
  8
1
  6
CONTINUOUS
 62
     7
100
AcDbSpline
210
0.0
220
0.0
230
1.0
 70
     8
 71
     3
 72
    15
 73
    11
 74
     0
 42
0.000000001
 43
0.00000001
 40
0.0
 40
0.0
 40
0.0
 40
0.0
 40
0.1116762671899279
 40
0.232106882795206
 40
0.3623348698955445
 40
0.5021563914479603
 40
0.6415059482705828
 40
0.7710862639767573
 40
0.8901558881806702
 40
1.0
 40
1.0
 40
1.0
 40
1.0
 10
52.64171935329796
 20
212.5784263591085
 30
0.0
 10
52.62748701991839
 20
212.5931947997814
 30
0.0
 10
52.59790667470489
 20
212.6238893852523
 30
0.0
 10
52.55597595656118
 20
212.6756256830953
 30
0.0
 10
52.51399366465276
 20
212.7337659741432
 30
0.0
 10
52.47318675713808
 20
212.7969109884807
 30
0.0
 10
52.43425622733398
 20
212.8610801499294
 30
0.0
 10
52.39977871664354
 20
212.9234298995789
 30
0.0
 10
52.37050731149907
 20
212.9824321641353
 30
0.0
 10
52.35451936464025
 20
213.0213095375432
 30
0.0
 10
52.34684755842616
 20
213.039964820647
 30
0.0
  0
LINE
  5
D50
330
1F
100
AcDbEntity
  8
1
  6
CONTINUOUS
 62
     7
100
AcDbLine
 10
52.34684753190973
 20
213.0399647685502
 30
0.0
 11
52.58322558325031
 21
213.0399647685502
 31
0.0
  0
SPLINE
  5
D51
330
1F
100
AcDbEntity
  8
1
  6
CONTINUOUS
 62
     7
100
AcDbSpline
210
0.0
220
0.0
230
1.0
 70
     8
 71
     3
 72
    15
 73
    11
 74
     0
 42
0.000000001
 43
0.00000001
 40
0.0
 40
0.0
 40
0.0
 40
0.0
 40
0.1426698808292017
 40
0.2811938871410168
 40
0.4173277977783965
 40
0.5512149507785091
 40
0.6787379175113324
 40
0.7950142962491247
 40
0.901989501777439
 40
0.9999999999999999
 40
0.9999999999999999
 40
0.9999999999999999
 40
0.9999999999999999
 10
52.58322576355437
 20
213.039964820647
 30
0.0
 10
52.59973531889051
 20
213.007930325493
 30
0.0
 10
52.63227467487062
 20
212.9447922324169
 30
0.0
 10
52.68836616984049
 20
212.8554164572797
 30
0.0
 10
52.7497614603439
 20
212.7723971693031
 30
0.0
 10
52.81526834242811
 20
212.6962277668423
 30
0.0
 10
52.88236701541013
 20
212.6283011761159
 30
0.0
 10
52.94964910588115
 20
212.5706105755282
 30
0.0
 10
53.01542399849993
 20
212.522718153373
 30
0.0
 10
53.0612938557282
 20
212.4986080495957
 30
0.0
 10
53.08322576355434
 20
212.4870802052623
 30
0.0
  0
LINE
  5
D52
330
1F
100
AcDbEntity
  8
1
  6
CONTINUOUS
 62
     7
100
AcDbLine
 10
53.0832256652067
 20
212.4870799998556
 30
0.0
 11
53.0832256652067
 21
212.322016112021
 31
0.0
  0
LINE
  5
D53
330
1F
100
AcDbEntity
  8
1
  6
CONTINUOUS
 62
     7
100
AcDbLine
 10
53.0832256652067
 20
212.322016112021
 30
0.0
 11
51.08322533738115
 21
212.322016112021
 31
0.0
  0
LINE
  5
D54
330
1F
100
AcDbEntity
  8
1
  6
CONTINUOUS
 62
     7
100
AcDbLine
 10
69.12681558128693
 20
197.7502213376377
 30
0.0
 11
69.8471679813812
 21
197.7502213376377
 31
0.0
  0
LINE
  5
D55
330
1F
100
AcDbEntity
  8
1
  6
CONTINUOUS
 62
     7
100
AcDbLine
 10
69.8471679813812
 20
197.7502213376377
 30
0.0
 11
69.12681558128693
 21
198.3055098498974
 31
0.0
  0
LINE
  5
D56
330
1F
100
AcDbEntity
  8
1
  6
CONTINUOUS
 62
     7
100
AcDbLine
 10
68.87040524702766
 20
197.7502213376377
 30
0.0
 11
68.87040524702766
 21
198.6220161015902
 31
0.0
  0
LINE
  5
D57
330
1F
100
AcDbEntity
  8
1
  6
CONTINUOUS
 62
     7
100
AcDbLine
 10
68.87040524702766
 20
198.6220161015902
 30
0.0
 11
69.12681558128693
 21
198.6220161015902
 31
0.0
  0
LINE
  5
D58
330
1F
100
AcDbEntity
  8
1
  6
CONTINUOUS
 62
     7
100
AcDbLine
 10
69.12681558128693
 20
197.2374011347805
 30
0.0
 11
68.87040524702766
 21
197.2374011347805
 31
0.0
  0
LINE
  5
D59
330
1F
100
AcDbEntity
  8
1
  6
CONTINUOUS
 62
     7
100
AcDbLine
 10
68.87040524702766
 20
197.2374011347805
 30
0.0
 11
68.87040524702766
 21
197.4938110033785
 31
0.0
  0
LINE
  5
D5A
330
1F
100
AcDbEntity
  8
1
  6
CONTINUOUS
 62
     7
100
AcDbLine
 10
68.87040524702766
 20
197.4938110033785
 30
0.0
 11
68.38322575163343
 21
197.4938110033785
 31
0.0
  0
LINE
  5
D5B
330
1F
100
AcDbEntity
  8
1
  6
CONTINUOUS
 62
     7
100
AcDbLine
 10
69.12681558128693
 20
198.3055098498974
 30
0.0
 11
69.12681558128693
 21
197.7502213376377
 31
0.0
  0
LINE
  5
D5C
330
1F
100
AcDbEntity
  8
1
  6
CONTINUOUS
 62
     7
100
AcDbLine
 10
68.38322575163343
 20
197.7502213376377
 30
0.0
 11
68.87040524702766
 21
197.7502213376377
 31
0.0
  0
LINE
  5
D5D
330
1F
100
AcDbEntity
  8
1
  6
CONTINUOUS
 62
     7
100
AcDbLine
 10
70.35758490633467
 20
197.6732982839261
 30
0.0
 11
70.35758490633467
 21
197.4938110033785
 31
0.0
  0
LINE
  5
D5E
330
1F
100
AcDbEntity
  8
1
  6
CONTINUOUS
 62
     7
100
AcDbLine
 10
69.12681558128693
 20
197.4938110033785
 30
0.0
 11
69.12681558128693
 21
197.2374011347805
 31
0.0
  0
LINE
  5
D5F
330
1F
100
AcDbEntity
  8
1
  6
CONTINUOUS
 62
     7
100
AcDbLine
 10
68.38322575163343
 20
197.4938110033785
 30
0.0
 11
68.38322575163343
 21
197.7502213376377
 31
0.0
  0
LINE
  5
D60
330
1F
100
AcDbEntity
  8
1
  6
CONTINUOUS
 62
     7
100
AcDbLine
 10
70.35758490633467
 20
197.4938110033785
 30
0.0
 11
69.12681558128693
 21
197.4938110033785
 31
0.0
  0
LINE
  5
D61
330
1F
100
AcDbEntity
  8
1
  6
CONTINUOUS
 62
     7
100
AcDbLine
 10
69.12681558128693
 20
198.6220161015902
 30
0.0
 11
70.35758490633467
 21
197.6732982839261
 31
0.0
  0
ARC
  5
D62
330
1F
100
AcDbEntity
  8
1
  6
CONTINUOUS
 62
     7
100
AcDbCircle
 10
85.18322576355436
 20
193.7284263591085
 30
0.0
 40
1.0
100
AcDbArc
 50
270.0
 51
0.0000000000016284
  0
LINE
  5
D63
330
1F
100
AcDbEntity
  8
1
  6
CONTINUOUS
 62
     7
100
AcDbLine
 10
79.48322552215555
 20
192.728426172844
 30
0.0
 11
85.18322515260675
 21
192.728426172844
 31
0.0
  0
LINE
  5
D64
330
1F
100
AcDbEntity
  8
1
  6
CONTINUOUS
 62
     7
100
AcDbLine
 10
79.48322552215555
 20
193.9284259970103
 30
0.0
 11
79.48322552215555
 21
192.728426172844
 31
0.0
  0
LINE
  5
D65
330
1F
100
AcDbEntity
  8
1
  6
CONTINUOUS
 62
     7
100
AcDbLine
 10
75.08322554599741
 20
193.9284259970103
 30
0.0
 11
79.48322552215555
 21
193.9284259970103
 31
0.0
  0
LINE
  5
D66
330
1F
100
AcDbEntity
  8
1
  6
CONTINUOUS
 62
     7
100
AcDbLine
 10
75.08322554599741
 20
192.728426172844
 30
0.0
 11
75.08322554599741
 21
193.9284259970103
 31
0.0
  0
LINE
  5
D67
330
1F
100
AcDbEntity
  8
1
  6
CONTINUOUS
 62
     7
100
AcDbLine
 10
57.28322598111131
 20
193.9284259970103
 30
0.0
 11
57.28322598111131
 21
192.728426172844
 31
0.0
  0
LINE
  5
D68
330
1F
100
AcDbEntity
  8
1
  6
CONTINUOUS
 62
     7
100
AcDbLine
 10
52.88322600495317
 20
193.9284259970103
 30
0.0
 11
57.28322598111131
 21
193.9284259970103
 31
0.0
  0
LINE
  5
D69
330
1F
100
AcDbEntity
  8
1
  6
CONTINUOUS
 62
     7
100
AcDbLine
 10
52.88322600495317
 20
192.728426172844
 30
0.0
 11
52.88322600495317
 21
193.9284259970103
 31
0.0
  0
LINE
  5
D6A
330
1F
100
AcDbEntity
  8
1
  6
CONTINUOUS
 62
     7
100
AcDbLine
 10
52.88322600495317
 20
216.5284267212067
 30
0.0
 11
52.88322600495317
 21
217.728426545373
 31
0.0
  0
LINE
  5
D6B
330
1F
100
AcDbEntity
  8
1
  6
CONTINUOUS
 62
     7
100
AcDbLine
 10
57.28322598111131
 20
216.5284267212067
 30
0.0
 11
52.88322600495317
 21
216.5284267212067
 31
0.0
  0
LINE
  5
D6C
330
1F
100
AcDbEntity
  8
1
  6
CONTINUOUS
 62
     7
100
AcDbLine
 10
57.28322598111131
 20
217.728426545373
 30
0.0
 11
57.28322598111131
 21
216.5284267212067
 31
0.0
  0
LINE
  5
D6D
330
1F
100
AcDbEntity
  8
1
  6
CONTINUOUS
 62
     7
100
AcDbLine
 10
75.08322554599741
 20
216.5284267212067
 30
0.0
 11
75.08322554599741
 21
217.728426545373
 31
0.0
  0
LINE
  5
D6E
330
1F
100
AcDbEntity
  8
1
  6
CONTINUOUS
 62
     7
100
AcDbLine
 10
79.48322552215555
 20
216.5284267212067
 30
0.0
 11
75.08322554599741
 21
216.5284267212067
 31
0.0
  0
LINE
  5
D6F
330
1F
100
AcDbEntity
  8
1
  6
CONTINUOUS
 62
     7
100
AcDbLine
 10
79.48322552215555
 20
217.728426545373
 30
0.0
 11
79.48322552215555
 21
216.5284267212067
 31
0.0
  0
LINE
  5
D70
330
1F
100
AcDbEntity
  8
1
  6
CONTINUOUS
 62
     7
100
AcDbLine
 10
85.18322515260675
 20
217.728426545373
 30
0.0
 11
79.48322552215555
 21
217.728426545373
 31
0.0
  0
ARC
  5
D71
330
1F
100
AcDbEntity
  8
1
  6
CONTINUOUS
 62
     7
100
AcDbCircle
 10
85.18322576355436
 20
216.7284263591085
 30
0.0
 40
1.0
100
AcDbArc
 50
0.0
 51
90.0
  0
LINE
  5
D72
330
1F
100
AcDbEntity
  8
1
  6
CONTINUOUS
 62
     7
100
AcDbLine
 10
57.28322598111131
 20
192.728426172844
 30
0.0
 11
64.83322572853663
 21
192.728426172844
 31
0.0
  0
LINE
  5
D73
330
1F
100
AcDbEntity
  8
1
  6
CONTINUOUS
 62
     7
100
AcDbLine
 10
67.53322579857209
 20
192.728426172844
 30
0.0
 11
75.08322554599741
 21
192.728426172844
 31
0.0
  0
LINE
  5
D74
330
1F
100
AcDbEntity
  8
1
  6
CONTINUOUS
 62
     7
100
AcDbLine
 10
48.38322619866827
 20
192.728426172844
 30
0.0
 11
52.88322600495317
 21
192.728426172844
 31
0.0
  0
LINE
  5
D75
330
1F
100
AcDbEntity
  8
1
  6
CONTINUOUS
 62
     7
100
AcDbLine
 10
86.18322531651953
 20
193.7284263367568
 30
0.0
 11
86.18322531651953
 21
203.0284263710294
 31
0.0
  0
LINE
  5
D76
330
1F
100
AcDbEntity
  8
1
  6
CONTINUOUS
 62
     7
100
AcDbLine
 10
86.18322531651953
 20
207.4284263471876
 30
0.0
 11
86.18322531651953
 21
216.7284263814602
 31
0.0
  0
LINE
  5
D77
330
1F
100
AcDbEntity
  8
1
  6
CONTINUOUS
 62
     7
100
AcDbLine
 10
75.08322554599741
 20
217.728426545373
 30
0.0
 11
67.53322579857209
 21
217.728426545373
 31
0.0
  0
LINE
  5
D78
330
1F
100
AcDbEntity
  8
1
  6
CONTINUOUS
 62
     7
100
AcDbLine
 10
64.83322572853663
 20
217.728426545373
 30
0.0
 11
57.28322598111131
 21
217.728426545373
 31
0.0
  0
LINE
  5
D79
330
1F
100
AcDbEntity
  8
1
  6
CONTINUOUS
 62
     7
100
AcDbLine
 10
46.1832262105892
 20
215.5284265572939
 30
0.0
 11
46.1832262105892
 21
194.9284261609231
 31
0.0
  0
LINE
  5
D7A
330
1F
100
AcDbEntity
  8
1
  6
CONTINUOUS
 62
     7
100
AcDbLine
 10
52.88322600495317
 20
217.728426545373
 30
0.0
 11
48.38322619866827
 21
217.728426545373
 31
0.0
  0
LINE
  5
D7B
330
1F
100
AcDbEntity
  8
1
  6
CONTINUOUS
 62
     7
100
AcDbLine
 10
75.08322554599741
 20
192.728426172844
 30
0.0
 11
79.48322552215555
 21
192.728426172844
 31
0.0
  0
LINE
  5
D7C
330
1F
100
AcDbEntity
  8
1
  6
CONTINUOUS
 62
     7
100
AcDbLine
 10
75.08322554599741
 20
193.62842650663
 30
0.0
 11
79.48322552215555
 21
193.62842650663
 31
0.0
  0
LINE
  5
D7D
330
1F
100
AcDbEntity
  8
1
  6
CONTINUOUS
 62
     7
100
AcDbLine
 10
75.08322554599741
 20
217.728426545373
 30
0.0
 11
79.48322552215555
 21
217.728426545373
 31
0.0
  0
LINE
  5
D7E
330
1F
100
AcDbEntity
  8
1
  6
CONTINUOUS
 62
     7
100
AcDbLine
 10
75.08322554599741
 20
216.828426211587
 30
0.0
 11
79.48322552215555
 21
216.828426211587
 31
0.0
  0
LINE
  5
D7F
330
1F
100
AcDbEntity
  8
1
  6
CONTINUOUS
 62
     7
100
AcDbLine
 10
52.88322600495317
 20
216.828426211587
 30
0.0
 11
57.28322598111131
 21
216.828426211587
 31
0.0
  0
LINE
  5
D80
330
1F
100
AcDbEntity
  8
1
  6
CONTINUOUS
 62
     7
100
AcDbLine
 10
52.88322600495317
 20
217.728426545373
 30
0.0
 11
57.28322598111131
 21
217.728426545373
 31
0.0
  0
LINE
  5
D81
330
1F
100
AcDbEntity
  8
1
  6
CONTINUOUS
 62
     7
100
AcDbLine
 10
52.88322600495317
 20
193.62842650663
 30
0.0
 11
57.28322598111131
 21
193.62842650663
 31
0.0
  0
LINE
  5
D82
330
1F
100
AcDbEntity
  8
1
  6
CONTINUOUS
 62
     7
100
AcDbLine
 10
52.88322600495317
 20
192.728426172844
 30
0.0
 11
57.28322598111131
 21
192.728426172844
 31
0.0
  0
LINE
  5
D83
330
1F
100
AcDbEntity
  8
1
  6
CONTINUOUS
 62
     7
100
AcDbLine
 10
75.28322613757351
 20
193.6402943501983
 30
0.0
 11
79.28322586190203
 21
193.6402943501983
 31
0.0
  0
LINE
  5
D84
330
1F
100
AcDbEntity
  8
1
  6
CONTINUOUS
 62
     7
100
AcDbLine
 10
79.28322586190203
 20
193.6402943501983
 30
0.0
 11
79.48322552215555
 21
193.6402943501983
 31
0.0
  0
LINE
  5
D85
330
1F
100
AcDbEntity
  8
1
  6
CONTINUOUS
 62
     7
100
AcDbLine
 10
75.08322554599741
 20
193.6402943501983
 30
0.0
 11
75.28322613757351
 21
193.6402943501983
 31
0.0
  0
LINE
  5
D86
330
1F
100
AcDbEntity
  8
1
  6
CONTINUOUS
 62
     7
100
AcDbLine
 10
57.08322538953522
 20
193.6402943501983
 30
0.0
 11
53.0832256652067
 21
193.6402943501983
 31
0.0
  0
LINE
  5
D87
330
1F
100
AcDbEntity
  8
1
  6
CONTINUOUS
 62
     7
100
AcDbLine
 10
57.08322538953522
 20
193.6402943501983
 30
0.0
 11
57.28322598111131
 21
193.6402943501983
 31
0.0
  0
LINE
  5
D88
330
1F
100
AcDbEntity
  8
1
  6
CONTINUOUS
 62
     7
100
AcDbLine
 10
52.88322600495317
 20
193.6402943501983
 30
0.0
 11
53.0832256652067
 21
193.6402943501983
 31
0.0
  0
LINE
  5
D89
330
1F
100
AcDbEntity
  8
1
  6
CONTINUOUS
 62
     7
100
AcDbLine
 10
79.28322586190203
 20
216.8165583680187
 30
0.0
 11
79.48322552215555
 21
216.8165583680187
 31
0.0
  0
LINE
  5
D8A
330
1F
100
AcDbEntity
  8
1
  6
CONTINUOUS
 62
     7
100
AcDbLine
 10
79.28322586190203
 20
216.8165583680187
 30
0.0
 11
75.28322613757351
 21
216.8165583680187
 31
0.0
  0
LINE
  5
D8B
330
1F
100
AcDbEntity
  8
1
  6
CONTINUOUS
 62
     7
100
AcDbLine
 10
75.08322554599741
 20
216.8165583680187
 30
0.0
 11
75.28322613757351
 21
216.8165583680187
 31
0.0
  0
LINE
  5
D8C
330
1F
100
AcDbEntity
  8
1
  6
CONTINUOUS
 62
     7
100
AcDbLine
 10
57.08322538953522
 20
216.8165583680187
 30
0.0
 11
57.28322598111131
 21
216.8165583680187
 31
0.0
  0
LINE
  5
D8D
330
1F
100
AcDbEntity
  8
1
  6
CONTINUOUS
 62
     7
100
AcDbLine
 10
53.0832256652067
 20
216.8165583680187
 30
0.0
 11
57.08322538953522
 21
216.8165583680187
 31
0.0
  0
LINE
  5
D8E
330
1F
100
AcDbEntity
  8
1
  6
CONTINUOUS
 62
     7
100
AcDbLine
 10
52.88322600495317
 20
216.8165583680187
 30
0.0
 11
53.0832256652067
 21
216.8165583680187
 31
0.0
  0
LINE
  5
D8F
330
1F
100
AcDbEntity
  8
1
  6
CONTINUOUS
 62
     7
100
AcDbLine
 10
79.48322552215555
 20
216.8064348916326
 30
0.0
 11
79.28322586190203
 21
216.8064348916326
 31
0.0
  0
LINE
  5
D90
330
1F
100
AcDbEntity
  8
1
  6
CONTINUOUS
 62
     7
100
AcDbLine
 10
75.28322613757351
 20
216.8064348916326
 30
0.0
 11
75.08322554599741
 21
216.8064348916326
 31
0.0
  0
LINE
  5
D91
330
1F
100
AcDbEntity
  8
1
  6
CONTINUOUS
 62
     7
100
AcDbLine
 10
57.28322598111131
 20
216.8064348916326
 30
0.0
 11
57.08322538953522
 21
216.8064348916326
 31
0.0
  0
LINE
  5
D92
330
1F
100
AcDbEntity
  8
1
  6
CONTINUOUS
 62
     7
100
AcDbLine
 10
53.0832256652067
 20
216.8064348916326
 30
0.0
 11
52.88322600495317
 21
216.8064348916326
 31
0.0
  0
LINE
  5
D93
330
1F
100
AcDbEntity
  8
1
  6
CONTINUOUS
 62
     7
100
AcDbLine
 10
57.28322598111131
 20
193.6504178265844
 30
0.0
 11
57.08322538953522
 21
193.6504178265844
 31
0.0
  0
LINE
  5
D94
330
1F
100
AcDbEntity
  8
1
  6
CONTINUOUS
 62
     7
100
AcDbLine
 10
53.0832256652067
 20
193.6504178265844
 30
0.0
 11
52.88322600495317
 21
193.6504178265844
 31
0.0
  0
LINE
  5
D95
330
1F
100
AcDbEntity
  8
1
  6
CONTINUOUS
 62
     7
100
AcDbLine
 10
79.48322552215555
 20
193.6504178265844
 30
0.0
 11
79.28322586190203
 21
193.6504178265844
 31
0.0
  0
LINE
  5
D96
330
1F
100
AcDbEntity
  8
1
  6
CONTINUOUS
 62
     7
100
AcDbLine
 10
75.28322613757351
 20
193.6504178265844
 30
0.0
 11
75.08322554599741
 21
193.6504178265844
 31
0.0
  0
LINE
  5
D97
330
1F
100
AcDbEntity
  8
1
  6
CONTINUOUS
 62
     7
100
AcDbLine
 10
57.08322538953522
 20
193.6402943501983
 30
0.0
 11
57.08322538953522
 21
193.9284259970103
 31
0.0
  0
LINE
  5
D98
330
1F
100
AcDbEntity
  8
1
  6
CONTINUOUS
 62
     7
100
AcDbLine
 10
53.0832256652067
 20
193.6402943501983
 30
0.0
 11
53.0832256652067
 21
193.9284259970103
 31
0.0
  0
LINE
  5
D99
330
1F
100
AcDbEntity
  8
1
  6
CONTINUOUS
 62
     7
100
AcDbLine
 10
75.28322613757351
 20
216.8165583680187
 30
0.0
 11
75.28322613757351
 21
216.5284267212067
 31
0.0
  0
LINE
  5
D9A
330
1F
100
AcDbEntity
  8
1
  6
CONTINUOUS
 62
     7
100
AcDbLine
 10
79.28322586190203
 20
216.8165583680187
 30
0.0
 11
79.28322586190203
 21
216.5284267212067
 31
0.0
  0
LINE
  5
D9B
330
1F
100
AcDbEntity
  8
1
  6
CONTINUOUS
 62
     7
100
AcDbLine
 10
79.28322586190203
 20
193.6402943501983
 30
0.0
 11
79.28322586190203
 21
193.9284259970103
 31
0.0
  0
LINE
  5
D9C
330
1F
100
AcDbEntity
  8
1
  6
CONTINUOUS
 62
     7
100
AcDbLine
 10
75.28322613757351
 20
193.6402943501983
 30
0.0
 11
75.28322613757351
 21
193.9284259970103
 31
0.0
  0
LINE
  5
D9D
330
1F
100
AcDbEntity
  8
1
  6
CONTINUOUS
 62
     7
100
AcDbLine
 10
57.08322538953522
 20
216.8165583680187
 30
0.0
 11
57.08322538953522
 21
216.5284267212067
 31
0.0
  0
LINE
  5
D9E
330
1F
100
AcDbEntity
  8
1
  6
CONTINUOUS
 62
     7
100
AcDbLine
 10
53.0832256652067
 20
216.8165583680187
 30
0.0
 11
53.0832256652067
 21
216.5284267212067
 31
0.0
  0
LINE
  5
D9F
330
1F
100
AcDbEntity
  8
1
  6
CONTINUOUS
 62
     7
100
AcDbLine
 10
48.5504646049886
 20
149.3159271869485
 30
0.0
 11
48.5504646049886
 21
150.5159270111148
 31
0.0
  0
LINE
  5
DA0
330
1F
100
AcDbEntity
  8
1
  6
CONTINUOUS
 62
     7
100
AcDbLine
 10
47.05046400441401
 20
150.5159270111148
 30
0.0
 11
47.05046400441401
 21
149.3159271869485
 31
0.0
  0
LINE
  5
DA1
330
1F
100
AcDbEntity
  8
1
  6
CONTINUOUS
 62
     7
100
AcDbLine
 10
86.14832095784416
 20
103.4159269276683
 30
0.0
 11
85.1452981824115
 21
103.4159269276683
 31
0.0
  0
LINE
  5
DA2
330
1F
100
AcDbEntity
  8
1
  6
CONTINUOUS
 62
     7
100
AcDbLine
 10
79.44532466912594
 20
103.4159269276683
 30
0.0
 11
79.44532466912594
 21
104.5159269217078
 31
0.0
  0
LINE
  5
DA3
330
1F
100
AcDbEntity
  8
1
  6
CONTINUOUS
 62
     7
100
AcDbLine
 10
85.1452981824115
 20
103.4159269276683
 30
0.0
 11
79.44532466912594
 21
103.4159269276683
 31
0.0
  0
LINE
  5
DA4
330
1F
100
AcDbEntity
  8
1
  6
CONTINUOUS
 62
     7
100
AcDbLine
 10
52.78953842050171
 20
149.3159271869485
 30
0.0
 11
52.78882997575388
 21
149.5194174442117
 31
0.0
  0
LINE
  5
DA5
330
1F
100
AcDbEntity
  8
1
  6
CONTINUOUS
 62
     7
100
AcDbLine
 10
75.04534485358803
 20
104.5159269217078
 30
0.0
 11
79.44532466912594
 21
104.5159269217078
 31
0.0
  0
LINE
  5
DA6
330
1F
100
AcDbEntity
  8
1
  6
CONTINUOUS
 62
     7
100
AcDbLine
 10
52.84544703203542
 20
104.5159269217078
 30
0.0
 11
57.2454268475733
 21
104.5159269217078
 31
0.0
  0
LINE
  5
DA7
330
1F
100
AcDbEntity
  8
1
  6
CONTINUOUS
 62
     7
100
AcDbLine
 10
47.30232084925322
 20
149.3159271869485
 30
0.0
 11
52.78953842050171
 21
149.3159271869485
 31
0.0
  0
LINE
  5
DA8
330
1F
100
AcDbEntity
  8
1
  6
CONTINUOUS
 62
     7
100
AcDbLine
 10
57.34546214857701
 20
107.9159267339532
 30
0.0
 11
57.34549279147438
 21
110.8159273955648
 31
0.0
  0
LINE
  5
DA9
330
1F
100
AcDbEntity
  8
1
  6
CONTINUOUS
 62
     7
100
AcDbLine
 10
57.34549279147438
 20
110.8159273955648
 30
0.0
 11
52.74551423207328
 21
110.8159273955648
 31
0.0
  0
LINE
  5
DAA
330
1F
100
AcDbEntity
  8
1
  6
CONTINUOUS
 62
     7
100
AcDbLine
 10
52.74551423207328
 20
110.8159273955648
 30
0.0
 11
52.74548358917588
 21
107.9159267339532
 31
0.0
  0
LINE
  5
DAB
330
1F
100
AcDbEntity
  8
1
  6
CONTINUOUS
 62
     7
100
AcDbLine
 10
52.74548358917588
 20
107.9159267339532
 30
0.0
 11
57.34546214857701
 21
107.9159267339532
 31
0.0
  0
LINE
  5
DAC
330
1F
100
AcDbEntity
  8
1
  6
CONTINUOUS
 62
     7
100
AcDbLine
 10
79.54535997012962
 20
107.9159267339532
 30
0.0
 11
79.54539061302702
 21
110.8159273955648
 31
0.0
  0
LINE
  5
DAD
330
1F
100
AcDbEntity
  8
1
  6
CONTINUOUS
 62
     7
100
AcDbLine
 10
79.54539061302702
 20
110.8159273955648
 30
0.0
 11
74.94541205362586
 21
110.8159273955648
 31
0.0
  0
LINE
  5
DAE
330
1F
100
AcDbEntity
  8
1
  6
CONTINUOUS
 62
     7
100
AcDbLine
 10
74.94541205362586
 20
110.8159273955648
 30
0.0
 11
74.94538141072852
 21
107.9159267339532
 31
0.0
  0
LINE
  5
DAF
330
1F
100
AcDbEntity
  8
1
  6
CONTINUOUS
 62
     7
100
AcDbLine
 10
74.94538141072852
 20
107.9159267339532
 30
0.0
 11
79.54535997012962
 21
107.9159267339532
 31
0.0
  0
LINE
  5
DB0
330
1F
100
AcDbEntity
  8
1
  6
CONTINUOUS
 62
     7
100
AcDbLine
 10
75.04534485358803
 20
103.4159269276683
 30
0.0
 11
75.04534485358803
 21
104.5159269217078
 31
0.0
  0
LINE
  5
DB1
330
1F
100
AcDbEntity
  8
1
  6
CONTINUOUS
 62
     7
100
AcDbLine
 10
67.49537969995336
 20
101.4159265998427
 30
0.0
 11
67.49537969995336
 21
103.4159269276683
 31
0.0
  0
LINE
  5
DB2
330
1F
100
AcDbEntity
  8
1
  6
CONTINUOUS
 62
     7
100
AcDbLine
 10
67.49537969995336
 20
101.4159265998427
 30
0.0
 11
64.795392001208
 21
101.4159265998427
 31
0.0
  0
LINE
  5
DB3
330
1F
100
AcDbEntity
  8
1
  6
CONTINUOUS
 62
     7
100
AcDbLine
 10
64.795392001208
 20
101.4159265998427
 30
0.0
 11
64.795392001208
 21
103.4159269276683
 31
0.0
  0
LINE
  5
DB4
330
1F
100
AcDbEntity
  8
1
  6
CONTINUOUS
 62
     7
100
AcDbLine
 10
57.2454268475733
 20
103.4159269276683
 30
0.0
 11
57.2454268475733
 21
104.5159269217078
 31
0.0
  0
LINE
  5
DB5
330
1F
100
AcDbEntity
  8
1
  6
CONTINUOUS
 62
     7
100
AcDbLine
 10
64.795392001208
 20
103.4159269276683
 30
0.0
 11
57.2454268475733
 21
103.4159269276683
 31
0.0
  0
LINE
  5
DB6
330
1F
100
AcDbEntity
  8
1
  6
CONTINUOUS
 62
     7
100
AcDbLine
 10
75.04534485358803
 20
103.4159269276683
 30
0.0
 11
67.49537969995336
 21
103.4159269276683
 31
0.0
  0
LINE
  5
DB7
330
1F
100
AcDbEntity
  8
1
  6
CONTINUOUS
 62
     7
100
AcDbLine
 10
75.04806932828373
 20
110.8159273955648
 30
0.0
 11
75.04806932828373
 21
107.9159267339532
 31
0.0
  0
LINE
  5
DB8
330
1F
100
AcDbEntity
  8
1
  6
CONTINUOUS
 62
     7
100
AcDbLine
 10
75.04897748463608
 20
103.4159269276683
 30
0.0
 11
75.04897748463608
 21
104.5159269217078
 31
0.0
  0
LINE
  5
DB9
330
1F
100
AcDbEntity
  8
1
  6
CONTINUOUS
 62
     7
100
AcDbLine
 10
75.04897748463608
 20
107.9159267339532
 30
0.0
 11
75.04897748463608
 21
110.8159273955648
 31
0.0
  0
LINE
  5
DBA
330
1F
100
AcDbEntity
  8
1
  6
CONTINUOUS
 62
     7
100
AcDbLine
 10
75.04897748463608
 20
103.4159269276683
 30
0.0
 11
75.04534485358803
 21
103.4159269276683
 31
0.0
  0
LINE
  5
DBB
330
1F
100
AcDbEntity
  8
1
  6
CONTINUOUS
 62
     7
100
AcDbLine
 10
74.9480699563521
 20
107.9159267339532
 30
0.0
 11
74.9480699563521
 21
110.8159273955648
 31
0.0
  0
LINE
  5
DBC
330
1F
100
AcDbEntity
  8
1
  6
CONTINUOUS
 62
     7
100
AcDbLine
 10
67.50052592774134
 20
101.4159265998427
 30
0.0
 11
67.50052592774134
 21
103.4159269276683
 31
0.0
  0
LINE
  5
DBD
330
1F
100
AcDbEntity
  8
1
  6
CONTINUOUS
 62
     7
100
AcDbLine
 10
67.50052592774134
 20
101.4159265998427
 30
0.0
 11
67.49537969995336
 21
101.4159265998427
 31
0.0
  0
LINE
  5
DBE
330
1F
100
AcDbEntity
  8
1
  6
CONTINUOUS
 62
     7
100
AcDbLine
 10
52.84544703203542
 20
103.4159269276683
 30
0.0
 11
52.84544703203542
 21
104.5159269217078
 31
0.0
  0
LINE
  5
DBF
330
1F
100
AcDbEntity
  8
1
  6
CONTINUOUS
 62
     7
100
AcDbLine
 10
48.34546784456595
 20
101.4159265998427
 30
0.0
 11
48.34546784456595
 21
103.4159269276683
 31
0.0
  0
LINE
  5
DC0
330
1F
100
AcDbEntity
  8
1
  6
CONTINUOUS
 62
     7
100
AcDbLine
 10
48.34546784456595
 20
101.4159265998427
 30
0.0
 11
47.14547351874984
 21
101.4159265998427
 31
0.0
  0
LINE
  5
DC1
330
1F
100
AcDbEntity
  8
1
  6
CONTINUOUS
 62
     7
100
AcDbLine
 10
52.84544703203542
 20
103.4159269276683
 30
0.0
 11
48.34546784456595
 21
103.4159269276683
 31
0.0
  0
LINE
  5
DC2
330
1F
100
AcDbEntity
  8
1
  6
CONTINUOUS
 62
     7
100
AcDbLine
 10
52.84817150673112
 20
110.8159273955648
 30
0.0
 11
52.84817150673112
 21
107.9159267339532
 31
0.0
  0
LINE
  5
DC3
330
1F
100
AcDbEntity
  8
1
  6
CONTINUOUS
 62
     7
100
AcDbLine
 10
52.8490796630835
 20
103.4159269276683
 30
0.0
 11
52.8490796630835
 21
104.5159269217078
 31
0.0
  0
LINE
  5
DC4
330
1F
100
AcDbEntity
  8
1
  6
CONTINUOUS
 62
     7
100
AcDbLine
 10
52.8490796630835
 20
107.9159267339532
 30
0.0
 11
52.8490796630835
 21
110.8159273955648
 31
0.0
  0
LINE
  5
DC5
330
1F
100
AcDbEntity
  8
1
  6
CONTINUOUS
 62
     7
100
AcDbLine
 10
52.8490796630835
 20
103.4159269276683
 30
0.0
 11
52.84544703203542
 21
103.4159269276683
 31
0.0
  0
LINE
  5
DC6
330
1F
100
AcDbEntity
  8
1
  6
CONTINUOUS
 62
     7
100
AcDbLine
 10
52.74817213479952
 20
107.9159267339532
 30
0.0
 11
52.74817213479952
 21
110.8159273955648
 31
0.0
  0
LINE
  5
DC7
330
1F
100
AcDbEntity
  8
1
  6
CONTINUOUS
 62
     7
100
AcDbLine
 10
48.35061407235392
 20
101.4159265998427
 30
0.0
 11
48.35061407235392
 21
103.4159269276683
 31
0.0
  0
LINE
  5
DC8
330
1F
100
AcDbEntity
  8
1
  6
CONTINUOUS
 62
     7
100
AcDbLine
 10
48.35061407235392
 20
101.4159265998427
 30
0.0
 11
48.34546784456595
 21
101.4159265998427
 31
0.0
  0
LINE
  5
DC9
330
1F
100
AcDbEntity
  8
1
  6
CONTINUOUS
 62
     7
100
AcDbLine
 10
46.14850511054178
 20
104.5159269217078
 30
0.0
 11
46.30535989441088
 21
149.3159271869485
 31
0.0
  0
LINE
  5
DCA
330
1F
100
AcDbEntity
  8
1
  6
CONTINUOUS
 62
     7
100
AcDbLine
 10
46.30535989441088
 20
149.3159271869485
 30
0.0
 11
47.30232084925322
 21
149.3159271869485
 31
0.0
  0
LINE
  5
DCB
330
1F
100
AcDbEntity
  8
1
  6
CONTINUOUS
 62
     7
100
AcDbLine
 10
46.14850513027682
 20
101.4159265998427
 30
0.0
 11
46.14850511054178
 21
104.5159269217078
 31
0.0
  0
LINE
  5
DCC
330
1F
100
AcDbEntity
  8
1
  6
CONTINUOUS
 62
     7
100
AcDbLine
 10
47.14547351874984
 20
101.4159265998427
 30
0.0
 11
46.14850513027682
 21
101.4159265998427
 31
0.0
  0
ARC
  5
DCD
330
1F
100
AcDbEntity
  8
1
  6
CONTINUOUS
 62
     7
100
AcDbCircle
 10
84.9917128208098
 20
149.5159283036365
 30
0.0
 40
0.9999987074818121
100
AcDbArc
 50
0.1999136931105978
 51
89.99984952037974
  0
ELLIPSE
  5
DCE
330
1F
100
AcDbEntity
  8
1
  6
CONTINUOUS
 62
     7
100
AcDbEllipse
 10
51.79186799539664
 20
149.5159269664113
 30
0.0
 11
0.0
 21
1.0
 31
0.0
210
0.0
220
0.0
230
1.0
 40
0.996968225057195
 41
4.715879638888675
 42
6.283185307179586
  0
LINE
  5
DCF
330
1F
100
AcDbEntity
  8
1
  6
CONTINUOUS
 62
     7
100
AcDbLine
 10
51.79186808677397
 20
150.5159270111148
 30
0.0
 11
84.99171544717123
 21
150.5159270111148
 31
0.0
  0
LINE
  5
DD0
330
1F
100
AcDbEntity
  8
1
  6
CONTINUOUS
 62
     7
100
AcDbLine
 10
79.24578000343885
 20
109.1159265581195
 30
0.0
 11
79.24578000343885
 21
107.9159267339532
 31
0.0
  0
LINE
  5
DD1
330
1F
100
AcDbEntity
  8
1
  6
CONTINUOUS
 62
     7
100
AcDbLine
 10
79.24895855631073
 20
110.215926552159
 30
0.0
 11
79.24578000343885
 21
109.1159265581195
 31
0.0
  0
LINE
  5
DD2
330
1F
100
AcDbEntity
  8
1
  6
CONTINUOUS
 62
     7
100
AcDbLine
 10
79.24895855631073
 20
107.9159267339532
 30
0.0
 11
79.24895855631073
 21
110.215926552159
 31
0.0
  0
LINE
  5
DD3
330
1F
100
AcDbEntity
  8
1
  6
CONTINUOUS
 62
     7
100
AcDbLine
 10
75.24579860694578
 20
109.1159265581195
 30
0.0
 11
79.24578000343885
 21
109.1159265581195
 31
0.0
  0
LINE
  5
DD4
330
1F
100
AcDbEntity
  8
1
  6
CONTINUOUS
 62
     7
100
AcDbLine
 10
75.24897715981766
 20
110.215926552159
 30
0.0
 11
75.24579860694578
 21
109.1159265581195
 31
0.0
  0
LINE
  5
DD5
330
1F
100
AcDbEntity
  8
1
  6
CONTINUOUS
 62
     7
100
AcDbLine
 10
75.24897715981766
 20
110.215926552159
 30
0.0
 11
79.24895855631073
 21
110.215926552159
 31
0.0
  0
LINE
  5
DD6
330
1F
100
AcDbEntity
  8
1
  6
CONTINUOUS
 62
     7
100
AcDbLine
 10
75.24579860694578
 20
109.1159265581195
 30
0.0
 11
75.24579860694578
 21
107.9159267339532
 31
0.0
  0
LINE
  5
DD7
330
1F
100
AcDbEntity
  8
1
  6
CONTINUOUS
 62
     7
100
AcDbLine
 10
57.0490598034398
 20
110.215926552159
 30
0.0
 11
53.04907840694673
 21
110.215926552159
 31
0.0
  0
LINE
  5
DD8
330
1F
100
AcDbEntity
  8
1
  6
CONTINUOUS
 62
     7
100
AcDbLine
 10
57.0490598034398
 20
110.215926552159
 30
0.0
 11
57.04588125056793
 21
109.1159265581195
 31
0.0
  0
LINE
  5
DD9
330
1F
100
AcDbEntity
  8
1
  6
CONTINUOUS
 62
     7
100
AcDbLine
 10
57.04588125056793
 20
109.1159265581195
 30
0.0
 11
53.04589985407486
 21
109.1159265581195
 31
0.0
  0
LINE
  5
DDA
330
1F
100
AcDbEntity
  8
1
  6
CONTINUOUS
 62
     7
100
AcDbLine
 10
53.04907840694673
 20
110.215926552159
 30
0.0
 11
53.04589985407486
 21
109.1159265581195
 31
0.0
  0
LINE
  5
DDB
330
1F
100
AcDbEntity
  8
1
  6
CONTINUOUS
 62
     7
100
AcDbLine
 10
57.04588125056793
 20
109.1159265581195
 30
0.0
 11
57.04588125056793
 21
107.9159267339532
 31
0.0
  0
LINE
  5
DDC
330
1F
100
AcDbEntity
  8
1
  6
CONTINUOUS
 62
     7
100
AcDbLine
 10
53.04589985407486
 20
109.1159265581195
 30
0.0
 11
53.04589985407486
 21
107.9159267339532
 31
0.0
  0
LINE
  5
DDD
330
1F
100
AcDbEntity
  8
1
  6
CONTINUOUS
 62
     7
100
AcDbLine
 10
57.0490598034398
 20
107.9159267339532
 30
0.0
 11
57.0490598034398
 21
110.215926552159
 31
0.0
  0
LINE
  5
DDE
330
1F
100
AcDbEntity
  8
1
  6
CONTINUOUS
 62
     7
100
AcDbLine
 10
46.32197083282389
 20
149.3159271869485
 30
0.0
 11
46.32267834766307
 21
149.5194174442117
 31
0.0
  0
ELLIPSE
  5
DDF
330
1F
100
AcDbEntity
  8
1
  6
CONTINUOUS
 62
     7
100
AcDbEllipse
 10
47.31964074022571
 20
149.5159269664113
 30
0.0
 11
0.0
 21
1.0
 31
0.0
210
0.0
220
0.0
230
1.0
 40
0.996968225057195
 41
0.2733873237698951
 42
1.567305668290898
  0
LINE
  5
DE0
330
1F
100
AcDbEntity
  8
1
  6
CONTINUOUS
 62
     7
100
AcDbLine
 10
51.79186808677397
 20
150.5159270111148
 30
0.0
 11
48.55046502931995
 21
150.5159270111148
 31
0.0
  0
LINE
  5
DE1
330
1F
100
AcDbEntity
  8
1
  6
CONTINUOUS
 62
     7
100
AcDbLine
 10
79.44804914382163
 20
110.8159273955648
 30
0.0
 11
79.44804914382163
 21
107.9159267339532
 31
0.0
  0
LINE
  5
DE2
330
1F
100
AcDbEntity
  8
1
  6
CONTINUOUS
 62
     7
100
AcDbLine
 10
57.248151322269
 20
110.8159273955648
 30
0.0
 11
57.248151322269
 21
107.9159267339532
 31
0.0
  0
LINE
  5
DE3
330
1F
100
AcDbEntity
  8
1
  6
CONTINUOUS
 62
     7
100
AcDbLine
 10
86.2179463966028
 20
103.4159269276683
 30
0.0
 11
86.21794641633787
 21
104.5159269217078
 31
0.0
  0
LINE
  5
DE4
330
1F
100
AcDbEntity
  8
1
  6
CONTINUOUS
 62
     7
100
AcDbLine
 10
86.18979350175138
 20
101.4159265998427
 30
0.0
 11
86.18979350175138
 21
103.4159269276683
 31
0.0
  0
LINE
  5
DE5
330
1F
100
AcDbEntity
  8
1
  6
CONTINUOUS
 62
     7
100
AcDbLine
 10
86.18979350175138
 20
101.4159265998427
 30
0.0
 11
86.17647385269564
 21
101.4159265998427
 31
0.0
  0
LINE
  5
DE6
330
1F
100
AcDbEntity
  8
1
  6
CONTINUOUS
 62
     7
100
AcDbLine
 10
86.17647385269564
 20
101.4159265998427
 30
0.0
 11
86.17647385269564
 21
103.4159269276683
 31
0.0
  0
LINE
  5
DE7
330
1F
100
AcDbEntity
  8
1
  6
CONTINUOUS
 62
     7
100
AcDbLine
 10
86.2179463966028
 20
103.4159269276683
 30
0.0
 11
86.18979350175138
 21
103.4159269276683
 31
0.0
  0
LINE
  5
DE8
330
1F
100
AcDbEntity
  8
1
  6
CONTINUOUS
 62
     7
100
AcDbLine
 10
86.17647385269564
 20
103.4159269276683
 30
0.0
 11
86.14832095784416
 21
103.4159269276683
 31
0.0
  0
LINE
  5
DE9
330
1F
100
AcDbEntity
  8
1
  6
CONTINUOUS
 62
     7
100
AcDbLine
 10
86.21794641633787
 20
104.5159269217078
 30
0.0
 11
86.06037981961717
 21
149.5194174442117
 31
0.0
  0
LINE
  5
DEA
330
1F
100
AcDbEntity
  8
1
  6
CONTINUOUS
 62
     7
100
AcDbLine
 10
48.5504646049886
 20
150.5159270111148
 30
0.0
 11
47.05046400441401
 21
150.5159270111148
 31
0.0
  0
LINE
  5
DEB
330
1F
100
AcDbEntity
  8
1
  6
CONTINUOUS
 62
     7
100
AcDbLine
 10
84.99171544717123
 20
150.5159270111148
 30
0.0
 11
85.06038982557416
 21
150.5159270111148
 31
0.0
  0
ARC
  5
DEC
330
1F
100
AcDbEntity
  8
1
  6
CONTINUOUS
 62
     7
100
AcDbCircle
 10
85.06038719921273
 20
149.5159283036364
 30
0.0
 40
0.9999987074818549
100
AcDbArc
 50
0.1999136931138461
 51
89.9998495203765
  0
LINE
  5
DED
330
1F
100
AcDbEntity
  8
1
  6
CONTINUOUS
 62
     7
100
AcDbLine
 10
79.44532515877538
 20
103.4159269276683
 30
0.0
 11
75.04897748463608
 21
103.4159269276683
 31
0.0
  0
LINE
  5
DEE
330
1F
100
AcDbEntity
  8
1
  6
CONTINUOUS
 62
     7
100
AcDbLine
 10
57.24542640590445
 20
103.4159269276683
 30
0.0
 11
52.8490796630835
 21
103.4159269276683
 31
0.0
  0
LINE
  5
DEF
330
1F
100
AcDbEntity
  8
1
  6
CONTINUOUS
 62
     7
100
AcDbLine
 10
83.4707354185027
 20
97.91592695747062
 30
0.0
 11
83.4707354185027
 21
103.4159269276683
 31
0.0
  0
LINE
  5
DF0
330
1F
100
AcDbEntity
  8
1
  6
CONTINUOUS
 62
     7
100
AcDbLine
 10
83.46898766818842
 20
96.91592679355784
 30
0.0
 11
83.4707354185027
 21
97.91592695747062
 31
0.0
  0
LINE
  5
DF1
330
1F
100
AcDbEntity
  8
1
  6
CONTINUOUS
 62
     7
100
AcDbLine
 10
83.46898766818842
 20
96.91592679355784
 30
0.0
 11
83.45280641542709
 21
96.91592679355784
 31
0.0
  0
LINE
  5
DF2
330
1F
100
AcDbEntity
  8
1
  6
CONTINUOUS
 62
     7
100
AcDbLine
 10
83.45105866511281
 20
97.91592695747062
 30
0.0
 11
83.45280641542709
 21
96.91592679355784
 31
0.0
  0
LINE
  5
DF3
330
1F
100
AcDbEntity
  8
1
  6
CONTINUOUS
 62
     7
100
AcDbLine
 10
83.45105866511281
 20
97.91592695747062
 30
0.0
 11
83.45105866511281
 21
103.4159269276683
 31
0.0
  0
LINE
  5
DF4
330
1F
100
AcDbEntity
  8
1
  6
CONTINUOUS
 62
     7
100
AcDbLine
 10
81.45106750120712
 20
97.91592695747062
 30
0.0
 11
83.45105866511281
 21
97.91592695747062
 31
0.0
  0
LINE
  5
DF5
330
1F
100
AcDbEntity
  8
1
  6
CONTINUOUS
 62
     7
100
AcDbLine
 10
81.45106750120712
 20
97.91592695747062
 30
0.0
 11
81.45106750120712
 21
103.4159269276683
 31
0.0
  0
LINE
  5
DF6
330
1F
100
AcDbEntity
  8
1
  6
CONTINUOUS
 62
     7
100
AcDbLine
 10
83.45280641542709
 20
96.91592679355784
 30
0.0
 11
81.4528152515214
 21
96.91592679355784
 31
0.0
  0
LINE
  5
DF7
330
1F
100
AcDbEntity
  8
1
  6
CONTINUOUS
 62
     7
100
AcDbLine
 10
81.4528152515214
 20
96.91592679355784
 30
0.0
 11
81.45106750120712
 21
97.91592695747062
 31
0.0
  0
LINE
  5
DF8
330
1F
100
AcDbEntity
  8
1
  6
CONTINUOUS
 62
     7
100
AcDbLine
 10
73.4528519928761
 20
96.91592679355784
 30
0.0
 11
71.45286082897042
 21
96.91592679355784
 31
0.0
  0
LINE
  5
DF9
330
1F
100
AcDbEntity
  8
1
  6
CONTINUOUS
 62
     7
100
AcDbLine
 10
71.45286082897042
 20
96.91592679355784
 30
0.0
 11
71.45111307865614
 21
97.91592695747062
 31
0.0
  0
LINE
  5
DFA
330
1F
100
AcDbEntity
  8
1
  6
CONTINUOUS
 62
     7
100
AcDbLine
 10
71.45111307865614
 20
97.91592695747062
 30
0.0
 11
73.45110424256183
 21
97.91592695747062
 31
0.0
  0
LINE
  5
DFB
330
1F
100
AcDbEntity
  8
1
  6
CONTINUOUS
 62
     7
100
AcDbLine
 10
73.45110424256183
 20
97.91592695747062
 30
0.0
 11
73.4528519928761
 21
96.91592679355784
 31
0.0
  0
LINE
  5
DFC
330
1F
100
AcDbEntity
  8
1
  6
CONTINUOUS
 62
     7
100
AcDbLine
 10
73.47078099595169
 20
97.91592695747062
 30
0.0
 11
73.47078099595169
 21
103.4159269276683
 31
0.0
  0
LINE
  5
DFD
330
1F
100
AcDbEntity
  8
1
  6
CONTINUOUS
 62
     7
100
AcDbLine
 10
73.4690332456374
 20
96.91592679355784
 30
0.0
 11
73.47078099595169
 21
97.91592695747062
 31
0.0
  0
LINE
  5
DFE
330
1F
100
AcDbEntity
  8
1
  6
CONTINUOUS
 62
     7
100
AcDbLine
 10
73.4690332456374
 20
96.91592679355784
 30
0.0
 11
73.4528519928761
 21
96.91592679355784
 31
0.0
  0
LINE
  5
DFF
330
1F
100
AcDbEntity
  8
1
  6
CONTINUOUS
 62
     7
100
AcDbLine
 10
73.45110424256183
 20
97.91592695747062
 30
0.0
 11
73.45110424256183
 21
103.4159269276683
 31
0.0
  0
LINE
  5
E00
330
1F
100
AcDbEntity
  8
1
  6
CONTINUOUS
 62
     7
100
AcDbLine
 10
71.45111307865614
 20
97.91592695747062
 30
0.0
 11
71.45111307865614
 21
103.4159269276683
 31
0.0
  0
LINE
  5
E01
330
1F
100
AcDbEntity
  8
1
  6
CONTINUOUS
 62
     7
100
AcDbLine
 10
61.70812056056451
 20
101.8159277829949
 30
0.0
 11
61.20660917284818
 21
101.8159277829949
 31
0.0
  0
LINE
  5
E02
330
1F
100
AcDbEntity
  8
1
  6
CONTINUOUS
 62
     7
100
AcDbLine
 10
61.20660917284818
 20
101.8159277829949
 30
0.0
 11
60.20661359089533
 21
101.8159277829949
 31
0.0
  0
LINE
  5
E03
330
1F
100
AcDbEntity
  8
1
  6
CONTINUOUS
 62
     7
100
AcDbLine
 10
59.70812939665882
 20
101.8159277829949
 30
0.0
 11
59.70812939665882
 21
103.4159269276683
 31
0.0
  0
LINE
  5
E04
330
1F
100
AcDbEntity
  8
1
  6
CONTINUOUS
 62
     7
100
AcDbLine
 10
60.20661359089533
 20
101.8159277829949
 30
0.0
 11
59.70812939665882
 21
101.8159277829949
 31
0.0
  0
LINE
  5
E05
330
1F
100
AcDbEntity
  8
1
  6
CONTINUOUS
 62
     7
100
AcDbLine
 10
50.05681100417982
 20
97.91592695747062
 30
0.0
 11
50.05681100417982
 21
103.4159269276683
 31
0.0
  0
LINE
  5
E06
330
1F
100
AcDbEntity
  8
1
  6
CONTINUOUS
 62
     7
100
AcDbLine
 10
49.25681602872683
 20
97.91592695747062
 30
0.0
 11
50.05681100417982
 21
97.91592695747062
 31
0.0
  0
LINE
  5
E07
330
1F
100
AcDbEntity
  8
1
  6
CONTINUOUS
 62
     7
100
AcDbLine
 10
49.25681602872683
 20
97.91592695747062
 30
0.0
 11
49.25681602872683
 21
103.4159269276683
 31
0.0
  0
LINE
  5
E08
330
1F
100
AcDbEntity
  8
1
  6
CONTINUOUS
 62
     7
100
AcDbLine
 10
50.06528714423175
 20
97.91592695747062
 30
0.0
 11
50.06528714423175
 21
103.4159269276683
 31
0.0
  0
LINE
  5
E09
330
1F
100
AcDbEntity
  8
1
  6
CONTINUOUS
 62
     7
100
AcDbLine
 10
50.06353939391744
 20
96.91592679355784
 30
0.0
 11
50.06528714423175
 21
97.91592695747062
 31
0.0
  0
LINE
  5
E0A
330
1F
100
AcDbEntity
  8
1
  6
CONTINUOUS
 62
     7
100
AcDbLine
 10
50.06353939391744
 20
96.91592679355784
 30
0.0
 11
50.05855875449413
 21
96.91592679355784
 31
0.0
  0
LINE
  5
E0B
330
1F
100
AcDbEntity
  8
1
  6
CONTINUOUS
 62
     7
100
AcDbLine
 10
50.05681100417982
 20
97.91592695747062
 30
0.0
 11
50.05855875449413
 21
96.91592679355784
 31
0.0
  0
LINE
  5
E0C
330
1F
100
AcDbEntity
  8
1
  6
CONTINUOUS
 62
     7
100
AcDbLine
 10
50.05855875449413
 20
96.91592679355784
 30
0.0
 11
49.25856377904114
 21
96.91592679355784
 31
0.0
  0
LINE
  5
E0D
330
1F
100
AcDbEntity
  8
1
  6
CONTINUOUS
 62
     7
100
AcDbLine
 10
49.25856377904114
 20
96.91592679355784
 30
0.0
 11
49.25681602872683
 21
97.91592695747062
 31
0.0
  0
LINE
  5
E0E
330
1F
100
AcDbEntity
  8
1
  6
CONTINUOUS
 62
     7
100
AcDbLine
 10
61.73021906880874
 20
101.8159277829949
 30
0.0
 11
61.73021906880874
 21
103.4159269276683
 31
0.0
  0
LINE
  5
E0F
330
1F
100
AcDbEntity
  8
1
  6
CONTINUOUS
 62
     7
100
AcDbLine
 10
61.73021906880874
 20
101.8159277829949
 30
0.0
 11
61.70812056056451
 21
101.8159277829949
 31
0.0
  0
LINE
  5
E10
330
1F
100
AcDbEntity
  8
1
  6
CONTINUOUS
 62
     7
100
AcDbLine
 10
78.92385588483486
 20
103.115927437288
 30
0.0
 11
78.92385588483486
 21
103.4159269276683
 31
0.0
  0
LINE
  5
E11
330
1F
100
AcDbEntity
  8
1
  6
CONTINUOUS
 62
     7
100
AcDbLine
 10
78.89743862704225
 20
103.115927437288
 30
0.0
 11
78.89743862704225
 21
103.4159269276683
 31
0.0
  0
LINE
  5
E12
330
1F
100
AcDbEntity
  8
1
  6
CONTINUOUS
 62
     7
100
AcDbLine
 10
78.89743862704225
 20
103.115927437288
 30
0.0
 11
78.92385588483486
 21
103.115927437288
 31
0.0
  0
LINE
  5
E13
330
1F
100
AcDbEntity
  8
1
  6
CONTINUOUS
 62
     7
100
AcDbLine
 10
78.33521927588899
 20
103.115927437288
 30
0.0
 11
78.33521927588899
 21
103.4159269276683
 31
0.0
  0
SPLINE
  5
E14
330
1F
100
AcDbEntity
  8
1
  6
CONTINUOUS
 62
     7
100
AcDbSpline
210
0.0
220
0.0
230
1.0
 70
    24
 71
     3
 72
    23
 73
    19
 74
     0
 42
0.000000001
 43
0.00000001
 40
0.0
 40
0.0
 40
0.0
 40
0.0
 40
0.069307195753092
 40
0.1355787869482105
 40
0.1996973841147838
 40
0.2617508792831993
 40
0.3228698755054121
 40
0.3829182538841755
 40
0.4432924166226569
 40
0.5037691745503124
 40
0.5640006394049222
 40
0.6239302520114607
 40
0.6835875121494384
 40
0.7438143682173718
 40
0.8051660614027286
 40
0.8676312249341046
 40
0.9327691867317449
 40
1.0
 40
1.0
 40
1.0
 40
1.0
 10
78.33521965888596
 20
103.1159269664113
 30
0.0
 10
78.33559225336066
 20
103.1159269664113
 30
0.0
 10
78.33632112294416
 20
103.1159269664113
 30
0.0
 10
78.34354289114074
 20
103.1159269664113
 30
0.0
 10
78.3552640128494
 20
103.1159269664113
 30
0.0
 10
78.37188174431029
 20
103.1159269664113
 30
0.0
 10
78.39394694854704
 20
103.1159269664113
 30
0.0
 10
78.42026254743544
 20
103.1159269664113
 30
0.0
 10
78.45198108626064
 20
103.1159269664113
 30
0.0
 10
78.48776478344601
 20
103.1159269664113
 30
0.0
 10
78.52792079466744
 20
103.1159269664113
 30
0.0
 10
78.57098314970725
 20
103.1159269664113
 30
0.0
 10
78.61775879646737
 20
103.1159269664113
 30
0.0
 10
78.66759119536235
 20
103.1159269664113
 30
0.0
 10
78.72047345697862
 20
103.1159269664113
 30
0.0
 10
78.7767342425125
 20
103.1159269664113
 30
0.0
 10
78.83582567576727
 20
103.1159269664113
 30
0.0
 10
78.87668558846818
 20
103.1159269664113
 30
0.0
 10
78.89743855803815
 20
103.1159269664113
 30
0.0
  0
LINE
  5
E15
330
1F
100
AcDbEntity
  8
1
  6
CONTINUOUS
 62
     7
100
AcDbLine
 10
80.33402794225353
 20
103.115927437288
 30
0.0
 11
80.33402794225353
 21
103.4159269276683
 31
0.0
  0
LINE
  5
E16
330
1F
100
AcDbEntity
  8
1
  6
CONTINUOUS
 62
     7
100
AcDbLine
 10
79.30777034124745
 20
103.115927437288
 30
0.0
 11
79.30777034124745
 21
103.4159269276683
 31
0.0
  0
LINE
  5
E17
330
1F
100
AcDbEntity
  8
1
  6
CONTINUOUS
 62
     7
100
AcDbLine
 10
79.30777034124745
 20
103.115927437288
 30
0.0
 11
80.33402794225353
 21
103.115927437288
 31
0.0
  0
LINE
  5
E18
330
1F
100
AcDbEntity
  8
1
  6
CONTINUOUS
 62
     7
100
AcDbLine
 10
79.28290642190271
 20
103.115927437288
 30
0.0
 11
79.28290642190271
 21
103.4159269276683
 31
0.0
  0
LINE
  5
E19
330
1F
100
AcDbEntity
  8
1
  6
CONTINUOUS
 62
     7
100
AcDbLine
 10
79.28290642190271
 20
103.115927437288
 30
0.0
 11
79.30777034124745
 21
103.115927437288
 31
0.0
  0
LINE
  5
E1A
330
1F
100
AcDbEntity
  8
1
  6
CONTINUOUS
 62
     7
100
AcDbLine
 10
68.92390146228391
 20
103.115927437288
 30
0.0
 11
68.92390146228391
 21
103.4159269276683
 31
0.0
  0
LINE
  5
E1B
330
1F
100
AcDbEntity
  8
1
  6
CONTINUOUS
 62
     7
100
AcDbLine
 10
68.8974844373208
 20
103.115927437288
 30
0.0
 11
68.8974844373208
 21
103.4159269276683
 31
0.0
  0
LINE
  5
E1C
330
1F
100
AcDbEntity
  8
1
  6
CONTINUOUS
 62
     7
100
AcDbLine
 10
68.8974844373208
 20
103.115927437288
 30
0.0
 11
68.92390146228391
 21
103.115927437288
 31
0.0
  0
LINE
  5
E1D
330
1F
100
AcDbEntity
  8
1
  6
CONTINUOUS
 62
     7
100
AcDbLine
 10
68.3352679778285
 20
103.115927437288
 30
0.0
 11
68.3352679778285
 21
103.4159269276683
 31
0.0
  0
SPLINE
  5
E1E
330
1F
100
AcDbEntity
  8
1
  6
CONTINUOUS
 62
     7
100
AcDbSpline
210
0.0
220
0.0
230
1.0
 70
    24
 71
     3
 72
    23
 73
    19
 74
     0
 42
0.000000001
 43
0.00000001
 40
0.0
 40
0.0
 40
0.0
 40
0.0
 40
0.0677869948242487
 40
0.1333970927329896
 40
0.1969491567037127
 40
0.2584893225402772
 40
0.3197885427115509
 40
0.3802191808338351
 40
0.4410152775504473
 40
0.5028857756983852
 40
0.564817921076559
 40
0.6251977117527727
 40
0.6856283498750564
 40
0.7460589879973402
 40
0.8073582081686137
 40
0.8693098874205986
 40
0.9337967724829837
 40
1.0
 40
1.0
 40
1.0
 40
1.0
 10
68.33526790411312
 20
103.1159269664113
 30
0.0
 10
68.33565980404069
 20
103.1159269664113
 30
0.0
 10
68.33643101850618
 20
103.1159269664113
 30
0.0
 10
68.34350285167761
 20
103.1159269664113
 30
0.0
 10
68.35568873185463
 20
103.1159269664113
 30
0.0
 10
68.37301170366138
 20
103.1159269664113
 30
0.0
 10
68.39470092868703
 20
103.1159269664113
 30
0.0
 10
68.42156449311219
 20
103.1159269664113
 30
0.0
 10
68.45384033980417
 20
103.1159269664113
 30
0.0
 10
68.49034361783578
 20
103.1159269664113
 30
0.0
 10
68.5308851689081
 20
103.1159269664113
 30
0.0
 10
68.57425083623156
 20
103.1159269664113
 30
0.0
 10
68.62139345800014
 20
103.1159269664113
 30
0.0
 10
68.67067375740837
 20
103.1159269664113
 30
0.0
 10
68.723224599806
 20
103.1159269664113
 30
0.0
 10
68.77868986190441
 20
103.1159269664113
 30
0.0
 10
68.83698313879512
 20
103.1159269664113
 30
0.0
 10
68.87714149920811
 20
103.1159269664113
 30
0.0
 10
68.8974843776299
 20
103.1159269664113
 30
0.0
  0
LINE
  5
E1F
330
1F
100
AcDbEntity
  8
1
  6
CONTINUOUS
 62
     7
100
AcDbLine
 10
70.3608643267911
 20
103.115927437288
 30
0.0
 11
70.3608643267911
 21
103.4159269276683
 31
0.0
  0
LINE
  5
E20
330
1F
100
AcDbEntity
  8
1
  6
CONTINUOUS
 62
     7
100
AcDbLine
 10
69.84627552595873
 20
103.115927437288
 30
0.0
 11
69.84627552595873
 21
103.4159269276683
 31
0.0
  0
SPLINE
  5
E21
330
1F
100
AcDbEntity
  8
1
  6
CONTINUOUS
 62
     7
100
AcDbSpline
210
0.0
220
0.0
230
1.0
 70
    24
 71
     3
 72
    23
 73
    19
 74
     0
 42
0.000000001
 43
0.00000001
 40
0.0
 40
0.0
 40
0.0
 40
0.0
 40
0.071036323012058
 40
0.1393433396034174
 40
0.2049584727025962
 40
0.2683315830770494
 40
0.3301292609669971
 40
0.3906639764805657
 40
0.4508614486151505
 40
0.5105872658343569
 40
0.5703738539616984
 40
0.6294550091547365
 40
0.687993523080573
 40
0.7475809941037842
 40
0.8078387614769665
 40
0.8700340388224012
 40
0.9338104563665495
 40
1.0
 40
1.0
 40
1.0
 40
1.0
 10
69.84627559969385
 20
103.1159269664113
 30
0.0
 10
69.86611357099605
 20
103.1159269664113
 30
0.0
 10
69.90502731336045
 20
103.1159269664113
 30
0.0
 10
69.96124348639486
 20
103.1159269664113
 30
0.0
 10
70.01402808846834
 20
103.1159269664113
 30
0.0
 10
70.06314060893027
 20
103.1159269664113
 30
0.0
 10
70.10916460061165
 20
103.1159269664113
 30
0.0
 10
70.15155879338153
 20
103.1159269664113
 30
0.0
 10
70.19057252909377
 20
103.1159269664113
 30
0.0
 10
70.22608730113348
 20
103.1159269664113
 30
0.0
 10
70.25782667396379
 20
103.1159269664113
 30
0.0
 10
70.28523076360264
 20
103.1159269664113
 30
0.0
 10
70.30848638422313
 20
103.1159269664113
 30
0.0
 10
70.32726807736259
 20
103.1159269664113
 30
0.0
 10
70.34257426886771
 20
103.1159269664113
 30
0.0
 10
70.35277287477112
 20
103.1159269664113
 30
0.0
 10
70.35972955084131
 20
103.1159269664113
 30
0.0
 10
70.36048151404495
 20
103.1159269664113
 30
0.0
 10
70.3608644766363
 20
103.1159269664113
 30
0.0
  0
LINE
  5
E22
330
1F
100
AcDbEntity
  8
1
  6
CONTINUOUS
 62
     7
100
AcDbLine
 10
69.82141090812524
 20
103.115927437288
 30
0.0
 11
69.82141090812524
 21
103.4159269276683
 31
0.0
  0
LINE
  5
E23
330
1F
100
AcDbEntity
  8
1
  6
CONTINUOUS
 62
     7
100
AcDbLine
 10
69.82141090812524
 20
103.115927437288
 30
0.0
 11
69.84627552595873
 21
103.115927437288
 31
0.0
  0
LINE
  5
E24
330
1F
100
AcDbEntity
  8
1
  6
CONTINUOUS
 62
     7
100
AcDbLine
 10
80.33689989558425
 20
103.115927437288
 30
0.0
 11
80.33689989558425
 21
103.4159269276683
 31
0.0
  0
LINE
  5
E25
330
1F
100
AcDbEntity
  8
1
  6
CONTINUOUS
 62
     7
100
AcDbLine
 10
80.33402794225353
 20
103.115927437288
 30
0.0
 11
80.33689989558425
 21
103.115927437288
 31
0.0
  0
LINE
  5
E26
330
1F
100
AcDbEntity
  8
1
  6
CONTINUOUS
 62
     7
100
AcDbLine
 10
53.06131234338602
 20
103.115927437288
 30
0.0
 11
53.06131234338602
 21
103.4159269276683
 31
0.0
  0
LINE
  5
E27
330
1F
100
AcDbEntity
  8
1
  6
CONTINUOUS
 62
     7
100
AcDbLine
 10
52.55964086351705
 20
103.115927437288
 30
0.0
 11
52.55964086351705
 21
103.4159269276683
 31
0.0
  0
SPLINE
  5
E28
330
1F
100
AcDbEntity
  8
1
  6
CONTINUOUS
 62
     7
100
AcDbSpline
210
0.0
220
0.0
230
1.0
 70
    24
 71
     3
 72
    15
 73
    11
 74
     0
 42
0.000000001
 43
0.00000001
 40
0.0
 40
0.0
 40
0.0
 40
0.0
 40
0.1426698808292017
 40
0.2811938871410168
 40
0.4173277977783965
 40
0.5512149507785091
 40
0.6787379175113324
 40
0.7950142962491247
 40
0.901989501777439
 40
0.9999999999999999
 40
0.9999999999999999
 40
0.9999999999999999
 40
0.9999999999999999
 10
52.55964104366254
 20
103.1159269664113
 30
0.0
 10
52.57624749795156
 20
103.1159269664113
 30
0.0
 10
52.60897783602999
 20
103.1159269664113
 30
0.0
 10
52.66533963171034
 20
103.1159269664113
 30
0.0
 10
52.72698595630914
 20
103.1159269664113
 30
0.0
 10
52.79272311772417
 20
103.1159269664113
 30
0.0
 10
52.86002711016164
 20
103.1159269664113
 30
0.0
 10
52.92748353293018
 20
103.1159269664113
 30
0.0
 10
52.99340310377542
 20
103.1159269664113
 30
0.0
 10
53.03934573676688
 20
103.1159269664113
 30
0.0
 10
53.06131244111143
 20
103.1159269664113
 30
0.0
  0
LINE
  5
E29
330
1F
100
AcDbEntity
  8
1
  6
CONTINUOUS
 62
     7
100
AcDbLine
 10
52.32326389525105
 20
103.115927437288
 30
0.0
 11
52.32326389525105
 21
103.4159269276683
 31
0.0
  0
LINE
  5
E2A
330
1F
100
AcDbEntity
  8
1
  6
CONTINUOUS
 62
     7
100
AcDbLine
 10
52.32326389525105
 20
103.115927437288
 30
0.0
 11
52.55964086351705
 21
103.115927437288
 31
0.0
  0
LINE
  5
E2B
330
1F
100
AcDbEntity
  8
1
  6
CONTINUOUS
 62
     7
100
AcDbLine
 10
69.54005465670161
 20
103.115927437288
 30
0.0
 11
69.54005465670161
 21
103.4159269276683
 31
0.0
  0
LINE
  5
E2C
330
1F
100
AcDbEntity
  8
1
  6
CONTINUOUS
 62
     7
100
AcDbLine
 10
69.30920650757005
 20
103.115927437288
 30
0.0
 11
69.30920650757005
 21
103.4159269276683
 31
0.0
  0
LINE
  5
E2D
330
1F
100
AcDbEntity
  8
1
  6
CONTINUOUS
 62
     7
100
AcDbLine
 10
69.30920650757005
 20
103.115927437288
 30
0.0
 11
69.54005465670161
 21
103.115927437288
 31
0.0
  0
SPLINE
  5
E2E
330
1F
100
AcDbEntity
  8
1
  6
CONTINUOUS
 62
     7
100
AcDbSpline
210
0.0
220
0.0
230
1.0
 70
    24
 71
     3
 72
    11
 73
     7
 74
     0
 42
0.000000001
 43
0.00000001
 40
0.0
 40
0.0
 40
0.0
 40
0.0
 40
0.3157195695062215
 40
0.6310870136410675
 40
0.8775272591076709
 40
0.9999999999999999
 40
0.9999999999999999
 40
0.9999999999999999
 40
0.9999999999999999
 10
69.5373618036142
 20
103.115927437288
 30
0.0
 10
69.54201473837227
 20
103.115927437288
 30
0.0
 10
69.55131541842115
 20
103.115927437288
 30
0.0
 10
69.6164391314411
 20
103.115927437288
 30
0.0
 10
69.70636531947653
 20
103.115927437288
 30
0.0
 10
69.76592726662429
 20
103.115927437288
 30
0.0
 10
69.78570080453107
 20
103.115927437288
 30
0.0
  0
LINE
  5
E2F
330
1F
100
AcDbEntity
  8
1
  6
CONTINUOUS
 62
     7
100
AcDbLine
 10
79.03275431670951
 20
103.115927437288
 30
0.0
 11
79.03275431670951
 21
103.4159269276683
 31
0.0
  0
SPLINE
  5
E30
330
1F
100
AcDbEntity
  8
1
  6
CONTINUOUS
 62
     7
100
AcDbSpline
210
0.0
220
0.0
230
1.0
 70
    24
 71
     3
 72
     9
 73
     5
 74
     0
 42
0.000000001
 43
0.00000001
 40
0.0
 40
0.0
 40
0.0
 40
0.0
 40
0.8431541708387993
 40
1.0
 40
1.0
 40
1.0
 40
1.0
 10
79.03275431670951
 20
103.115927437288
 30
0.0
 10
79.09830496610746
 20
103.115927437288
 30
0.0
 10
79.1760495253649
 20
103.115927437288
 30
0.0
 10
79.23754971675433
 20
103.115927437288
 30
0.0
 10
79.24719576526641
 20
103.115927437288
 30
0.0
  0
LINE
  5
E31
330
1F
100
AcDbEntity
  8
1
  6
CONTINUOUS
 62
     7
100
AcDbLine
 10
78.95956592728831
 20
103.115927437288
 30
0.0
 11
79.03275431670951
 21
103.115927437288
 31
0.0
  0
LINE
  5
E32
330
1F
100
AcDbEntity
  8
1
  6
CONTINUOUS
 62
     7
100
AcDbLine
 10
68.96589328847094
 20
103.115927437288
 30
0.0
 11
68.96589328847094
 21
103.4159269276683
 31
0.0
  0
SPLINE
  5
E33
330
1F
100
AcDbEntity
  8
1
  6
CONTINUOUS
 62
     7
100
AcDbSpline
210
0.0
220
0.0
230
1.0
 70
    24
 71
     3
 72
     9
 73
     5
 74
     0
 42
0.000000001
 43
0.00000001
 40
0.0
 40
0.0
 40
0.0
 40
0.0
 40
0.5101368838179774
 40
1.0
 40
1.0
 40
1.0
 40
1.0
 10
68.96589328847094
 20
103.115927437288
 30
0.0
 10
69.02230145090726
 20
103.115927437288
 30
0.0
 10
69.13287601280553
 20
103.115927437288
 30
0.0
 10
69.21278449871502
 20
103.115927437288
 30
0.0
 10
69.25192871863206
 20
103.115927437288
 30
0.0
  0
LINE
  5
E34
330
1F
100
AcDbEntity
  8
1
  6
CONTINUOUS
 62
     7
100
AcDbLine
 10
51.06104465615863
 20
103.115927437288
 30
0.0
 11
51.06104465615863
 21
103.4159269276683
 31
0.0
  0
LINE
  5
E35
330
1F
100
AcDbEntity
  8
1
  6
CONTINUOUS
 62
     7
100
AcDbLine
 10
51.06104465615863
 20
103.115927437288
 30
0.0
 11
52.3232640833609
 21
103.115927437288
 31
0.0
  0
LINE
  5
E36
330
1F
100
AcDbEntity
  8
1
  6
CONTINUOUS
 62
     7
100
AcDbLine
 10
53.0618120236291
 20
103.115927437288
 30
0.0
 11
53.0618120236291
 21
103.4159269276683
 31
0.0
  0
LINE
  5
E37
330
1F
100
AcDbEntity
  8
1
  6
CONTINUOUS
 62
     7
100
AcDbLine
 10
86.17647385269564
 20
101.4159265998427
 30
0.0
 11
84.4764826672214
 21
101.4159265998427
 31
0.0
  0
LINE
  5
E38
330
1F
100
AcDbEntity
  8
1
  6
CONTINUOUS
 62
     7
100
AcDbLine
 10
83.97799754131418
 20
101.4159265998427
 30
0.0
 11
83.97799754131418
 21
103.4159269276683
 31
0.0
  0
LINE
  5
E39
330
1F
100
AcDbEntity
  8
1
  6
CONTINUOUS
 62
     7
100
AcDbLine
 10
84.4764826672214
 20
101.4159265998427
 30
0.0
 11
83.97799754131418
 21
101.4159265998427
 31
0.0
  0
LINE
  5
E3A
330
1F
100
AcDbEntity
  8
1
  6
CONTINUOUS
 62
     7
100
AcDbLine
 10
83.97799875849628
 20
101.8159277829949
 30
0.0
 11
83.47073575340434
 21
101.8159277829949
 31
0.0
  0
LINE
  5
E3B
330
1F
100
AcDbEntity
  8
1
  6
CONTINUOUS
 62
     7
100
AcDbLine
 10
81.4510676963013
 20
101.8159277829949
 30
0.0
 11
73.4707808651942
 21
101.8159277829949
 31
0.0
  0
LINE
  5
E3C
330
1F
100
AcDbEntity
  8
1
  6
CONTINUOUS
 62
     7
100
AcDbLine
 10
71.45111327375034
 20
101.8159277829949
 30
0.0
 11
67.50052585707894
 21
101.8159277829949
 31
0.0
  0
LINE
  5
E3D
330
1F
100
AcDbEntity
  8
1
  6
CONTINUOUS
 62
     7
100
AcDbLine
 10
64.79539204261161
 20
101.8159277829949
 30
0.0
 11
61.73021906880874
 21
101.8159277829949
 31
0.0
  0
LINE
  5
E3E
330
1F
100
AcDbEntity
  8
1
  6
CONTINUOUS
 62
     7
100
AcDbLine
 10
59.70812958410664
 20
101.8159277829949
 30
0.0
 11
50.63027015803243
 21
101.8159277829949
 31
0.0
  0
LINE
  5
E3F
330
1F
100
AcDbEntity
  8
1
  6
CONTINUOUS
 62
     7
100
AcDbLine
 10
50.13178596361971
 20
101.8159277829949
 30
0.0
 11
50.13178596361971
 21
103.4159269276683
 31
0.0
  0
LINE
  5
E40
330
1F
100
AcDbEntity
  8
1
  6
CONTINUOUS
 62
     7
100
AcDbLine
 10
50.63027015803243
 20
101.8159277829949
 30
0.0
 11
50.13178596361971
 21
101.8159277829949
 31
0.0
  0
LINE
  5
E41
330
1F
100
AcDbEntity
  8
1
  6
CONTINUOUS
 62
     7
100
AcDbLine
 10
83.4973061514045
 20
96.91592679355784
 30
0.0
 11
83.46898662431508
 21
96.91592679355784
 31
0.0
  0
LINE
  5
E42
330
1F
100
AcDbEntity
  8
1
  6
CONTINUOUS
 62
     7
100
AcDbLine
 10
83.47073504292652
 20
97.91592695747062
 30
0.0
 11
83.49555840109022
 21
97.91592695747062
 31
0.0
  0
LINE
  5
E43
330
1F
100
AcDbEntity
  8
1
  6
CONTINUOUS
 62
     7
100
AcDbLine
 10
83.49555840109022
 20
97.91592695747062
 30
0.0
 11
83.4973061514045
 21
96.91592679355784
 31
0.0
  0
LINE
  5
E44
330
1F
100
AcDbEntity
  8
1
  6
CONTINUOUS
 62
     7
100
AcDbLine
 10
83.49555840109022
 20
97.91592695747062
 30
0.0
 11
83.49555840109022
 21
101.8159277829949
 31
0.0
  0
LINE
  5
E45
330
1F
100
AcDbEntity
  8
1
  6
CONTINUOUS
 62
     7
100
AcDbLine
 10
83.51523515448005
 20
97.91592695747062
 30
0.0
 11
83.51523515448005
 21
101.8159277829949
 31
0.0
  0
LINE
  5
E46
330
1F
100
AcDbEntity
  8
1
  6
CONTINUOUS
 62
     7
100
AcDbLine
 10
83.51348740416577
 20
96.91592679355784
 30
0.0
 11
83.51523515448005
 21
97.91592695747062
 31
0.0
  0
LINE
  5
E47
330
1F
100
AcDbEntity
  8
1
  6
CONTINUOUS
 62
     7
100
AcDbLine
 10
83.51348740416577
 20
96.91592679355784
 30
0.0
 11
83.4973061514045
 21
96.91592679355784
 31
0.0
  0
LINE
  5
E48
330
1F
100
AcDbEntity
  8
1
  6
CONTINUOUS
 62
     7
100
AcDbLine
 10
73.5152807319291
 20
97.91592695747062
 30
0.0
 11
73.5152807319291
 21
101.8159277829949
 31
0.0
  0
LINE
  5
E49
330
1F
100
AcDbEntity
  8
1
  6
CONTINUOUS
 62
     7
100
AcDbLine
 10
73.51353298161479
 20
96.91592679355784
 30
0.0
 11
73.5152807319291
 21
97.91592695747062
 31
0.0
  0
LINE
  5
E4A
330
1F
100
AcDbEntity
  8
1
  6
CONTINUOUS
 62
     7
100
AcDbLine
 10
73.51353298161479
 20
96.91592679355784
 30
0.0
 11
73.49735172885352
 21
96.91592679355784
 31
0.0
  0
LINE
  5
E4B
330
1F
100
AcDbEntity
  8
1
  6
CONTINUOUS
 62
     7
100
AcDbLine
 10
73.49560397853921
 20
97.91592695747062
 30
0.0
 11
73.49735172885352
 21
96.91592679355784
 31
0.0
  0
LINE
  5
E4C
330
1F
100
AcDbEntity
  8
1
  6
CONTINUOUS
 62
     7
100
AcDbLine
 10
73.49560397853921
 20
97.91592695747062
 30
0.0
 11
73.49560397853921
 21
101.8159277829949
 31
0.0
  0
LINE
  5
E4D
330
1F
100
AcDbEntity
  8
1
  6
CONTINUOUS
 62
     7
100
AcDbLine
 10
73.49735172885352
 20
96.91592679355784
 30
0.0
 11
73.4690331330824
 21
96.91592679355784
 31
0.0
  0
LINE
  5
E4E
330
1F
100
AcDbEntity
  8
1
  6
CONTINUOUS
 62
     7
100
AcDbLine
 10
73.47078062037554
 20
97.91592695747062
 30
0.0
 11
73.49560397853921
 21
97.91592695747062
 31
0.0
  0
LINE
  5
E4F
330
1F
100
AcDbEntity
  8
1
  6
CONTINUOUS
 62
     7
100
AcDbLine
 10
50.10305849188114
 20
96.91592679355784
 30
0.0
 11
50.0635407934644
 21
96.91592679355784
 31
0.0
  0
LINE
  5
E50
330
1F
100
AcDbEntity
  8
1
  6
CONTINUOUS
 62
     7
100
AcDbLine
 10
50.06528734943919
 20
97.91592695747062
 30
0.0
 11
50.10131074156683
 21
97.91592695747062
 31
0.0
  0
LINE
  5
E51
330
1F
100
AcDbEntity
  8
1
  6
CONTINUOUS
 62
     7
100
AcDbLine
 10
50.10131074156683
 20
97.91592695747062
 30
0.0
 11
50.10305849188114
 21
96.91592679355784
 31
0.0
  0
LINE
  5
E52
330
1F
100
AcDbEntity
  8
1
  6
CONTINUOUS
 62
     7
100
AcDbLine
 10
50.10978688161876
 20
97.91592695747062
 30
0.0
 11
50.10978688161876
 21
103.4159269276683
 31
0.0
  0
LINE
  5
E53
330
1F
100
AcDbEntity
  8
1
  6
CONTINUOUS
 62
     7
100
AcDbLine
 10
50.10803913130448
 20
96.91592679355784
 30
0.0
 11
50.10978688161876
 21
97.91592695747062
 31
0.0
  0
LINE
  5
E54
330
1F
100
AcDbEntity
  8
1
  6
CONTINUOUS
 62
     7
100
AcDbLine
 10
50.10803913130448
 20
96.91592679355784
 30
0.0
 11
50.10305849188114
 21
96.91592679355784
 31
0.0
  0
LINE
  5
E55
330
1F
100
AcDbEntity
  8
1
  6
CONTINUOUS
 62
     7
100
AcDbLine
 10
50.10131074156683
 20
97.91592695747062
 30
0.0
 11
50.10131074156683
 21
103.4159269276683
 31
0.0
  0
LINE
  5
E56
330
1F
100
AcDbEntity
  8
1
  6
CONTINUOUS
 62
     7
100
AcDbLine
 10
67.56591329788367
 20
101.4159265998427
 30
0.0
 11
67.50052588900675
 21
101.4159265998427
 31
0.0
  0
LINE
  5
E57
330
1F
100
AcDbEntity
  8
1
  6
CONTINUOUS
 62
     7
100
AcDbLine
 10
48.41600144249625
 20
101.4159265998427
 30
0.0
 11
48.3506142664489
 21
101.4159265998427
 31
0.0
  0
LINE
  5
E58
330
1F
100
AcDbEntity
  8
1
  6
CONTINUOUS
 62
     7
100
AcDbLine
 10
67.57105952567164
 20
101.4159265998427
 30
0.0
 11
67.57105952567164
 21
101.8159277829949
 31
0.0
  0
LINE
  5
E59
330
1F
100
AcDbEntity
  8
1
  6
CONTINUOUS
 62
     7
100
AcDbLine
 10
67.57105952567164
 20
101.4159265998427
 30
0.0
 11
67.56591329788367
 21
101.4159265998427
 31
0.0
  0
LINE
  5
E5A
330
1F
100
AcDbEntity
  8
1
  6
CONTINUOUS
 62
     7
100
AcDbLine
 10
48.42114767028423
 20
101.4159265998427
 30
0.0
 11
48.42114767028423
 21
103.4159269276683
 31
0.0
  0
LINE
  5
E5B
330
1F
100
AcDbEntity
  8
1
  6
CONTINUOUS
 62
     7
100
AcDbLine
 10
48.42114767028423
 20
101.4159265998427
 30
0.0
 11
48.41600144249625
 21
101.4159265998427
 31
0.0
  0
LINE
  5
E5C
330
1F
100
AcDbEntity
  8
1
  6
CONTINUOUS
 62
     7
100
AcDbLine
 10
163.3338187150201
 20
149.3159271869485
 30
0.0
 11
163.3338187150201
 21
150.5159270111148
 31
0.0
  0
LINE
  5
E5D
330
1F
100
AcDbEntity
  8
1
  6
CONTINUOUS
 62
     7
100
AcDbLine
 10
161.8338184691509
 20
150.5159270111148
 30
0.0
 11
161.8338184691509
 21
149.3159271869485
 31
0.0
  0
LINE
  5
E5E
330
1F
100
AcDbEntity
  8
1
  6
CONTINUOUS
 62
     7
100
AcDbLine
 10
141.6338192559323
 20
149.3159271869485
 30
0.0
 11
141.6338192559323
 21
150.5159270111148
 31
0.0
  0
LINE
  5
E5F
330
1F
100
AcDbEntity
  8
1
  6
CONTINUOUS
 62
     7
100
AcDbLine
 10
140.1338190100631
 20
150.5159270111148
 30
0.0
 11
140.1338190100631
 21
149.3159271869485
 31
0.0
  0
LINE
  5
E60
330
1F
100
AcDbEntity
  8
1
  6
CONTINUOUS
 62
     7
100
AcDbLine
 10
163.2338188848933
 20
101.4159265998427
 30
0.0
 11
162.033819060727
 21
101.4159265998427
 31
0.0
  0
LINE
  5
E61
330
1F
100
AcDbEntity
  8
1
  6
CONTINUOUS
 62
     7
100
AcDbLine
 10
141.4338186643562
 20
101.4159265998427
 30
0.0
 11
141.4338186643562
 21
103.4159269276683
 31
0.0
  0
LINE
  5
E62
330
1F
100
AcDbEntity
  8
1
  6
CONTINUOUS
 62
     7
100
AcDbLine
 10
141.4338186643562
 20
101.4159265998427
 30
0.0
 11
140.2338188401899
 21
101.4159265998427
 31
0.0
  0
LINE
  5
E63
330
1F
100
AcDbEntity
  8
1
  6
CONTINUOUS
 62
     7
100
AcDbLine
 10
162.033819060727
 20
101.4159265998427
 30
0.0
 11
162.033819060727
 21
103.4159269276683
 31
0.0
  0
LINE
  5
E64
330
1F
100
AcDbEntity
  8
1
  6
CONTINUOUS
 62
     7
100
AcDbLine
 10
162.033819060727
 20
103.4159269276683
 30
0.0
 11
141.4338186643562
 21
103.4159269276683
 31
0.0
  0
LINE
  5
E65
330
1F
100
AcDbEntity
  8
1
  6
CONTINUOUS
 62
     7
100
AcDbLine
 10
139.2338186762771
 20
104.5159269217078
 30
0.0
 11
139.3902007750711
 21
149.3159271869485
 31
0.0
  0
LINE
  5
E66
330
1F
100
AcDbEntity
  8
1
  6
CONTINUOUS
 62
     7
100
AcDbLine
 10
139.3902007750711
 20
149.3159271869485
 30
0.0
 11
140.3901953510484
 21
149.3159271869485
 31
0.0
  0
LINE
  5
E67
330
1F
100
AcDbEntity
  8
1
  6
CONTINUOUS
 62
     7
100
AcDbLine
 10
140.2338188401899
 20
101.4159265998427
 30
0.0
 11
139.2338186762771
 21
101.4159265998427
 31
0.0
  0
LINE
  5
E68
330
1F
100
AcDbEntity
  8
1
  6
CONTINUOUS
 62
     7
100
AcDbLine
 10
139.2338186762771
 20
101.4159265998427
 30
0.0
 11
139.2338186762771
 21
104.5159269217078
 31
0.0
  0
LINE
  5
E69
330
1F
100
AcDbEntity
  8
1
  6
CONTINUOUS
 62
     7
100
AcDbLine
 10
164.2338190488061
 20
101.4159265998427
 30
0.0
 11
164.2338190488061
 21
104.5159269217078
 31
0.0
  0
LINE
  5
E6A
330
1F
100
AcDbEntity
  8
1
  6
CONTINUOUS
 62
     7
100
AcDbLine
 10
164.2338190488061
 20
101.4159265998427
 30
0.0
 11
163.2338188848933
 21
101.4159265998427
 31
0.0
  0
LINE
  5
E6B
330
1F
100
AcDbEntity
  8
1
  6
CONTINUOUS
 62
     7
100
AcDbLine
 10
164.0774369500121
 20
149.3159271869485
 30
0.0
 11
164.2338190488061
 21
104.5159269217078
 31
0.0
  0
LINE
  5
E6C
330
1F
100
AcDbEntity
  8
1
  6
CONTINUOUS
 62
     7
100
AcDbLine
 10
163.0774423740348
 20
149.3159271869485
 30
0.0
 11
164.0774369500121
 21
149.3159271869485
 31
0.0
  0
LINE
  5
E6D
330
1F
100
AcDbEntity
  8
1
  6
CONTINUOUS
 62
     7
100
AcDbLine
 10
140.3901953510484
 20
149.3159271869485
 30
0.0
 11
145.8774366676351
 21
149.3159271869485
 31
0.0
  0
LINE
  5
E6E
330
1F
100
AcDbEntity
  8
1
  6
CONTINUOUS
 62
     7
100
AcDbLine
 10
145.8774366676351
 20
149.3159271869485
 30
0.0
 11
145.876726534172
 21
149.5194174442117
 31
0.0
  0
LINE
  5
E6F
330
1F
100
AcDbEntity
  8
1
  6
CONTINUOUS
 62
     7
100
AcDbLine
 10
157.5902010574481
 20
149.3159271869485
 30
0.0
 11
157.5909111909112
 21
149.5194174442117
 31
0.0
  0
LINE
  5
E70
330
1F
100
AcDbEntity
  8
1
  6
CONTINUOUS
 62
     7
100
AcDbLine
 10
157.5902010574481
 20
149.3159271869485
 30
0.0
 11
163.0774423740348
 21
149.3159271869485
 31
0.0
  0
ARC
  5
E71
330
1F
100
AcDbEntity
  8
1
  6
CONTINUOUS
 62
     7
100
AcDbCircle
 10
144.8767324994904
 20
149.5159269664113
 30
0.0
 40
1.000000000000006
100
AcDbArc
 50
0.199999999998957
 51
90.0
  0
LINE
  5
E72
330
1F
100
AcDbEntity
  8
1
  6
CONTINUOUS
 62
     7
100
AcDbLine
 10
139.3902007750711
 20
149.3159271869485
 30
0.0
 11
139.3909113741955
 21
149.5194174442117
 31
0.0
  0
ARC
  5
E73
330
1F
100
AcDbEntity
  8
1
  6
CONTINUOUS
 62
     7
100
AcDbCircle
 10
140.3909052255928
 20
149.5159269664113
 30
0.0
 40
1.000000000000006
100
AcDbArc
 50
104.8972472083834
 51
179.800000000001
  0
LINE
  5
E74
330
1F
100
AcDbEntity
  8
1
  6
CONTINUOUS
 62
     7
100
AcDbLine
 10
144.8767324238559
 20
150.5159270111148
 30
0.0
 11
141.6338192559323
 21
150.5159270111148
 31
0.0
  0
ARC
  5
E75
330
1F
100
AcDbEntity
  8
1
  6
CONTINUOUS
 62
     7
100
AcDbCircle
 10
158.5909052255927
 20
149.5159269664113
 30
0.0
 40
1.0
100
AcDbArc
 50
90.0
 51
179.7999999999994
  0
LINE
  5
E76
330
1F
100
AcDbEntity
  8
1
  6
CONTINUOUS
 62
     7
100
AcDbLine
 10
161.8338184691509
 20
150.5159270111148
 30
0.0
 11
158.5909053012273
 21
150.5159270111148
 31
0.0
  0
ARC
  5
E77
330
1F
100
AcDbEntity
  8
1
  6
CONTINUOUS
 62
     7
100
AcDbCircle
 10
163.0767324994904
 20
149.5159269664113
 30
0.0
 40
1.000000000000006
100
AcDbArc
 50
0.199999999998957
 51
75.10275279162019
  0
LINE
  5
E78
330
1F
100
AcDbEntity
  8
1
  6
CONTINUOUS
 62
     7
100
AcDbLine
 10
164.0774369500121
 20
149.3159271869485
 30
0.0
 11
164.0767263508877
 21
149.5194174442117
 31
0.0
  0
LINE
  5
E79
330
1F
100
AcDbEntity
  8
1
  6
CONTINUOUS
 62
     7
100
AcDbLine
 10
144.8767324238559
 20
150.5159270111148
 30
0.0
 11
158.5909053012273
 21
150.5159270111148
 31
0.0
  0
LINE
  5
E7A
330
1F
100
AcDbEntity
  8
1
  6
CONTINUOUS
 62
     7
100
AcDbLine
 10
163.3338187150201
 20
150.5159270111148
 30
0.0
 11
161.8338184691509
 21
150.5159270111148
 31
0.0
  0
LINE
  5
E7B
330
1F
100
AcDbEntity
  8
1
  6
CONTINUOUS
 62
     7
100
AcDbLine
 10
140.1338190100631
 20
150.5159270111148
 30
0.0
 11
141.6338192559323
 21
150.5159270111148
 31
0.0
  0
LINE
  5
E7C
330
1F
100
AcDbEntity
  8
1
  6
CONTINUOUS
 62
     7
100
AcDbLine
 10
142.9838188252887
 20
97.91592695747062
 30
0.0
 11
143.5611689723572
 21
96.91592679355784
 31
0.0
  0
LINE
  5
E7D
330
1F
100
AcDbEntity
  8
1
  6
CONTINUOUS
 62
     7
100
AcDbLine
 10
142.9838188252887
 20
97.91592695747062
 30
0.0
 11
142.9838188252887
 21
103.4159269276683
 31
0.0
  0
LINE
  5
E7E
330
1F
100
AcDbEntity
  8
1
  6
CONTINUOUS
 62
     7
100
AcDbLine
 10
145.7838187254509
 20
97.91592695747062
 30
0.0
 11
145.7838187254509
 21
103.4159269276683
 31
0.0
  0
LINE
  5
E7F
330
1F
100
AcDbEntity
  8
1
  6
CONTINUOUS
 62
     7
100
AcDbLine
 10
145.2064685783824
 20
96.91592679355784
 30
0.0
 11
145.7838187254509
 21
97.91592695747062
 31
0.0
  0
LINE
  5
E80
330
1F
100
AcDbEntity
  8
1
  6
CONTINUOUS
 62
     7
100
AcDbLine
 10
145.2064685783824
 20
96.91592679355784
 30
0.0
 11
143.5611689723572
 21
96.91592679355784
 31
0.0
  0
LINE
  5
E81
330
1F
100
AcDbEntity
  8
1
  6
CONTINUOUS
 62
     7
100
AcDbLine
 10
157.6838189996323
 20
97.91592695747062
 30
0.0
 11
158.2611691467008
 21
96.91592679355784
 31
0.0
  0
LINE
  5
E82
330
1F
100
AcDbEntity
  8
1
  6
CONTINUOUS
 62
     7
100
AcDbLine
 10
160.4838188997945
 20
97.91592695747062
 30
0.0
 11
160.4838188997945
 21
103.4159269276683
 31
0.0
  0
LINE
  5
E83
330
1F
100
AcDbEntity
  8
1
  6
CONTINUOUS
 62
     7
100
AcDbLine
 10
159.906468752726
 20
96.91592679355784
 30
0.0
 11
160.4838188997945
 21
97.91592695747062
 31
0.0
  0
LINE
  5
E84
330
1F
100
AcDbEntity
  8
1
  6
CONTINUOUS
 62
     7
100
AcDbLine
 10
159.906468752726
 20
96.91592679355784
 30
0.0
 11
158.2611691467008
 21
96.91592679355784
 31
0.0
  0
LINE
  5
E85
330
1F
100
AcDbEntity
  8
1
  6
CONTINUOUS
 62
     7
100
AcDbLine
 10
157.6838189996323
 20
97.91592695747062
 30
0.0
 11
157.6838189996323
 21
103.4159269276683
 31
0.0
  0
LINE
  5
E86
330
1F
100
AcDbEntity
  8
1
  6
CONTINUOUS
 62
     7
100
AcDbLine
 10
151.2338188387929
 20
101.8159277829949
 30
0.0
 11
150.7338188150441
 21
101.8159277829949
 31
0.0
  0
LINE
  5
E87
330
1F
100
AcDbEntity
  8
1
  6
CONTINUOUS
 62
     7
100
AcDbLine
 10
150.7338188150441
 20
101.8159277829949
 30
0.0
 11
150.7338188150441
 21
103.4159269276683
 31
0.0
  0
LINE
  5
E88
330
1F
100
AcDbEntity
  8
1
  6
CONTINUOUS
 62
     7
100
AcDbLine
 10
152.733818910039
 20
101.8159277829949
 30
0.0
 11
152.733818910039
 21
103.4159269276683
 31
0.0
  0
LINE
  5
E89
330
1F
100
AcDbEntity
  8
1
  6
CONTINUOUS
 62
     7
100
AcDbLine
 10
152.733818910039
 20
101.8159277829949
 30
0.0
 11
152.2338188862903
 21
101.8159277829949
 31
0.0
  0
LINE
  5
E8A
330
1F
100
AcDbEntity
  8
1
  6
CONTINUOUS
 62
     7
100
AcDbLine
 10
152.2338188862903
 20
101.8159277829949
 30
0.0
 11
151.2338188387929
 21
101.8159277829949
 31
0.0
  0
LINE
  5
E8B
330
1F
100
AcDbEntity
  8
1
  6
CONTINUOUS
 62
     7
100
AcDbLine
 10
160.5338188148579
 20
101.8159277829949
 30
0.0
 11
160.5338188148579
 21
103.4159269276683
 31
0.0
  0
LINE
  5
E8C
330
1F
100
AcDbEntity
  8
1
  6
CONTINUOUS
 62
     7
100
AcDbLine
 10
160.5338188148579
 20
101.8159277829949
 30
0.0
 11
160.4838188997945
 21
101.8159277829949
 31
0.0
  0
LINE
  5
E8D
330
1F
100
AcDbEntity
  8
1
  6
CONTINUOUS
 62
     7
100
AcDbLine
 10
157.6838189996323
 20
101.8159277829949
 30
0.0
 11
152.733818910039
 21
101.8159277829949
 31
0.0
  0
LINE
  5
E8E
330
1F
100
AcDbEntity
  8
1
  6
CONTINUOUS
 62
     7
100
AcDbLine
 10
150.7338188150441
 20
101.8159277829949
 30
0.0
 11
145.7838187254509
 21
101.8159277829949
 31
0.0
  0
LINE
  5
E8F
330
1F
100
AcDbEntity
  8
1
  6
CONTINUOUS
 62
     7
100
AcDbLine
 10
142.9338189102253
 20
101.8159277829949
 30
0.0
 11
142.9338189102253
 21
103.4159269276683
 31
0.0
  0
LINE
  5
E90
330
1F
100
AcDbEntity
  8
1
  6
CONTINUOUS
 62
     7
100
AcDbLine
 10
142.9838188252887
 20
101.8159277829949
 30
0.0
 11
142.9338189102253
 21
101.8159277829949
 31
0.0
  0
LINE
  5
E91
330
1F
100
AcDbEntity
  8
1
  6
CONTINUOUS
 62
     7
100
AcDbLine
 10
141.1338191739759
 20
97.91592695747062
 30
0.0
 11
141.7111693210444
 21
96.91592679355784
 31
0.0
  0
LINE
  5
E92
330
1F
100
AcDbEntity
  8
1
  6
CONTINUOUS
 62
     7
100
AcDbLine
 10
141.1338191739759
 20
97.91592695747062
 30
0.0
 11
141.1338191739759
 21
101.4159265998427
 31
0.0
  0
LINE
  5
E93
330
1F
100
AcDbEntity
  8
1
  6
CONTINUOUS
 62
     7
100
AcDbLine
 10
147.633818842425
 20
97.91592695747062
 30
0.0
 11
147.633818842425
 21
101.8159277829949
 31
0.0
  0
LINE
  5
E94
330
1F
100
AcDbEntity
  8
1
  6
CONTINUOUS
 62
     7
100
AcDbLine
 10
147.0564686953565
 20
96.91592679355784
 30
0.0
 11
145.2064685783824
 21
96.91592679355784
 31
0.0
  0
LINE
  5
E95
330
1F
100
AcDbEntity
  8
1
  6
CONTINUOUS
 62
     7
100
AcDbLine
 10
143.5611689723572
 20
96.91592679355784
 30
0.0
 11
141.7111693210444
 21
96.91592679355784
 31
0.0
  0
LINE
  5
E96
330
1F
100
AcDbEntity
  8
1
  6
CONTINUOUS
 62
     7
100
AcDbLine
 10
147.0564686953565
 20
96.91592679355784
 30
0.0
 11
147.633818842425
 21
97.91592695747062
 31
0.0
  0
LINE
  5
E97
330
1F
100
AcDbEntity
  8
1
  6
CONTINUOUS
 62
     7
100
AcDbLine
 10
161.7564684040388
 20
96.91592679355784
 30
0.0
 11
162.3338185511073
 21
97.91592695747062
 31
0.0
  0
LINE
  5
E98
330
1F
100
AcDbEntity
  8
1
  6
CONTINUOUS
 62
     7
100
AcDbLine
 10
161.7564684040388
 20
96.91592679355784
 30
0.0
 11
159.906468752726
 21
96.91592679355784
 31
0.0
  0
LINE
  5
E99
330
1F
100
AcDbEntity
  8
1
  6
CONTINUOUS
 62
     7
100
AcDbLine
 10
158.2611691467008
 20
96.91592679355784
 30
0.0
 11
156.4111690297267
 21
96.91592679355784
 31
0.0
  0
LINE
  5
E9A
330
1F
100
AcDbEntity
  8
1
  6
CONTINUOUS
 62
     7
100
AcDbLine
 10
155.8338188826582
 20
97.91592695747062
 30
0.0
 11
156.4111690297267
 21
96.91592679355784
 31
0.0
  0
LINE
  5
E9B
330
1F
100
AcDbEntity
  8
1
  6
CONTINUOUS
 62
     7
100
AcDbLine
 10
155.8338188826582
 20
97.91592695747062
 30
0.0
 11
155.8338188826582
 21
101.8159277829949
 31
0.0
  0
LINE
  5
E9C
330
1F
100
AcDbEntity
  8
1
  6
CONTINUOUS
 62
     7
100
AcDbLine
 10
162.3338185511073
 20
97.91592695747062
 30
0.0
 11
162.3338185511073
 21
101.4159265998427
 31
0.0
  0
LINE
  5
E9D
330
1F
100
AcDbEntity
  8
1
  6
CONTINUOUS
 62
     7
100
AcDbLine
 10
153.9338188506207
 20
101.4159265998427
 30
0.0
 11
153.9338188506207
 21
101.8159277829949
 31
0.0
  0
LINE
  5
E9E
330
1F
100
AcDbEntity
  8
1
  6
CONTINUOUS
 62
     7
100
AcDbLine
 10
153.9338188506207
 20
101.4159265998427
 30
0.0
 11
153.4338188850796
 21
101.4159265998427
 31
0.0
  0
LINE
  5
E9F
330
1F
100
AcDbEntity
  8
1
  6
CONTINUOUS
 62
     7
100
AcDbLine
 10
153.4338188850796
 20
101.4159265998427
 30
0.0
 11
150.0338188400036
 21
101.4159265998427
 31
0.0
  0
LINE
  5
EA0
330
1F
100
AcDbEntity
  8
1
  6
CONTINUOUS
 62
     7
100
AcDbLine
 10
149.5338188744625
 20
101.4159265998427
 30
0.0
 11
149.5338188744625
 21
101.8159277829949
 31
0.0
  0
LINE
  5
EA1
330
1F
100
AcDbEntity
  8
1
  6
CONTINUOUS
 62
     7
100
AcDbLine
 10
150.0338188400036
 20
101.4159265998427
 30
0.0
 11
149.5338188744625
 21
101.4159265998427
 31
0.0
  0
LINE
  5
EA3
330
1F
100
AcDbEntity
  8
OSIE
100
AcDbLine
 10
42.05788308507172
 20
205.2284263591085
 30
0.0
 11
89.68297066377747
 21
205.2284263591085
 31
0.0
  0
LINE
  5
EA5
330
1F
100
AcDbEntity
  8
OSIE
100
AcDbLine
 10
47.07316757633123
 20
197.8784262719367
 30
0.0
 11
85.41136307718935
 21
197.8784262719367
 31
0.0
  0
LINE
  5
EA6
330
1F
100
AcDbEntity
  8
OSIE
100
AcDbLine
 10
47.07316757633123
 20
212.5784264462803
 30
0.0
 11
85.41136307718935
 21
212.5784264462803
 31
0.0
  0
LINE
  5
EA7
330
1F
100
AcDbEntity
  8
OSIE
100
AcDbLine
 10
66.14538585058068
 20
94.48476623243323
 30
0.0
 11
66.14538585058068
 21
154.3649422652297
 31
0.0
  0
LINE
  5
EA8
330
1F
100
AcDbEntity
  8
OSIE
100
AcDbLine
 10
72.45285641092326
 20
104.5313240843764
 30
0.0
 11
72.45285641092326
 21
95.50922749346637
 31
0.0
  0
LINE
  5
EA9
330
1F
100
AcDbEntity
  8
OSIE
100
AcDbLine
 10
82.45281083347427
 20
104.5313240843764
 30
0.0
 11
82.45281083347427
 21
95.50922749346637
 31
0.0
  0
LINE
  5
EAA
330
1F
100
AcDbEntity
  8
OSIE
100
AcDbLine
 10
49.65856126676763
 20
104.5313240843764
 30
0.0
 11
49.65856126676763
 21
95.50922749346637
 31
0.0
  0
LINE
  5
EAB
330
1F
100
AcDbEntity
  8
OSIE
100
AcDbLine
 10
151.7338188625416
 20
155.3296430507019
 30
0.0
 11
151.7338188625416
 21
91.84502923729053
 31
0.0
  0
DIMENSION
  5
EAD
330
1F
100
AcDbEntity
  8
WY
100
AcDbDimension
  2
*D29
 10
95.03647094101828
 20
197.8784262719367
 30
0.0
 11
93.03647094101828
 21
205.2284263591085
 31
0.0
 70
    32
  3
ISO-25
100
AcDbAlignedDimension
 13
85.41136307718935
 23
212.5784264462803
 33
0.0
 14
85.41136307718935
 24
197.8784262719367
 34
0.0
 50
90.0
100
AcDbRotatedDimension
1001
ACAD
1000
DSTYLE
1002
{
1070
   143
1040
0.0393700787401575
1070
    41
1040
2.0
1070
    44
1040
1.0
1070
    42
1040
1.0
1070
   147
1040
1.0
1070
   174
1070
     1
1070
    74
1070
     1
1070
   140
1040
2.0
1002
}
  0
DIMENSION
  5
EC0
330
1F
100
AcDbEntity
  8
WY
100
AcDbDimension
  2
*D30
 10
99.70726419820002
 20
192.7284263591085
 30
0.0
 11
97.70726419820002
 21
205.2284264522407
 31
0.0
 70
    32
  3
ISO-25
100
AcDbAlignedDimension
 13
85.18322515260675
 23
217.728426545373
 33
0.0
 14
85.18322576355436
 24
192.7284263591085
 34
0.0
 50
90.0
100
AcDbRotatedDimension
1001
ACAD
1000
DSTYLE
1002
{
1070
   143
1040
0.0393700787401575
1070
    41
1040
2.0
1070
    44
1040
1.0
1070
    42
1040
1.0
1070
   147
1040
1.0
1070
   174
1070
     1
1070
    74
1070
     1
1070
   140
1040
2.0
1002
}
  0
DIMENSION
  5
ECF
330
1F
100
AcDbEntity
  8
WY
100
AcDbDimension
  2
*D31
 10
72.45285641092326
 20
87.33765926332364
 30
0.0
 11
61.05570883884545
 21
89.33765926332364
 31
0.0
 70
    32
  3
ISO-25
100
AcDbAlignedDimension
 13
49.65856126676763
 23
95.50922749346637
 33
0.0
 14
72.45285641092326
 24
95.50922749346637
 34
0.0
100
AcDbRotatedDimension
1001
ACAD
1000
DSTYLE
1002
{
1070
   271
1070
     1
1070
   143
1040
0.0393700787401575
1070
    41
1040
2.0
1070
    44
1040
1.0
1070
    42
1040
1.0
1070
   147
1040
1.0
1070
   174
1070
     1
1070
    74
1070
     1
1070
   140
1040
2.0
1002
}
  0
DIMENSION
  5
EDE
330
1F
100
AcDbEntity
  8
WY
100
AcDbDimension
  2
*D32
 10
82.45281083347427
 20
87.33765926332364
 30
0.0
 11
77.45283362219877
 21
89.33765926332364
 31
0.0
 70
    32
  3
ISO-25
100
AcDbAlignedDimension
 13
72.45285641092326
 23
95.50922749346637
 33
0.0
 14
82.45281083347427
 24
95.50922749346637
 34
0.0
100
AcDbRotatedDimension
1001
ACAD
1000
DSTYLE
1002
{
1070
   143
1040
0.0393700787401575
1070
    41
1040
2.0
1070
    44
1040
1.0
1070
    42
1040
1.0
1070
   147
1040
1.0
1070
   174
1070
     1
1070
    74
1070
     1
1070
   140
1040
2.0
1002
}
  0
DIMENSION
  5
EED
330
1F
100
AcDbEntity
  8
WY
100
AcDbDimension
  2
*D33
 10
49.65856126676763
 20
87.33765926332364
 30
0.0
 11
39.14850513027682
 21
87.33765926332364
 31
0.0
 70
   160
  3
ISO-25
100
AcDbAlignedDimension
 13
46.14850513027682
 23
101.4159265998427
 33
0.0
 14
49.65856126676763
 24
95.50922749346637
 34
0.0
100
AcDbRotatedDimension
1001
ACAD
1000
DSTYLE
1002
{
1070
   271
1070
     1
1070
   143
1040
0.0393700787401575
1070
    41
1040
2.0
1070
    44
1040
1.0
1070
    42
1040
1.0
1070
   147
1040
1.0
1070
   174
1070
     1
1070
    74
1070
     1
1070
   140
1040
2.0
1002
}
  0
DIMENSION
  5
EFF
330
1F
100
AcDbEntity
  8
WY
100
AcDbDimension
  2
*D34
 10
98.73090702543445
 20
101.4159265998427
 30
0.0
 11
96.73090702543445
 21
125.9659268054788
 31
0.0
 70
    32
  3
ISO-25
100
AcDbAlignedDimension
 13
84.99171544717123
 23
150.5159270111148
 33
0.0
 14
86.18979350175138
 24
101.4159265998427
 34
0.0
 50
90.0
100
AcDbRotatedDimension
1001
ACAD
1000
DSTYLE
1002
{
1070
   143
1040
0.0393700787401575
1070
    41
1040
2.0
1070
    44
1040
1.0
1070
    42
1040
1.0
1070
   147
1040
1.0
1070
   174
1070
     1
1070
    74
1070
     1
1070
   140
1040
2.0
1002
}
  0
DIMENSION
  5
F0E
330
1F
100
AcDbEntity
  8
WY
100
AcDbDimension
  2
*D35
 10
92.80614149159518
 20
103.4159269276683
 30
0.0
 11
92.80614149159518
 21
95.74925993317606
 31
0.0
 70
   160
  3
ISO-25
100
AcDbAlignedDimension
 13
86.18979350175138
 23
101.4159265998427
 33
0.0
 14
86.2179463966028
 24
103.4159269276683
 34
0.0
 50
90.0
100
AcDbRotatedDimension
1001
ACAD
1000
DSTYLE
1002
{
1070
   143
1040
0.0393700787401575
1070
    41
1040
2.0
1070
    44
1040
1.0
1070
    42
1040
1.0
1070
   147
1040
1.0
1070
   174
1070
     1
1070
    74
1070
     0
1070
   140
1040
2.0
1002
}
  0
DIMENSION
  5
F20
330
1F
100
AcDbEntity
  8
WY
100
AcDbDimension
  2
*D36
 10
40.56564937670382
 20
101.4159265998427
 30
0.0
 11
38.56564937670382
 21
99.1659266967003
 31
0.0
 70
    32
  3
ISO-25
100
AcDbAlignedDimension
 13
49.25856377904114
 23
96.91592679355784
 33
0.0
 14
46.14850513027682
 24
101.4159265998427
 34
0.0
 50
90.0
100
AcDbRotatedDimension
1001
ACAD
1000
DSTYLE
1002
{
1070
   143
1040
0.0393700787401575
1070
    41
1040
2.0
1070
    44
1040
1.0
1070
    42
1040
1.0
1070
   147
1040
1.0
1070
   174
1070
     1
1070
    74
1070
     1
1070
   140
1040
2.0
1002
}
  0
DIMENSION
  5
F31
330
1F
100
AcDbEntity
  8
WY
100
AcDbDimension
  2
*D37
 10
86.18322576355436
 20
224.0808377103862
 30
0.0
 11
66.18322598707178
 21
226.0808377103862
 31
0.0
 70
    32
  3
ISO-25
100
AcDbAlignedDimension
 13
46.1832262105892
 23
216.7284263814602
 33
0.0
 14
86.18322576355436
 24
216.7284263591085
 34
0.0
100
AcDbRotatedDimension
1001
ACAD
1000
DSTYLE
1002
{
1070
   143
1040
0.0393700787401575
1070
    41
1040
2.0
1070
    44
1040
1.0
1070
    42
1040
1.0
1070
   147
1040
1.0
1070
   174
1070
     1
1070
    74
1070
     1
1070
   140
1040
2.0
1002
}
  0
DIMENSION
  5
F40
330
1F
100
AcDbEntity
  8
WY
100
AcDbDimension
  2
*D38
 10
164.2338190488061
 20
83.18328643930914
 30
0.0
 11
151.7338188625416
 21
85.18328643930914
 31
0.0
 70
    32
  3
ISO-25
100
AcDbAlignedDimension
 13
139.2338186762771
 23
101.4159265998427
 33
0.0
 14
164.2338190488061
 24
101.4159265998427
 34
0.0
100
AcDbRotatedDimension
1001
ACAD
1000
DSTYLE
1002
{
1070
   143
1040
0.0393700787401575
1070
    41
1040
2.0
1070
    44
1040
1.0
1070
    42
1040
1.0
1070
   147
1040
1.0
1070
   174
1070
     1
1070
    74
1070
     1
1070
   140
1040
2.0
1002
}
  0
DIMENSION
  5
F4F
330
1F
100
AcDbEntity
  8
WY
100
AcDbDimension
  2
*D39
 10
81.4832258499811
 20
183.8811467395772
 30
0.0
 11
89.14989284447333
 21
183.8811467395772
 31
0.0
 70
   160
  3
ISO-25
100
AcDbAlignedDimension
 13
83.48322617780664
 23
194.6284266705428
 33
0.0
 14
81.4832258499811
 24
194.6284266705428
 34
0.0
100
AcDbRotatedDimension
1001
ACAD
1000
DSTYLE
1002
{
1070
   143
1040
0.0393700787401575
1070
    41
1040
2.0
1070
    44
1040
1.0
1070
    42
1040
1.0
1070
   147
1040
1.0
1070
   174
1070
     1
1070
    74
1070
     1
1070
   140
1040
2.0
1002
}
  0
DIMENSION
  5
F61
330
1F
100
AcDbEntity
  8
WY
100
AcDbDimension
  2
*D40
 10
50.08322517346838
 20
183.8811467395772
 30
0.0
 11
42.44989319912094
 21
183.8811467395772
 31
0.0
 70
   160
  3
ISO-25
100
AcDbAlignedDimension
 13
49.28322653245428
 23
196.4784263218556
 33
0.0
 14
50.08322517346838
 24
196.4784263218556
 34
0.0
100
AcDbRotatedDimension
1001
ACAD
1000
DSTYLE
1002
{
1070
   143
1040
0.0393700787401575
1070
    41
1040
2.0
1070
    44
1040
1.0
1070
    42
1040
1.0
1070
   147
1040
1.0
1070
   174
1070
     1
1070
    74
1070
     1
1070
   140
1040
2.0
1002
}
  0
DIMENSION
  5
F84
330
1F
100
AcDbEntity
  8
WY
100
AcDbDimension
  2
*D42
 10
145.7838187254509
 20
88.66521467160817
 30
0.0
 11
135.9838188252887
 21
88.66521467160817
 31
0.0
 70
   160
  3
ISO-25
100
AcDbAlignedDimension
 13
142.9838188252887
 23
97.91592695747062
 33
0.0
 14
145.7838187254509
 24
97.91592695747062
 34
0.0
100
AcDbRotatedDimension
1001
ACAD
1000
DSTYLE
1002
{
1070
   143
1040
0.0393700787401575
1070
    41
1040
2.0
1070
    44
1040
1.0
1070
    42
1040
1.0
1070
   147
1040
1.0
1070
   174
1070
     1
1070
    74
1070
     1
1070
   140
1040
2.0
1002
}
  0
DIMENSION
  5
F96
330
1F
100
AcDbEntity
  8
WY
100
AcDbDimension
  2
*D43
 10
162.3338185511073
 20
88.66521467160817
 30
0.0
 11
159.0838187168827
 21
90.66521467160817
 31
0.0
 70
    32
  3
ISO-25
100
AcDbAlignedDimension
 13
155.8338188826582
 23
97.91592695747062
 33
0.0
 14
162.3338185511073
 24
97.91592695747062
 34
0.0
100
AcDbRotatedDimension
1001
ACAD
1000
DSTYLE
1002
{
1070
   143
1040
0.0393700787401575
1070
    41
1040
2.0
1070
    44
1040
1.0
1070
    42
1040
1.0
1070
   147
1040
1.0
1070
   174
1070
     1
1070
    74
1070
     1
1070
   140
1040
2.0
1002
}
  0
LINE
  5
FA6
330
1F
100
AcDbEntity
  8
OSIE
100
AcDbLine
 10
144.3838187753698
 20
93.80872413010839
 30
0.0
 11
144.3838187753698
 21
105.5054456394385
 31
0.0
  0
LINE
  5
FA7
330
1F
100
AcDbEntity
  8
OSIE
100
AcDbLine
 10
159.0838189497134
 20
93.80872413010839
 30
0.0
 11
159.0838189497134
 21
105.5054456394385
 31
0.0
  0
LINE
  5
FF0
330
1F
100
AcDbEntity
  8
OSIE
100
AcDbLine
 10
49.68322585296133
 20
214.8827186836884
 30
0.0
 11
49.68322585296133
 21
210.2741342088722
 31
0.0
  0
LINE
  5
FF1
330
1F
100
AcDbEntity
  8
OSIE
100
AcDbLine
 10
49.68322585296133
 20
200.1827185093448
 30
0.0
 11
49.68322585296133
 21
195.5741340345286
 31
0.0
  0
LINE
  5
FF2
330
1F
100
AcDbEntity
  8
OSIE
100
AcDbLine
 10
72.48322577175
 20
217.1587254290817
 30
0.0
 11
72.48322577175
 21
207.9981274634788
 31
0.0
  0
LINE
  5
FF3
330
1F
100
AcDbEntity
  8
OSIE
100
AcDbLine
 10
82.48322601389387
 20
217.1587254290817
 30
0.0
 11
82.48322601389387
 21
207.9981274634788
 31
0.0
  0
LINE
  5
FF4
330
1F
100
AcDbEntity
  8
OSIE
100
AcDbLine
 10
82.48322601389387
 20
202.4587257203995
 30
0.0
 11
82.48322601389387
 21
193.2981277547966
 31
0.0
  0
LINE
  5
FF5
330
1F
100
AcDbEntity
  8
OSIE
100
AcDbLine
 10
72.48322577175
 20
202.4587257203995
 30
0.0
 11
72.48322577175
 21
193.2981277547966
 31
0.0
  0
ENDSEC
  0
SECTION
  2
OBJECTS
  0
DICTIONARY
  5
C
330
0
100
AcDbDictionary
  3
ACAD_DETAILVIEWSTYLE
350
920
  3
ACAD_GROUP
350
D
  3
ACAD_IMAGE_VARS
350
26B
  3
ACAD_MLINESTYLE
350
17
  3
ACAD_SCALELIST
350
FC2
  3
ACAD_SECTIONVIEWSTYLE
350
921
  3
ACDBVARIABLEDICTIONARY
350
91B
  3
APPDATA
350
269
  3
DIMOFFSETDICTIONARY
350
93A
  3
DWGPROPS
350
FF8
  0
DICTIONARY
  5
596
330
2
100
AcDbDictionary
280
     1
  3
ACAD_LAYERSTATES
360
597
  0
DICTIONARY
  5
920
102
{ACAD_REACTORS
330
C
102
}
330
C
100
AcDbDictionary
  0
DICTIONARY
  5
D
102
{ACAD_REACTORS
330
C
102
}
330
C
100
AcDbDictionary
  0
RASTERVARIABLES
  5
26B
102
{ACAD_REACTORS
330
C
102
}
330
C
100
AcDbRasterVariables
 90
        0
 70
     1
 71
     1
 72
     1
  0
DICTIONARY
  5
17
102
{ACAD_REACTORS
330
C
102
}
330
C
100
AcDbDictionary
  3
STANDARD
350
18
  0
DICTIONARY
  5
FC2
102
{ACAD_REACTORS
330
C
102
}
330
C
100
AcDbDictionary
  0
DICTIONARY
  5
921
102
{ACAD_REACTORS
330
C
102
}
330
C
100
AcDbDictionary
  0
DICTIONARY
  5
91B
102
{ACAD_REACTORS
330
C
102
}
330
C
100
AcDbDictionary
  3
HPTRANSPARENCY
350
939
  0
DICTIONARY
  5
269
102
{ACAD_REACTORS
330
C
102
}
330
C
100
AcDbDictionary
  0
DICTIONARY
  5
93A
102
{ACAD_REACTORS
330
C
102
}
330
C
100
AcDbDictionary
  3
DIMRAILANGLE
350
94D
  3
DIMRAILFIRSTOFFSET
350
94B
  3
DIMRAILOFFSET
350
94C
  3
DIMRAILSENABLED
350
94E
  0
XRECORD
  5
FF8
102
{ACAD_REACTORS
330
C
102
}
330
C
100
AcDbXrecord
  1
DWGPROPS COOKIE
  2

  3

  4

  6

  7

  8
pikusl
  9

300
=
301
=
302
=
303
=
304
=
305
=
306
=
307
=
308
=
309
=
 40
0.0
 41
2457525.481905636
 42
2457526.489156493
  1

 90
        0
  0
DICTIONARY
  5
597
102
{ACAD_REACTORS
330
596
102
}
330
596
100
AcDbDictionary
  0
MLINESTYLE
  5
18
102
{ACAD_REACTORS
330
17
102
}
330
17
100
AcDbMlineStyle
  2
Standard
 70
     0
  3

 62
   256
 51
90.0
 52
90.0
 71
     2
 49
0.5
 62
   256
  6
BYLAYER
 49
-0.5
 62
   256
  6
BYLAYER
  0
DICTIONARYVAR
  5
939
102
{ACAD_REACTORS
330
91B
102
}
330
91B
100
DictionaryVariables
280
     0
  1
ByLayer
  0
DICTIONARYVAR
  5
94D
102
{ACAD_REACTORS
330
93A
102
}
330
93A
100
DictionaryVariables
280
     0
  1
0.261799
  0
DICTIONARYVAR
  5
94B
102
{ACAD_REACTORS
330
93A
102
}
330
93A
100
DictionaryVariables
280
     0
  1
10.000000
  0
DICTIONARYVAR
  5
94C
102
{ACAD_REACTORS
330
93A
102
}
330
93A
100
DictionaryVariables
280
     0
  1
6.000000
  0
DICTIONARYVAR
  5
94E
102
{ACAD_REACTORS
330
93A
102
}
330
93A
100
DictionaryVariables
280
     0
  1
1
  0
ENDSEC
  0
EOF
