  0
SECTION
  2
HEADER
  9
$ACADVER
  1
AC1014
  9
$ACADMAINTVER
 70
     9
  9
$DWGCODEPAGE
  3
ANSI_1250
  9
$INSBASE
 10
0.0
 20
0.0
 30
0.0
  9
$EXTMIN
 10
486.041244
 20
0.0
 30
0.0
  9
$EXTMAX
 10
687.671651
 20
297.0
 30
0.0
  9
$LIMMIN
 10
0.0
 20
0.0
  9
$LIMMAX
 10
420.0
 20
297.0
  9
$ORTHOMODE
 70
     0
  9
$REGENMODE
 70
     1
  9
$FILLMODE
 70
     1
  9
$QTEXTMODE
 70
     0
  9
$MIRRTEXT
 70
     1
  9
$DRAGMODE
 70
     2
  9
$LTSCALE
 40
6.0
  9
$OSMODE
 70
  9143
  9
$ATTMODE
 70
     1
  9
$TEXTSIZE
 40
0.2
  9
$TRACEWID
 40
0.05
  9
$TEXTSTYLE
  7
ITALIC
  9
$CLAYER
  8
WY
  9
$CELTYPE
  6
BYLAYER
  9
$CECOLOR
 62
   256
  9
$CELTSCALE
 40
1.0
  9
$DELOBJ
 70
     1
  9
$DISPSILH
 70
     0
  9
$DIMSCALE
 40
1.0
  9
$DIMASZ
 40
1.5
  9
$DIMEXO
 40
1.5
  9
$DIMDLI
 40
7.0
  9
$DIMRND
 40
0.0
  9
$DIMDLE
 40
0.0
  9
$DIMEXE
 40
1.5
  9
$DIMTP
 40
0.1
  9
$DIMTM
 40
0.0
  9
$DIMTXT
 40
1.2
  9
$DIMCEN
 40
-1.0
  9
$DIMTSZ
 40
0.0
  9
$DIMTOL
 70
     0
  9
$DIMLIM
 70
     0
  9
$DIMTIH
 70
     0
  9
$DIMTOH
 70
     1
  9
$DIMSE1
 70
     0
  9
$DIMSE2
 70
     0
  9
$DIMTAD
 70
     1
  9
$DIMZIN
 70
     8
  9
$DIMBLK
  1

  9
$DIMASO
 70
     1
  9
$DIMSHO
 70
     0
  9
$DIMPOST
  1

  9
$DIMAPOST
  1

  9
$DIMALT
 70
     0
  9
$DIMALTD
 70
     2
  9
$DIMALTF
 40
25.4
  9
$DIMLFAC
 40
1.0
  9
$DIMTOFL
 70
     0
  9
$DIMTVP
 40
0.0
  9
$DIMTIX
 70
     1
  9
$DIMSOXD
 70
     0
  9
$DIMSAH
 70
     0
  9
$DIMBLK1
  1

  9
$DIMBLK2
  1

  9
$DIMSTYLE
  2
STANDARD
  9
$DIMCLRD
 70
     0
  9
$DIMCLRE
 70
     0
  9
$DIMCLRT
 70
     0
  9
$DIMTFAC
 40
1.0
  9
$DIMGAP
 40
0.75
  9
$DIMJUST
 70
     0
  9
$DIMSD1
 70
     0
  9
$DIMSD2
 70
     0
  9
$DIMTOLJ
 70
     1
  9
$DIMTZIN
 70
     8
  9
$DIMALTZ
 70
     0
  9
$DIMALTTZ
 70
     0
  9
$DIMFIT
 70
     4
  9
$DIMUPT
 70
     0
  9
$DIMUNIT
 70
     2
  9
$DIMDEC
 70
     1
  9
$DIMTDEC
 70
     4
  9
$DIMALTU
 70
     2
  9
$DIMALTTD
 70
     2
  9
$DIMTXSTY
  7
STANDARD
  9
$DIMAUNIT
 70
     0
  9
$LUNITS
 70
     2
  9
$LUPREC
 70
     2
  9
$SKETCHINC
 40
0.1
  9
$FILLETRAD
 40
5.0
  9
$AUNITS
 70
     0
  9
$AUPREC
 70
     2
  9
$MENU
  1
ACAD
  9
$ELEVATION
 40
0.0
  9
$PELEVATION
 40
0.0
  9
$THICKNESS
 40
0.0
  9
$LIMCHECK
 70
     0
  9
$CHAMFERA
 40
0.0
  9
$CHAMFERB
 40
0.0
  9
$CHAMFERC
 40
0.0
  9
$CHAMFERD
 40
0.0
  9
$SKPOLY
 70
     0
  9
$TDCREATE
 40
2448721.39913669
  9
$TDUPDATE
 40
2457522.319758125
  9
$TDINDWG
 40
1.9805346412
  9
$TDUSRTIMER
 40
2457522.231035266
  9
$USRTIMER
 70
     1
  9
$ANGBASE
 50
0.0
  9
$ANGDIR
 70
     0
  9
$PDMODE
 70
     0
  9
$PDSIZE
 40
0.0
  9
$PLINEWID
 40
0.5
  9
$COORDS
 70
     1
  9
$SPLFRAME
 70
     0
  9
$SPLINETYPE
 70
     6
  9
$SPLINESEGS
 70
     8
  9
$ATTDIA
 70
     0
  9
$ATTREQ
 70
     1
  9
$HANDLING
 70
     1
  9
$HANDSEED
  5
D78E
  9
$SURFTAB1
 70
     6
  9
$SURFTAB2
 70
     6
  9
$SURFTYPE
 70
     6
  9
$SURFU
 70
     6
  9
$SURFV
 70
     6
  9
$UCSNAME
  2

  9
$UCSORG
 10
0.0
 20
0.0
 30
0.0
  9
$UCSXDIR
 10
1.0
 20
0.0
 30
0.0
  9
$UCSYDIR
 10
0.0
 20
1.0
 30
0.0
  9
$PUCSNAME
  2

  9
$PUCSORG
 10
0.0
 20
0.0
 30
0.0
  9
$PUCSXDIR
 10
1.0
 20
0.0
 30
0.0
  9
$PUCSYDIR
 10
0.0
 20
1.0
 30
0.0
  9
$USERI1
 70
     0
  9
$USERI2
 70
     0
  9
$USERI3
 70
     0
  9
$USERI4
 70
     0
  9
$USERI5
 70
     0
  9
$USERR1
 40
0.0
  9
$USERR2
 40
0.0
  9
$USERR3
 40
0.0
  9
$USERR4
 40
0.0
  9
$USERR5
 40
0.0
  9
$WORLDVIEW
 70
     1
  9
$SHADEDGE
 70
     3
  9
$SHADEDIF
 70
    70
  9
$TILEMODE
 70
     1
  9
$MAXACTVP
 70
    16
  9
$PINSBASE
 10
0.0
 20
0.0
 30
0.0
  9
$PLIMCHECK
 70
     0
  9
$PEXTMIN
 10
1.000000000000000E+20
 20
1.000000000000000E+20
 30
1.000000000000000E+20
  9
$PEXTMAX
 10
-1.000000000000000E+20
 20
-1.000000000000000E+20
 30
-1.000000000000000E+20
  9
$PLIMMIN
 10
0.0
 20
0.0
  9
$PLIMMAX
 10
0.0
 20
0.0
  9
$UNITMODE
 70
     0
  9
$VISRETAIN
 70
     0
  9
$PLINEGEN
 70
     0
  9
$PSLTSCALE
 70
     0
  9
$TREEDEPTH
 70
  3020
  9
$PICKSTYLE
 70
     1
  9
$CMLSTYLE
  2
STANDARD
  9
$CMLJUST
 70
     0
  9
$CMLSCALE
 40
1.0
  9
$PROXYGRAPHICS
 70
     1
  9
$MEASUREMENT
 70
     0
  0
ENDSEC
  0
SECTION
  2
CLASSES
  0
CLASS
  1
HATCH
  2
AcDbHatch
  3
ObjectDBX Classes
 90
        0
280
     0
281
     1
  0
CLASS
  1
LWPOLYLINE
  2
AcDbPolyline
  3
ObjectDBX Classes
 90
        0
280
     0
281
     1
  0
CLASS
  1
DICTIONARYVAR
  2
AcDbDictionaryVar
  3
ObjectDBX Classes
 90
        0
280
     0
281
     0
  0
CLASS
  1
SCALE
  2
AcDbScale
  3
ObjectDBX Classes
 90
     1153
280
     0
281
     0
  0
CLASS
  1
VISUALSTYLE
  2
AcDbVisualStyle
  3
ObjectDBX Classes
 90
     4095
280
     0
281
     0
  0
CLASS
  1
MATERIAL
  2
AcDbMaterial
  3
ObjectDBX Classes
 90
     1153
280
     0
281
     0
  0
CLASS
  1
TABLESTYLE
  2
AcDbTableStyle
  3
ObjectDBX Classes
 90
     4095
280
     0
281
     0
  0
CLASS
  1
MLEADERSTYLE
  2
AcDbMLeaderStyle
  3
ACDB_MLEADERSTYLE_CLASS
 90
     4095
280
     0
281
     0
  0
CLASS
  1
SUN
  2
AcDbSun
  3
SCENEOE
 90
     1153
280
     0
281
     0
  0
CLASS
  1
RASTERVARIABLES
  2
AcDbRasterVariables
  3
ISM
 90
        0
280
     0
281
     0
  0
CLASS
  1
ACDBDICTIONARYWDFLT
  2
AcDbDictionaryWithDefault
  3
ObjectDBX Classes
 90
        0
280
     0
281
     0
  0
CLASS
  1
DIMASSOC
  2
AcDbDimAssoc
  3
"AcDbDimAssoc|Product Desc:     AcDim ARX App For Dimension|Company:          Autodesk, Inc.|WEB Address:      www.autodesk.com"
 90
        0
280
     0
281
     0
  0
CLASS
  1
XRECORD
  2
AcDbXrecord
  3
ObjectDBX Classes
 90
        0
280
     0
281
     0
  0
ENDSEC
  0
SECTION
  2
TABLES
  0
TABLE
  2
VPORT
  5
8
330
0
100
AcDbSymbolTable
 70
     1
  0
VPORT
  5
D2AE
330
8
100
AcDbSymbolTableRecord
100
AcDbViewportTableRecord
  2
*ACTIVE
 70
     0
 10
0.0
 20
0.0
 11
1.0
 21
1.0
 12
586.8564475000001
 22
148.5
 13
0.0
 23
0.0
 14
1.0
 24
1.0
 15
5.0
 25
5.0
 16
0.0
 26
0.0
 36
1.0
 17
0.0
 27
0.0
 37
0.0
 40
302.94
 41
2.811127379209371
 42
50.0
 43
0.0
 44
0.0
 50
0.0
 51
0.0
 71
    16
 72
   100
 73
     1
 74
     0
 75
     0
 76
     0
 77
     0
 78
     0
  0
ENDTAB
  0
TABLE
  2
LTYPE
  5
5
330
0
100
AcDbSymbolTable
 70
     3
  0
LTYPE
  5
12
330
5
100
AcDbSymbolTableRecord
100
AcDbLinetypeTableRecord
  2
BYBLOCK
 70
     0
  3

 72
    65
 73
     0
 40
0.0
  0
LTYPE
  5
13
330
5
100
AcDbSymbolTableRecord
100
AcDbLinetypeTableRecord
  2
BYLAYER
 70
     0
  3

 72
    65
 73
     0
 40
0.0
  0
LTYPE
  5
14
330
5
100
AcDbSymbolTableRecord
100
AcDbLinetypeTableRecord
  2
CONTINUOUS
 70
     0
  3
Solid line
 72
    65
 73
     0
 40
0.0
  0
LTYPE
  5
1D
330
5
100
AcDbSymbolTableRecord
100
AcDbLinetypeTableRecord
  2
CENTER
 70
     0
  3
____ _ ____ _ ____ _ ____ _ ____ _ ____ _ ____
 72
    65
 73
     4
 40
2.0
 49
1.25
 74
     0
 49
-0.25
 74
     0
 49
0.25
 74
     0
 49
-0.25
 74
     0
  0
LTYPE
  5
1E
330
5
100
AcDbSymbolTableRecord
100
AcDbLinetypeTableRecord
  2
HIDDEN
 70
     0
  3
_ _ _ _ _ _ _ _ _ _ _ _ _ _ _ _ _ _ _ _ _ _ _
 72
    65
 73
     2
 40
0.375
 49
0.25
 74
     0
 49
-0.125
 74
     0
  0
ENDTAB
  0
TABLE
  2
LAYER
  5
2
102
{ACAD_XDICTIONARY
360
D47F
102
}
330
0
100
AcDbSymbolTable
 70
     8
  0
LAYER
  5
F
330
2
100
AcDbSymbolTableRecord
100
AcDbLayerTableRecord
  2
0
 70
     0
 62
     7
  6
CONTINUOUS
  0
LAYER
  5
21
330
2
100
AcDbSymbolTableRecord
100
AcDbLayerTableRecord
  2
1
 70
     0
 62
     3
  6
CONTINUOUS
  0
LAYER
  5
22
330
2
100
AcDbSymbolTableRecord
100
AcDbLayerTableRecord
  2
2
 70
     0
 62
     6
  6
CONTINUOUS
  0
LAYER
  5
23
330
2
100
AcDbSymbolTableRecord
100
AcDbLayerTableRecord
  2
3
 70
     0
 62
     4
  6
HIDDEN
  0
LAYER
  5
24
330
2
100
AcDbSymbolTableRecord
100
AcDbLayerTableRecord
  2
OSIE
 70
     0
 62
     2
  6
CENTER
  0
LAYER
  5
25
330
2
100
AcDbSymbolTableRecord
100
AcDbLayerTableRecord
  2
WY
 70
     0
 62
     1
  6
CONTINUOUS
  0
LAYER
  5
26
330
2
100
AcDbSymbolTableRecord
100
AcDbLayerTableRecord
  2
DEFPOINTS
 70
     0
 62
     7
  6
CONTINUOUS
  0
LAYER
  5
464
330
2
100
AcDbSymbolTableRecord
100
AcDbLayerTableRecord
  2
WYMIARY
 70
     0
 62
     1
  6
CONTINUOUS
  0
ENDTAB
  0
TABLE
  2
STYLE
  5
3
330
0
100
AcDbSymbolTable
 70
     2
  0
STYLE
  5
10
330
3
100
AcDbSymbolTableRecord
100
AcDbTextStyleTableRecord
  2
STANDARD
 70
     0
 40
0.0
 41
1.0
 50
0.0
 71
     0
 42
6.0
  3
txt
  4

  0
STYLE
  5
1C
330
3
100
AcDbSymbolTableRecord
100
AcDbTextStyleTableRecord
  2
ITALIC
 70
     0
 40
0.0
 41
1.0
 50
15.0
 71
     0
 42
0.2
  3
simplex
  4

  0
ENDTAB
  0
TABLE
  2
VIEW
  5
6
330
0
100
AcDbSymbolTable
 70
     0
  0
ENDTAB
  0
TABLE
  2
UCS
  5
7
330
0
100
AcDbSymbolTable
 70
     0
  0
ENDTAB
  0
TABLE
  2
APPID
  5
9
330
0
100
AcDbSymbolTable
 70
     1
  0
APPID
  5
11
330
9
100
AcDbSymbolTableRecord
100
AcDbRegAppTableRecord
  2
ACAD
 70
     0
  0
ENDTAB
  0
TABLE
  2
DIMSTYLE
  5
A
330
0
100
AcDbSymbolTable
 70
     2
  0
DIMSTYLE
105
3B
102
{ACAD_REACTORS
330
C8DC
330
C901
330
D274
330
D470
330
D493
330
D4B1
330
D4C0
330
D4D0
330
D4E6
330
D4F5
330
D506
330
D5DA
330
D5F4
330
D605
330
D614
330
D628
330
D638
330
D647
330
D658
330
D6E4
330
D6F2
330
D6F5
330
D6FB
330
D6FE
330
D701
330
D704
330
D76D
330
D77C
102
}
330
A
100
AcDbSymbolTableRecord
100
AcDbDimStyleTableRecord
  2
STANDARD
 70
     0
  3

  4

  5

  6

  7

 40
1.0
 41
3.5
 42
1.5
 43
7.0
 44
1.5
 45
0.0
 46
0.0
 47
0.1
 48
0.0
140
3.6
141
-1.0
142
0.0
143
25.4
144
1.0
145
0.0
146
1.0
147
1.5
 71
     0
 72
     0
 73
     0
 74
     0
 75
     0
 76
     0
 77
     1
 78
     0
170
     0
171
     2
172
     0
173
     0
174
     0
175
     0
176
     0
177
     0
178
     0
270
     2
271
     2
272
     4
273
     2
274
     2
340
10
275
     0
280
     0
281
     0
282
     0
283
     1
284
     0
285
     0
286
     0
287
     3
288
     0
  0
DIMSTYLE
105
D2FC
330
A
100
AcDbSymbolTableRecord
100
AcDbDimStyleTableRecord
  2
ISO-25
 70
     0
  3

  4

  5

  6

  7

 40
1.0
 41
2.5
 42
0.625
 43
3.75
 44
1.25
 45
0.0
 46
0.0
 47
0.0
 48
0.0
140
2.5
141
2.5
142
0.0
143
0.03937007874016
144
1.0
145
0.0
146
1.0
147
0.625
 71
     0
 72
     0
 73
     0
 74
     0
 75
     0
 76
     0
 77
     1
 78
     8
170
     0
171
     3
172
     1
173
     0
174
     0
175
     0
176
     0
177
     0
178
     0
270
     2
271
     2
272
     2
273
     2
274
     3
340
10
275
     0
280
     0
281
     0
282
     0
283
     0
284
     8
285
     0
286
     0
287
     3
288
     0
  0
ENDTAB
  0
TABLE
  2
BLOCK_RECORD
  5
1
330
0
100
AcDbSymbolTable
 70
    45
  0
BLOCK_RECORD
  5
18
330
1
100
AcDbSymbolTableRecord
100
AcDbBlockTableRecord
  2
*MODEL_SPACE
  0
BLOCK_RECORD
  5
15
330
1
100
AcDbSymbolTableRecord
100
AcDbBlockTableRecord
  2
*PAPER_SPACE
  0
BLOCK_RECORD
  5
BC08
330
1
100
AcDbSymbolTableRecord
100
AcDbBlockTableRecord
  2
*D0
  0
BLOCK_RECORD
  5
BC15
330
1
100
AcDbSymbolTableRecord
100
AcDbBlockTableRecord
  2
*D1
  0
BLOCK_RECORD
  5
C0CC
330
1
100
AcDbSymbolTableRecord
100
AcDbBlockTableRecord
  2
*D2
  0
BLOCK_RECORD
  5
C0D9
330
1
100
AcDbSymbolTableRecord
100
AcDbBlockTableRecord
  2
*D3
  0
BLOCK_RECORD
  5
C8CF
330
1
100
AcDbSymbolTableRecord
100
AcDbBlockTableRecord
  2
*D4
  0
BLOCK_RECORD
  5
C8F5
330
1
100
AcDbSymbolTableRecord
100
AcDbBlockTableRecord
  2
*D5
  0
BLOCK_RECORD
  5
CC9D
330
1
100
AcDbSymbolTableRecord
100
AcDbBlockTableRecord
  2
*D6
  0
BLOCK_RECORD
  5
CCA9
330
1
100
AcDbSymbolTableRecord
100
AcDbBlockTableRecord
  2
*D7
  0
BLOCK_RECORD
  5
CCB5
330
1
100
AcDbSymbolTableRecord
100
AcDbBlockTableRecord
  2
*D8
  0
BLOCK_RECORD
  5
CCC1
330
1
100
AcDbSymbolTableRecord
100
AcDbBlockTableRecord
  2
*D9
  0
BLOCK_RECORD
  5
CCCD
330
1
100
AcDbSymbolTableRecord
100
AcDbBlockTableRecord
  2
*D10
  0
BLOCK_RECORD
  5
CCD9
330
1
100
AcDbSymbolTableRecord
100
AcDbBlockTableRecord
  2
A$C5C477B7F
  0
BLOCK_RECORD
  5
D268
330
1
100
AcDbSymbolTableRecord
100
AcDbBlockTableRecord
  2
*D12
  0
BLOCK_RECORD
  5
D464
330
1
100
AcDbSymbolTableRecord
100
AcDbBlockTableRecord
  2
*D14
  0
BLOCK_RECORD
  5
D473
330
1
100
AcDbSymbolTableRecord
100
AcDbBlockTableRecord
  2
*D15
  0
BLOCK_RECORD
  5
D496
330
1
100
AcDbSymbolTableRecord
100
AcDbBlockTableRecord
  2
*D16
  0
BLOCK_RECORD
  5
D4B4
330
1
100
AcDbSymbolTableRecord
100
AcDbBlockTableRecord
  2
*D17
  0
BLOCK_RECORD
  5
D4C3
330
1
100
AcDbSymbolTableRecord
100
AcDbBlockTableRecord
  2
*D18
  0
BLOCK_RECORD
  5
D4D3
330
1
100
AcDbSymbolTableRecord
100
AcDbBlockTableRecord
  2
*D19
  0
BLOCK_RECORD
  5
D4E2
330
1
100
AcDbSymbolTableRecord
100
AcDbBlockTableRecord
  2
_OBLIQUE
  0
BLOCK_RECORD
  5
D4E9
330
1
100
AcDbSymbolTableRecord
100
AcDbBlockTableRecord
  2
*D21
  0
BLOCK_RECORD
  5
D4F8
330
1
100
AcDbSymbolTableRecord
100
AcDbBlockTableRecord
  2
*D22
  0
BLOCK_RECORD
  5
D509
330
1
100
AcDbSymbolTableRecord
100
AcDbBlockTableRecord
  2
*D23
  0
BLOCK_RECORD
  5
D518
330
1
100
AcDbSymbolTableRecord
100
AcDbBlockTableRecord
  2
*D24
  0
BLOCK_RECORD
  5
D52C
330
1
100
AcDbSymbolTableRecord
100
AcDbBlockTableRecord
  2
*D25
  0
BLOCK_RECORD
  5
D5DD
330
1
100
AcDbSymbolTableRecord
100
AcDbBlockTableRecord
  2
*D27
  0
BLOCK_RECORD
  5
D5F7
330
1
100
AcDbSymbolTableRecord
100
AcDbBlockTableRecord
  2
*D28
  0
BLOCK_RECORD
  5
D608
330
1
100
AcDbSymbolTableRecord
100
AcDbBlockTableRecord
  2
*D29
  0
BLOCK_RECORD
  5
D617
330
1
100
AcDbSymbolTableRecord
100
AcDbBlockTableRecord
  2
*D30
  0
BLOCK_RECORD
  5
D62B
330
1
100
AcDbSymbolTableRecord
100
AcDbBlockTableRecord
  2
*D31
  0
BLOCK_RECORD
  5
D63B
330
1
100
AcDbSymbolTableRecord
100
AcDbBlockTableRecord
  2
*D32
  0
BLOCK_RECORD
  5
D64A
330
1
100
AcDbSymbolTableRecord
100
AcDbBlockTableRecord
  2
*D33
  0
BLOCK_RECORD
  5
D65B
330
1
100
AcDbSymbolTableRecord
100
AcDbBlockTableRecord
  2
*D34
  0
BLOCK_RECORD
  5
D707
330
1
100
AcDbSymbolTableRecord
100
AcDbBlockTableRecord
  2
*D35
  0
BLOCK_RECORD
  5
D713
330
1
100
AcDbSymbolTableRecord
100
AcDbBlockTableRecord
  2
*D36
  0
BLOCK_RECORD
  5
D721
330
1
100
AcDbSymbolTableRecord
100
AcDbBlockTableRecord
  2
*D37
  0
BLOCK_RECORD
  5
D72D
330
1
100
AcDbSymbolTableRecord
100
AcDbBlockTableRecord
  2
*D38
  0
BLOCK_RECORD
  5
D73A
330
1
100
AcDbSymbolTableRecord
100
AcDbBlockTableRecord
  2
*D39
  0
BLOCK_RECORD
  5
D747
330
1
100
AcDbSymbolTableRecord
100
AcDbBlockTableRecord
  2
*D40
  0
BLOCK_RECORD
  5
D753
330
1
100
AcDbSymbolTableRecord
100
AcDbBlockTableRecord
  2
*D41
  0
BLOCK_RECORD
  5
D761
330
1
100
AcDbSymbolTableRecord
100
AcDbBlockTableRecord
  2
*D42
  0
BLOCK_RECORD
  5
D770
330
1
100
AcDbSymbolTableRecord
100
AcDbBlockTableRecord
  2
*D43
  0
BLOCK_RECORD
  5
D77F
330
1
100
AcDbSymbolTableRecord
100
AcDbBlockTableRecord
  2
*D44
  0
ENDTAB
  0
ENDSEC
  0
SECTION
  2
BLOCKS
  0
BLOCK
  5
29
330
18
100
AcDbEntity
  8
0
100
AcDbBlockBegin
  2
*MODEL_SPACE
 70
     0
 10
0.0
 20
0.0
 30
0.0
  3
*MODEL_SPACE
  1

  0
ENDBLK
  5
2A
330
18
100
AcDbEntity
  8
0
100
AcDbBlockEnd
  0
BLOCK
  5
27
330
15
100
AcDbEntity
 67
     1
  8
0
100
AcDbBlockBegin
  2
*PAPER_SPACE
 70
     0
 10
0.0
 20
0.0
 30
0.0
  3
*PAPER_SPACE
  1

  0
ENDBLK
  5
28
330
15
100
AcDbEntity
 67
     1
  8
0
100
AcDbBlockEnd
  0
BLOCK
  5
BE33
330
BC08
100
AcDbEntity
  8
0
100
AcDbBlockBegin
  2
*D0
 70
     1
 10
0.0
 20
0.0
 30
0.0
  3
*D0
  1
*D0
  0
LINE
  5
BE34
330
BC08
100
AcDbEntity
  8
WYMIARY
 62
     0
100
AcDbLine
 10
538.041708
 20
251.777948
 30
0.0
 11
538.041708
 21
258.411667
 31
0.0
  0
LINE
  5
BE35
330
BC08
100
AcDbEntity
  8
WYMIARY
 62
     0
100
AcDbLine
 10
568.041708
 20
251.777948
 30
0.0
 11
568.041708
 21
258.411667
 31
0.0
  0
LINE
  5
BE36
330
BC08
100
AcDbEntity
  8
WYMIARY
 62
     0
100
AcDbLine
 10
541.541708
 20
256.911667
 30
0.0
 11
564.541708
 21
256.911667
 31
0.0
  0
SOLID
  5
BE37
330
BC08
100
AcDbEntity
  8
WYMIARY
 62
     0
100
AcDbTrace
 10
541.541708
 20
257.4950003333333
 30
0.0
 11
541.541708
 21
256.3283336666667
 31
0.0
 12
538.041708
 22
256.911667
 32
0.0
 13
538.041708
 23
256.911667
 33
0.0
  0
SOLID
  5
BE38
330
BC08
100
AcDbEntity
  8
WYMIARY
 62
     0
100
AcDbTrace
 10
564.541708
 20
256.3283336666667
 30
0.0
 11
564.541708
 21
257.4950003333333
 31
0.0
 12
568.041708
 22
256.911667
 32
0.0
 13
568.041708
 23
256.911667
 33
0.0
  0
MTEXT
  5
BE39
330
BC08
100
AcDbEntity
  8
WYMIARY
 62
     0
100
AcDbMText
 10
553.041708
 20
258.561667
 30
0.0
 40
1.8
 41
0.0
 71
     5
 72
     1
  1
\A1;30.00
  0
POINT
  5
BE3A
330
BC08
100
AcDbEntity
  8
DEFPOINTS
 62
     0
100
AcDbPoint
 10
538.041708
 20
250.277948
 30
0.0
  0
POINT
  5
BE3B
330
BC08
100
AcDbEntity
  8
DEFPOINTS
 62
     0
100
AcDbPoint
 10
568.041708
 20
250.277948
 30
0.0
  0
POINT
  5
BE3C
330
BC08
100
AcDbEntity
  8
DEFPOINTS
 62
     0
100
AcDbPoint
 10
568.041708
 20
256.911667
 30
0.0
  0
ENDBLK
  5
BE3D
330
BC08
100
AcDbEntity
  8
0
100
AcDbBlockEnd
  0
BLOCK
  5
BE28
330
BC15
100
AcDbEntity
  8
0
100
AcDbBlockBegin
  2
*D1
 70
     1
 10
0.0
 20
0.0
 30
0.0
  3
*D1
  1
*D1
  0
LINE
  5
BE29
330
BC15
100
AcDbEntity
  8
WYMIARY
 62
     0
100
AcDbLine
 10
536.541708
 20
250.277948
 30
0.0
 11
530.374421
 21
250.277948
 31
0.0
  0
LINE
  5
BE2A
330
BC15
100
AcDbEntity
  8
WYMIARY
 62
     0
100
AcDbLine
 10
536.541708
 20
240.277948
 30
0.0
 11
530.374421
 21
240.277948
 31
0.0
  0
LINE
  5
BE2B
330
BC15
100
AcDbEntity
  8
WYMIARY
 62
     0
100
AcDbLine
 10
531.874421
 20
246.777948
 30
0.0
 11
531.874421
 21
243.777948
 31
0.0
  0
SOLID
  5
BE2C
330
BC15
100
AcDbEntity
  8
WYMIARY
 62
     0
100
AcDbTrace
 10
532.4577543333334
 20
246.777948
 30
0.0
 11
531.2910876666666
 21
246.777948
 31
0.0
 12
531.874421
 22
250.277948
 32
0.0
 13
531.874421
 23
250.277948
 33
0.0
  0
SOLID
  5
BE2D
330
BC15
100
AcDbEntity
  8
WYMIARY
 62
     0
100
AcDbTrace
 10
531.2910876666666
 20
243.777948
 30
0.0
 11
532.4577543333334
 21
243.777948
 31
0.0
 12
531.874421
 22
240.277948
 32
0.0
 13
531.874421
 23
240.277948
 33
0.0
  0
MTEXT
  5
BE2E
330
BC15
100
AcDbEntity
  8
WYMIARY
 62
     0
100
AcDbMText
 10
530.224421
 20
245.277948
 30
0.0
 40
1.8
 41
0.0
 71
     5
 72
     1
  1
\A1;10.00
 11
0.0
 21
1.0
 31
0.0
  0
POINT
  5
BE2F
330
BC15
100
AcDbEntity
  8
DEFPOINTS
 62
     0
100
AcDbPoint
 10
538.041708
 20
250.277948
 30
0.0
  0
POINT
  5
BE30
330
BC15
100
AcDbEntity
  8
DEFPOINTS
 62
     0
100
AcDbPoint
 10
538.041708
 20
240.277948
 30
0.0
  0
POINT
  5
BE31
330
BC15
100
AcDbEntity
  8
DEFPOINTS
 62
     0
100
AcDbPoint
 10
531.874421
 20
240.277948
 30
0.0
  0
ENDBLK
  5
BE32
330
BC15
100
AcDbEntity
  8
0
100
AcDbBlockEnd
  0
BLOCK
  5
C0E6
330
C0CC
100
AcDbEntity
  8
0
100
AcDbBlockBegin
  2
*D2
 70
     1
 10
0.0
 20
0.0
 30
0.0
  3
*D2
  1
*D2
  0
LINE
  5
C0E7
330
C0CC
100
AcDbEntity
  8
WYMIARY
 62
     0
100
AcDbLine
 10
613.497415
 20
251.870455
 30
0.0
 11
613.497415
 21
256.129784
 31
0.0
  0
LINE
  5
C0E8
330
C0CC
100
AcDbEntity
  8
WYMIARY
 62
     0
100
AcDbLine
 10
641.497415
 20
251.870455
 30
0.0
 11
641.497415
 21
256.129784
 31
0.0
  0
LINE
  5
C0E9
330
C0CC
100
AcDbEntity
  8
WYMIARY
 62
     0
100
AcDbLine
 10
616.997415
 20
254.629784
 30
0.0
 11
637.997415
 21
254.629784
 31
0.0
  0
SOLID
  5
C0EA
330
C0CC
100
AcDbEntity
  8
WYMIARY
 62
     0
100
AcDbTrace
 10
616.997415
 20
255.2131173333333
 30
0.0
 11
616.997415
 21
254.0464506666667
 31
0.0
 12
613.497415
 22
254.629784
 32
0.0
 13
613.497415
 23
254.629784
 33
0.0
  0
SOLID
  5
C0EB
330
C0CC
100
AcDbEntity
  8
WYMIARY
 62
     0
100
AcDbTrace
 10
637.997415
 20
254.0464506666667
 30
0.0
 11
637.997415
 21
255.2131173333333
 31
0.0
 12
641.497415
 22
254.629784
 32
0.0
 13
641.497415
 23
254.629784
 33
0.0
  0
MTEXT
  5
C0EC
330
C0CC
100
AcDbEntity
  8
WYMIARY
 62
     0
100
AcDbMText
 10
627.497415
 20
256.279784
 30
0.0
 40
1.8
 41
0.0
 71
     5
 72
     1
  1
\A1;28.00
  0
POINT
  5
C0ED
330
C0CC
100
AcDbEntity
  8
DEFPOINTS
 62
     0
100
AcDbPoint
 10
613.497415
 20
250.370455
 30
0.0
  0
POINT
  5
C0EE
330
C0CC
100
AcDbEntity
  8
DEFPOINTS
 62
     0
100
AcDbPoint
 10
641.497415
 20
250.370455
 30
0.0
  0
POINT
  5
C0EF
330
C0CC
100
AcDbEntity
  8
DEFPOINTS
 62
     0
100
AcDbPoint
 10
641.497415
 20
254.629784
 30
0.0
  0
ENDBLK
  5
C0F0
330
C0CC
100
AcDbEntity
  8
0
100
AcDbBlockEnd
  0
BLOCK
  5
C0F1
330
C0D9
100
AcDbEntity
  8
0
100
AcDbBlockBegin
  2
*D3
 70
     1
 10
0.0
 20
0.0
 30
0.0
  3
*D3
  1
*D3
  0
LINE
  5
C0F2
330
C0D9
100
AcDbEntity
  8
WYMIARY
 62
     0
100
AcDbLine
 10
611.997415
 20
250.370455
 30
0.0
 11
607.848949
 21
250.370455
 31
0.0
  0
LINE
  5
C0F3
330
C0D9
100
AcDbEntity
  8
WYMIARY
 62
     0
100
AcDbLine
 10
611.997415
 20
240.370455
 30
0.0
 11
607.848949
 21
240.370455
 31
0.0
  0
LINE
  5
C0F4
330
C0D9
100
AcDbEntity
  8
WYMIARY
 62
     0
100
AcDbLine
 10
609.348949
 20
246.870455
 30
0.0
 11
609.348949
 21
243.870455
 31
0.0
  0
SOLID
  5
C0F5
330
C0D9
100
AcDbEntity
  8
WYMIARY
 62
     0
100
AcDbTrace
 10
609.9322823333333
 20
246.870455
 30
0.0
 11
608.7656156666666
 21
246.870455
 31
0.0
 12
609.348949
 22
250.370455
 32
0.0
 13
609.348949
 23
250.370455
 33
0.0
  0
SOLID
  5
C0F6
330
C0D9
100
AcDbEntity
  8
WYMIARY
 62
     0
100
AcDbTrace
 10
608.7656156666666
 20
243.870455
 30
0.0
 11
609.9322823333333
 21
243.870455
 31
0.0
 12
609.348949
 22
240.370455
 32
0.0
 13
609.348949
 23
240.370455
 33
0.0
  0
MTEXT
  5
C0F7
330
C0D9
100
AcDbEntity
  8
WYMIARY
 62
     0
100
AcDbMText
 10
607.698949
 20
245.370455
 30
0.0
 40
1.8
 41
0.0
 71
     5
 72
     1
  1
\A1;10.00
 11
0.0
 21
1.0
 31
0.0
  0
POINT
  5
C0F8
330
C0D9
100
AcDbEntity
  8
DEFPOINTS
 62
     0
100
AcDbPoint
 10
613.497415
 20
250.370455
 30
0.0
  0
POINT
  5
C0F9
330
C0D9
100
AcDbEntity
  8
DEFPOINTS
 62
     0
100
AcDbPoint
 10
613.497415
 20
240.370455
 30
0.0
  0
POINT
  5
C0FA
330
C0D9
100
AcDbEntity
  8
DEFPOINTS
 62
     0
100
AcDbPoint
 10
609.348949
 20
240.370455
 30
0.0
  0
ENDBLK
  5
C0FB
330
C0D9
100
AcDbEntity
  8
0
100
AcDbBlockEnd
  0
BLOCK
  5
CF09
330
C8CF
100
AcDbEntity
  8
0
100
AcDbBlockBegin
  2
*D4
 70
     1
 10
0.0
 20
0.0
 30
0.0
  3
*D4
  1
*D4
  0
LINE
  5
CF0A
330
C8CF
100
AcDbEntity
  8
WYMIARY
 62
     0
100
AcDbLine
 10
566.00954
 20
131.835663
 30
0.0
 11
538.588709
 21
131.835663
 31
0.0
  0
LINE
  5
CF0B
330
C8CF
100
AcDbEntity
  8
WYMIARY
 62
     0
100
AcDbLine
 10
566.00954
 20
124.335663
 30
0.0
 11
538.588709
 21
124.335663
 31
0.0
  0
LINE
  5
CF0C
330
C8CF
100
AcDbEntity
  8
WYMIARY
 62
     0
100
AcDbLine
 10
540.088709
 20
135.335663
 30
0.0
 11
540.088709
 21
138.835663
 31
0.0
  0
LINE
  5
CF0D
330
C8CF
100
AcDbEntity
  8
WYMIARY
 62
     0
100
AcDbLine
 10
540.088709
 20
120.835663
 30
0.0
 11
540.088709
 21
117.335663
 31
0.0
  0
SOLID
  5
CF0E
330
C8CF
100
AcDbEntity
  8
WYMIARY
 62
     0
100
AcDbTrace
 10
539.5053756666666
 20
135.335663
 30
0.0
 11
540.6720423333334
 21
135.335663
 31
0.0
 12
540.088709
 22
131.835663
 32
0.0
 13
540.088709
 23
131.835663
 33
0.0
  0
SOLID
  5
CF0F
330
C8CF
100
AcDbEntity
  8
WYMIARY
 62
     0
100
AcDbTrace
 10
540.6720423333334
 20
120.835663
 30
0.0
 11
539.5053756666666
 21
120.835663
 31
0.0
 12
540.088709
 22
124.335663
 32
0.0
 13
540.088709
 23
124.335663
 33
0.0
  0
MTEXT
  5
CF10
330
C8CF
100
AcDbEntity
  8
WYMIARY
 62
     0
100
AcDbMText
 10
538.438709
 20
128.085663
 30
0.0
 40
1.8
 41
0.0
 71
     5
 72
     1
  1
\A1;7.50
 11
0.0
 21
1.0
 31
0.0
  0
POINT
  5
CF11
330
C8CF
100
AcDbEntity
  8
DEFPOINTS
 62
     0
100
AcDbPoint
 10
567.50954
 20
131.835663
 30
0.0
  0
POINT
  5
CF12
330
C8CF
100
AcDbEntity
  8
DEFPOINTS
 62
     0
100
AcDbPoint
 10
567.50954
 20
124.335663
 30
0.0
  0
POINT
  5
CF13
330
C8CF
100
AcDbEntity
  8
DEFPOINTS
 62
     0
100
AcDbPoint
 10
540.088709
 20
124.335663
 30
0.0
  0
ENDBLK
  5
CF14
330
C8CF
100
AcDbEntity
  8
0
100
AcDbBlockEnd
  0
BLOCK
  5
CF29
330
C8F5
100
AcDbEntity
  8
0
100
AcDbBlockBegin
  2
*D5
 70
     1
 10
0.0
 20
0.0
 30
0.0
  3
*D5
  1
*D5
  0
LINE
  5
CF2A
330
C8F5
100
AcDbEntity
  8
WYMIARY
 62
     0
100
AcDbLine
 10
630.40954
 20
135.835663
 30
0.0
 11
638.709153
 21
135.835663
 31
0.0
  0
LINE
  5
CF2B
330
C8F5
100
AcDbEntity
  8
WYMIARY
 62
     0
100
AcDbLine
 10
630.40954
 20
120.335663
 30
0.0
 11
638.709153
 21
120.335663
 31
0.0
  0
LINE
  5
CF2C
330
C8F5
100
AcDbEntity
  8
WYMIARY
 62
     0
100
AcDbLine
 10
637.209153
 20
132.335663
 30
0.0
 11
637.209153
 21
123.835663
 31
0.0
  0
SOLID
  5
CF2D
330
C8F5
100
AcDbEntity
  8
WYMIARY
 62
     0
100
AcDbTrace
 10
637.7924863333334
 20
132.335663
 30
0.0
 11
636.6258196666666
 21
132.335663
 31
0.0
 12
637.209153
 22
135.835663
 32
0.0
 13
637.209153
 23
135.835663
 33
0.0
  0
SOLID
  5
CF2E
330
C8F5
100
AcDbEntity
  8
WYMIARY
 62
     0
100
AcDbTrace
 10
636.6258196666666
 20
123.835663
 30
0.0
 11
637.7924863333334
 21
123.835663
 31
0.0
 12
637.209153
 22
120.335663
 32
0.0
 13
637.209153
 23
120.335663
 33
0.0
  0
MTEXT
  5
CF2F
330
C8F5
100
AcDbEntity
  8
WYMIARY
 62
     0
100
AcDbMText
 10
635.559153
 20
127.579232
 30
0.0
 40
1.8
 41
0.0
 71
     5
 72
     1
  1
\A1;15.50
 11
0.0
 21
1.0
 31
0.0
  0
POINT
  5
CF30
330
C8F5
100
AcDbEntity
  8
DEFPOINTS
 62
     0
100
AcDbPoint
 10
628.90954
 20
135.835663
 30
0.0
  0
POINT
  5
CF31
330
C8F5
100
AcDbEntity
  8
DEFPOINTS
 62
     0
100
AcDbPoint
 10
628.90954
 20
120.335663
 30
0.0
  0
POINT
  5
CF32
330
C8F5
100
AcDbEntity
  8
DEFPOINTS
 62
     0
100
AcDbPoint
 10
637.209153
 20
120.335663
 30
0.0
  0
ENDBLK
  5
CF33
330
C8F5
100
AcDbEntity
  8
0
100
AcDbBlockEnd
  0
BLOCK
  5
CCA7
330
CC9D
100
AcDbEntity
  8
0
100
AcDbBlockBegin
  2
*D6
 70
     1
 10
0.0
 20
0.0
 30
0.0
  3
*D6
  1
*D6
  0
LINE
  5
CC9E
330
CC9D
100
AcDbEntity
  8
0
  6
BYBLOCK
 62
     0
100
AcDbLine
 10
1219.707521
 20
215.176489
 30
0.0
 11
1269.072631
 21
215.176489
 31
0.0
  0
LINE
  5
CC9F
330
CC9D
100
AcDbEntity
  8
0
  6
BYBLOCK
 62
     0
100
AcDbLine
 10
1240.496965
 20
154.176489
 30
0.0
 11
1269.072631
 21
154.176489
 31
0.0
  0
LINE
  5
CCA0
330
CC9D
100
AcDbEntity
  8
0
  6
BYBLOCK
 62
     0
100
AcDbLine
 10
1267.572631
 20
211.676489
 30
0.0
 11
1267.572631
 21
157.676489
 31
0.0
  0
SOLID
  5
CCA1
330
CC9D
100
AcDbEntity
  8
0
  6
BYBLOCK
 62
     0
100
AcDbTrace
 10
1266.989298
 20
211.676489
 30
0.0
 11
1268.155965
 21
211.676489
 31
0.0
 12
1267.572631
 22
215.176489
 32
0.0
 13
1267.572631
 23
215.176489
 33
0.0
  0
SOLID
  5
CCA2
330
CC9D
100
AcDbEntity
  8
0
  6
BYBLOCK
 62
     0
100
AcDbTrace
 10
1266.989298
 20
157.676489
 30
0.0
 11
1268.155965
 21
157.676489
 31
0.0
 12
1267.572631
 22
154.176489
 32
0.0
 13
1267.572631
 23
154.176489
 33
0.0
  0
MTEXT
  5
CCA3
330
CC9D
100
AcDbEntity
  8
0
  6
BYBLOCK
 62
     0
100
AcDbMText
 10
1265.922631
 20
184.676489
 30
0.0
 40
1.8
 41
0.0
 71
     5
 72
     1
  1
\A1;61.00
 11
0.0
 21
1.0
 31
0.0
  0
POINT
  5
CCA4
330
CC9D
100
AcDbEntity
  8
DEFPOINTS
  6
BYBLOCK
 62
     0
100
AcDbPoint
 10
1218.207521
 20
215.176489
 30
0.0
  0
POINT
  5
CCA5
330
CC9D
100
AcDbEntity
  8
DEFPOINTS
  6
BYBLOCK
 62
     0
100
AcDbPoint
 10
1238.996965
 20
154.176489
 30
0.0
  0
POINT
  5
CCA6
330
CC9D
100
AcDbEntity
  8
DEFPOINTS
  6
BYBLOCK
 62
     0
100
AcDbPoint
 10
1267.572631
 20
154.176489
 30
0.0
  0
ENDBLK
  5
CCA8
330
CC9D
100
AcDbEntity
  8
0
100
AcDbBlockEnd
  0
BLOCK
  5
CCB3
330
CCA9
100
AcDbEntity
  8
0
100
AcDbBlockBegin
  2
*D7
 70
     1
 10
0.0
 20
0.0
 30
0.0
  3
*D7
  1
*D7
  0
LINE
  5
CCAA
330
CCA9
100
AcDbEntity
  8
0
  6
BYBLOCK
 62
     0
100
AcDbLine
 10
1230.631345
 20
196.676489
 30
0.0
 11
1263.76992
 21
196.676489
 31
0.0
  0
LINE
  5
CCAB
330
CCA9
100
AcDbEntity
  8
0
  6
BYBLOCK
 62
     0
100
AcDbLine
 10
1239.996965
 20
154.176489
 30
0.0
 11
1263.76992
 21
154.176489
 31
0.0
  0
LINE
  5
CCAC
330
CCA9
100
AcDbEntity
  8
0
  6
BYBLOCK
 62
     0
100
AcDbLine
 10
1262.26992
 20
193.176489
 30
0.0
 11
1262.26992
 21
157.676489
 31
0.0
  0
SOLID
  5
CCAD
330
CCA9
100
AcDbEntity
  8
0
  6
BYBLOCK
 62
     0
100
AcDbTrace
 10
1261.686587
 20
193.176489
 30
0.0
 11
1262.853254
 21
193.176489
 31
0.0
 12
1262.26992
 22
196.676489
 32
0.0
 13
1262.26992
 23
196.676489
 33
0.0
  0
SOLID
  5
CCAE
330
CCA9
100
AcDbEntity
  8
0
  6
BYBLOCK
 62
     0
100
AcDbTrace
 10
1261.686587
 20
157.676489
 30
0.0
 11
1262.853254
 21
157.676489
 31
0.0
 12
1262.26992
 22
154.176489
 32
0.0
 13
1262.26992
 23
154.176489
 33
0.0
  0
MTEXT
  5
CCAF
330
CCA9
100
AcDbEntity
  8
0
  6
BYBLOCK
 62
     0
100
AcDbMText
 10
1260.61992
 20
175.426489
 30
0.0
 40
1.8
 41
0.0
 71
     5
 72
     1
  1
\A1;42.50
 11
0.0
 21
1.0
 31
0.0
  0
POINT
  5
CCB0
330
CCA9
100
AcDbEntity
  8
DEFPOINTS
  6
BYBLOCK
 62
     0
100
AcDbPoint
 10
1229.131345
 20
196.676489
 30
0.0
  0
POINT
  5
CCB1
330
CCA9
100
AcDbEntity
  8
DEFPOINTS
  6
BYBLOCK
 62
     0
100
AcDbPoint
 10
1238.496965
 20
154.176489
 30
0.0
  0
POINT
  5
CCB2
330
CCA9
100
AcDbEntity
  8
DEFPOINTS
  6
BYBLOCK
 62
     0
100
AcDbPoint
 10
1262.26992
 20
154.176489
 30
0.0
  0
ENDBLK
  5
CCB4
330
CCA9
100
AcDbEntity
  8
0
100
AcDbBlockEnd
  0
BLOCK
  5
CCBF
330
CCB5
100
AcDbEntity
  8
0
100
AcDbBlockBegin
  2
*D8
 70
     1
 10
0.0
 20
0.0
 30
0.0
  3
*D8
  1
*D8
  0
LINE
  5
CCB6
330
CCB5
100
AcDbEntity
  8
0
  6
BYBLOCK
 62
     0
100
AcDbLine
 10
1240.396966
 20
154.176489
 30
0.0
 11
1257.843359
 21
154.176489
 31
0.0
  0
LINE
  5
CCB7
330
CCB5
100
AcDbEntity
  8
0
  6
BYBLOCK
 62
     0
100
AcDbLine
 10
1239.015688
 20
178.176489
 30
0.0
 11
1257.843359
 21
178.176489
 31
0.0
  0
LINE
  5
CCB8
330
CCB5
100
AcDbEntity
  8
0
  6
BYBLOCK
 62
     0
100
AcDbLine
 10
1256.343359
 20
157.676489
 30
0.0
 11
1256.343359
 21
174.676489
 31
0.0
  0
SOLID
  5
CCB9
330
CCB5
100
AcDbEntity
  8
0
  6
BYBLOCK
 62
     0
100
AcDbTrace
 10
1255.760026
 20
157.676489
 30
0.0
 11
1256.926692
 21
157.676489
 31
0.0
 12
1256.343359
 22
154.176489
 32
0.0
 13
1256.343359
 23
154.176489
 33
0.0
  0
SOLID
  5
CCBA
330
CCB5
100
AcDbEntity
  8
0
  6
BYBLOCK
 62
     0
100
AcDbTrace
 10
1255.760026
 20
174.676489
 30
0.0
 11
1256.926692
 21
174.676489
 31
0.0
 12
1256.343359
 22
178.176489
 32
0.0
 13
1256.343359
 23
178.176489
 33
0.0
  0
MTEXT
  5
CCBB
330
CCB5
100
AcDbEntity
  8
0
  6
BYBLOCK
 62
     0
100
AcDbMText
 10
1254.693359
 20
166.176489
 30
0.0
 40
1.8
 41
0.0
 71
     5
 72
     1
  1
\A1;24.00
 11
0.0
 21
1.0
 31
0.0
  0
POINT
  5
CCBC
330
CCB5
100
AcDbEntity
  8
DEFPOINTS
  6
BYBLOCK
 62
     0
100
AcDbPoint
 10
1238.896966
 20
154.176489
 30
0.0
  0
POINT
  5
CCBD
330
CCB5
100
AcDbEntity
  8
DEFPOINTS
  6
BYBLOCK
 62
     0
100
AcDbPoint
 10
1237.515688
 20
178.176489
 30
0.0
  0
POINT
  5
CCBE
330
CCB5
100
AcDbEntity
  8
DEFPOINTS
  6
BYBLOCK
 62
     0
100
AcDbPoint
 10
1256.343359
 20
178.176489
 30
0.0
  0
ENDBLK
  5
CCC0
330
CCB5
100
AcDbEntity
  8
0
100
AcDbBlockEnd
  0
BLOCK
  5
CCCB
330
CCC1
100
AcDbEntity
  8
0
100
AcDbBlockBegin
  2
*D9
 70
     1
 10
0.0
 20
0.0
 30
0.0
  3
*D9
  1
*D9
  0
LINE
  5
CCC2
330
CCC1
100
AcDbEntity
  8
0
  6
BYBLOCK
 62
     0
100
AcDbLine
 10
1182.104343
 20
156.167884
 30
0.0
 11
1182.104343
 21
145.939167
 31
0.0
  0
LINE
  5
CCC3
330
CCC1
100
AcDbEntity
  8
0
  6
BYBLOCK
 62
     0
100
AcDbLine
 10
1217.486964
 20
156.176489
 30
0.0
 11
1217.486964
 21
145.939167
 31
0.0
  0
LINE
  5
CCC4
330
CCC1
100
AcDbEntity
  8
0
  6
BYBLOCK
 62
     0
100
AcDbLine
 10
1185.604343
 20
147.439167
 30
0.0
 11
1213.986964
 21
147.439167
 31
0.0
  0
SOLID
  5
CCC5
330
CCC1
100
AcDbEntity
  8
0
  6
BYBLOCK
 62
     0
100
AcDbTrace
 10
1185.604343
 20
148.0225
 30
0.0
 11
1185.604343
 21
146.855834
 31
0.0
 12
1182.104343
 22
147.439167
 32
0.0
 13
1182.104343
 23
147.439167
 33
0.0
  0
SOLID
  5
CCC6
330
CCC1
100
AcDbEntity
  8
0
  6
BYBLOCK
 62
     0
100
AcDbTrace
 10
1213.986964
 20
148.0225
 30
0.0
 11
1213.986964
 21
146.855834
 31
0.0
 12
1217.486964
 22
147.439167
 32
0.0
 13
1217.486964
 23
147.439167
 33
0.0
  0
MTEXT
  5
CCC7
330
CCC1
100
AcDbEntity
  8
0
  6
BYBLOCK
 62
     0
100
AcDbMText
 10
1199.795654
 20
149.089167
 30
0.0
 40
1.8
 41
0.0
 71
     5
 72
     1
  1
\A1;35.4
  0
POINT
  5
CCC8
330
CCC1
100
AcDbEntity
  8
DEFPOINTS
  6
BYBLOCK
 62
     0
100
AcDbPoint
 10
1182.104343
 20
157.667884
 30
0.0
  0
POINT
  5
CCC9
330
CCC1
100
AcDbEntity
  8
DEFPOINTS
  6
BYBLOCK
 62
     0
100
AcDbPoint
 10
1217.486964
 20
157.676489
 30
0.0
  0
POINT
  5
CCCA
330
CCC1
100
AcDbEntity
  8
DEFPOINTS
  6
BYBLOCK
 62
     0
100
AcDbPoint
 10
1217.486964
 20
147.439167
 30
0.0
  0
ENDBLK
  5
CCCC
330
CCC1
100
AcDbEntity
  8
0
100
AcDbBlockEnd
  0
BLOCK
  5
CCD7
330
CCCD
100
AcDbEntity
  8
0
100
AcDbBlockBegin
  2
*D10
 70
     1
 10
0.0
 20
0.0
 30
0.0
  3
*D10
  1
*D10
  0
LINE
  5
CCCE
330
CCCD
100
AcDbEntity
  8
0
  6
BYBLOCK
 62
     0
100
AcDbLine
 10
1160.668244
 20
178.176489
 30
0.0
 11
1148.505823
 21
178.176489
 31
0.0
  0
LINE
  5
CCCF
330
CCCD
100
AcDbEntity
  8
0
  6
BYBLOCK
 62
     0
100
AcDbLine
 10
1160.376965
 20
154.176489
 30
0.0
 11
1148.505823
 21
154.176489
 31
0.0
  0
LINE
  5
CCD0
330
CCCD
100
AcDbEntity
  8
0
  6
BYBLOCK
 62
     0
100
AcDbLine
 10
1150.005823
 20
174.676489
 30
0.0
 11
1150.005823
 21
157.676489
 31
0.0
  0
SOLID
  5
CCD1
330
CCCD
100
AcDbEntity
  8
0
  6
BYBLOCK
 62
     0
100
AcDbTrace
 10
1149.422489
 20
174.676489
 30
0.0
 11
1150.589156
 21
174.676489
 31
0.0
 12
1150.005823
 22
178.176489
 32
0.0
 13
1150.005823
 23
178.176489
 33
0.0
  0
SOLID
  5
CCD2
330
CCCD
100
AcDbEntity
  8
0
  6
BYBLOCK
 62
     0
100
AcDbTrace
 10
1149.422489
 20
157.676489
 30
0.0
 11
1150.589156
 21
157.676489
 31
0.0
 12
1150.005823
 22
154.176489
 32
0.0
 13
1150.005823
 23
154.176489
 33
0.0
  0
MTEXT
  5
CCD3
330
CCCD
100
AcDbEntity
  8
0
  6
BYBLOCK
 62
     0
100
AcDbMText
 10
1148.355823
 20
166.176489
 30
0.0
 40
1.8
 41
0.0
 71
     5
 72
     1
  1
\A1;24.00
 11
0.0
 21
1.0
 31
0.0
  0
POINT
  5
CCD4
330
CCCD
100
AcDbEntity
  8
DEFPOINTS
  6
BYBLOCK
 62
     0
100
AcDbPoint
 10
1162.168244
 20
178.176489
 30
0.0
  0
POINT
  5
CCD5
330
CCCD
100
AcDbEntity
  8
DEFPOINTS
  6
BYBLOCK
 62
     0
100
AcDbPoint
 10
1161.876965
 20
154.176489
 30
0.0
  0
POINT
  5
CCD6
330
CCCD
100
AcDbEntity
  8
DEFPOINTS
  6
BYBLOCK
 62
     0
100
AcDbPoint
 10
1150.005823
 20
154.176489
 30
0.0
  0
ENDBLK
  5
CCD8
330
CCCD
100
AcDbEntity
  8
0
100
AcDbBlockEnd
  0
BLOCK
  5
CEB7
330
CCD9
100
AcDbEntity
  8
0
 62
     3
100
AcDbBlockBegin
  2
A$C5C477B7F
 70
     0
 10
0.0
 20
0.0
 30
0.0
  3
A$C5C477B7F
  1
A$C5C477B7F
  0
TEXT
  5
CCDA
330
CCD9
100
AcDbEntity
  8
WY
 62
     3
100
AcDbText
 10
72.434974
 20
88.905168
 30
0.0
 40
2.0
  1
Przekaźnik RM87N
 51
15.0
  7
ITALIC
100
AcDbText
  0
DIMENSION
  5
CCDB
330
CCD9
100
AcDbEntity
  8
WYMIARY
 62
     1
100
AcDbDimension
  2
*D9
 10
101.550224
 20
1.5
 30
0.0
 11
83.858913
 21
3.15
 31
0.0
 12
-1115.936741
 22
-145.939167
 32
0.0
 70
    32
  3
STANDARD
100
AcDbAlignedDimension
 13
66.167603
 23
11.728717
 33
0.0
 14
101.550224
 24
11.737321
 34
0.0
100
AcDbRotatedDimension
1001
ACAD
1000
DSTYLE
1002
{
1070
   140
1040
1.8
1070
   147
1040
0.75
1070
   271
1070
     1
1002
}
  0
ARC
  5
CCDC
330
CCD9
100
AcDbEntity
  8
0
  6
CONTINUOUS
 62
     3
100
AcDbCircle
 10
98.385423
 20
68.037321
 30
0.0
 40
0.8
100
AcDbArc
 50
90.0
 51
179.5
  0
ARC
  5
CCDD
330
CCD9
100
AcDbEntity
  8
0
  6
CONTINUOUS
 62
     3
100
AcDbCircle
 10
98.385423
 20
68.037321
 30
0.0
 40
1.2
100
AcDbArc
 50
90.0
 51
179.5
  0
ARC
  5
CCDE
330
CCD9
100
AcDbEntity
  8
0
  6
CONTINUOUS
 62
     3
100
AcDbCircle
 10
98.350224
 20
12.127321
 30
0.0
 40
0.89
100
AcDbArc
 50
205.989234
 51
289.014004
  0
LINE
  5
CCDF
330
CCD9
100
AcDbEntity
  8
0
  6
CONTINUOUS
 62
     3
100
AcDbLine
 10
103.160224
 20
11.737321
 30
0.0
 11
71.560224
 21
11.737321
 31
0.0
  0
LINE
  5
CCE0
330
CCD9
100
AcDbEntity
  8
WYMIARY
 62
     3
100
AcDbLine
 10
47.63581
 20
30.816452
 30
0.0
 11
39.201723
 21
55.006059
 31
0.0
  0
LINE
  5
CCE1
330
CCD9
100
AcDbEntity
  8
1
 62
     4
100
AcDbLine
 10
46.69406
 20
33.791535
 30
0.0
 11
46.486931
 21
39.722945
 31
0.0
  0
ARC
  5
CCE2
330
CCD9
100
AcDbEntity
  8
1
 62
     4
100
AcDbCircle
 10
-14.553123
 20
43.076453
 30
0.0
 40
60.0
100
AcDbArc
 50
350.003393
 51
356.803943
  0
LINE
  5
CCE3
330
CCD9
100
AcDbEntity
  8
1
100
AcDbLine
 10
89.610224
 20
39.137321
 30
0.0
 11
89.610224
 21
40.037321
 31
0.0
  0
LINE
  5
CCE4
330
CCD9
100
AcDbEntity
  8
1
100
AcDbLine
 10
84.610224
 20
39.987321
 30
0.0
 11
84.610224
 21
39.087321
 31
0.0
  0
LINE
  5
CCE5
330
CCD9
100
AcDbEntity
  8
1
100
AcDbLine
 10
86.310224
 20
40.037321
 30
0.0
 11
86.310224
 21
39.137321
 31
0.0
  0
CIRCLE
  5
CCE6
330
CCD9
100
AcDbEntity
  8
1
100
AcDbCircle
 10
70.360224
 20
39.037321
 30
0.0
 40
1.5
  0
CIRCLE
  5
CCE7
330
CCD9
100
AcDbEntity
  8
1
100
AcDbCircle
 10
70.360224
 20
39.037321
 30
0.0
 40
1.2
  0
CIRCLE
  5
CCE8
330
CCD9
100
AcDbEntity
  8
1
100
AcDbCircle
 10
70.360224
 20
39.037321
 30
0.0
 40
1.2
  0
LINE
  5
CCE9
330
CCD9
100
AcDbEntity
  8
1
100
AcDbLine
 10
70.360224
 20
37.787321
 30
0.0
 11
70.360224
 21
40.287321
 31
0.0
  0
LINE
  5
CCEA
330
CCD9
100
AcDbEntity
  8
1
100
AcDbLine
 10
70.360224
 20
38.037321
 30
0.0
 11
70.360224
 21
40.037321
 31
0.0
  0
LINE
  5
CCEB
330
CCD9
100
AcDbEntity
  8
1
100
AcDbLine
 10
84.610224
 20
37.987321
 30
0.0
 11
84.610224
 21
40.187321
 31
0.0
  0
ARC
  5
CCEC
330
CCD9
100
AcDbEntity
  8
1
100
AcDbCircle
 10
70.360224
 20
39.037321
 30
0.0
 40
3.0
100
AcDbArc
 50
156.127577
 51
255.710009
  0
LWPOLYLINE
  5
CCED
330
CCD9
100
AcDbEntity
  8
1
100
AcDbPolyline
 90
       37
 70
   128
 43
0.0
 10
75.482901
 20
35.617059
 10
75.865993
 20
35.696892
 10
76.242175
 20
35.804667
 10
76.733837
 20
35.993364
 10
77.206146
 20
36.229274
 10
77.653674
 20
36.507315
 10
78.119943
 20
36.861303
 10
78.554418
 20
37.256763
 10
78.956364
 20
37.686227
 10
79.325047
 20
38.142228
 10
79.754146
 20
38.760347
 10
80.138452
 20
39.409589
 10
80.481102
 20
40.083594
 10
80.785233
 20
40.776002
 10
81.053982
 20
41.480452
 10
81.33029
 20
42.3224
 10
81.567184
 20
43.177177
 10
81.767561
 20
44.041535
 10
81.934317
 20
44.912223
 10
82.112578
 20
46.109677
 10
82.23716
 20
47.314565
 10
82.311335
 20
48.523125
 10
82.338235
 20
49.831257
 10
82.311153
 20
51.140487
 10
82.230696
 20
52.447558
 10
82.097473
 20
53.749214
 10
81.904941
 20
55.08307
 10
81.653556
 20
56.408564
 10
81.340275
 20
57.720446
 10
80.962056
 20
59.01346
 10
80.634391
 20
59.96492
 10
80.26461
 20
60.901285
 10
79.84997
 20
61.817933
 10
79.498065
 20
62.50771
 10
79.11504
 20
63.181747
 10
78.699382
 20
63.835785
 10
78.249572
 20
64.76557
  0
LINE
  5
CCEE
330
CCD9
100
AcDbEntity
  8
1
100
AcDbLine
 10
65.045095
 20
52.869071
 30
0.0
 11
65.842708
 21
32.30489
 31
0.0
  0
LINE
  5
CCEF
330
CCD9
100
AcDbEntity
  8
1
100
AcDbLine
 10
57.047253
 20
47.482192
 30
0.0
 11
57.047253
 21
32.235426
 31
0.0
  0
LINE
  5
CCF0
330
CCD9
100
AcDbEntity
  8
1
100
AcDbLine
 10
65.045095
 20
52.869071
 30
0.0
 11
65.842708
 21
32.30489
 31
0.0
  0
LINE
  5
CCF1
330
CCD9
100
AcDbEntity
  8
1
100
AcDbLine
 10
57.047253
 20
47.482192
 30
0.0
 11
57.047253
 21
32.235426
 31
0.0
  0
LINE
  5
CCF2
330
CCD9
100
AcDbEntity
  8
0
  6
CONTINUOUS
 62
     3
100
AcDbLine
 10
86.360224
 20
39.137321
 30
0.0
 11
86.360224
 21
40.037323
 31
0.0
  0
LINE
  5
CCF3
330
CCD9
100
AcDbEntity
  8
0
  6
CONTINUOUS
 62
     3
100
AcDbLine
 10
89.860225
 20
40.037323
 30
0.0
 11
89.860225
 21
39.137321
 31
0.0
  0
CIRCLE
  5
CCF4
330
CCD9
100
AcDbEntity
  8
0
  6
CONTINUOUS
 62
     3
100
AcDbCircle
 10
76.860224
 20
39.837321
 30
0.0
 40
0.6
  0
ARC
  5
CCF5
330
CCD9
100
AcDbEntity
  8
0
  6
CONTINUOUS
 62
     3
100
AcDbCircle
 10
70.360224
 20
39.137321
 30
0.0
 40
0.85
100
AcDbArc
 50
9.918505
 51
170.081495
  0
LINE
  5
CCF6
330
CCD9
100
AcDbEntity
  8
0
  6
CONTINUOUS
 62
     3
100
AcDbLine
 10
97.296764
 20
34.963662
 30
0.0
 11
97.585453
 21
68.044301
 31
0.0
  0
LINE
  5
CCF7
330
CCD9
100
AcDbEntity
  8
0
  6
CONTINUOUS
 62
     3
100
AcDbLine
 10
97.185469
 20
68.047792
 30
0.0
 11
96.898851
 21
35.204621
 31
0.0
  0
LINE
  5
CCF8
330
CCD9
100
AcDbEntity
  8
0
  6
CONTINUOUS
 62
     3
100
AcDbLine
 10
96.758471
 20
42.03732
 30
0.0
 11
96.699898
 21
35.325384
 31
0.0
  0
ARC
  5
CCF9
330
CCD9
100
AcDbEntity
  8
0
  6
CONTINUOUS
 62
     3
100
AcDbCircle
 10
70.360224
 20
39.037321
 30
0.0
 40
1.05
100
AcDbArc
 50
346.391039
 51
193.608961
  0
LINE
  5
CCFA
330
CCD9
100
AcDbEntity
  8
0
  6
CONTINUOUS
 62
     3
100
AcDbLine
 10
66.616371
 20
38.670164
 30
0.0
 11
66.637105
 21
41.046046
 31
0.0
  0
LINE
  5
CCFB
330
CCD9
100
AcDbEntity
  8
0
  6
CONTINUOUS
 62
     3
100
AcDbLine
 10
66.862351
 20
41.308362
 30
0.0
 11
67.327537
 21
38.670164
 31
0.0
  0
LINE
  5
CCFC
330
CCD9
100
AcDbEntity
  8
0
  6
CONTINUOUS
 62
     3
100
AcDbLine
 10
66.437112
 20
41.047793
 30
0.0
 11
66.416378
 21
38.671909
 31
0.0
  0
DIMENSION
  5
CCFD
330
CCD9
100
AcDbEntity
  8
WYMIARY
 62
     1
100
AcDbDimension
  2
*D10
 10
34.069082
 20
8.237321
 30
0.0
 11
32.419082
 21
20.237321
 31
0.0
 12
-1115.936741
 22
-145.939167
 32
0.0
 70
    32
  3
STANDARD
100
AcDbAlignedDimension
 13
46.231503
 23
32.237321
 33
0.0
 14
45.940225
 24
8.237321
 34
0.0
 50
90.0
100
AcDbRotatedDimension
1001
ACAD
1000
DSTYLE
1002
{
1070
   140
1040
1.8
1070
   147
1040
0.75
1002
}
  0
LINE
  5
CCFE
330
CCD9
100
AcDbEntity
  8
1
100
AcDbLine
 10
44.127289
 20
32.149879
 30
0.0
 11
38.195879
 21
31.942749
 31
0.0
  0
ARC
  5
CCFF
330
CCD9
100
AcDbEntity
  8
1
100
AcDbCircle
 10
34.842371
 20
-29.097304
 30
0.0
 40
60.0
100
AcDbArc
 50
80.003393
 51
86.803943
  0
LINE
  5
CD00
330
CCD9
100
AcDbEntity
  8
1
100
AcDbLine
 10
37.80984
 20
31.542993
 30
0.0
 11
37.80984
 21
31.20875
 31
0.0
  0
ARC
  5
CD01
330
CCD9
100
AcDbEntity
  8
1
100
AcDbCircle
 10
38.209839
 20
31.20875
 30
0.0
 40
0.4
100
AcDbArc
 50
180.0
 51
266.803943
  0
ARC
  5
CD02
330
CCD9
100
AcDbEntity
  8
1
100
AcDbCircle
 10
38.209839
 20
31.542993
 30
0.0
 40
0.4
100
AcDbArc
 50
92.0
 51
180.0
  0
LINE
  5
CD03
330
CCD9
100
AcDbEntity
  8
0
  6
CONTINUOUS
 62
     3
100
AcDbLine
 10
58.110225
 20
14.537321
 30
0.0
 11
58.110225
 21
17.437321
 31
0.0
  0
LINE
  5
CD04
330
CCD9
100
AcDbEntity
  8
0
  6
CONTINUOUS
 62
     3
100
AcDbLine
 10
57.910225
 20
17.237321
 30
0.0
 11
57.910225
 21
14.737321
 31
0.0
  0
LINE
  5
CD05
330
CCD9
100
AcDbEntity
  8
0
  6
CONTINUOUS
 62
     3
100
AcDbLine
 10
57.517185
 20
16.523385
 30
0.0
 11
57.532771
 21
14.737321
 31
0.0
  0
LINE
  5
CD06
330
CCD9
100
AcDbEntity
  8
0
  6
CONTINUOUS
 62
     3
100
AcDbLine
 10
53.710225
 20
17.437321
 30
0.0
 11
53.710225
 21
14.537321
 31
0.0
  0
LINE
  5
CD07
330
CCD9
100
AcDbEntity
  8
0
  6
CONTINUOUS
 62
     3
100
AcDbLine
 10
53.910224
 20
14.737321
 30
0.0
 11
53.910224
 21
17.237321
 31
0.0
  0
LINE
  5
CD08
330
CCD9
100
AcDbEntity
  8
0
  6
CONTINUOUS
 62
     3
100
AcDbLine
 10
54.267679
 20
14.737321
 30
0.0
 11
54.283266
 21
16.523385
 31
0.0
  0
ARC
  5
CD09
330
CCD9
100
AcDbEntity
  8
0
  6
CONTINUOUS
 62
     3
100
AcDbCircle
 10
1044.850224
 20
8.237321
 30
0.0
 40
999.6
100
AcDbArc
 50
178.922345
 51
179.793652
  0
ARC
  5
CD0A
330
CCD9
100
AcDbEntity
  8
0
  6
CONTINUOUS
 62
     3
100
AcDbCircle
 10
1044.850224
 20
8.237321
 30
0.0
 40
1000.0
100
AcDbArc
 50
178.922775
 51
179.707673
  0
ARC
  5
CD0B
330
CCD9
100
AcDbEntity
  8
0
  6
CONTINUOUS
 62
     3
100
AcDbCircle
 10
1044.850224
 20
8.237321
 30
0.0
 40
1000.0
100
AcDbArc
 50
178.921432
 51
179.793735
  0
LINE
  5
CD0C
330
CCD9
100
AcDbEntity
  8
0
  6
CONTINUOUS
 62
     3
100
AcDbLine
 10
71.250225
 20
11.737321
 30
0.0
 11
66.150224
 21
11.737321
 31
0.0
  0
LINE
  5
CD0D
330
CCD9
100
AcDbEntity
  8
0
  6
CONTINUOUS
 62
     3
100
AcDbLine
 10
71.560224
 20
15.037321
 30
0.0
 11
60.060224
 21
15.037321
 31
0.0
  0
LINE
  5
CD0E
330
CCD9
100
AcDbEntity
  8
0
  6
CONTINUOUS
 62
     3
100
AcDbLine
 10
60.30259
 20
14.737321
 30
0.0
 11
71.197859
 21
14.737321
 31
0.0
  0
LINE
  5
CD0F
330
CCD9
100
AcDbEntity
  8
0
  6
CONTINUOUS
 62
     3
100
AcDbLine
 10
53.710225
 20
14.537321
 30
0.0
 11
58.110225
 21
14.537321
 31
0.0
  0
LINE
  5
CD10
330
CCD9
100
AcDbEntity
  8
0
  6
CONTINUOUS
 62
     3
100
AcDbLine
 10
57.910225
 20
14.737321
 30
0.0
 11
53.910224
 21
14.737321
 31
0.0
  0
LINE
  5
CD11
330
CCD9
100
AcDbEntity
  8
0
  6
CONTINUOUS
 62
     3
100
AcDbLine
 10
46.018772
 20
12.737321
 30
0.0
 11
60.26768
 21
12.737321
 31
0.0
  0
LINE
  5
CD12
330
CCD9
100
AcDbEntity
  8
0
  6
CONTINUOUS
 62
     3
100
AcDbLine
 10
45.850224
 20
12.937321
 30
0.0
 11
60.060224
 21
12.937321
 31
0.0
  0
LINE
  5
CD13
330
CCD9
100
AcDbEntity
  8
0
  6
CONTINUOUS
 62
     3
100
AcDbLine
 10
66.150224
 20
8.237321
 30
0.0
 11
45.940225
 21
8.237321
 31
0.0
  0
LINE
  5
CD14
330
CCD9
100
AcDbEntity
  8
0
  6
CONTINUOUS
 62
     3
100
AcDbLine
 10
54.232771
 20
12.737321
 30
0.0
 11
54.234516
 21
12.937321
 31
0.0
  0
LINE
  5
CD15
330
CCD9
100
AcDbEntity
  8
0
  6
CONTINUOUS
 62
     3
100
AcDbLine
 10
53.276405
 20
12.737321
 30
0.0
 11
53.278151
 21
12.937321
 31
0.0
  0
LINE
  5
CD16
330
CCD9
100
AcDbEntity
  8
0
  6
CONTINUOUS
 62
     3
100
AcDbLine
 10
48.912299
 20
12.937321
 30
0.0
 11
48.914044
 21
12.737321
 31
0.0
  0
LINE
  5
CD17
330
CCD9
100
AcDbEntity
  8
0
  6
CONTINUOUS
 62
     3
100
AcDbLine
 10
45.850224
 20
12.937321
 30
0.0
 11
45.850224
 21
11.837321
 31
0.0
  0
LINE
  5
CD18
330
CCD9
100
AcDbEntity
  8
0
  6
CONTINUOUS
 62
     3
100
AcDbLine
 10
41.009032
 20
8.735576
 30
0.0
 11
40.982839
 21
11.737321
 31
0.0
  0
ARC
  5
CD19
330
CCD9
100
AcDbEntity
  8
0
  6
CONTINUOUS
 62
     3
100
AcDbCircle
 10
41.698744
 20
8.735154
 30
0.0
 40
0.198358
100
AcDbArc
 50
179.878101
 51
269.3788279999999
  0
LINE
  5
CD1A
330
CCD9
100
AcDbEntity
  8
0
  6
CONTINUOUS
 62
     3
100
AcDbLine
 10
41.696594
 20
8.735576
 30
0.0
 11
41.696594
 21
8.537321
 31
0.0
  0
ARC
  5
CD1B
330
CCD9
100
AcDbEntity
  8
0
  6
CONTINUOUS
 62
     3
100
AcDbCircle
 10
41.588863
 20
17.892213
 30
0.0
 40
9.15727
100
AcDbArc
 50
269.446407
 51
270.674073
  0
LINE
  5
CD1C
330
CCD9
100
AcDbEntity
  8
0
  6
CONTINUOUS
 62
     3
100
AcDbLine
 10
41.832299
 20
10.135576
 30
0.0
 11
41.490362
 21
10.135576
 31
0.0
  0
LINE
  5
CD1D
330
CCD9
100
AcDbEntity
  8
0
  6
CONTINUOUS
 62
     3
100
AcDbLine
 10
41.500386
 20
8.735576
 30
0.0
 11
41.009032
 21
8.735576
 31
0.0
  0
ARC
  5
CD1E
330
CCD9
100
AcDbEntity
  8
0
  6
CONTINUOUS
 62
     3
100
AcDbCircle
 10
42.02953
 20
10.133654
 30
0.0
 40
0.197241
100
AcDbArc
 50
179.441763
 51
268.934164
  0
LINE
  5
CD1F
330
CCD9
100
AcDbEntity
  8
0
  6
CONTINUOUS
 62
     3
100
AcDbLine
 10
42.025861
 20
9.937321
 30
0.0
 11
42.025861
 21
10.135576
 31
0.0
  0
ARC
  5
CD20
330
CCD9
100
AcDbEntity
  8
0
  6
CONTINUOUS
 62
     3
100
AcDbCircle
 10
41.920558
 20
20.13594
 30
0.0
 40
10.000918
100
AcDbArc
 50
269.494349
 51
270.603296
  0
LINE
  5
CD21
330
CCD9
100
AcDbEntity
  8
0
  6
CONTINUOUS
 62
     3
100
AcDbLine
 10
41.209024
 20
8.537321
 30
0.0
 11
41.696594
 21
8.537321
 31
0.0
  0
ARC
  5
CD22
330
CCD9
100
AcDbEntity
  8
0
  6
CONTINUOUS
 62
     3
100
AcDbCircle
 10
41.741493
 20
10.192584
 30
0.0
 40
0.257521
100
AcDbArc
 50
192.78965
 51
257.999858
  0
LINE
  5
CD23
330
CCD9
100
AcDbEntity
  8
0
  6
CONTINUOUS
 62
     3
100
AcDbLine
 10
41.726564
 20
9.937321
 30
0.0
 11
42.025861
 21
9.937321
 31
0.0
  0
LINE
  5
CD24
330
CCD9
100
AcDbEntity
  8
0
  6
CONTINUOUS
 62
     3
100
AcDbLine
 10
41.687951
 20
9.940931
 30
0.0
 11
41.726564
 21
9.937321
 31
0.0
  0
ARC
  5
CD25
330
CCD9
100
AcDbEntity
  8
0
  6
CONTINUOUS
 62
     3
100
AcDbCircle
 10
41.209026
 20
8.737321
 30
0.0
 40
0.2
100
AcDbArc
 50
180.5
 51
270.0
  0
LINE
  5
CD26
330
CCD9
100
AcDbEntity
  8
0
  6
CONTINUOUS
 62
     3
100
AcDbLine
 10
40.982839
 20
11.737321
 30
0.0
 11
41.82151
 21
11.737321
 31
0.0
  0
LINE
  5
CD27
330
CCD9
100
AcDbEntity
  8
0
  6
CONTINUOUS
 62
     3
100
AcDbLine
 10
42.015054
 20
11.737321
 30
0.0
 11
41.82151
 21
11.737321
 31
0.0
  0
LINE
  5
CD28
330
CCD9
100
AcDbEntity
  8
0
  6
CONTINUOUS
 62
     3
100
AcDbLine
 10
45.850224
 20
11.837321
 30
0.0
 11
45.256708
 21
11.837321
 31
0.0
  0
LINE
  5
CD29
330
CCD9
100
AcDbEntity
  8
0
  6
CONTINUOUS
 62
     3
100
AcDbLine
 10
44.856705
 20
11.837321
 30
0.0
 11
45.256708
 21
11.837321
 31
0.0
  0
LINE
  5
CD2A
330
CCD9
100
AcDbEntity
  8
0
  6
CONTINUOUS
 62
     3
100
AcDbLine
 10
45.948921
 20
8.735576
 30
0.0
 11
41.696594
 21
8.735576
 31
0.0
  0
LINE
  5
CD2B
330
CCD9
100
AcDbEntity
  8
0
  6
CONTINUOUS
 62
     3
100
AcDbLine
 10
41.696594
 20
8.537321
 30
0.0
 11
45.945461
 21
8.537321
 31
0.0
  0
LINE
  5
CD2C
330
CCD9
100
AcDbEntity
  8
0
  6
CONTINUOUS
 62
     3
100
AcDbLine
 10
46.018772
 20
12.737321
 30
0.0
 11
46.022263
 21
12.937321
 31
0.0
  0
LINE
  5
CD2D
330
CCD9
100
AcDbEntity
  8
0
  6
CONTINUOUS
 62
     3
100
AcDbLine
 10
45.940225
 20
8.237321
 30
0.0
 11
46.018772
 21
12.737321
 31
0.0
  0
LINE
  5
CD2E
330
CCD9
100
AcDbEntity
  8
0
  6
CONTINUOUS
 62
     3
100
AcDbLine
 10
45.973359
 20
10.135576
 30
0.0
 11
42.025861
 21
10.135576
 31
0.0
  0
LINE
  5
CD2F
330
CCD9
100
AcDbEntity
  8
0
  6
CONTINUOUS
 62
     3
100
AcDbLine
 10
42.025861
 20
9.937321
 30
0.0
 11
45.969899
 21
9.937321
 31
0.0
  0
LINE
  5
CD30
330
CCD9
100
AcDbEntity
  8
0
  6
CONTINUOUS
 62
     3
100
AcDbLine
 10
42.015054
 20
11.737321
 30
0.0
 11
46.001318
 21
11.737321
 31
0.0
  0
LINE
  5
CD31
330
CCD9
100
AcDbEntity
  8
0
  6
CONTINUOUS
 62
     3
100
AcDbLine
 10
66.150224
 20
11.737321
 30
0.0
 11
66.150224
 21
8.237321
 31
0.0
  0
LINE
  5
CD32
330
CCD9
100
AcDbEntity
  8
0
  6
CONTINUOUS
 62
     3
100
AcDbLine
 10
66.30881
 20
11.554752
 30
0.0
 11
66.357829
 21
10.994464
 31
0.0
  0
LINE
  5
CD33
330
CCD9
100
AcDbEntity
  8
0
  6
CONTINUOUS
 62
     3
100
AcDbLine
 10
66.718231
 20
8.537321
 30
0.0
 11
66.718231
 21
8.735576
 31
0.0
  0
ARC
  5
CD34
330
CCD9
100
AcDbEntity
  8
0
  6
CONTINUOUS
 62
     3
100
AcDbCircle
 10
74.202146
 20
15.147055
 30
0.0
 40
9.854748
100
AcDbArc
 50
220.586701
 51
221.7437
  0
LINE
  5
CD35
330
CCD9
100
AcDbEntity
  8
0
  6
CONTINUOUS
 62
     3
100
AcDbLine
 10
66.718231
 20
8.735576
 30
0.0
 11
66.150224
 21
8.735576
 31
0.0
  0
LINE
  5
CD36
330
CCD9
100
AcDbEntity
  8
0
  6
CONTINUOUS
 62
     3
100
AcDbLine
 10
66.150224
 20
8.537321
 30
0.0
 11
66.718231
 21
8.537321
 31
0.0
  0
ARC
  5
CD37
330
CCD9
100
AcDbEntity
  8
0
  6
CONTINUOUS
 62
     3
100
AcDbCircle
 10
66.718231
 20
8.737321
 30
0.0
 40
0.2
100
AcDbArc
 50
270.0
 51
310.914383
  0
ARC
  5
CD38
330
CCD9
100
AcDbEntity
  8
0
  6
CONTINUOUS
 62
     3
100
AcDbCircle
 10
66.557068
 20
11.011896
 30
0.0
 40
0.2
100
AcDbArc
 50
185.0
 51
264.289407
  0
LINE
  5
CD39
330
CCD9
100
AcDbEntity
  8
0
  6
CONTINUOUS
 62
     3
100
AcDbLine
 10
66.167603
 20
11.728717
 30
0.0
 11
66.167678
 21
11.737321
 31
0.0
  0
ARC
  5
CD3A
330
CCD9
100
AcDbEntity
  8
0
  6
CONTINUOUS
 62
     3
100
AcDbCircle
 10
66.109571
 20
11.537321
 30
0.0
 40
0.2
100
AcDbArc
 50
5.0
 51
73.13253800000001
  0
LINE
  5
CD3B
330
CCD9
100
AcDbEntity
  8
0
  6
CONTINUOUS
 62
     3
100
AcDbLine
 10
61.331037
 20
15.037321
 30
0.0
 11
61.328418
 21
14.737321
 31
0.0
  0
LINE
  5
CD3C
330
CCD9
100
AcDbEntity
  8
0
  6
CONTINUOUS
 62
     3
100
AcDbLine
 10
61.631025
 20
15.037321
 30
0.0
 11
61.628407
 21
14.737321
 31
0.0
  0
LINE
  5
CD3D
330
CCD9
100
AcDbEntity
  8
0
  6
CONTINUOUS
 62
     3
100
AcDbLine
 10
62.993859
 20
14.737321
 30
0.0
 11
62.996477
 21
15.037321
 31
0.0
  0
ARC
  5
CD3E
330
CCD9
100
AcDbEntity
  8
0
  6
CONTINUOUS
 62
     3
100
AcDbCircle
 10
75.557293
 20
16.321449
 30
0.0
 40
9.850009
100
AcDbArc
 50
220.586253
 51
221.743804
  0
ARC
  5
CD3F
330
CCD9
100
AcDbEntity
  8
0
  6
CONTINUOUS
 62
     3
100
AcDbCircle
 10
68.190729
 20
16.434767
 30
0.0
 40
6.522648
100
AcDbArc
 50
269.000293
 51
270.7571229999999
  0
LINE
  5
CD40
330
CCD9
100
AcDbEntity
  8
0
  6
CONTINUOUS
 62
     3
100
AcDbLine
 10
68.083428
 20
10.658262
 30
0.0
 11
68.076926
 21
9.913111
 31
0.0
  0
ARC
  5
CD41
330
CCD9
100
AcDbEntity
  8
0
  6
CONTINUOUS
 62
     3
100
AcDbCircle
 10
68.076926
 20
9.914857
 30
0.0
 40
0.2
100
AcDbArc
 50
310.914383
 51
359.5000000000001
  0
LINE
  5
CD42
330
CCD9
100
AcDbEntity
  8
0
  6
CONTINUOUS
 62
     3
100
AcDbLine
 10
68.276918
 20
9.913111
 30
0.0
 11
68.283246
 21
10.63828
 31
0.0
  0
LINE
  5
CD43
330
CCD9
100
AcDbEntity
  8
0
  6
CONTINUOUS
 62
     3
100
AcDbLine
 10
68.076926
 20
9.913111
 30
0.0
 11
66.718231
 21
8.735576
 31
0.0
  0
LINE
  5
CD44
330
CCD9
100
AcDbEntity
  8
0
  6
CONTINUOUS
 62
     3
100
AcDbLine
 10
66.849217
 20
8.586183
 30
0.0
 11
68.207912
 21
9.763719
 31
0.0
  0
LINE
  5
CD45
330
CCD9
100
AcDbEntity
  8
0
  6
CONTINUOUS
 62
     3
100
AcDbLine
 10
66.537168
 20
10.812888
 30
0.0
 11
68.083428
 21
10.658262
 31
0.0
  0
LINE
  5
CD46
330
CCD9
100
AcDbEntity
  8
0
  6
CONTINUOUS
 62
     3
100
AcDbLine
 10
60.302543
 20
14.734703
 30
0.0
 11
60.060224
 21
14.734703
 31
0.0
  0
LINE
  5
CD47
330
CCD9
100
AcDbEntity
  8
0
  6
CONTINUOUS
 62
     3
100
AcDbLine
 10
60.297354
 20
14.437321
 30
0.0
 11
60.060224
 21
14.437321
 31
0.0
  0
LINE
  5
CD48
330
CCD9
100
AcDbEntity
  8
0
  6
CONTINUOUS
 62
     3
100
AcDbLine
 10
60.26768
 20
12.737321
 30
0.0
 11
60.30259
 21
14.737321
 31
0.0
  0
LINE
  5
CD49
330
CCD9
100
AcDbEntity
  8
0
  6
CONTINUOUS
 62
     3
100
AcDbLine
 10
60.060224
 20
15.037321
 30
0.0
 11
60.060224
 21
12.937321
 31
0.0
  0
LINE
  5
CD4A
330
CCD9
100
AcDbEntity
  8
0
  6
CONTINUOUS
 62
     3
100
AcDbLine
 10
57.567679
 20
12.737321
 30
0.0
 11
57.565934
 21
12.937321
 31
0.0
  0
LINE
  5
CD4B
330
CCD9
100
AcDbEntity
  8
0
  6
CONTINUOUS
 62
     3
100
AcDbLine
 10
58.922299
 20
12.937321
 30
0.0
 11
58.924044
 21
12.737321
 31
0.0
  0
LINE
  5
CD4C
330
CCD9
100
AcDbEntity
  8
0
  6
CONTINUOUS
 62
     3
100
AcDbLine
 10
71.560224
 20
11.737321
 30
0.0
 11
71.560224
 21
15.037321
 31
0.0
  0
LINE
  5
CD4D
330
CCD9
100
AcDbEntity
  8
0
  6
CONTINUOUS
 62
     3
100
AcDbLine
 10
71.197859
 20
14.737321
 30
0.0
 11
71.250225
 21
11.737321
 31
0.0
  0
LINE
  5
CD4E
330
CCD9
100
AcDbEntity
  8
0
  6
CONTINUOUS
 62
     3
100
AcDbLine
 10
71.560224
 20
11.737321
 30
0.0
 11
71.250225
 21
11.737321
 31
0.0
  0
ARC
  5
CD4F
330
CCD9
100
AcDbEntity
  8
0
  6
CONTINUOUS
 62
     3
100
AcDbCircle
 10
56.960224
 20
110.237321
 30
0.0
 40
84.8
100
AcDbArc
 50
270.270903
 51
297.945288
  0
ARC
  5
CD50
330
CCD9
100
AcDbEntity
  8
0
  6
CONTINUOUS
 62
     3
100
AcDbCircle
 10
56.960224
 20
110.237321
 30
0.0
 40
85.4
100
AcDbArc
 50
270.270903
 51
298.185311
  0
ARC
  5
CD51
330
CCD9
100
AcDbEntity
  8
0
  6
CONTINUOUS
 62
     3
100
AcDbCircle
 10
56.960224
 20
110.237321
 30
0.0
 40
85.0
100
AcDbArc
 50
270.270903
 51
298.025611
  0
LINE
  5
CD52
330
CCD9
100
AcDbEntity
  8
0
  6
CONTINUOUS
 62
     3
100
AcDbLine
 10
57.160223
 20
25.638268
 30
0.0
 11
57.160223
 21
32.037322
 31
0.0
  0
LINE
  5
CD53
330
CCD9
100
AcDbEntity
  8
0
  6
CONTINUOUS
 62
     3
100
AcDbLine
 10
56.960224
 20
25.638268
 30
0.0
 11
56.960224
 21
32.037322
 31
0.0
  0
LINE
  5
CD54
330
CCD9
100
AcDbEntity
  8
0
  6
CONTINUOUS
 62
     3
100
AcDbLine
 10
56.560225
 20
32.037322
 30
0.0
 11
56.560225
 21
25.638268
 31
0.0
  0
LINE
  5
CD55
330
CCD9
100
AcDbEntity
  8
0
  6
CONTINUOUS
 62
     3
100
AcDbLine
 10
48.627401
 20
27.037321
 30
0.0
 11
48.627401
 21
32.037322
 31
0.0
  0
LINE
  5
CD56
330
CCD9
100
AcDbEntity
  8
0
  6
CONTINUOUS
 62
     3
100
AcDbLine
 10
45.331501
 20
28.537322
 30
0.0
 11
45.331501
 21
27.037321
 31
0.0
  0
LINE
  5
CD57
330
CCD9
100
AcDbEntity
  8
0
  6
CONTINUOUS
 62
     3
100
AcDbLine
 10
45.831502
 20
27.037321
 30
0.0
 11
45.831502
 21
28.537322
 31
0.0
  0
ARC
  5
CD58
330
CCD9
100
AcDbEntity
  8
0
  6
CONTINUOUS
 62
     3
100
AcDbCircle
 10
63.527401
 20
26.885821
 30
0.0
 40
18.5
100
AcDbArc
 50
164.484858
 51
178.911315
  0
LINE
  5
CD59
330
CCD9
100
AcDbEntity
  8
0
  6
CONTINUOUS
 62
     3
100
AcDbLine
 10
47.131504
 20
28.537322
 30
0.0
 11
47.131504
 21
27.037321
 31
0.0
  0
LINE
  5
CD5A
330
CCD9
100
AcDbEntity
  8
0
  6
CONTINUOUS
 62
     3
100
AcDbLine
 10
48.227402
 20
32.037322
 30
0.0
 11
48.227402
 21
27.037321
 31
0.0
  0
LINE
  5
CD5B
330
CCD9
100
AcDbEntity
  8
0
  6
CONTINUOUS
 62
     3
100
AcDbLine
 10
58.110225
 20
17.437321
 30
0.0
 11
53.710225
 21
17.437321
 31
0.0
  0
LINE
  5
CD5C
330
CCD9
100
AcDbEntity
  8
0
  6
CONTINUOUS
 62
     3
100
AcDbLine
 10
53.910224
 20
17.237321
 30
0.0
 11
57.910225
 21
17.237321
 31
0.0
  0
LINE
  5
CD5D
330
CCD9
100
AcDbEntity
  8
0
  6
CONTINUOUS
 62
     3
100
AcDbLine
 10
57.513571
 20
16.937321
 30
0.0
 11
54.286877
 21
16.937321
 31
0.0
  0
LINE
  5
CD5E
330
CCD9
100
AcDbEntity
  8
0
  6
CONTINUOUS
 62
     3
100
AcDbLine
 10
54.283266
 20
16.523385
 30
0.0
 11
57.517185
 21
16.523385
 31
0.0
  0
LINE
  5
CD5F
330
CCD9
100
AcDbEntity
  8
0
  6
CONTINUOUS
 62
     3
100
AcDbLine
 10
54.286877
 20
16.937321
 30
0.0
 11
53.910224
 21
16.937321
 31
0.0
  0
LINE
  5
CD60
330
CCD9
100
AcDbEntity
  8
0
  6
CONTINUOUS
 62
     3
100
AcDbLine
 10
54.286877
 20
16.937321
 30
0.0
 11
54.283266
 21
16.523385
 31
0.0
  0
LINE
  5
CD61
330
CCD9
100
AcDbEntity
  8
0
  6
CONTINUOUS
 62
     3
100
AcDbLine
 10
48.627401
 20
27.037321
 30
0.0
 11
45.427031
 21
27.037321
 31
0.0
  0
LINE
  5
CD62
330
CCD9
100
AcDbEntity
  8
0
  6
CONTINUOUS
 62
     3
100
AcDbLine
 10
45.427031
 20
27.037321
 30
0.0
 11
45.027402
 21
27.037321
 31
0.0
  0
ARC
  5
CD63
330
CCD9
100
AcDbEntity
  8
0
  6
CONTINUOUS
 62
     3
100
AcDbCircle
 10
1044.850224
 20
8.237321
 30
0.0
 40
1000.0
100
AcDbArc
 50
178.911315
 51
178.921432
  0
LINE
  5
CD64
330
CCD9
100
AcDbEntity
  8
0
  6
CONTINUOUS
 62
     3
100
AcDbLine
 10
45.027402
 20
27.037321
 30
0.0
 11
45.027402
 21
27.060766
 31
0.0
  0
LINE
  5
CD65
330
CCD9
100
AcDbEntity
  8
0
  6
CONTINUOUS
 62
     3
100
AcDbLine
 10
57.910225
 20
16.937321
 30
0.0
 11
57.513571
 21
16.937321
 31
0.0
  0
LINE
  5
CD66
330
CCD9
100
AcDbEntity
  8
0
  6
CONTINUOUS
 62
     3
100
AcDbLine
 10
57.517185
 20
16.523385
 30
0.0
 11
57.513571
 21
16.937321
 31
0.0
  0
ARC
  5
CD67
330
CCD9
100
AcDbEntity
  8
0
  6
CONTINUOUS
 62
     3
100
AcDbCircle
 10
57.360224
 20
25.638267
 30
0.0
 40
0.2
100
AcDbArc
 50
180.0
 51
270.270903
  0
LINE
  5
CD68
330
CCD9
100
AcDbEntity
  8
0
  6
CONTINUOUS
 62
     3
100
AcDbLine
 10
57.160223
 20
25.638268
 30
0.0
 11
56.960224
 21
25.638268
 31
0.0
  0
ARC
  5
CD69
330
CCD9
100
AcDbEntity
  8
0
  6
CONTINUOUS
 62
     3
100
AcDbCircle
 10
57.360224
 20
25.638267
 30
0.0
 40
0.8
100
AcDbArc
 50
180.0
 51
270.270903
  0
ARC
  5
CD6A
330
CCD9
100
AcDbEntity
  8
0
  6
CONTINUOUS
 62
     3
100
AcDbCircle
 10
57.360224
 20
25.638267
 30
0.0
 40
0.4
100
AcDbArc
 50
180.0
 51
270.270903
  0
LINE
  5
CD6B
330
CCD9
100
AcDbEntity
  8
0
  6
CONTINUOUS
 62
     3
100
AcDbLine
 10
56.960224
 20
25.638268
 30
0.0
 11
56.560225
 21
25.638268
 31
0.0
  0
LINE
  5
CD6C
330
CCD9
100
AcDbEntity
  8
1
100
AcDbLine
 10
46.231503
 20
32.235426
 30
0.0
 11
55.074263
 21
32.235426
 31
0.0
  0
LINE
  5
CD6D
330
CCD9
100
AcDbEntity
  8
0
  6
CONTINUOUS
 62
     3
100
AcDbLine
 10
48.627401
 20
32.037322
 30
0.0
 11
56.560225
 21
32.037322
 31
0.0
  0
LINE
  5
CD6E
330
CCD9
100
AcDbEntity
  8
0
  6
CONTINUOUS
 62
     3
100
AcDbLine
 10
56.250225
 20
32.237321
 30
0.0
 11
48.627401
 21
32.237321
 31
0.0
  0
ARC
  5
CD6F
330
CCD9
100
AcDbEntity
  8
1
100
AcDbCircle
 10
48.534132
 20
31.918349
 30
0.0
 40
0.4
100
AcDbArc
 50
92.0
 51
178.150182
  0
LINE
  5
CD70
330
CCD9
100
AcDbEntity
  8
1
100
AcDbLine
 10
48.520172
 20
32.318106
 30
0.0
 11
46.197217
 21
32.236986
 31
0.0
  0
ARC
  5
CD71
330
CCD9
100
AcDbEntity
  8
1
100
AcDbCircle
 10
45.611756
 20
28.911491
 30
0.0
 40
1.0
100
AcDbArc
 50
3.239099
 51
79.482726
  0
CIRCLE
  5
CD72
330
CCD9
100
AcDbEntity
  8
0
  6
CONTINUOUS
 62
     7
100
AcDbCircle
 10
46.231503
 20
31.687321
 30
0.0
 40
0.55
  0
CIRCLE
  5
CD73
330
CCD9
100
AcDbEntity
  8
1
100
AcDbCircle
 10
46.255673
 20
31.708985
 30
0.0
 40
0.6
  0
LINE
  5
CD74
330
CCD9
100
AcDbEntity
  8
0
  6
CONTINUOUS
 62
     7
100
AcDbLine
 10
45.231503
 20
31.687321
 30
0.0
 11
47.231503
 21
31.687321
 31
0.0
  0
ARC
  5
CD75
330
CCD9
100
AcDbEntity
  8
1
  6
HIDDEN
 62
     4
100
AcDbCircle
 10
41.755673
 20
31.699569
 30
0.0
 40
6.0
100
AcDbArc
 50
353.710615
 51
7.668766999999999
  0
LINE
  5
CD76
330
CCD9
100
AcDbEntity
  8
0
  6
CONTINUOUS
 62
     7
100
AcDbLine
 10
46.231503
 20
32.702412
 30
0.0
 11
46.231503
 21
30.702412
 31
0.0
  0
ARC
  5
CD77
330
CCD9
100
AcDbEntity
  8
1
  6
HIDDEN
 62
     4
100
AcDbCircle
 10
46.526783
 20
31.173728
 30
0.0
 40
1.2
100
AcDbArc
 50
296.8624490000001
 51
353.710615
  0
ARC
  5
CD78
330
CCD9
100
AcDbEntity
  8
1
 62
     4
100
AcDbCircle
 10
46.255673
 20
31.708985
 30
0.0
 40
1.8
100
AcDbArc
 50
267.9999999999999
 51
296.8624490000001
  0
ARC
  5
CD79
330
CCD9
100
AcDbEntity
  8
1
100
AcDbCircle
 10
46.255673
 20
31.708985
 30
0.0
 40
1.8
100
AcDbArc
 50
55.312471
 51
65.929385
  0
ARC
  5
CD7A
330
CCD9
100
AcDbEntity
  8
1
100
AcDbCircle
 10
47.193756
 20
33.808985
 30
0.0
 40
0.5
100
AcDbArc
 50
182.0
 51
245.929385
  0
ARC
  5
CD7B
330
CCD9
100
AcDbEntity
  8
1
100
AcDbCircle
 10
46.710953
 20
32.366799
 30
0.0
 40
1.0
100
AcDbArc
 50
7.668766999999999
 51
55.312471
  0
ARC
  5
CD7C
330
CCD9
100
AcDbEntity
  8
1
100
AcDbCircle
 10
46.209839
 20
31.711491
 30
0.0
 40
1.8
100
AcDbArc
 50
358.0
 51
26.862449
  0
ARC
  5
CD7D
330
CCD9
100
AcDbEntity
  8
1
100
AcDbCircle
 10
46.745096
 20
31.982601
 30
0.0
 40
1.2
100
AcDbArc
 50
26.862449
 51
83.71061500000002
  0
LINE
  5
CD7E
330
CCD9
100
AcDbEntity
  8
0
  6
CONTINUOUS
 62
     7
100
AcDbLine
 10
45.216412
 20
31.687321
 30
0.0
 11
47.216412
 21
31.687321
 31
0.0
  0
ARC
  5
CD7F
330
CCD9
100
AcDbEntity
  8
1
100
AcDbCircle
 10
46.219255
 20
27.211491
 30
0.0
 40
6.0
100
AcDbArc
 50
83.71061500000002
 51
97.66876699999999
  0
ARC
  5
CD80
330
CCD9
100
AcDbEntity
  8
1
100
AcDbCircle
 10
34.842371
 20
-29.097304
 30
0.0
 40
60.0
100
AcDbArc
 50
79.482726
 51
80.003393
  0
LINE
  5
CD81
330
CCD9
100
AcDbEntity
  8
1
100
AcDbLine
 10
48.107345
 20
31.095424
 30
0.0
 11
48.13434
 21
31.931261
 31
0.0
  0
LINE
  5
CD82
330
CCD9
100
AcDbEntity
  8
0
  6
CONTINUOUS
 62
     7
100
AcDbLine
 10
46.231503
 20
30.687321
 30
0.0
 11
46.231503
 21
32.687321
 31
0.0
  0
CIRCLE
  5
CD83
330
CCD9
100
AcDbEntity
  8
1
100
AcDbCircle
 10
46.209839
 20
31.711491
 30
0.0
 40
0.6
  0
CIRCLE
  5
CD84
330
CCD9
100
AcDbEntity
  8
0
  6
CONTINUOUS
 62
     7
100
AcDbCircle
 10
46.231503
 20
31.687321
 30
0.0
 40
0.55
  0
ARC
  5
CD85
330
CCD9
100
AcDbEntity
  8
1
100
AcDbCircle
 10
-14.553123
 20
43.076453
 30
0.0
 40
60.0
100
AcDbArc
 50
349.482726
 51
350.003393
  0
ARC
  5
CD86
330
CCD9
100
AcDbEntity
  8
1
 62
     4
100
AcDbCircle
 10
42.355673
 20
30.544383
 30
0.0
 40
0.5
100
AcDbArc
 50
180.0
 51
267.9999999999999
  0
ARC
  5
CD87
330
CCD9
100
AcDbEntity
  8
1
  6
HIDDEN
 62
     4
100
AcDbCircle
 10
42.355673
 20
30.844566
 30
0.0
 40
0.5
100
AcDbArc
 50
88.0
 51
180.0
  0
LINE
  5
CD88
330
CCD9
100
AcDbEntity
  8
1
  6
HIDDEN
100
AcDbLine
 10
41.855673
 20
30.808985
 30
0.0
 11
41.855673
 21
30.544383
 31
0.0
  0
LINE
  5
CD89
330
CCD9
100
AcDbEntity
  8
1
  6
HIDDEN
 62
     4
100
AcDbLine
 10
43.386809
 20
31.308863
 30
0.0
 11
42.373122
 21
31.344262
 31
0.0
  0
ARC
  5
CD8A
330
CCD9
100
AcDbEntity
  8
1
  6
HIDDEN
 62
     4
100
AcDbCircle
 10
43.455673
 20
32.307068
 30
0.0
 40
1.0
100
AcDbArc
 50
273.239099
 51
349.482726
  0
ARC
  5
CD8B
330
CCD9
100
AcDbEntity
  8
1
100
AcDbCircle
 10
44.109839
 20
32.649574
 30
0.0
 40
0.5
100
AcDbArc
 50
272.0000000000001
 51
335.929385
  0
ARC
  5
CD8C
330
CCD9
100
AcDbEntity
  8
1
100
AcDbCircle
 10
46.209839
 20
31.711491
 30
0.0
 40
1.8
100
AcDbArc
 50
145.312471
 51
155.929385
  0
LINE
  5
CD8D
330
CCD9
100
AcDbEntity
  8
1
  6
HIDDEN
 62
     4
100
AcDbLine
 10
42.338223
 20
30.044688
 30
0.0
 11
46.192853
 21
29.910081
 31
0.0
  0
ARC
  5
CD8E
330
CCD9
100
AcDbEntity
  8
1
100
AcDbCircle
 10
45.552025
 20
32.166771
 30
0.0
 40
1.0
100
AcDbArc
 50
97.66876699999999
 51
145.312471
  0
LINE
  5
CD8F
330
CCD9
100
AcDbEntity
  8
1
100
AcDbLine
 10
45.867624
 20
28.413736
 30
0.0
 11
45.617472
 21
28.413736
 31
0.0
  0
LINE
  5
CD90
330
CCD9
100
AcDbEntity
  8
1
100
AcDbLine
 10
46.376387
 20
28.413736
 30
0.0
 11
45.867624
 21
28.413736
 31
0.0
  0
LINE
  5
CD91
330
CCD9
100
AcDbEntity
  8
0
  6
CONTINUOUS
 62
     3
100
AcDbLine
 10
48.227402
 20
32.037322
 30
0.0
 11
48.627401
 21
32.037322
 31
0.0
  0
LINE
  5
CD92
330
CCD9
100
AcDbEntity
  8
0
  6
CONTINUOUS
 62
     3
100
AcDbLine
 10
48.627401
 20
32.237321
 30
0.0
 11
48.427402
 21
32.237321
 31
0.0
  0
LINE
  5
CD93
330
CCD9
100
AcDbEntity
  8
0
  6
CONTINUOUS
 62
     3
100
AcDbLine
 10
48.627401
 20
32.037322
 30
0.0
 11
48.627401
 21
32.237321
 31
0.0
  0
LINE
  5
CD94
330
CCD9
100
AcDbEntity
  8
0
  6
CONTINUOUS
 62
     3
100
AcDbLine
 10
45.831502
 20
28.537322
 30
0.0
 11
45.331501
 21
28.537322
 31
0.0
  0
ARC
  5
CD95
330
CCD9
100
AcDbEntity
  8
0
  6
CONTINUOUS
 62
     3
100
AcDbCircle
 10
48.427401
 20
32.037321
 30
0.0
 40
0.2
100
AcDbArc
 50
90.0
 51
180.0
  0
LINE
  5
CD96
330
CCD9
100
AcDbEntity
  8
0
  6
CONTINUOUS
 62
     3
100
AcDbLine
 10
46.231503
 20
32.237321
 30
0.0
 11
48.427402
 21
32.237321
 31
0.0
  0
CIRCLE
  5
CD97
330
CCD9
100
AcDbEntity
  8
0
  6
CONTINUOUS
 62
     3
100
AcDbCircle
 10
46.231503
 20
31.687321
 30
0.0
 40
0.55
  0
LINE
  5
CD98
330
CCD9
100
AcDbEntity
  8
0
  6
CONTINUOUS
 62
     3
100
AcDbLine
 10
45.831502
 20
28.537322
 30
0.0
 11
47.131504
 21
28.537322
 31
0.0
  0
ARC
  5
CD99
330
CCD9
100
AcDbEntity
  8
1
100
AcDbCircle
 10
65.67884
 20
32.435426
 30
0.0
 40
0.2
100
AcDbArc
 50
270.0
 51
359.5000000000001
  0
LINE
  5
CD9A
330
CCD9
100
AcDbEntity
  8
1
100
AcDbLine
 10
65.67884
 20
32.235426
 30
0.0
 11
55.074263
 21
32.235426
 31
0.0
  0
LINE
  5
CD9B
330
CCD9
100
AcDbEntity
  8
0
  6
CONTINUOUS
 62
     3
100
AcDbLine
 10
66.561947
 20
32.43383
 30
0.0
 11
66.603143
 21
37.154479
 31
0.0
  0
LINE
  5
CD9C
330
CCD9
100
AcDbEntity
  8
0
  6
CONTINUOUS
 62
     3
100
AcDbLine
 10
66.403151
 20
37.156225
 30
0.0
 11
66.361954
 21
32.435576
 31
0.0
  0
LINE
  5
CD9D
330
CCD9
100
AcDbEntity
  8
0
  6
CONTINUOUS
 62
     3
100
AcDbLine
 10
61.694508
 20
32.237321
 30
0.0
 11
61.717841
 21
32.237321
 31
0.0
  0
ARC
  5
CD9E
330
CCD9
100
AcDbEntity
  8
0
  6
CONTINUOUS
 62
     3
100
AcDbCircle
 10
66.161962
 20
32.437321
 30
0.0
 40
0.4
100
AcDbArc
 50
270.0
 51
359.5000000000001
  0
LINE
  5
CD9F
330
CCD9
100
AcDbEntity
  8
0
  6
CONTINUOUS
 62
     3
100
AcDbLine
 10
66.161962
 20
32.037322
 30
0.0
 11
66.161962
 21
32.237321
 31
0.0
  0
ARC
  5
CDA0
330
CCD9
100
AcDbEntity
  8
0
  6
CONTINUOUS
 62
     3
100
AcDbCircle
 10
66.161962
 20
32.437321
 30
0.0
 40
0.2
100
AcDbArc
 50
270.0
 51
359.5000000000001
  0
LINE
  5
CDA1
330
CCD9
100
AcDbEntity
  8
0
  6
CONTINUOUS
 62
     3
100
AcDbLine
 10
66.161962
 20
32.237321
 30
0.0
 11
62.260634
 21
32.237321
 31
0.0
  0
LINE
  5
CDA2
330
CCD9
100
AcDbEntity
  8
0
  6
CONTINUOUS
 62
     3
100
AcDbLine
 10
64.458486
 20
32.237321
 30
0.0
 11
61.438647
 21
32.237321
 31
0.0
  0
LINE
  5
CDA3
330
CCD9
100
AcDbEntity
  8
0
  6
CONTINUOUS
 62
     3
100
AcDbLine
 10
66.603143
 20
37.154479
 30
0.0
 11
67.403859
 21
37.154479
 31
0.0
  0
LINE
  5
CDA4
330
CCD9
100
AcDbEntity
  8
0
  6
CONTINUOUS
 62
     3
100
AcDbLine
 10
67.403859
 20
37.295901
 30
0.0
 11
66.605611
 21
37.295901
 31
0.0
  0
LINE
  5
CDA5
330
CCD9
100
AcDbEntity
  8
0
  6
CONTINUOUS
 62
     3
100
AcDbLine
 10
66.605611
 20
37.295901
 30
0.0
 11
66.616371
 21
38.528743
 31
0.0
  0
LINE
  5
CDA6
330
CCD9
100
AcDbEntity
  8
0
  6
CONTINUOUS
 62
     3
100
AcDbLine
 10
66.616371
 20
38.528743
 30
0.0
 11
67.352473
 21
38.528743
 31
0.0
  0
LINE
  5
CDA7
330
CCD9
100
AcDbEntity
  8
0
  6
CONTINUOUS
 62
     3
100
AcDbLine
 10
67.327537
 20
38.670164
 30
0.0
 11
66.616371
 21
38.670164
 31
0.0
  0
LINE
  5
CDA8
330
CCD9
100
AcDbEntity
  8
0
  6
CONTINUOUS
 62
     3
100
AcDbLine
 10
66.616371
 20
38.670164
 30
0.0
 11
66.616371
 21
38.528743
 31
0.0
  0
LINE
  5
CDA9
330
CCD9
100
AcDbEntity
  8
0
  6
CONTINUOUS
 62
     3
100
AcDbLine
 10
67.403859
 20
37.154479
 30
0.0
 11
67.403859
 21
37.295901
 31
0.0
  0
LINE
  5
CDAA
330
CCD9
100
AcDbEntity
  8
0
  6
CONTINUOUS
 62
     3
100
AcDbLine
 10
67.403859
 20
38.237321
 30
0.0
 11
67.352473
 21
38.528743
 31
0.0
  0
LINE
  5
CDAB
330
CCD9
100
AcDbEntity
  8
0
  6
CONTINUOUS
 62
     3
100
AcDbLine
 10
67.403859
 20
38.237321
 30
0.0
 11
67.403859
 21
37.295901
 31
0.0
  0
LINE
  5
CDAC
330
CCD9
100
AcDbEntity
  8
0
  6
CONTINUOUS
 62
     3
100
AcDbLine
 10
66.416378
 20
38.671909
 30
0.0
 11
66.405619
 21
37.439067
 31
0.0
  0
LINE
  5
CDAD
330
CCD9
100
AcDbEntity
  8
0
  6
CONTINUOUS
 62
     3
100
AcDbLine
 10
56.560225
 20
32.037322
 30
0.0
 11
56.560225
 21
32.237321
 31
0.0
  0
LINE
  5
CDAE
330
CCD9
100
AcDbEntity
  8
0
  6
CONTINUOUS
 62
     3
100
AcDbLine
 10
56.760224
 20
32.237321
 30
0.0
 11
56.560225
 21
32.237321
 31
0.0
  0
LINE
  5
CDAF
330
CCD9
100
AcDbEntity
  8
0
  6
CONTINUOUS
 62
     3
100
AcDbLine
 10
57.160223
 20
32.037322
 30
0.0
 11
57.160223
 21
32.237321
 31
0.0
  0
LINE
  5
CDB0
330
CCD9
100
AcDbEntity
  8
0
  6
CONTINUOUS
 62
     3
100
AcDbLine
 10
57.160223
 20
32.037322
 30
0.0
 11
56.960224
 21
32.037322
 31
0.0
  0
LINE
  5
CDB1
330
CCD9
100
AcDbEntity
  8
0
  6
CONTINUOUS
 62
     3
100
AcDbLine
 10
56.560225
 20
32.037322
 30
0.0
 11
56.960224
 21
32.037322
 31
0.0
  0
LINE
  5
CDB2
330
CCD9
100
AcDbEntity
  8
0
  6
CONTINUOUS
 62
     3
100
AcDbLine
 10
56.938647
 20
32.237321
 30
0.0
 11
55.761962
 21
32.237321
 31
0.0
  0
LINE
  5
CDB3
330
CCD9
100
AcDbEntity
  8
0
  6
CONTINUOUS
 62
     3
100
AcDbLine
 10
56.760224
 20
32.237321
 30
0.0
 11
57.160223
 21
32.237321
 31
0.0
  0
ARC
  5
CDB4
330
CCD9
100
AcDbEntity
  8
0
  6
CONTINUOUS
 62
     3
100
AcDbCircle
 10
56.760224
 20
32.037321
 30
0.0
 40
0.2
100
AcDbArc
 50
360.0
 51
90.0
  0
LINE
  5
CDB5
330
CCD9
100
AcDbEntity
  8
0
  6
CONTINUOUS
 62
     3
100
AcDbLine
 10
61.438647
 20
32.237321
 30
0.0
 11
56.938647
 21
32.237321
 31
0.0
  0
LINE
  5
CDB6
330
CCD9
100
AcDbEntity
  8
0
  6
CONTINUOUS
 62
     3
100
AcDbLine
 10
57.160223
 20
32.037322
 30
0.0
 11
66.161962
 21
32.037322
 31
0.0
  0
LINE
  5
CDB7
330
CCD9
100
AcDbEntity
  8
0
  6
CONTINUOUS
 62
     3
100
AcDbLine
 10
66.161962
 20
32.237321
 30
0.0
 11
57.160223
 21
32.237321
 31
0.0
  0
ARC
  5
CDB8
330
CCD9
100
AcDbEntity
  8
1
100
AcDbCircle
 10
75.712825
 20
287.492334
 30
0.0
 40
251.875276
100
AcDbArc
 50
270.0
 51
273.133967
  0
LINE
  5
CDB9
330
CCD9
100
AcDbEntity
  8
1
100
AcDbLine
 10
71.610224
 20
39.037321
 30
0.0
 11
69.110224
 21
39.037321
 31
0.0
  0
LINE
  5
CDBA
330
CCD9
100
AcDbEntity
  8
1
100
AcDbLine
 10
75.712825
 20
35.661425
 30
0.0
 11
75.712825
 21
35.617059
 31
0.0
  0
LINE
  5
CDBB
330
CCD9
100
AcDbEntity
  8
1
100
AcDbLine
 10
75.482901
 20
35.617059
 30
0.0
 11
75.712825
 21
35.617059
 31
0.0
  0
ARC
  5
CDBC
330
CCD9
100
AcDbEntity
  8
1
100
AcDbCircle
 10
73.712825
 20
52.199705
 30
0.0
 40
16.582647
100
AcDbArc
 50
255.710009
 51
270.0
  0
LINE
  5
CDBD
330
CCD9
100
AcDbEntity
  8
1
100
AcDbLine
 10
73.712825
 20
35.617059
 30
0.0
 11
75.482901
 21
35.617059
 31
0.0
  0
ARC
  5
CDBE
330
CCD9
100
AcDbEntity
  8
0
  6
CONTINUOUS
 62
     3
100
AcDbCircle
 10
70.721508
 20
38.645118
 30
0.0
 40
0.796502
100
AcDbArc
 50
42.549141
 51
53.29974899999999
  0
ARC
  5
CDBF
330
CCD9
100
AcDbEntity
  8
0
  6
CONTINUOUS
 62
     3
100
AcDbCircle
 10
70.002146
 20
38.641099
 30
0.0
 40
0.80164
100
AcDbArc
 50
126.712243
 51
137.389592
  0
LINE
  5
CDC0
330
CCD9
100
AcDbEntity
  8
0
  6
CONTINUOUS
 62
     3
100
AcDbLine
 10
71.19752
 20
39.283732
 30
0.0
 11
69.522929
 21
39.283732
 31
0.0
  0
LINE
  5
CDC1
330
CCD9
100
AcDbEntity
  8
0
  6
CONTINUOUS
 62
     3
100
AcDbLine
 10
69.41216
 20
39.183731
 30
0.0
 11
71.308289
 21
39.183731
 31
0.0
  0
CIRCLE
  5
CDC2
330
CCD9
100
AcDbEntity
  8
0
  6
CONTINUOUS
 62
     3
100
AcDbCircle
 10
76.860224
 20
36.237321
 30
0.0
 40
0.6
  0
ARC
  5
CDC3
330
CCD9
100
AcDbEntity
  8
0
  6
CONTINUOUS
 62
     3
100
AcDbCircle
 10
70.360224
 20
39.037321
 30
0.0
 40
1.05
100
AcDbArc
 50
193.608961
 51
346.391039
  0
ARC
  5
CDC4
330
CCD9
100
AcDbEntity
  8
0
  6
CONTINUOUS
 62
     3
100
AcDbCircle
 10
70.924723
 20
38.913119
 30
0.0
 40
0.472281
100
AcDbArc
 50
344.921845
 51
35.692984
  0
ARC
  5
CDC5
330
CCD9
100
AcDbEntity
  8
0
  6
CONTINUOUS
 62
     3
100
AcDbCircle
 10
69.720985
 20
38.929827
 30
0.0
 40
0.406022
100
AcDbArc
 50
139.518161
 51
200.104862
  0
ARC
  5
CDC6
330
CCD9
100
AcDbEntity
  8
1
100
AcDbCircle
 10
96.449131
 20
35.237591
 30
0.0
 40
0.2
100
AcDbArc
 50
294.641382
 51
359.5000000000001
  0
ARC
  5
CDC7
330
CCD9
100
AcDbEntity
  8
1
100
AcDbCircle
 10
89.444771
 20
36.692708
 30
0.0
 40
0.7
100
AcDbArc
 50
273.133967
 51
9.330157000000002
  0
ARC
  5
CDC8
330
CCD9
100
AcDbEntity
  8
1
100
AcDbCircle
 10
28.410713
 20
26.665009
 30
0.0
 40
62.552332
100
AcDbArc
 50
9.330157000000002
 51
9.888807
  0
LINE
  5
CDC9
330
CCD9
100
AcDbEntity
  8
1
100
AcDbLine
 10
89.610224
 20
39.137321
 30
0.0
 11
89.610224
 21
38.037321
 31
0.0
  0
LINE
  5
CDCA
330
CCD9
100
AcDbEntity
  8
1
100
AcDbLine
 10
89.344099
 20
37.987321
 30
0.0
 11
84.610224
 21
37.987321
 31
0.0
  0
LINE
  5
CDCB
330
CCD9
100
AcDbEntity
  8
1
100
AcDbLine
 10
87.910224
 20
37.987321
 30
0.0
 11
84.610224
 21
37.987321
 31
0.0
  0
LINE
  5
CDCC
330
CCD9
100
AcDbEntity
  8
1
100
AcDbLine
 10
84.610224
 20
37.987321
 30
0.0
 11
84.610224
 21
39.087321
 31
0.0
  0
LINE
  5
CDCD
330
CCD9
100
AcDbEntity
  8
1
100
AcDbLine
 10
86.310224
 20
38.037321
 30
0.0
 11
86.310224
 21
39.137321
 31
0.0
  0
LINE
  5
CDCE
330
CCD9
100
AcDbEntity
  8
1
100
AcDbLine
 10
89.610224
 20
38.037321
 30
0.0
 11
86.310224
 21
38.037321
 31
0.0
  0
ARC
  5
CDCF
330
CCD9
100
AcDbEntity
  8
1
100
AcDbCircle
 10
89.344098
 20
37.287321
 30
0.0
 40
0.7
100
AcDbArc
 50
9.888807
 51
90.0
  0
LINE
  5
CDD0
330
CCD9
100
AcDbEntity
  8
1
100
AcDbLine
 10
86.310224
 20
39.137321
 30
0.0
 11
89.610224
 21
39.137321
 31
0.0
  0
LINE
  5
CDD1
330
CCD9
100
AcDbEntity
  8
0
  6
CONTINUOUS
 62
     3
100
AcDbLine
 10
86.360224
 20
39.137321
 30
0.0
 11
89.860225
 21
39.137321
 31
0.0
  0
LINE
  5
CDD2
330
CCD9
100
AcDbEntity
  8
0
  6
CONTINUOUS
 62
     3
100
AcDbLine
 10
86.360224
 20
38.037321
 30
0.0
 11
89.860225
 21
38.037321
 31
0.0
  0
LINE
  5
CDD3
330
CCD9
100
AcDbEntity
  8
0
  6
CONTINUOUS
 62
     3
100
AcDbLine
 10
89.860225
 20
39.137321
 30
0.0
 11
89.860225
 21
38.037321
 31
0.0
  0
LINE
  5
CDD4
330
CCD9
100
AcDbEntity
  8
0
  6
CONTINUOUS
 62
     3
100
AcDbLine
 10
86.360224
 20
38.037321
 30
0.0
 11
86.360224
 21
39.137321
 31
0.0
  0
LWPOLYLINE
  5
CDD5
330
CCD9
100
AcDbEntity
  8
0
  6
CONTINUOUS
 62
     3
100
AcDbPolyline
 90
       10
 70
   128
 43
0.0
 10
53.710225
 20
14.537321
 10
53.744954
 20
14.572051
 10
53.778628
 20
14.605725
 10
53.810225
 20
14.637321
 10
53.838783
 20
14.665879
 10
53.863433
 20
14.69053
 10
53.88343
 20
14.710526
 10
53.898164
 20
14.72526
 10
53.907186
 20
14.734283
 10
53.910224
 20
14.737321
  0
LWPOLYLINE
  5
CDD6
330
CCD9
100
AcDbEntity
  8
0
  6
CONTINUOUS
 62
     3
100
AcDbPolyline
 90
        3
 70
   128
 43
0.0
 10
42.025861
 20
10.135576
 10
42.021119
 20
10.838356
 10
42.015054
 20
11.737321
  0
LWPOLYLINE
  5
CDD7
330
CCD9
100
AcDbEntity
  8
0
  6
CONTINUOUS
 62
     3
100
AcDbPolyline
 90
        3
 70
   128
 43
0.0
 10
41.82151
 20
11.737321
 10
41.824204
 20
11.337346
 10
41.832299
 20
10.135576
  0
LWPOLYLINE
  5
CDD8
330
CCD9
100
AcDbEntity
  8
0
  6
CONTINUOUS
 62
     3
100
AcDbPolyline
 90
        4
 70
   128
 43
0.0
 10
41.696594
 20
8.735576
 10
41.692988
 20
9.238489
 10
41.687977
 20
9.937321
 10
41.687951
 20
9.940931
  0
LWPOLYLINE
  5
CDD9
330
CCD9
100
AcDbEntity
  8
0
  6
CONTINUOUS
 62
     3
100
AcDbPolyline
 90
        3
 70
   128
 43
0.0
 10
41.490362
 20
10.135576
 10
41.493223
 20
9.735602
 10
41.500386
 20
8.735576
  0
LWPOLYLINE
  5
CDDA
330
CCD9
100
AcDbEntity
  8
0
  6
CONTINUOUS
 62
     3
100
AcDbPolyline
 90
        9
 70
   128
 43
0.0
 10
68.283246
 20
10.63828
 10
68.279407
 20
10.638664
 10
68.268036
 20
10.639801
 10
68.249572
 20
10.641648
 10
68.224722
 20
10.644133
 10
68.194442
 20
10.647161
 10
68.159897
 20
10.650615
 10
68.122412
 20
10.654364
 10
68.083428
 20
10.658262
  0
LWPOLYLINE
  5
CDDB
330
CCD9
100
AcDbEntity
  8
0
  6
CONTINUOUS
 62
     3
100
AcDbPolyline
 90
       10
 70
   128
 43
0.0
 10
58.110225
 20
14.537321
 10
58.075496
 20
14.572051
 10
58.041821
 20
14.605725
 10
58.010225
 20
14.637321
 10
57.981667
 20
14.665879
 10
57.957015
 20
14.69053
 10
57.937019
 20
14.710526
 10
57.922286
 20
14.72526
 10
57.913263
 20
14.734283
 10
57.910225
 20
14.737321
  0
LWPOLYLINE
  5
CDDC
330
CCD9
100
AcDbEntity
  8
0
  6
CONTINUOUS
 62
     3
100
AcDbPolyline
 90
       10
 70
   128
 43
0.0
 10
53.910224
 20
17.237321
 10
53.907186
 20
17.24036
 10
53.898164
 20
17.249382
 10
53.88343
 20
17.264116
 10
53.863433
 20
17.284112
 10
53.838783
 20
17.308764
 10
53.810225
 20
17.337322
 10
53.778628
 20
17.368918
 10
53.744954
 20
17.402591
 10
53.710225
 20
17.437321
  0
LWPOLYLINE
  5
CDDD
330
CCD9
100
AcDbEntity
  8
0
  6
CONTINUOUS
 62
     3
100
AcDbPolyline
 90
       10
 70
   128
 43
0.0
 10
57.910225
 20
17.237321
 10
57.913263
 20
17.24036
 10
57.922286
 20
17.249382
 10
57.937019
 20
17.264116
 10
57.957015
 20
17.284112
 10
57.981667
 20
17.308764
 10
58.010225
 20
17.337322
 10
58.041821
 20
17.368918
 10
58.075496
 20
17.402591
 10
58.110225
 20
17.437321
  0
LWPOLYLINE
  5
CDDE
330
CCD9
100
AcDbEntity
  8
0
  6
CONTINUOUS
 62
     3
100
AcDbPolyline
 90
        9
 70
   128
 43
0.0
 10
57.361169
 20
25.43827
 10
57.361354
 20
25.399251
 10
57.361533
 20
25.361734
 10
57.361695
 20
25.327156
 10
57.361838
 20
25.296849
 10
57.361955
 20
25.271977
 10
57.362043
 20
25.253495
 10
57.362097
 20
25.242115
 10
57.362116
 20
25.238272
  0
LWPOLYLINE
  5
CDDF
330
CCD9
100
AcDbEntity
  8
0
  6
CONTINUOUS
 62
     3
100
AcDbPolyline
 90
        9
 70
   128
 43
0.0
 10
57.362116
 20
25.238272
 10
57.362153
 20
25.230585
 10
57.362259
 20
25.207823
 10
57.362434
 20
25.170859
 10
57.362669
 20
25.121115
 10
57.362956
 20
25.060501
 10
57.363283
 20
24.991347
 10
57.363637
 20
24.91631
 10
57.364006
 20
24.838276
  0
LWPOLYLINE
  5
CDE0
330
CCD9
100
AcDbEntity
  8
0
  6
CONTINUOUS
 62
     3
100
AcDbPolyline
 90
        9
 70
   128
 43
0.0
 10
66.361954
 20
32.435576
 10
66.365798
 20
32.435542
 10
66.377178
 20
32.435444
 10
66.39566
 20
32.435281
 10
66.420531
 20
32.435065
 10
66.450837
 20
32.434801
 10
66.485413
 20
32.434499
 10
66.52293
 20
32.434171
 10
66.561947
 20
32.43383
  0
LWPOLYLINE
  5
CDE1
330
CCD9
100
AcDbEntity
  8
0
  6
CONTINUOUS
 62
     3
100
AcDbPolyline
 90
        5
 70
   128
 43
0.0
 10
66.605611
 20
37.295901
 10
66.605082
 20
37.265593
 10
66.604479
 20
37.231015
 10
66.603824
 20
37.193496
 10
66.603143
 20
37.154479
  0
LWPOLYLINE
  5
CDE2
330
CCD9
100
AcDbEntity
  8
0
  6
CONTINUOUS
 62
     3
100
AcDbPolyline
 90
        9
 70
   128
 43
0.0
 10
66.403151
 20
37.156225
 10
66.406994
 20
37.156191
 10
66.418375
 20
37.15609
 10
66.436856
 20
37.15593
 10
66.461728
 20
37.155712
 10
66.492034
 20
37.155448
 10
66.52661
 20
37.155146
 10
66.564127
 20
37.154818
 10
66.603143
 20
37.154479
  0
LWPOLYLINE
  5
CDE3
330
CCD9
100
AcDbEntity
  8
0
  6
CONTINUOUS
 62
     3
100
AcDbPolyline
 90
        9
 70
   128
 43
0.0
 10
66.405619
 20
37.439067
 10
66.40925
 20
37.411338
 10
66.420487
 20
37.384615
 10
66.438893
 20
37.359933
 10
66.463757
 20
37.33825
 10
66.494115
 20
37.320402
 10
66.528791
 20
37.307084
 10
66.566443
 20
37.29881
 10
66.605611
 20
37.295901
  0
LWPOLYLINE
  5
CDE4
330
CCD9
100
AcDbEntity
  8
0
  6
CONTINUOUS
 62
     3
100
AcDbPolyline
 90
        9
 70
   128
 43
0.0
 10
66.416378
 20
38.671909
 10
66.420009
 20
38.64418
 10
66.431246
 20
38.617457
 10
66.449652
 20
38.592777
 10
66.474517
 20
38.571092
 10
66.504874
 20
38.553246
 10
66.539551
 20
38.539926
 10
66.577202
 20
38.531652
 10
66.616371
 20
38.528743
  0
LWPOLYLINE
  5
CDE5
330
CCD9
100
AcDbEntity
  8
0
  6
CONTINUOUS
 62
     3
100
AcDbPolyline
 90
        9
 70
   128
 43
0.0
 10
66.416378
 20
38.671909
 10
66.420221
 20
38.671876
 10
66.431602
 20
38.671777
 10
66.450083
 20
38.671615
 10
66.474954
 20
38.671399
 10
66.50526
 20
38.671134
 10
66.539837
 20
38.670833
 10
66.577354
 20
38.670505
 10
66.616371
 20
38.670164
  0
LWPOLYLINE
  5
CDE6
330
CCD9
100
AcDbEntity
  8
0
  6
CONTINUOUS
 62
     3
100
AcDbPolyline
 90
        5
 70
   128
 43
0.0
 10
66.403151
 20
37.156225
 10
66.403832
 20
37.23426
 10
66.404487
 20
37.309297
 10
66.40509
 20
37.378451
 10
66.405619
 20
37.439067
  0
LWPOLYLINE
  5
CDE7
330
CCD9
100
AcDbEntity
  8
0
  6
CONTINUOUS
 62
     3
100
AcDbPolyline
 90
        5
 70
   128
 43
0.0
 10
67.352473
 20
38.528743
 10
67.347129
 20
38.55905
 10
67.341032
 20
38.593628
 10
67.334417
 20
38.631145
 10
67.327537
 20
38.670164
  0
LWPOLYLINE
  5
CDE8
330
CCD9
100
AcDbEntity
  8
0
  6
CONTINUOUS
 62
     3
100
AcDbPolyline
 90
        7
 70
   128
 43
0.0
 10
96.699898
 20
35.325384
 10
96.702476
 20
35.323818
 10
96.770112
 20
35.282743
 10
96.825267
 20
35.249263
 10
96.864811
 20
35.225269
 10
96.889886
 20
35.210058
 10
96.898851
 20
35.204621
  0
LWPOLYLINE
  5
CDE9
330
CCD9
100
AcDbEntity
  8
0
  6
CONTINUOUS
 62
     3
100
AcDbPolyline
 90
        7
 70
   128
 43
0.0
 10
96.898851
 20
35.204621
 10
96.916786
 20
35.193743
 10
96.966949
 20
35.16333
 10
97.046082
 20
35.115376
 10
97.156495
 20
35.048517
 10
97.293109
 20
34.965873
 10
97.296764
 20
34.963662
  0
LINE
  5
CDEA
330
CCD9
100
AcDbEntity
  8
WYMIARY
 62
     3
100
AcDbLine
 10
71.132006
 20
67.989779
 30
0.0
 11
52.882583
 21
105.458006
 31
0.0
  0
TEXT
  5
CDEB
330
CCD9
100
AcDbEntity
  8
WY
 62
     3
100
AcDbText
 10
15.488668
 20
84.216629
 30
0.0
 40
2.0
  1
Module type M...
 51
15.0
  7
ITALIC
100
AcDbText
  0
TEXT
  5
CDEC
330
CCD9
100
AcDbEntity
  8
WY
 62
     3
100
AcDbText
 10
-0.000001
 20
56.303174
 30
0.0
 40
2.0
  1
Description plate GZT80-0035
 51
15.0
  7
ITALIC
100
AcDbText
  0
TEXT
  5
CDED
330
CCD9
100
AcDbEntity
  8
WY
 62
     3
100
AcDbText
 10
-0.000001
 20
59.610613
 30
0.0
 40
2.0
  1
Płytka do opisu GZT80-0035
 51
15.0
  7
ITALIC
100
AcDbText
  0
LINE
  5
CDEE
330
CCD9
100
AcDbEntity
  8
WYMIARY
 62
     3
100
AcDbLine
 10
40.828861
 20
83.157464
 30
0.0
 11
26.29486
 21
83.157464
 31
0.0
  0
LINE
  5
CDEF
330
CCD9
100
AcDbEntity
  8
WYMIARY
 62
     3
100
AcDbLine
 10
39.201723
 20
55.006059
 30
0.0
 11
0.048604
 21
55.006059
 31
0.0
  0
ARC
  5
CDF0
330
CCD9
100
AcDbEntity
  8
1
100
AcDbCircle
 10
29.446185
 20
57.444374
 30
0.0
 40
41.741748
100
AcDbArc
 50
336.127577
 51
23.872423
  0
LINE
  5
CDF1
330
CCD9
100
AcDbEntity
  8
WYMIARY
 62
     3
100
AcDbLine
 10
92.477326
 20
56.270781
 30
0.0
 11
89.381446
 21
83.289586
 31
0.0
  0
ARC
  5
CDF2
330
CCD9
100
AcDbEntity
  8
1
100
AcDbCircle
 10
24.267688
 20
25.216997
 30
0.0
 40
66.918858
100
AcDbArc
 50
13.684441
 51
36.227502
  0
LINE
  5
CDF3
330
CCD9
100
AcDbEntity
  8
WYMIARY
 62
     3
100
AcDbLine
 10
61.196522
 20
52.883393
 30
0.0
 11
40.828861
 21
83.157464
 31
0.0
  0
LINE
  5
CDF4
330
CCD9
100
AcDbEntity
  8
WYMIARY
 62
     3
100
AcDbLine
 10
61.196522
 20
52.883393
 30
0.0
 11
40.828861
 21
83.157464
 31
0.0
  0
LINE
  5
CDF5
330
CCD9
100
AcDbEntity
  8
1
100
AcDbLine
 10
68.517488
 20
57.887321
 30
0.0
 11
70.317488
 21
57.887321
 31
0.0
  0
LINE
  5
CDF6
330
CCD9
100
AcDbEntity
  8
1
100
AcDbLine
 10
70.317488
 20
58.187321
 30
0.0
 11
68.517488
 21
58.187321
 31
0.0
  0
LINE
  5
CDF7
330
CCD9
100
AcDbEntity
  8
1
100
AcDbLine
 10
68.517488
 20
59.387321
 30
0.0
 11
71.127628
 21
59.387321
 31
0.0
  0
LINE
  5
CDF8
330
CCD9
100
AcDbEntity
  8
1
100
AcDbLine
 10
71.110401
 20
59.68732
 30
0.0
 11
68.517488
 21
59.68732
 31
0.0
  0
LINE
  5
CDF9
330
CCD9
100
AcDbEntity
  8
1
100
AcDbLine
 10
71.1804
 20
57.937321
 30
0.0
 11
67.100642
 21
57.937321
 31
0.0
  0
LINE
  5
CDFA
330
CCD9
100
AcDbEntity
  8
0
  6
CONTINUOUS
 62
     3
100
AcDbLine
 10
69.713224
 20
42.237323
 30
0.0
 11
67.637067
 21
42.237323
 31
0.0
  0
LINE
  5
CDFB
330
CCD9
100
AcDbEntity
  8
0
  6
CONTINUOUS
 62
     3
100
AcDbLine
 10
67.637067
 20
42.03732
 30
0.0
 11
79.154961
 21
42.03732
 31
0.0
  0
LINE
  5
CDFC
330
CCD9
100
AcDbEntity
  8
0
  6
CONTINUOUS
 62
     3
100
AcDbLine
 10
79.154961
 20
42.237323
 30
0.0
 11
67.637067
 21
42.237323
 31
0.0
  0
LINE
  5
CDFD
330
CCD9
100
AcDbEntity
  8
1
100
AcDbLine
 10
66.600642
 20
42.237321
 30
0.0
 11
66.600642
 21
57.437321
 31
0.0
  0
LINE
  5
CDFE
330
CCD9
100
AcDbEntity
  8
1
100
AcDbLine
 10
57.047253
 20
55.296352
 30
0.0
 11
57.047253
 21
47.482192
 31
0.0
  0
LINE
  5
CDFF
330
CCD9
100
AcDbEntity
  8
1
100
AcDbLine
 10
57.047253
 20
55.296352
 30
0.0
 11
57.047253
 21
47.482192
 31
0.0
  0
ARC
  5
CE00
330
CCD9
100
AcDbEntity
  8
WYMIARY
 62
     4
100
AcDbCircle
 10
45.917719
 20
39.3842
 30
0.0
 40
0.662382
100
AcDbArc
 50
30.75732
 51
148.399354
  0
LINE
  5
CE01
330
CCD9
100
AcDbEntity
  8
1
100
AcDbLine
 10
68.435328
 20
42.237321
 30
0.0
 11
66.987067
 21
42.237321
 31
0.0
  0
LINE
  5
CE02
330
CCD9
100
AcDbEntity
  8
1
100
AcDbLine
 10
68.435328
 20
42.237321
 30
0.0
 11
66.987067
 21
42.237321
 31
0.0
  0
LINE
  5
CE03
330
CCD9
100
AcDbEntity
  8
1
100
AcDbLine
 10
68.435328
 20
42.237321
 30
0.0
 11
66.600642
 21
42.237321
 31
0.0
  0
ARC
  5
CE04
330
CCD9
100
AcDbEntity
  8
0
  6
CONTINUOUS
 62
     3
100
AcDbCircle
 10
67.637067
 20
41.037321
 30
0.0
 40
1.0
100
AcDbArc
 50
154.852631
 51
179.5
  0
ARC
  5
CE05
330
CCD9
100
AcDbEntity
  8
0
  6
CONTINUOUS
 62
     3
100
AcDbCircle
 10
66.66539
 20
41.273634
 30
0.0
 40
0.2
100
AcDbArc
 50
10.0
 51
70.591802
  0
ARC
  5
CE06
330
CCD9
100
AcDbEntity
  8
0
  6
CONTINUOUS
 62
     3
100
AcDbCircle
 10
66.665388
 20
41.273636
 30
0.0
 40
0.199999
100
AcDbArc
 50
70.591221
 51
166.330826
  0
ARC
  5
CE07
330
CCD9
100
AcDbEntity
  8
0
  6
CONTINUOUS
 62
     3
100
AcDbCircle
 10
67.637067
 20
41.037321
 30
0.0
 40
1.2
100
AcDbArc
 50
166.330972
 51
179.5
  0
LINE
  5
CE08
330
CCD9
100
AcDbEntity
  8
0
  6
CONTINUOUS
 62
     3
100
AcDbLine
 10
67.637067
 20
42.237323
 30
0.0
 11
67.637067
 21
42.03732
 31
0.0
  0
ARC
  5
CE09
330
CCD9
100
AcDbEntity
  8
0
  6
CONTINUOUS
 62
     3
100
AcDbCircle
 10
67.637067
 20
41.037321
 30
0.0
 40
1.0
100
AcDbArc
 50
90.0
 51
154.852631
  0
ARC
  5
CE0A
330
CCD9
100
AcDbEntity
  8
0
  6
CONTINUOUS
 62
     3
100
AcDbCircle
 10
67.637067
 20
41.037321
 30
0.0
 40
1.2
100
AcDbArc
 50
90.0
 51
166.330972
  0
ARC
  5
CE0B
330
CCD9
100
AcDbEntity
  8
1
100
AcDbCircle
 10
67.100642
 20
57.437321
 30
0.0
 40
0.5
100
AcDbArc
 50
90.0
 51
180.0
  0
ARC
  5
CE0C
330
CCD9
100
AcDbEntity
  8
1
100
AcDbCircle
 10
68.517488
 20
58.78732
 30
0.0
 40
0.9
100
AcDbArc
 50
90.0
 51
270.0
  0
ARC
  5
CE0D
330
CCD9
100
AcDbEntity
  8
1
100
AcDbCircle
 10
68.517488
 20
58.78732
 30
0.0
 40
0.6
100
AcDbArc
 50
90.0
 51
270.0
  0
LINE
  5
CE0E
330
CCD9
100
AcDbEntity
  8
1
100
AcDbLine
 10
68.517488
 20
57.887321
 30
0.0
 11
68.517488
 21
58.187321
 31
0.0
  0
LINE
  5
CE0F
330
CCD9
100
AcDbEntity
  8
1
100
AcDbLine
 10
68.517488
 20
59.68732
 30
0.0
 11
68.517488
 21
59.387321
 31
0.0
  0
LINE
  5
CE10
330
CCD9
100
AcDbEntity
  8
1
100
AcDbLine
 10
61.901238
 20
57.313027
 30
0.0
 11
59.901238
 21
57.313027
 31
0.0
  0
LINE
  5
CE11
330
CCD9
100
AcDbEntity
  8
1
100
AcDbLine
 10
57.047253
 20
55.296352
 30
0.0
 11
62.557951
 21
55.272153
 31
0.0
  0
LINE
  5
CE12
330
CCD9
100
AcDbEntity
  8
1
100
AcDbLine
 10
61.901238
 20
57.313027
 30
0.0
 11
59.901238
 21
57.313027
 31
0.0
  0
LINE
  5
CE13
330
CCD9
100
AcDbEntity
  8
1
100
AcDbLine
 10
57.047253
 20
55.296352
 30
0.0
 11
62.557951
 21
55.272153
 31
0.0
  0
LINE
  5
CE14
330
CCD9
100
AcDbEntity
  8
1
100
AcDbLine
 10
59.901238
 20
55.283819
 30
0.0
 11
59.901238
 21
57.313027
 31
0.0
  0
LINE
  5
CE15
330
CCD9
100
AcDbEntity
  8
1
100
AcDbLine
 10
59.901238
 20
55.283819
 30
0.0
 11
59.901238
 21
57.313027
 31
0.0
  0
LINE
  5
CE16
330
CCD9
100
AcDbEntity
  8
1
100
AcDbLine
 10
61.901238
 20
55.283819
 30
0.0
 11
61.901238
 21
57.313027
 31
0.0
  0
LINE
  5
CE17
330
CCD9
100
AcDbEntity
  8
1
100
AcDbLine
 10
61.901238
 20
55.283819
 30
0.0
 11
61.901238
 21
57.313027
 31
0.0
  0
ARC
  5
CE18
330
CCD9
100
AcDbEntity
  8
1
100
AcDbCircle
 10
62.546974
 20
52.772177
 30
0.0
 40
2.5
100
AcDbArc
 50
2.221188000000001
 51
89.748407
  0
ARC
  5
CE19
330
CCD9
100
AcDbEntity
  8
1
100
AcDbCircle
 10
62.546974
 20
52.772177
 30
0.0
 40
2.5
100
AcDbArc
 50
2.221188000000001
 51
89.748407
  0
LINE
  5
CE1A
330
CCD9
100
AcDbEntity
  8
1
100
AcDbLine
 10
95.700642
 20
42.237321
 30
0.0
 11
95.700642
 21
57.437321
 31
0.0
  0
LINE
  5
CE1B
330
CCD9
100
AcDbEntity
  8
0
  6
CONTINUOUS
 62
     3
100
AcDbLine
 10
82.360224
 20
42.03732
 30
0.0
 11
96.758471
 21
42.03732
 31
0.0
  0
LINE
  5
CE1C
330
CCD9
100
AcDbEntity
  8
0
  6
CONTINUOUS
 62
     3
100
AcDbLine
 10
96.761963
 20
42.237323
 30
0.0
 11
82.160224
 21
42.237323
 31
0.0
  0
LINE
  5
CE1D
330
CCD9
100
AcDbEntity
  8
0
  6
CONTINUOUS
 62
     3
100
AcDbLine
 10
82.360224
 20
41.237321
 30
0.0
 11
82.160224
 21
41.237321
 31
0.0
  0
LINE
  5
CE1E
330
CCD9
100
AcDbEntity
  8
0
  6
CONTINUOUS
 62
     3
100
AcDbLine
 10
82.360224
 20
41.237321
 30
0.0
 11
82.360224
 21
42.03732
 31
0.0
  0
LINE
  5
CE1F
330
CCD9
100
AcDbEntity
  8
0
  6
CONTINUOUS
 62
     3
100
AcDbLine
 10
82.160224
 20
42.237323
 30
0.0
 11
82.160224
 21
41.237321
 31
0.0
  0
LINE
  5
CE20
330
CCD9
100
AcDbEntity
  8
0
  6
CONTINUOUS
 62
     3
100
AcDbLine
 10
72.587502
 20
42.237323
 30
0.0
 11
71.890224
 21
42.237323
 31
0.0
  0
LINE
  5
CE21
330
CCD9
100
AcDbEntity
  8
0
  6
CONTINUOUS
 62
     3
100
AcDbLine
 10
79.154961
 20
42.237323
 30
0.0
 11
79.154961
 21
42.03732
 31
0.0
  0
ARC
  5
CE22
330
CCD9
100
AcDbEntity
  8
0
  6
CONTINUOUS
 62
     3
100
AcDbCircle
 10
79.154961
 20
42.037321
 30
0.0
 40
0.2
100
AcDbArc
 50
34.482919
 51
90.0
  0
LINE
  5
CE23
330
CCD9
100
AcDbEntity
  8
0
  6
CONTINUOUS
 62
     3
100
AcDbLine
 10
80.290488
 20
40.73732
 30
0.0
 11
79.775083
 21
41.487716
 31
0.0
  0
LINE
  5
CE24
330
CCD9
100
AcDbEntity
  8
0
  6
CONTINUOUS
 62
     3
100
AcDbLine
 10
79.154961
 20
42.03732
 30
0.0
 11
80.17107
 21
40.557929
 31
0.0
  0
LINE
  5
CE25
330
CCD9
100
AcDbEntity
  8
0
  6
CONTINUOUS
 62
     3
100
AcDbLine
 10
79.775083
 20
41.487716
 30
0.0
 11
79.395195
 21
42.04081
 31
0.0
  0
LINE
  5
CE26
330
CCD9
100
AcDbEntity
  8
0
  6
CONTINUOUS
 62
     3
100
AcDbLine
 10
80.335929
 20
40.671159
 30
0.0
 11
79.31982
 21
42.150554
 31
0.0
  0
LINE
  5
CE27
330
CCD9
100
AcDbEntity
  8
0
  6
CONTINUOUS
 62
     3
100
AcDbLine
 10
79.154961
 20
42.237323
 30
0.0
 11
72.587502
 21
42.237323
 31
0.0
  0
ARC
  5
CE28
330
CCD9
100
AcDbEntity
  8
0
  6
CONTINUOUS
 62
     3
100
AcDbCircle
 10
81.160224
 20
41.237321
 30
0.0
 40
1.2
100
AcDbArc
 50
214.482919
 51
360.0
  0
ARC
  5
CE29
330
CCD9
100
AcDbEntity
  8
0
  6
CONTINUOUS
 62
     3
100
AcDbCircle
 10
81.160224
 20
41.237321
 30
0.0
 40
1.0
100
AcDbArc
 50
214.482919
 51
360.0
  0
LINE
  5
CE2A
330
CCD9
100
AcDbEntity
  8
1
100
AcDbLine
 10
96.511962
 20
42.237321
 30
0.0
 11
96.508471
 21
42.237321
 31
0.0
  0
LINE
  5
CE2B
330
CCD9
100
AcDbEntity
  8
1
100
AcDbLine
 10
84.610224
 20
40.187321
 30
0.0
 11
88.605703
 21
40.187321
 31
0.0
  0
LINE
  5
CE2C
330
CCD9
100
AcDbEntity
  8
1
100
AcDbLine
 10
96.508471
 20
42.237321
 30
0.0
 11
88.993692
 21
42.237321
 31
0.0
  0
ARC
  5
CE2D
330
CCD9
100
AcDbEntity
  8
1
100
AcDbCircle
 10
88.605703
 20
40.887321
 30
0.0
 40
0.7
100
AcDbArc
 50
270.0
 51
13.293527
  0
LINE
  5
CE2E
330
CCD9
100
AcDbEntity
  8
1
100
AcDbLine
 10
86.310224
 20
40.037321
 30
0.0
 11
89.610224
 21
40.037321
 31
0.0
  0
ARC
  5
CE2F
330
CCD9
100
AcDbEntity
  8
0
  6
CONTINUOUS
 62
     3
100
AcDbCircle
 10
96.761962
 20
42.437321
 30
0.0
 40
0.2
100
AcDbArc
 50
270.0
 51
359.5000000000001
  0
LINE
  5
CE30
330
CCD9
100
AcDbEntity
  8
0
  6
CONTINUOUS
 62
     3
100
AcDbLine
 10
83.663964
 20
42.237323
 30
0.0
 11
84.063949
 21
42.237323
 31
0.0
  0
LINE
  5
CE31
330
CCD9
100
AcDbEntity
  8
0
  6
CONTINUOUS
 62
     3
100
AcDbLine
 10
86.360224
 20
40.037323
 30
0.0
 11
89.860225
 21
40.037323
 31
0.0
  0
LINE
  5
CE32
330
CCD9
100
AcDbEntity
  8
1
100
AcDbLine
 10
95.200642
 20
57.937321
 30
0.0
 11
82.584846
 21
57.937321
 31
0.0
  0
LINE
  5
CE33
330
CCD9
100
AcDbEntity
  8
1
100
AcDbLine
 10
71.16182
 20
58.62062
 30
0.0
 11
70.579961
 21
58.261752
 31
0.0
  0
LINE
  5
CE34
330
CCD9
100
AcDbEntity
  8
1
100
AcDbLine
 10
70.737445
 20
58.006411
 30
0.0
 11
71.172622
 21
58.274813
 31
0.0
  0
LINE
  5
CE35
330
CCD9
100
AcDbEntity
  8
1
100
AcDbLine
 10
70.317488
 20
57.887321
 30
0.0
 11
70.317488
 21
58.187321
 31
0.0
  0
ARC
  5
CE36
330
CCD9
100
AcDbEntity
  8
1
100
AcDbCircle
 10
70.317488
 20
58.68732
 30
0.0
 40
0.8
100
AcDbArc
 50
270.0
 51
301.664652
  0
ARC
  5
CE37
330
CCD9
100
AcDbEntity
  8
1
100
AcDbCircle
 10
70.317488
 20
58.68732
 30
0.0
 40
0.5
100
AcDbArc
 50
270.0
 51
301.664652
  0
ARC
  5
CE38
330
CCD9
100
AcDbEntity
  8
1
100
AcDbCircle
 10
95.200642
 20
57.437321
 30
0.0
 40
0.5
100
AcDbArc
 50
0.0
 51
90.0
  0
ARC
  5
CE39
330
CCD9
100
AcDbEntity
  8
1
100
AcDbCircle
 10
28.410713
 20
26.96501
 30
0.0
 40
62.552332
100
AcDbArc
 50
37.178701
 51
49.78917100000001
  0
LINE
  5
CE3A
330
CCD9
100
AcDbEntity
  8
1
100
AcDbLine
 10
68.131626
 20
74.716126
 30
0.0
 11
68.198952
 21
74.725365
 31
0.0
  0
ARC
  5
CE3B
330
CCD9
100
AcDbEntity
  8
1
100
AcDbCircle
 10
68.266279
 20
74.484601
 30
0.0
 40
0.25
100
AcDbArc
 50
105.62289
 51
124.829362
  0
LINE
  5
CE3C
330
CCD9
100
AcDbEntity
  8
1
100
AcDbLine
 10
67.9429
 20
74.564163
 30
0.0
 11
68.123495
 21
74.689817
 31
0.0
  0
LINE
  5
CE3D
330
CCD9
100
AcDbEntity
  8
1
100
AcDbLine
 10
68.794625
 20
74.734602
 30
0.0
 11
68.266279
 21
74.734602
 31
0.0
  0
LINE
  5
CE3E
330
CCD9
100
AcDbEntity
  8
WYMIARY
 62
     3
100
AcDbLine
 10
89.381446
 20
83.289586
 30
0.0
 11
72.482642
 21
83.206585
 31
0.0
  0
LINE
  5
CE3F
330
CCD9
100
AcDbEntity
  8
WYMIARY
 62
     3
100
AcDbLine
 10
52.882583
 20
105.458006
 30
0.0
 11
4.803186
 21
105.458006
 31
0.0
  0
TEXT
  5
CE40
330
CCD9
100
AcDbEntity
  8
WY
 62
     3
100
AcDbText
 10
15.488668
 20
87.524067
 30
0.0
 40
2.0
  1
Moduł typu M...
 51
15.0
  7
ITALIC
100
AcDbText
  0
TEXT
  5
CE41
330
CCD9
100
AcDbEntity
  8
WY
 62
     3
100
AcDbText
 10
72.434974
 20
85.59773
 30
0.0
 40
2.0
  1
Relay RM87N
 51
15.0
  7
ITALIC
100
AcDbText
  0
LWPOLYLINE
  5
CE42
330
CCD9
100
AcDbEntity
  8
0
  6
CONTINUOUS
 62
     3
100
AcDbPolyline
 90
        9
 70
   128
 43
0.0
 10
66.437112
 20
41.047793
 10
66.440955
 20
41.04776
 10
66.452336
 20
41.047659
 10
66.470817
 20
41.047499
 10
66.495688
 20
41.047283
 10
66.525994
 20
41.047018
 10
66.560571
 20
41.046717
 10
66.598088
 20
41.046389
 10
66.637105
 20
41.046046
  0
LWPOLYLINE
  5
CE43
330
CCD9
100
AcDbEntity
  8
0
  6
CONTINUOUS
 62
     3
100
AcDbPolyline
 90
        9
 70
   128
 43
0.0
 10
82.360224
 20
42.03732
 10
82.321206
 20
42.076338
 10
82.283688
 20
42.113859
 10
82.24911
 20
42.148434
 10
82.218803
 20
42.178743
 10
82.19393
 20
42.203617
 10
82.175449
 20
42.222098
 10
82.164067
 20
42.233479
 10
82.160224
 20
42.237323
  0
LWPOLYLINE
  5
CE44
330
CCD9
100
AcDbEntity
  8
0
  6
CONTINUOUS
 62
     3
100
AcDbPolyline
 90
        9
 70
   128
 43
0.0
 10
79.31982
 20
42.150554
 10
79.316653
 20
42.148378
 10
79.307271
 20
42.141933
 10
79.292036
 20
42.131469
 10
79.271534
 20
42.117387
 10
79.246552
 20
42.100229
 10
79.21805
 20
42.080652
 10
79.187124
 20
42.059411
 10
79.154961
 20
42.03732
  0
LWPOLYLINE
  5
CE45
330
CCD9
100
AcDbEntity
  8
0
  6
CONTINUOUS
 62
     3
100
AcDbPolyline
 90
        4
 70
   128
 43
0.0
 10
79.395195
 20
42.04081
 10
79.368655
 20
42.079453
 10
79.343209
 20
42.116501
 10
79.31982
 20
42.150554
  0
LWPOLYLINE
  5
CE46
330
CCD9
100
AcDbEntity
  8
0
  6
CONTINUOUS
 62
     3
100
AcDbPolyline
 90
        9
 70
   128
 43
0.0
 10
80.17107
 20
40.557929
 10
80.203233
 20
40.58002
 10
80.234159
 20
40.601261
 10
80.262661
 20
40.620838
 10
80.287643
 20
40.637996
 10
80.308146
 20
40.652078
 10
80.32338
 20
40.662542
 10
80.332762
 20
40.668983
 10
80.335929
 20
40.671159
  0
LWPOLYLINE
  5
CE47
330
CCD9
100
AcDbEntity
  8
1
100
AcDbPolyline
 90
        9
 70
     0
 43
0.0
 10
96.711955
 20
42.435576
 10
96.707816
 20
42.396806
 10
96.696233
 20
42.359577
 10
96.677648
 20
42.325302
 10
96.652765
 20
42.295284
 10
96.622531
 20
42.270665
 10
96.588096
 20
42.252379
 10
96.550766
 20
42.241122
 10
96.511962
 20
42.237321
  0
LWPOLYLINE
  5
CE48
330
CCD9
100
AcDbEntity
  8
0
  6
CONTINUOUS
 62
     3
100
AcDbPolyline
 90
        9
 70
   128
 43
0.0
 10
96.758471
 20
42.03732
 10
96.759152
 20
42.076338
 10
96.759808
 20
42.113859
 10
96.760411
 20
42.148434
 10
96.76094
 20
42.178743
 10
96.761374
 20
42.203617
 10
96.761697
 20
42.222098
 10
96.761896
 20
42.233479
 10
96.761963
 20
42.237323
  0
LWPOLYLINE
  5
CE49
330
CCD9
100
AcDbEntity
  8
0
  6
CONTINUOUS
 62
     3
100
AcDbPolyline
 90
        9
 70
   128
 43
0.0
 10
96.758471
 20
42.03732
 10
96.797487
 20
42.036981
 10
96.835005
 20
42.036653
 10
96.869581
 20
42.036351
 10
96.899888
 20
42.036087
 10
96.924758
 20
42.035871
 10
96.943241
 20
42.03571
 10
96.95462
 20
42.03561
 10
96.958465
 20
42.035576
  0
LWPOLYLINE
  5
CE4A
330
CCD9
100
AcDbEntity
  8
1
100
AcDbPolyline
 90
        9
 70
   128
 43
0.0
 10
70.737445
 20
58.006411
 10
70.734419
 20
58.011319
 10
70.725457
 20
58.025848
 10
70.710904
 20
58.049444
 10
70.691319
 20
58.0812
 10
70.667455
 20
58.119893
 10
70.640228
 20
58.164038
 10
70.610685
 20
58.211937
 10
70.579961
 20
58.261752
  0
LWPOLYLINE
  5
CE4B
330
CCD9
100
AcDbEntity
  8
1
100
AcDbPolyline
 90
        6
 70
   128
 43
0.0
 10
67.9429
 20
74.564163
 10
67.833485
 20
74.488033
 10
67.736404
 20
74.420486
 10
67.663615
 20
74.36984
 10
67.6236
 20
74.341998
 10
67.616878
 20
74.337322
  0
LWPOLYLINE
  5
CE4C
330
CCD9
100
AcDbEntity
  8
0
  6
CONTINUOUS
 62
     3
100
AcDbPolyline
 90
        9
 70
   128
 43
0.0
 10
97.185469
 20
68.047792
 10
97.193154
 20
68.047725
 10
97.215916
 20
68.047528
 10
97.252878
 20
68.047203
 10
97.302622
 20
68.046771
 10
97.363234
 20
68.046242
 10
97.432387
 20
68.045639
 10
97.507422
 20
68.044983
 10
97.585453
 20
68.044301
  0
TEXT
  5
CE4D
330
CCD9
100
AcDbEntity
  8
WY
 62
     3
100
AcDbText
 10
3.730225
 20
110.46476
 30
0.0
 40
2.0
  1
Obejma wyrzutnikowa GZT80-0040
 51
15.0
  7
ITALIC
100
AcDbText
  0
TEXT
  5
CE4E
330
CCD9
100
AcDbEntity
  8
WY
 62
     3
100
AcDbText
 10
3.546682
 20
107.434175
 30
0.0
 40
2.0
  1
Retainer / retractor clip GZT80-0040
 51
15.0
  7
ITALIC
100
AcDbText
  0
LINE
  5
CE4F
330
CCD9
100
AcDbEntity
  8
WYMIARY
 62
     3
100
AcDbLine
 10
103.949379
 20
37.556255
 30
0.0
 11
115.020216
 21
79.684923
 31
0.0
  0
DIMENSION
  5
CE50
330
CCD9
100
AcDbEntity
  8
WYMIARY
 62
     1
100
AcDbDimension
  2
*D7
 10
146.33318
 20
8.237321
 30
0.0
 11
146.33318
 21
29.487321
 31
0.0
 12
-1115.936741
 22
-145.939167
 32
0.0
 70
   128
  3
STANDARD
100
AcDbAlignedDimension
 13
113.194604
 23
50.737322
 33
0.0
 14
122.560224
 24
8.237321
 34
0.0
 50
90.0
100
AcDbRotatedDimension
1001
ACAD
1000
DSTYLE
1002
{
1070
   140
1040
1.8
1070
   147
1040
0.75
1002
}
  0
DIMENSION
  5
CE51
330
CCD9
100
AcDbEntity
  8
WYMIARY
 62
     1
100
AcDbDimension
  2
*D6
 10
151.635891
 20
8.237321
 30
0.0
 11
151.635891
 21
38.737322
 31
0.0
 12
-1115.936741
 22
-145.939167
 32
0.0
 70
   128
  3
STANDARD
100
AcDbAlignedDimension
 13
102.270781
 23
69.237322
 33
0.0
 14
123.060224
 24
8.237321
 34
0.0
 50
90.0
100
AcDbRotatedDimension
1001
ACAD
1000
DSTYLE
1002
{
1070
   140
1040
1.8
1070
   147
1040
0.75
1002
}
  0
ARC
  5
CE52
330
CCD9
100
AcDbEntity
  8
0
  6
CONTINUOUS
 62
     3
100
AcDbCircle
 10
-885.539776
 20
32.237321
 30
0.0
 40
999.6
100
AcDbArc
 50
359.9770730000001
 51
0.762361
  0
ARC
  5
CE53
330
CCD9
100
AcDbEntity
  8
0
  6
CONTINUOUS
 62
     3
100
AcDbCircle
 10
-885.539776
 20
32.237321
 30
0.0
 40
1000.0
100
AcDbArc
 50
360.0
 51
0.766328
  0
DIMENSION
  5
CE54
330
CCD9
100
AcDbEntity
  8
WYMIARY
 62
     1
100
AcDbDimension
  2
*D8
 10
140.406618
 20
32.237321
 30
0.0
 11
140.406618
 21
20.237321
 31
0.0
 12
-1115.936741
 22
-145.939167
 32
0.0
 70
   128
  3
STANDARD
100
AcDbAlignedDimension
 13
122.960225
 23
8.237321
 33
0.0
 14
121.578947
 24
32.237321
 34
0.0
 50
90.0
100
AcDbRotatedDimension
1001
ACAD
1000
DSTYLE
1002
{
1070
   140
1040
1.8
1070
   147
1040
0.75
1002
}
  0
ARC
  5
CE55
330
CCD9
100
AcDbEntity
  8
0
  6
CONTINUOUS
 62
     3
100
AcDbCircle
 10
-877.039776
 20
8.237321
 30
0.0
 40
999.6
100
AcDbArc
 50
360.0
 51
1.077655
  0
ARC
  5
CE56
330
CCD9
100
AcDbEntity
  8
0
  6
CONTINUOUS
 62
     3
100
AcDbCircle
 10
-877.039776
 20
8.237321
 30
0.0
 40
1000.0
100
AcDbArc
 50
0.2923269999999999
 51
1.077233
  0
ARC
  5
CE57
330
CCD9
100
AcDbEntity
  8
0
  6
CONTINUOUS
 62
     3
100
AcDbCircle
 10
-877.039776
 20
8.237321
 30
0.0
 40
1000.0
100
AcDbArc
 50
360.0
 51
1.078568
  0
LINE
  5
CE58
330
CCD9
100
AcDbEntity
  8
0
  6
CONTINUOUS
 62
     3
100
AcDbLine
 10
122.560226
 20
8.237321
 30
0.0
 11
103.160224
 21
8.237321
 31
0.0
  0
LINE
  5
CE59
330
CCD9
100
AcDbEntity
  8
0
  6
CONTINUOUS
 62
     3
100
AcDbLine
 10
103.160224
 20
8.237321
 30
0.0
 11
103.160224
 21
11.737321
 31
0.0
  0
ARC
  5
CE5A
330
CCD9
100
AcDbEntity
  8
0
  6
CONTINUOUS
 62
     3
100
AcDbCircle
 10
100.391889
 20
9.352992
 30
0.0
 40
0.3
100
AcDbArc
 50
181.0
 51
232.431408
  0
LINE
  5
CE5B
330
CCD9
100
AcDbEntity
  8
0
  6
CONTINUOUS
 62
     3
100
AcDbLine
 10
100.091935
 20
9.347756
 30
0.0
 11
100.076346
 21
10.240804
 31
0.0
  0
LINE
  5
CE5C
330
CCD9
100
AcDbEntity
  8
0
  6
CONTINUOUS
 62
     3
100
AcDbLine
 10
101.572862
 20
10.44034
 30
0.0
 11
101.550224
 21
11.737321
 31
0.0
  0
ARC
  5
CE5D
330
CCD9
100
AcDbEntity
  8
0
  6
CONTINUOUS
 62
     3
100
AcDbCircle
 10
101.452261
 20
8.537321
 30
0.0
 40
0.3
100
AcDbArc
 50
232.431408
 51
270.0
  0
LINE
  5
CE5E
330
CCD9
100
AcDbEntity
  8
0
  6
CONTINUOUS
 62
     3
100
AcDbLine
 10
101.269348
 20
8.299534
 30
0.0
 11
100.208976
 21
9.115205
 31
0.0
  0
LINE
  5
CE5F
330
CCD9
100
AcDbEntity
  8
0
  6
CONTINUOUS
 62
     3
100
AcDbLine
 10
100.076346
 20
10.240804
 30
0.0
 11
101.572862
 21
10.44034
 31
0.0
  0
LINE
  5
CE60
330
CCD9
100
AcDbEntity
  8
0
  6
CONTINUOUS
 62
     3
100
AcDbLine
 10
99.950225
 20
11.737321
 30
0.0
 11
98.640185
 21
11.285881
 31
0.0
  0
LINE
  5
CE61
330
CCD9
100
AcDbEntity
  8
0
  6
CONTINUOUS
 62
     3
100
AcDbLine
 10
103.160224
 20
8.237321
 30
0.0
 11
101.452262
 21
8.237321
 31
0.0
  0
LINE
  5
CE62
330
CCD9
100
AcDbEntity
  8
0
  6
CONTINUOUS
 62
     3
100
AcDbLine
 10
116.995518
 20
12.007027
 30
0.0
 11
116.987259
 21
12.480079
 31
0.0
  0
LINE
  5
CE63
330
CCD9
100
AcDbEntity
  8
0
  6
CONTINUOUS
 62
     3
100
AcDbLine
 10
113.91319
 20
12.480079
 30
0.0
 11
113.904931
 21
12.007027
 31
0.0
  0
LINE
  5
CE64
330
CCD9
100
AcDbEntity
  8
0
  6
CONTINUOUS
 62
     3
100
AcDbLine
 10
117.460225
 20
12.537321
 30
0.0
 11
117.460225
 21
10.037321
 31
0.0
  0
LINE
  5
CE65
330
CCD9
100
AcDbEntity
  8
0
  6
CONTINUOUS
 62
     3
100
AcDbLine
 10
117.660225
 20
9.837321
 30
0.0
 11
117.660225
 21
12.737321
 31
0.0
  0
LINE
  5
CE66
330
CCD9
100
AcDbEntity
  8
0
  6
CONTINUOUS
 62
     3
100
AcDbLine
 10
113.874041
 20
10.237321
 30
0.0
 11
113.904931
 21
12.007027
 31
0.0
  0
LINE
  5
CE67
330
CCD9
100
AcDbEntity
  8
0
  6
CONTINUOUS
 62
     3
100
AcDbLine
 10
116.995518
 20
12.007027
 30
0.0
 11
117.026408
 21
10.237321
 31
0.0
  0
LINE
  5
CE68
330
CCD9
100
AcDbEntity
  8
0
  6
CONTINUOUS
 62
     3
100
AcDbLine
 10
117.026408
 20
10.237321
 30
0.0
 11
113.874041
 21
10.237321
 31
0.0
  0
LINE
  5
CE69
330
CCD9
100
AcDbEntity
  8
0
  6
CONTINUOUS
 62
     3
100
AcDbLine
 10
113.904931
 20
12.007027
 30
0.0
 11
116.995518
 21
12.007027
 31
0.0
  0
LINE
  5
CE6A
330
CCD9
100
AcDbEntity
  8
0
  6
CONTINUOUS
 62
     3
100
AcDbLine
 10
116.987259
 20
12.480079
 30
0.0
 11
113.91319
 21
12.480079
 31
0.0
  0
LINE
  5
CE6B
330
CCD9
100
AcDbEntity
  8
0
  6
CONTINUOUS
 62
     3
100
AcDbLine
 10
122.560226
 20
8.237321
 30
0.0
 11
122.960225
 21
8.237321
 31
0.0
  0
LINE
  5
CE6C
330
CCD9
100
AcDbEntity
  8
0
  6
CONTINUOUS
 62
     3
100
AcDbLine
 10
113.460225
 20
10.037321
 30
0.0
 11
113.460225
 21
12.537321
 31
0.0
  0
LINE
  5
CE6D
330
CCD9
100
AcDbEntity
  8
0
  6
CONTINUOUS
 62
     3
100
AcDbLine
 10
113.260225
 20
12.737321
 30
0.0
 11
113.260225
 21
9.837321
 31
0.0
  0
LINE
  5
CE6E
330
CCD9
100
AcDbEntity
  8
0
  6
CONTINUOUS
 62
     3
100
AcDbLine
 10
113.260225
 20
9.837321
 30
0.0
 11
117.660225
 21
9.837321
 31
0.0
  0
LINE
  5
CE6F
330
CCD9
100
AcDbEntity
  8
0
  6
CONTINUOUS
 62
     3
100
AcDbLine
 10
117.460225
 20
10.037321
 30
0.0
 11
113.460225
 21
10.037321
 31
0.0
  0
LINE
  5
CE70
330
CCD9
100
AcDbEntity
  8
0
  6
CONTINUOUS
 62
     3
100
AcDbLine
 10
117.660225
 20
12.737321
 30
0.0
 11
113.260225
 21
12.737321
 31
0.0
  0
LINE
  5
CE71
330
CCD9
100
AcDbEntity
  8
0
  6
CONTINUOUS
 62
     3
100
AcDbLine
 10
113.460225
 20
12.537321
 30
0.0
 11
117.460225
 21
12.537321
 31
0.0
  0
LINE
  5
CE72
330
CCD9
100
AcDbEntity
  8
0
  6
CONTINUOUS
 62
     3
100
AcDbLine
 10
122.478948
 20
27.037321
 30
0.0
 11
122.478948
 21
28.537322
 31
0.0
  0
LINE
  5
CE73
330
CCD9
100
AcDbEntity
  8
0
  6
CONTINUOUS
 62
     3
100
AcDbLine
 10
121.978947
 20
28.537322
 30
0.0
 11
121.978947
 21
27.037321
 31
0.0
  0
ARC
  5
CE74
330
CCD9
100
AcDbEntity
  8
0
  6
CONTINUOUS
 62
     3
100
AcDbCircle
 10
104.283048
 20
26.885821
 30
0.0
 40
18.5
100
AcDbArc
 50
1.088685
 51
15.515142
  0
LINE
  5
CE75
330
CCD9
100
AcDbEntity
  8
0
  6
CONTINUOUS
 62
     3
100
AcDbLine
 10
120.678947
 20
27.037321
 30
0.0
 11
120.678947
 21
28.537322
 31
0.0
  0
LINE
  5
CE76
330
CCD9
100
AcDbEntity
  8
0
  6
CONTINUOUS
 62
     3
100
AcDbLine
 10
119.183049
 20
31.837322
 30
0.0
 11
119.183049
 21
27.037321
 31
0.0
  0
LINE
  5
CE77
330
CCD9
100
AcDbEntity
  8
0
  6
CONTINUOUS
 62
     3
100
AcDbLine
 10
119.583049
 20
27.037321
 30
0.0
 11
119.583049
 21
31.837322
 31
0.0
  0
ARC
  5
CE78
330
CCD9
100
AcDbEntity
  8
0
  6
CONTINUOUS
 62
     3
100
AcDbCircle
 10
-877.039776
 20
8.237321
 30
0.0
 40
1000.0
100
AcDbArc
 50
1.078568
 51
1.088685
  0
LINE
  5
CE79
330
CCD9
100
AcDbEntity
  8
0
  6
CONTINUOUS
 62
     3
100
AcDbLine
 10
122.783047
 20
27.060766
 30
0.0
 11
122.783047
 21
27.037321
 31
0.0
  0
LINE
  5
CE7A
330
CCD9
100
AcDbEntity
  8
0
  6
CONTINUOUS
 62
     3
100
AcDbLine
 10
122.783047
 20
27.037321
 30
0.0
 11
122.383416
 21
27.037321
 31
0.0
  0
LINE
  5
CE7B
330
CCD9
100
AcDbEntity
  8
0
  6
CONTINUOUS
 62
     3
100
AcDbLine
 10
122.383416
 20
27.037321
 30
0.0
 11
119.183049
 21
27.037321
 31
0.0
  0
LINE
  5
CE7C
330
CCD9
100
AcDbEntity
  8
0
  6
CONTINUOUS
 62
     3
100
AcDbLine
 10
119.183049
 20
31.837322
 30
0.0
 11
119.583049
 21
31.837322
 31
0.0
  0
LINE
  5
CE7D
330
CCD9
100
AcDbEntity
  8
0
  6
CONTINUOUS
 62
     3
100
AcDbLine
 10
119.183049
 20
31.837322
 30
0.0
 11
119.183049
 21
32.237321
 31
0.0
  0
ARC
  5
CE7E
330
CCD9
100
AcDbEntity
  8
0
  6
CONTINUOUS
 62
     3
100
AcDbCircle
 10
119.183048
 20
31.837321
 30
0.0
 40
0.4
100
AcDbArc
 50
360.0
 51
90.0
  0
LINE
  5
CE7F
330
CCD9
100
AcDbEntity
  8
0
  6
CONTINUOUS
 62
     3
100
AcDbLine
 10
114.060145
 20
31.837322
 30
0.0
 11
119.183049
 21
31.837322
 31
0.0
  0
LINE
  5
CE80
330
CCD9
100
AcDbEntity
  8
0
  6
CONTINUOUS
 62
     3
100
AcDbLine
 10
119.183049
 20
32.237321
 30
0.0
 11
114.460223
 21
32.237321
 31
0.0
  0
CIRCLE
  5
CE81
330
CCD9
100
AcDbEntity
  8
0
  6
CONTINUOUS
 62
     3
100
AcDbCircle
 10
121.578946
 20
31.687321
 30
0.0
 40
0.55
  0
LINE
  5
CE82
330
CCD9
100
AcDbEntity
  8
0
  6
CONTINUOUS
 62
     3
100
AcDbLine
 10
122.478948
 20
28.537322
 30
0.0
 11
121.978947
 21
28.537322
 31
0.0
  0
LINE
  5
CE83
330
CCD9
100
AcDbEntity
  8
0
  6
CONTINUOUS
 62
     3
100
AcDbLine
 10
119.183049
 20
32.237321
 30
0.0
 11
121.578947
 21
32.237321
 31
0.0
  0
LINE
  5
CE84
330
CCD9
100
AcDbEntity
  8
0
  6
CONTINUOUS
 62
     3
100
AcDbLine
 10
120.678947
 20
28.537322
 30
0.0
 11
121.978947
 21
28.537322
 31
0.0
  0
LWPOLYLINE
  5
CE85
330
CCD9
100
AcDbEntity
  8
0
  6
CONTINUOUS
 62
     3
100
AcDbPolyline
 90
       10
 70
   128
 43
0.0
 10
117.460225
 20
10.037321
 10
117.463261
 20
10.034283
 10
117.472284
 20
10.02526
 10
117.487018
 20
10.010526
 10
117.507015
 20
9.99053
 10
117.531665
 20
9.965879
 10
117.560223
 20
9.937321
 10
117.591821
 20
9.905725
 10
117.625494
 20
9.872051
 10
117.660225
 20
9.837321
  0
LWPOLYLINE
  5
CE86
330
CCD9
100
AcDbEntity
  8
0
  6
CONTINUOUS
 62
     3
100
AcDbPolyline
 90
       10
 70
   128
 43
0.0
 10
117.460225
 20
12.537321
 10
117.463261
 20
12.54036
 10
117.472284
 20
12.549383
 10
117.487018
 20
12.564116
 10
117.507015
 20
12.584112
 10
117.531665
 20
12.608764
 10
117.560223
 20
12.637321
 10
117.591821
 20
12.668917
 10
117.625494
 20
12.702592
 10
117.660225
 20
12.737321
  0
LWPOLYLINE
  5
CE87
330
CCD9
100
AcDbEntity
  8
0
  6
CONTINUOUS
 62
     3
100
AcDbPolyline
 90
       10
 70
   128
 43
0.0
 10
113.260225
 20
9.837321
 10
113.294952
 20
9.872051
 10
113.328629
 20
9.905725
 10
113.360223
 20
9.937321
 10
113.388781
 20
9.965879
 10
113.413435
 20
9.99053
 10
113.433429
 20
10.010526
 10
113.448162
 20
10.02526
 10
113.457185
 20
10.034283
 10
113.460225
 20
10.037321
  0
LWPOLYLINE
  5
CE88
330
CCD9
100
AcDbEntity
  8
0
  6
CONTINUOUS
 62
     3
100
AcDbPolyline
 90
       10
 70
   128
 43
0.0
 10
113.260225
 20
12.737321
 10
113.294952
 20
12.702592
 10
113.328629
 20
12.668917
 10
113.360223
 20
12.637321
 10
113.388781
 20
12.608764
 10
113.413435
 20
12.584112
 10
113.433429
 20
12.564116
 10
113.448162
 20
12.549383
 10
113.457185
 20
12.54036
 10
113.460225
 20
12.537321
  0
LWPOLYLINE
  5
CE89
330
CCD9
100
AcDbEntity
  8
0
  6
CONTINUOUS
 62
     3
100
AcDbPolyline
 90
        7
 70
   128
 43
0.0
 10
114.060145
 20
31.837322
 10
114.062973
 20
31.84015
 10
114.194517
 20
31.97165
 10
114.329633
 20
32.106739
 10
114.408695
 20
32.185791
 10
114.446287
 20
32.223383
 10
114.460223
 20
32.237321
  0
ARC
  5
CE8A
330
CCD9
100
AcDbEntity
  8
0
  6
CONTINUOUS
 62
     3
100
AcDbCircle
 10
-894.039776
 20
50.737321
 30
0.0
 40
999.6
100
AcDbArc
 50
359.9770730000001
 51
0.762361
  0
ARC
  5
CE8B
330
CCD9
100
AcDbEntity
  8
0
  6
CONTINUOUS
 62
     3
100
AcDbCircle
 10
-894.039776
 20
50.737321
 30
0.0
 40
1000.0
100
AcDbArc
 50
360.0
 51
0.766328
  0
LINE
  5
CE8C
330
CCD9
100
AcDbEntity
  8
0
  6
CONTINUOUS
 62
     3
100
AcDbLine
 10
110.770781
 20
50.737322
 30
0.0
 11
113.194604
 21
50.737322
 31
0.0
  0
LINE
  5
CE8D
330
CCD9
100
AcDbEntity
  8
0
  6
CONTINUOUS
 62
     3
100
AcDbLine
 10
113.971741
 20
45.537323
 30
0.0
 11
110.770781
 21
45.537323
 31
0.0
  0
LINE
  5
CE8E
330
CCD9
100
AcDbEntity
  8
0
  6
CONTINUOUS
 62
     3
100
AcDbLine
 10
112.294604
 20
47.037322
 30
0.0
 11
113.594603
 21
47.037322
 31
0.0
  0
CIRCLE
  5
CE8F
330
CCD9
100
AcDbEntity
  8
0
  6
CONTINUOUS
 62
     3
100
AcDbCircle
 10
113.194604
 20
50.187321
 30
0.0
 40
0.55
  0
LINE
  5
CE90
330
CCD9
100
AcDbEntity
  8
0
  6
CONTINUOUS
 62
     3
100
AcDbLine
 10
110.770781
 20
50.737322
 30
0.0
 11
105.960224
 21
50.737322
 31
0.0
  0
LINE
  5
CE91
330
CCD9
100
AcDbEntity
  8
0
  6
CONTINUOUS
 62
     3
100
AcDbLine
 10
112.294604
 20
45.537323
 30
0.0
 11
112.294604
 21
47.037322
 31
0.0
  0
LINE
  5
CE92
330
CCD9
100
AcDbEntity
  8
0
  6
CONTINUOUS
 62
     3
100
AcDbLine
 10
110.770781
 20
50.337322
 30
0.0
 11
110.770781
 21
45.537323
 31
0.0
  0
LINE
  5
CE93
330
CCD9
100
AcDbEntity
  8
0
  6
CONTINUOUS
 62
     3
100
AcDbLine
 10
111.170781
 20
45.537323
 30
0.0
 11
111.170781
 21
50.337322
 31
0.0
  0
LINE
  5
CE94
330
CCD9
100
AcDbEntity
  8
0
  6
CONTINUOUS
 62
     3
100
AcDbLine
 10
110.770781
 20
50.337322
 30
0.0
 11
111.170781
 21
50.337322
 31
0.0
  0
LINE
  5
CE95
330
CCD9
100
AcDbEntity
  8
0
  6
CONTINUOUS
 62
     3
100
AcDbLine
 10
105.560145
 20
50.337322
 30
0.0
 11
110.770781
 21
50.337322
 31
0.0
  0
LINE
  5
CE96
330
CCD9
100
AcDbEntity
  8
0
  6
CONTINUOUS
 62
     3
100
AcDbLine
 10
110.770781
 20
50.337322
 30
0.0
 11
110.770781
 21
50.737322
 31
0.0
  0
ARC
  5
CE97
330
CCD9
100
AcDbEntity
  8
0
  6
CONTINUOUS
 62
     3
100
AcDbCircle
 10
110.770781
 20
50.337321
 30
0.0
 40
0.4
100
AcDbArc
 50
360.0
 51
90.0
  0
LINE
  5
CE98
330
CCD9
100
AcDbEntity
  8
0
  6
CONTINUOUS
 62
     3
100
AcDbLine
 10
114.094604
 20
45.537323
 30
0.0
 11
114.094604
 21
47.037322
 31
0.0
  0
LINE
  5
CE99
330
CCD9
100
AcDbEntity
  8
0
  6
CONTINUOUS
 62
     3
100
AcDbLine
 10
113.594603
 20
47.037322
 30
0.0
 11
113.594603
 21
45.537323
 31
0.0
  0
ARC
  5
CE9A
330
CCD9
100
AcDbEntity
  8
0
  6
CONTINUOUS
 62
     3
100
AcDbCircle
 10
95.870781
 20
45.487571
 30
0.0
 40
18.5
100
AcDbArc
 50
0.773517
 51
15.17835
  0
ARC
  5
CE9B
330
CCD9
100
AcDbEntity
  8
0
  6
CONTINUOUS
 62
     3
100
AcDbCircle
 10
-885.539776
 20
32.237321
 30
0.0
 40
1000.0
100
AcDbArc
 50
0.766328
 51
0.773517
  0
LINE
  5
CE9C
330
CCD9
100
AcDbEntity
  8
0
  6
CONTINUOUS
 62
     3
100
AcDbLine
 10
114.370783
 20
45.61187
 30
0.0
 11
114.370783
 21
45.537323
 31
0.0
  0
LINE
  5
CE9D
330
CCD9
100
AcDbEntity
  8
0
  6
CONTINUOUS
 62
     3
100
AcDbLine
 10
114.370783
 20
45.537323
 30
0.0
 11
113.971741
 21
45.537323
 31
0.0
  0
LINE
  5
CE9E
330
CCD9
100
AcDbEntity
  8
0
  6
CONTINUOUS
 62
     3
100
AcDbLine
 10
114.094604
 20
47.037322
 30
0.0
 11
113.594603
 21
47.037322
 31
0.0
  0
CIRCLE
  5
CE9F
330
CCD9
100
AcDbEntity
  8
0
  6
CONTINUOUS
 62
     3
100
AcDbCircle
 10
104.694604
 20
68.687321
 30
0.0
 40
0.55
  0
LINE
  5
CEA0
330
CCD9
100
AcDbEntity
  8
0
  6
CONTINUOUS
 62
     3
100
AcDbLine
 10
105.594604
 20
65.537323
 30
0.0
 11
105.094605
 21
65.537323
 31
0.0
  0
LINE
  5
CEA1
330
CCD9
100
AcDbEntity
  8
0
  6
CONTINUOUS
 62
     3
100
AcDbLine
 10
103.794605
 20
65.537323
 30
0.0
 11
105.094605
 21
65.537323
 31
0.0
  0
ARC
  5
CEA2
330
CCD9
100
AcDbEntity
  8
0
  6
CONTINUOUS
 62
     3
100
AcDbCircle
 10
-894.039776
 20
50.737321
 30
0.0
 40
1000.0
100
AcDbArc
 50
0.766328
 51
0.773517
  0
LINE
  5
CEA3
330
CCD9
100
AcDbEntity
  8
0
  6
CONTINUOUS
 62
     3
100
AcDbLine
 10
105.870782
 20
64.03732
 30
0.0
 11
105.47174
 21
64.03732
 31
0.0
  0
LINE
  5
CEA4
330
CCD9
100
AcDbEntity
  8
0
  6
CONTINUOUS
 62
     3
100
AcDbLine
 10
105.870782
 20
64.11187
 30
0.0
 11
105.870782
 21
64.03732
 31
0.0
  0
ARC
  5
CEA5
330
CCD9
100
AcDbEntity
  8
0
  6
CONTINUOUS
 62
     3
100
AcDbCircle
 10
87.370781
 20
63.987571
 30
0.0
 40
18.5
100
AcDbArc
 50
0.773517
 51
15.17835
  0
LINE
  5
CEA6
330
CCD9
100
AcDbEntity
  8
0
  6
CONTINUOUS
 62
     3
100
AcDbLine
 10
105.594604
 20
64.03732
 30
0.0
 11
105.594604
 21
65.537323
 31
0.0
  0
LINE
  5
CEA7
330
CCD9
100
AcDbEntity
  8
0
  6
CONTINUOUS
 62
     3
100
AcDbLine
 10
103.794605
 20
64.03732
 30
0.0
 11
103.794605
 21
65.537323
 31
0.0
  0
LINE
  5
CEA8
330
CCD9
100
AcDbEntity
  8
0
  6
CONTINUOUS
 62
     3
100
AcDbLine
 10
105.094605
 20
65.537323
 30
0.0
 11
105.094605
 21
64.03732
 31
0.0
  0
LINE
  5
CEA9
330
CCD9
100
AcDbEntity
  8
0
  6
CONTINUOUS
 62
     3
100
AcDbLine
 10
98.385424
 20
68.837323
 30
0.0
 11
102.270781
 21
68.837323
 31
0.0
  0
LINE
  5
CEAA
330
CCD9
100
AcDbEntity
  8
0
  6
CONTINUOUS
 62
     3
100
AcDbLine
 10
102.270781
 20
69.237322
 30
0.0
 11
98.385424
 21
69.237322
 31
0.0
  0
LINE
  5
CEAB
330
CCD9
100
AcDbEntity
  8
0
  6
CONTINUOUS
 62
     3
100
AcDbLine
 10
102.670782
 20
68.837323
 30
0.0
 11
102.270781
 21
68.837323
 31
0.0
  0
LINE
  5
CEAC
330
CCD9
100
AcDbEntity
  8
0
  6
CONTINUOUS
 62
     3
100
AcDbLine
 10
102.270781
 20
69.237322
 30
0.0
 11
102.270781
 21
68.837323
 31
0.0
  0
ARC
  5
CEAD
330
CCD9
100
AcDbEntity
  8
0
  6
CONTINUOUS
 62
     3
100
AcDbCircle
 10
102.270781
 20
68.837321
 30
0.0
 40
0.4
100
AcDbArc
 50
360.0
 51
90.0
  0
LINE
  5
CEAE
330
CCD9
100
AcDbEntity
  8
0
  6
CONTINUOUS
 62
     3
100
AcDbLine
 10
102.270781
 20
68.837323
 30
0.0
 11
102.270781
 21
64.03732
 31
0.0
  0
LINE
  5
CEAF
330
CCD9
100
AcDbEntity
  8
0
  6
CONTINUOUS
 62
     3
100
AcDbLine
 10
102.670782
 20
64.03732
 30
0.0
 11
102.670782
 21
68.837323
 31
0.0
  0
LINE
  5
CEB0
330
CCD9
100
AcDbEntity
  8
0
  6
CONTINUOUS
 62
     3
100
AcDbLine
 10
98.385424
 20
69.237322
 30
0.0
 11
98.385424
 21
68.837323
 31
0.0
  0
LINE
  5
CEB1
330
CCD9
100
AcDbEntity
  8
0
  6
CONTINUOUS
 62
     3
100
AcDbLine
 10
102.270781
 20
69.237322
 30
0.0
 11
104.694604
 21
69.237322
 31
0.0
  0
LINE
  5
CEB2
330
CCD9
100
AcDbEntity
  8
0
  6
CONTINUOUS
 62
     3
100
AcDbLine
 10
105.47174
 20
64.03732
 30
0.0
 11
102.270781
 21
64.03732
 31
0.0
  0
LWPOLYLINE
  5
CEB3
330
CCD9
100
AcDbEntity
  8
0
  6
CONTINUOUS
 62
     3
100
AcDbPolyline
 90
        7
 70
   128
 43
0.0
 10
105.560145
 20
50.337322
 10
105.562972
 20
50.34015
 10
105.694518
 20
50.471649
 10
105.829634
 20
50.606739
 10
105.908692
 20
50.68579
 10
105.946286
 20
50.723382
 10
105.960224
 20
50.737322
  0
LINE
  5
CEB4
330
CCD9
100
AcDbEntity
  8
WYMIARY
 62
     3
100
AcDbLine
 10
128.078027
 20
79.684923
 30
0.0
 11
108.362133
 21
79.684923
 31
0.0
  0
TEXT
  5
CEB5
330
CCD9
100
AcDbEntity
  8
WY
 62
     3
100
AcDbText
 10
109.756987
 20
80.607598
 30
0.0
 40
2.0
  1
Socket GZM92
 51
15.0
  7
ITALIC
100
AcDbText
  0
TEXT
  5
CEB6
330
CCD9
100
AcDbEntity
  8
WY
 62
     3
100
AcDbText
 10
109.756987
 20
83.915036
 30
0.0
 40
2.0
  1
Gniazdo GZM92
 51
15.0
  7
ITALIC
100
AcDbText
  0
ENDBLK
  5
CEB8
330
CCD9
100
AcDbEntity
  8
0
 62
     3
100
AcDbBlockEnd
  0
BLOCK
  5
D275
330
D268
100
AcDbEntity
  8
0
100
AcDbBlockBegin
  2
*D12
 70
     1
 10
0.0
 20
0.0
 30
0.0
  3
*D12
  1
*D12
  0
LINE
  5
D276
330
D268
100
AcDbEntity
  8
WYMIARY
 62
     0
100
AcDbLine
 10
553.90954
 20
118.835663
 30
0.0
 11
553.90954
 21
109.469063
 31
0.0
  0
LINE
  5
D277
330
D268
100
AcDbEntity
  8
WYMIARY
 62
     0
100
AcDbLine
 10
628.90954
 20
118.835663
 30
0.0
 11
628.90954
 21
109.469063
 31
0.0
  0
LINE
  5
D278
330
D268
100
AcDbEntity
  8
WYMIARY
 62
     0
100
AcDbLine
 10
557.40954
 20
110.969063
 30
0.0
 11
625.40954
 21
110.969063
 31
0.0
  0
SOLID
  5
D279
330
D268
100
AcDbEntity
  8
WYMIARY
 62
     0
100
AcDbTrace
 10
557.40954
 20
111.5523963333333
 30
0.0
 11
557.40954
 21
110.3857296666667
 31
0.0
 12
553.90954
 22
110.969063
 32
0.0
 13
553.90954
 23
110.969063
 33
0.0
  0
SOLID
  5
D27A
330
D268
100
AcDbEntity
  8
WYMIARY
 62
     0
100
AcDbTrace
 10
625.40954
 20
110.3857296666667
 30
0.0
 11
625.40954
 21
111.5523963333333
 31
0.0
 12
628.90954
 22
110.969063
 32
0.0
 13
628.90954
 23
110.969063
 33
0.0
  0
MTEXT
  5
D27B
330
D268
100
AcDbEntity
  8
WYMIARY
 62
     0
100
AcDbMText
 10
591.40954
 20
112.619063
 30
0.0
 40
1.8
 41
0.0
 71
     5
 72
     1
  1
\A1;75.00
  0
POINT
  5
D27C
330
D268
100
AcDbEntity
  8
DEFPOINTS
 62
     0
100
AcDbPoint
 10
553.90954
 20
120.335663
 30
0.0
  0
POINT
  5
D27D
330
D268
100
AcDbEntity
  8
DEFPOINTS
 62
     0
100
AcDbPoint
 10
628.90954
 20
120.335663
 30
0.0
  0
POINT
  5
D27E
330
D268
100
AcDbEntity
  8
DEFPOINTS
 62
     0
100
AcDbPoint
 10
628.90954
 20
110.969063
 30
0.0
  0
ENDBLK
  5
D27F
330
D268
100
AcDbEntity
  8
0
100
AcDbBlockEnd
  0
BLOCK
  5
D465
330
D464
100
AcDbEntity
  8
0
100
AcDbBlockBegin
  2
*D14
 70
     1
 10
0.0
 20
0.0
 30
0.0
  3
*D14
  1
*D14
  0
LINE
  5
D467
330
D464
100
AcDbEntity
  8
WYMIARY
 62
     0
100
AcDbLine
 10
763.3844817871495
 20
227.4139524471737
 30
0.0
 11
757.6682835796539
 21
227.4139524471737
 31
0.0
  0
LINE
  5
D468
330
D464
100
AcDbEntity
  8
WYMIARY
 62
     0
100
AcDbLine
 10
763.3844817871495
 20
217.4139524471737
 30
0.0
 11
757.6682835796539
 21
217.4139524471737
 31
0.0
  0
LINE
  5
D469
330
D464
100
AcDbEntity
  8
WYMIARY
 62
     0
100
AcDbLine
 10
759.1682835796539
 20
226.4139524471737
 30
0.0
 11
759.1682835796539
 21
218.4139524471737
 31
0.0
  0
SOLID
  5
D46A
330
D464
100
AcDbEntity
  8
WYMIARY
 62
     0
100
AcDbTrace
 10
759.3349502463205
 20
226.4139524471737
 30
0.0
 11
759.0016169129873
 21
226.4139524471737
 31
0.0
 12
759.1682835796539
 22
227.4139524471737
 32
0.0
 13
759.1682835796539
 23
227.4139524471737
 33
0.0
  0
SOLID
  5
D46B
330
D464
100
AcDbEntity
  8
WYMIARY
 62
     0
100
AcDbTrace
 10
759.0016169129873
 20
218.4139524471737
 30
0.0
 11
759.3349502463205
 21
218.4139524471737
 31
0.0
 12
759.1682835796539
 22
217.4139524471737
 32
0.0
 13
759.1682835796539
 23
217.4139524471737
 33
0.0
  0
MTEXT
  5
D46C
330
D464
100
AcDbEntity
  8
WYMIARY
 62
     0
100
AcDbMText
 10
757.8182835796539
 20
222.4139524471737
 30
0.0
 40
1.2
 41
0.0
 71
     5
 72
     1
  1
\A1;10
 11
0.0
 21
1.0
 31
0.0
  0
POINT
  5
D46D
330
D464
100
AcDbEntity
  8
DEFPOINTS
 62
     0
100
AcDbPoint
 10
764.8844817871495
 20
227.4139524471737
 30
0.0
  0
POINT
  5
D46E
330
D464
100
AcDbEntity
  8
DEFPOINTS
 62
     0
100
AcDbPoint
 10
764.8844817871495
 20
217.4139524471737
 30
0.0
  0
POINT
  5
D46F
330
D464
100
AcDbEntity
  8
DEFPOINTS
 62
     0
100
AcDbPoint
 10
759.1682835796539
 20
217.4139524471737
 30
0.0
  0
ENDBLK
  5
D466
330
D464
100
AcDbEntity
  8
0
100
AcDbBlockEnd
  0
BLOCK
  5
D474
330
D473
100
AcDbEntity
  8
0
100
AcDbBlockBegin
  2
*D15
 70
     1
 10
0.0
 20
0.0
 30
0.0
  3
*D15
  1
*D15
  0
LINE
  5
D476
330
D473
100
AcDbEntity
  8
WYMIARY
 62
     0
100
AcDbLine
 10
532.3548951977788
 20
247.1206804273035
 30
0.0
 11
532.3548951977788
 21
253.5629934425245
 31
0.0
  0
LINE
  5
D477
330
D473
100
AcDbEntity
  8
WYMIARY
 62
     0
100
AcDbLine
 10
562.3548951977788
 20
247.1206804273035
 30
0.0
 11
562.3548951977788
 21
253.5629934425245
 31
0.0
  0
LINE
  5
D478
330
D473
100
AcDbEntity
  8
WYMIARY
 62
     0
100
AcDbLine
 10
533.5548951977788
 20
252.0629934425245
 30
0.0
 11
561.1548951977787
 21
252.0629934425245
 31
0.0
  0
SOLID
  5
D479
330
D473
100
AcDbEntity
  8
WYMIARY
 62
     0
100
AcDbTrace
 10
533.5548951977788
 20
252.2629934425244
 30
0.0
 11
533.5548951977788
 21
251.8629934425245
 31
0.0
 12
532.3548951977788
 22
252.0629934425245
 32
0.0
 13
532.3548951977788
 23
252.0629934425245
 33
0.0
  0
SOLID
  5
D47A
330
D473
100
AcDbEntity
  8
WYMIARY
 62
     0
100
AcDbTrace
 10
561.1548951977787
 20
251.8629934425245
 30
0.0
 11
561.1548951977787
 21
252.2629934425244
 31
0.0
 12
562.3548951977788
 22
252.0629934425245
 32
0.0
 13
562.3548951977788
 23
252.0629934425245
 33
0.0
  0
MTEXT
  5
D47B
330
D473
100
AcDbEntity
  8
WYMIARY
 62
     0
100
AcDbMText
 10
547.3548951977788
 20
253.4129934425245
 30
0.0
 40
1.2
 41
0.0
 71
     5
 72
     1
  1
\A1;30
  0
POINT
  5
D47C
330
D473
100
AcDbEntity
  8
DEFPOINTS
 62
     0
100
AcDbPoint
 10
532.3548951977788
 20
245.6206804273035
 30
0.0
  0
POINT
  5
D47D
330
D473
100
AcDbEntity
  8
DEFPOINTS
 62
     0
100
AcDbPoint
 10
562.3548951977788
 20
245.6206804273035
 30
0.0
  0
POINT
  5
D47E
330
D473
100
AcDbEntity
  8
DEFPOINTS
 62
     0
100
AcDbPoint
 10
562.3548951977788
 20
252.0629934425245
 30
0.0
  0
ENDBLK
  5
D475
330
D473
100
AcDbEntity
  8
0
100
AcDbBlockEnd
  0
BLOCK
  5
D497
330
D496
100
AcDbEntity
  8
0
100
AcDbBlockBegin
  2
*D16
 70
     1
 10
0.0
 20
0.0
 30
0.0
  3
*D16
  1
*D16
  0
LINE
  5
D499
330
D496
100
AcDbEntity
  8
WY
 62
     0
100
AcDbLine
 10
559.2548951977788
 20
234.7177434530543
 30
0.0
 11
559.2548951977788
 21
229.7677482635593
 31
0.0
  0
LINE
  5
D49A
330
D496
100
AcDbEntity
  8
WY
 62
     0
100
AcDbLine
 10
562.3548951977789
 20
234.7206804273035
 30
0.0
 11
562.3548951977789
 21
229.7677482635593
 31
0.0
  0
LINE
  5
D49B
330
D496
100
AcDbEntity
  8
WY
 62
     0
100
AcDbLine
 10
563.5548951977789
 20
231.2677482635593
 30
0.0
 11
568.254895197779
 21
231.2677482635593
 31
0.0
  0
LINE
  5
D49C
330
D496
100
AcDbEntity
  8
WY
 62
     0
100
AcDbLine
 10
559.2548951977788
 20
231.2677482635593
 30
0.0
 11
562.3548951977789
 21
231.2677482635593
 31
0.0
  0
LINE
  5
D49D
330
D496
100
AcDbEntity
  8
WY
 62
     0
100
AcDbLine
 10
558.0548951977787
 20
231.2677482635593
 30
0.0
 11
556.8548951977787
 21
231.2677482635593
 31
0.0
  0
SOLID
  5
D49E
330
D496
100
AcDbEntity
  8
WY
 62
     0
100
AcDbTrace
 10
558.0548951977787
 20
231.0677482635593
 30
0.0
 11
558.0548951977787
 21
231.4677482635593
 31
0.0
 12
559.2548951977788
 22
231.2677482635593
 32
0.0
 13
559.2548951977788
 23
231.2677482635593
 33
0.0
  0
SOLID
  5
D49F
330
D496
100
AcDbEntity
  8
WY
 62
     0
100
AcDbTrace
 10
563.5548951977789
 20
231.4677482635593
 30
0.0
 11
563.5548951977789
 21
231.0677482635593
 31
0.0
 12
562.3548951977789
 22
231.2677482635593
 32
0.0
 13
562.3548951977789
 23
231.2677482635593
 33
0.0
  0
MTEXT
  5
D4A0
330
D496
100
AcDbEntity
  8
WY
 62
     0
100
AcDbMText
 10
566.5048951977789
 20
232.6177482635593
 30
0.0
 40
1.2
 41
0.0
 71
     5
 72
     1
  1
\A1;3.1
  0
POINT
  5
D4A1
330
D496
100
AcDbEntity
  8
DEFPOINTS
 62
     0
100
AcDbPoint
 10
559.2548951977788
 20
236.2177434530543
 30
0.0
  0
POINT
  5
D4A2
330
D496
100
AcDbEntity
  8
DEFPOINTS
 62
     0
100
AcDbPoint
 10
562.3548951977789
 20
236.2206804273035
 30
0.0
  0
POINT
  5
D4AC
330
D496
100
AcDbEntity
  8
DEFPOINTS
 62
     0
100
AcDbPoint
 10
562.3548951977789
 20
231.2677482635593
 30
0.0
  0
ENDBLK
  5
D498
330
D496
100
AcDbEntity
  8
0
100
AcDbBlockEnd
  0
BLOCK
  5
D4B5
330
D4B4
100
AcDbEntity
  8
0
100
AcDbBlockBegin
  2
*D17
 70
     1
 10
0.0
 20
0.0
 30
0.0
  3
*D17
  1
*D17
  0
LINE
  5
D4B7
330
D4B4
100
AcDbEntity
  8
WY
 62
     0
100
AcDbLine
 10
559.2548951977788
 20
234.7177434530543
 30
0.0
 11
559.2548951977788
 21
229.7677482635593
 31
0.0
  0
LINE
  5
D4B8
330
D4B4
100
AcDbEntity
  8
WY
 62
     0
100
AcDbLine
 10
540.2548951977788
 20
242.6159356491952
 30
0.0
 11
540.2548951977788
 21
229.7677482635593
 31
0.0
  0
LINE
  5
D4B9
330
D4B4
100
AcDbEntity
  8
WY
 62
     0
100
AcDbLine
 10
558.0548951977787
 20
231.2677482635593
 30
0.0
 11
541.4548951977788
 21
231.2677482635593
 31
0.0
  0
SOLID
  5
D4BA
330
D4B4
100
AcDbEntity
  8
WY
 62
     0
100
AcDbTrace
 10
558.0548951977787
 20
231.0677482635593
 30
0.0
 11
558.0548951977787
 21
231.4677482635593
 31
0.0
 12
559.2548951977788
 22
231.2677482635593
 32
0.0
 13
559.2548951977788
 23
231.2677482635593
 33
0.0
  0
SOLID
  5
D4BB
330
D4B4
100
AcDbEntity
  8
WY
 62
     0
100
AcDbTrace
 10
541.4548951977788
 20
231.4677482635593
 30
0.0
 11
541.4548951977788
 21
231.0677482635593
 31
0.0
 12
540.2548951977788
 22
231.2677482635593
 32
0.0
 13
540.2548951977788
 23
231.2677482635593
 33
0.0
  0
MTEXT
  5
D4BC
330
D4B4
100
AcDbEntity
  8
WY
 62
     0
100
AcDbMText
 10
549.7548951977788
 20
232.6177482635593
 30
0.0
 40
1.2
 41
0.0
 71
     5
 72
     1
  1
\A1;19
  0
POINT
  5
D4BD
330
D4B4
100
AcDbEntity
  8
DEFPOINTS
 62
     0
100
AcDbPoint
 10
559.2548951977788
 20
236.2177434530543
 30
0.0
  0
POINT
  5
D4BE
330
D4B4
100
AcDbEntity
  8
DEFPOINTS
 62
     0
100
AcDbPoint
 10
540.2548951977788
 20
244.1159356491952
 30
0.0
  0
POINT
  5
D4BF
330
D4B4
100
AcDbEntity
  8
DEFPOINTS
 62
     0
100
AcDbPoint
 10
540.2548951977788
 20
231.2677482635593
 30
0.0
  0
ENDBLK
  5
D4B6
330
D4B4
100
AcDbEntity
  8
0
100
AcDbBlockEnd
  0
BLOCK
  5
D4C4
330
D4C3
100
AcDbEntity
  8
0
100
AcDbBlockBegin
  2
*D18
 70
     1
 10
0.0
 20
0.0
 30
0.0
  3
*D18
  1
*D18
  0
LINE
  5
D4C6
330
D4C3
100
AcDbEntity
  8
WY
 62
     0
100
AcDbLine
 10
537.0548951977787
 20
235.0159356491952
 30
0.0
 11
537.0548951977787
 21
229.7677482635593
 31
0.0
  0
LINE
  5
D4C7
330
D4C3
100
AcDbEntity
  8
WY
 62
     0
100
AcDbLine
 10
540.2548951977788
 20
229.7677482635593
 30
0.0
 11
540.2548951977788
 21
229.7677482635593
 31
0.0
  0
LINE
  5
D4C8
330
D4C3
100
AcDbEntity
  8
WY
 62
     0
100
AcDbLine
 10
537.0548951977787
 20
231.2677482635593
 30
0.0
 11
540.2548951977788
 21
231.2677482635593
 31
0.0
  0
LINE
  5
D4C9
330
D4C3
100
AcDbEntity
  8
WY
 62
     0
100
AcDbLine
 10
541.4548951977788
 20
231.2677482635593
 30
0.0
 11
542.6548951977788
 21
231.2677482635593
 31
0.0
  0
INSERT
  5
D4CA
330
D4C3
100
AcDbEntity
  8
WY
 62
     0
100
AcDbBlockReference
  2
_OBLIQUE
 10
537.0548951977787
 20
231.2677482635593
 30
0.0
 41
1.2
 42
1.2
 43
1.2
  0
SOLID
  5
D4CB
330
D4C3
100
AcDbEntity
  8
WY
 62
     0
100
AcDbTrace
 10
541.4548951977788
 20
231.4677482635593
 30
0.0
 11
541.4548951977788
 21
231.0677482635593
 31
0.0
 12
540.2548951977788
 22
231.2677482635593
 32
0.0
 13
540.2548951977788
 23
231.2677482635593
 33
0.0
  0
MTEXT
  5
D4CC
330
D4C3
100
AcDbEntity
  8
WY
 62
     0
100
AcDbMText
 10
538.6548951977787
 20
232.6177482635593
 30
0.0
 40
1.2
 41
0.0
 71
     5
 72
     1
  1
\A1;3.2
  0
POINT
  5
D4CD
330
D4C3
100
AcDbEntity
  8
DEFPOINTS
 62
     0
100
AcDbPoint
 10
537.0548951977787
 20
236.5159356491952
 30
0.0
  0
POINT
  5
D4CE
330
D4C3
100
AcDbEntity
  8
DEFPOINTS
 62
     0
100
AcDbPoint
 10
540.2548951977788
 20
231.2677482635593
 30
0.0
  0
POINT
  5
D4CF
330
D4C3
100
AcDbEntity
  8
DEFPOINTS
 62
     0
100
AcDbPoint
 10
540.2548951977788
 20
231.2677482635593
 30
0.0
  0
ENDBLK
  5
D4C5
330
D4C3
100
AcDbEntity
  8
0
100
AcDbBlockEnd
  0
BLOCK
  5
D4D4
330
D4D3
100
AcDbEntity
  8
0
100
AcDbBlockBegin
  2
*D19
 70
     1
 10
0.0
 20
0.0
 30
0.0
  3
*D19
  1
*D19
  0
LINE
  5
D4D6
330
D4D3
100
AcDbEntity
  8
WY
 62
     0
100
AcDbLine
 10
533.8548951977789
 20
242.6159356491952
 30
0.0
 11
533.8548951977789
 21
229.7677482635593
 31
0.0
  0
LINE
  5
D4D7
330
D4D3
100
AcDbEntity
  8
WY
 62
     0
100
AcDbLine
 10
537.0548951977787
 20
235.0159356491952
 30
0.0
 11
537.0548951977787
 21
229.7677482635593
 31
0.0
  0
LINE
  5
D4D8
330
D4D3
100
AcDbEntity
  8
WY
 62
     0
100
AcDbLine
 10
533.8548951977789
 20
231.2677482635593
 30
0.0
 11
537.0548951977787
 21
231.2677482635593
 31
0.0
  0
LINE
  5
D4D9
330
D4D3
100
AcDbEntity
  8
WY
 62
     0
100
AcDbLine
 10
532.6548951977788
 20
231.2677482635593
 30
0.0
 11
531.4548951977788
 21
231.2677482635593
 31
0.0
  0
SOLID
  5
D4DA
330
D4D3
100
AcDbEntity
  8
WY
 62
     0
100
AcDbTrace
 10
532.6548951977788
 20
231.0677482635593
 30
0.0
 11
532.6548951977788
 21
231.4677482635593
 31
0.0
 12
533.8548951977789
 22
231.2677482635593
 32
0.0
 13
533.8548951977789
 23
231.2677482635593
 33
0.0
  0
INSERT
  5
D4DB
330
D4D3
100
AcDbEntity
  8
WY
 62
     0
100
AcDbBlockReference
  2
_OBLIQUE
 10
537.0548951977787
 20
231.2677482635593
 30
0.0
 41
1.2
 42
1.2
 43
1.2
 50
180.0
  0
MTEXT
  5
D4DC
330
D4D3
100
AcDbEntity
  8
WY
 62
     0
100
AcDbMText
 10
535.6060159041115
 20
232.6177482635593
 30
0.0
 40
1.2
 41
0.0
 71
     5
 72
     1
  1
\A1;3.2
  0
POINT
  5
D4DD
330
D4D3
100
AcDbEntity
  8
DEFPOINTS
 62
     0
100
AcDbPoint
 10
533.8548951977789
 20
244.1159356491952
 30
0.0
  0
POINT
  5
D4DE
330
D4D3
100
AcDbEntity
  8
DEFPOINTS
 62
     0
100
AcDbPoint
 10
537.0548951977787
 20
236.5159356491952
 30
0.0
  0
POINT
  5
D4DF
330
D4D3
100
AcDbEntity
  8
DEFPOINTS
 62
     0
100
AcDbPoint
 10
537.0548951977787
 20
231.2677482635593
 30
0.0
  0
ENDBLK
  5
D4D5
330
D4D3
100
AcDbEntity
  8
0
100
AcDbBlockEnd
  0
BLOCK
  5
D4E3
330
D4E2
100
AcDbEntity
  8
0
100
AcDbBlockBegin
  2
_OBLIQUE
 70
     0
 10
0.0
 20
0.0
 30
0.0
  3
_OBLIQUE
  1
_OBLIQUE
  0
LINE
  5
D4E5
330
D4E2
100
AcDbEntity
  8
0
  6
BYBLOCK
 62
     0
100
AcDbLine
 10
-0.5
 20
-0.5
 30
0.0
 11
0.5
 21
0.5
 31
0.0
  0
ENDBLK
  5
D4E4
330
D4E2
100
AcDbEntity
  8
0
100
AcDbBlockEnd
  0
BLOCK
  5
D4EA
330
D4E9
100
AcDbEntity
  8
0
100
AcDbBlockBegin
  2
*D21
 70
     1
 10
0.0
 20
0.0
 30
0.0
  3
*D21
  1
*D21
  0
LINE
  5
D4EC
330
D4E9
100
AcDbEntity
  8
WY
 62
     0
100
AcDbLine
 10
533.4167754131305
 20
189.8878689430105
 30
0.0
 11
525.6375852893584
 21
189.8878689430105
 31
0.0
  0
LINE
  5
D4ED
330
D4E9
100
AcDbEntity
  8
WY
 62
     0
100
AcDbLine
 10
531.1548951977788
 20
205.9878689430105
 30
0.0
 11
525.6375852893584
 21
205.9878689430105
 31
0.0
  0
LINE
  5
D4EE
330
D4E9
100
AcDbEntity
  8
WY
 62
     0
100
AcDbLine
 10
527.1375852893584
 20
191.0878689430105
 30
0.0
 11
527.1375852893584
 21
204.7878689430106
 31
0.0
  0
SOLID
  5
D4EF
330
D4E9
100
AcDbEntity
  8
WY
 62
     0
100
AcDbTrace
 10
526.9375852893584
 20
191.0878689430105
 30
0.0
 11
527.3375852893585
 21
191.0878689430105
 31
0.0
 12
527.1375852893584
 22
189.8878689430105
 32
0.0
 13
527.1375852893584
 23
189.8878689430105
 33
0.0
  0
SOLID
  5
D4F0
330
D4E9
100
AcDbEntity
  8
WY
 62
     0
100
AcDbTrace
 10
527.3375852893585
 20
204.7878689430106
 30
0.0
 11
526.9375852893584
 21
204.7878689430106
 31
0.0
 12
527.1375852893584
 22
205.9878689430105
 32
0.0
 13
527.1375852893584
 23
205.9878689430105
 33
0.0
  0
MTEXT
  5
D4F1
330
D4E9
100
AcDbEntity
  8
WY
 62
     0
100
AcDbMText
 10
525.7875852893584
 20
197.9378689430105
 30
0.0
 40
1.2
 41
0.0
 71
     5
 72
     1
  1
\A1;16.1
 11
0.0
 21
1.0
 31
0.0
  0
POINT
  5
D4F2
330
D4E9
100
AcDbEntity
  8
DEFPOINTS
 62
     0
100
AcDbPoint
 10
534.9167754131305
 20
189.8878689430105
 30
0.0
  0
POINT
  5
D4F3
330
D4E9
100
AcDbEntity
  8
DEFPOINTS
 62
     0
100
AcDbPoint
 10
532.6548951977788
 20
205.9878689430105
 30
0.0
  0
POINT
  5
D4F4
330
D4E9
100
AcDbEntity
  8
DEFPOINTS
 62
     0
100
AcDbPoint
 10
527.1375852893584
 20
205.9878689430105
 30
0.0
  0
ENDBLK
  5
D4EB
330
D4E9
100
AcDbEntity
  8
0
100
AcDbBlockEnd
  0
BLOCK
  5
D4F9
330
D4F8
100
AcDbEntity
  8
0
100
AcDbBlockBegin
  2
*D22
 70
     1
 10
0.0
 20
0.0
 30
0.0
  3
*D22
  1
*D22
  0
LINE
  5
D4FB
330
D4F8
100
AcDbEntity
  8
WY
 62
     0
100
AcDbLine
 10
561.2048951977788
 20
186.3878689430105
 30
0.0
 11
569.0405017095298
 21
186.3878689430105
 31
0.0
  0
LINE
  5
D4FC
330
D4F8
100
AcDbEntity
  8
WY
 62
     0
100
AcDbLine
 10
563.8548951977788
 20
190.3878689430105
 30
0.0
 11
569.0405017095298
 21
190.3878689430105
 31
0.0
  0
LINE
  5
D4FD
330
D4F8
100
AcDbEntity
  8
WY
 62
     0
100
AcDbLine
 10
567.5405017095298
 20
187.5878689430105
 30
0.0
 11
567.5405017095298
 21
189.1878689430105
 31
0.0
  0
SOLID
  5
D4FE
330
D4F8
100
AcDbEntity
  8
WY
 62
     0
100
AcDbTrace
 10
567.3405017095298
 20
187.5878689430105
 30
0.0
 11
567.7405017095299
 21
187.5878689430105
 31
0.0
 12
567.5405017095298
 22
186.3878689430105
 32
0.0
 13
567.5405017095298
 23
186.3878689430105
 33
0.0
  0
SOLID
  5
D4FF
330
D4F8
100
AcDbEntity
  8
WY
 62
     0
100
AcDbTrace
 10
567.7405017095299
 20
189.1878689430105
 30
0.0
 11
567.3405017095298
 21
189.1878689430105
 31
0.0
 12
567.5405017095298
 22
190.3878689430105
 32
0.0
 13
567.5405017095298
 23
190.3878689430105
 33
0.0
  0
MTEXT
  5
D500
330
D4F8
100
AcDbEntity
  8
WY
 62
     0
100
AcDbMText
 10
566.1905017095298
 20
188.3878689430105
 30
0.0
 40
1.2
 41
0.0
 71
     5
 72
     1
  1
\A1;4
 11
0.0
 21
1.0
 31
0.0
  0
POINT
  5
D501
330
D4F8
100
AcDbEntity
  8
DEFPOINTS
 62
     0
100
AcDbPoint
 10
559.7048951977788
 20
186.3878689430105
 30
0.0
  0
POINT
  5
D502
330
D4F8
100
AcDbEntity
  8
DEFPOINTS
 62
     0
100
AcDbPoint
 10
562.3548951977788
 20
190.3878689430105
 30
0.0
  0
POINT
  5
D503
330
D4F8
100
AcDbEntity
  8
DEFPOINTS
 62
     0
100
AcDbPoint
 10
567.5405017095298
 20
190.3878689430105
 30
0.0
  0
ENDBLK
  5
D4FA
330
D4F8
100
AcDbEntity
  8
0
100
AcDbBlockEnd
  0
BLOCK
  5
D50A
330
D509
100
AcDbEntity
  8
0
100
AcDbBlockBegin
  2
*D23
 70
     1
 10
0.0
 20
0.0
 30
0.0
  3
*D23
  1
*D23
  0
LINE
  5
D50C
330
D509
100
AcDbEntity
  8
WY
 62
     0
100
AcDbLine
 10
561.6357658885656
 20
244.7206804273035
 30
0.0
 11
570.1196623664584
 21
244.7206804273035
 31
0.0
  0
LINE
  5
D50D
330
D509
100
AcDbEntity
  8
WY
 62
     0
100
AcDbLine
 10
561.6357658885656
 20
237.1206804273035
 30
0.0
 11
570.1196623664584
 21
237.1206804273035
 31
0.0
  0
LINE
  5
D50E
330
D509
100
AcDbEntity
  8
WY
 62
     0
100
AcDbLine
 10
568.6196623664584
 20
243.5206804273035
 30
0.0
 11
568.6196623664584
 21
238.3206804273035
 31
0.0
  0
SOLID
  5
D50F
330
D509
100
AcDbEntity
  8
WY
 62
     0
100
AcDbTrace
 10
568.8196623664585
 20
243.5206804273035
 30
0.0
 11
568.4196623664584
 21
243.5206804273035
 31
0.0
 12
568.6196623664584
 22
244.7206804273035
 32
0.0
 13
568.6196623664584
 23
244.7206804273035
 33
0.0
  0
SOLID
  5
D510
330
D509
100
AcDbEntity
  8
WY
 62
     0
100
AcDbTrace
 10
568.4196623664584
 20
238.3206804273035
 30
0.0
 11
568.8196623664585
 21
238.3206804273035
 31
0.0
 12
568.6196623664584
 22
237.1206804273035
 32
0.0
 13
568.6196623664584
 23
237.1206804273035
 33
0.0
  0
MTEXT
  5
D511
330
D509
100
AcDbEntity
  8
WY
 62
     0
100
AcDbMText
 10
567.2696623664584
 20
240.9206804273035
 30
0.0
 40
1.2
 41
0.0
 71
     5
 72
     1
  1
\A1;7.6
 11
0.0
 21
1.0
 31
0.0
  0
POINT
  5
D512
330
D509
100
AcDbEntity
  8
DEFPOINTS
 62
     0
100
AcDbPoint
 10
560.1357658885656
 20
244.7206804273035
 30
0.0
  0
POINT
  5
D513
330
D509
100
AcDbEntity
  8
DEFPOINTS
 62
     0
100
AcDbPoint
 10
560.1357658885656
 20
237.1206804273035
 30
0.0
  0
POINT
  5
D514
330
D509
100
AcDbEntity
  8
DEFPOINTS
 62
     0
100
AcDbPoint
 10
568.6196623664584
 20
237.1206804273035
 30
0.0
  0
ENDBLK
  5
D50B
330
D509
100
AcDbEntity
  8
0
100
AcDbBlockEnd
  0
BLOCK
  5
D519
330
D518
100
AcDbEntity
  8
0
100
AcDbBlockBegin
  2
*D24
 70
     1
 10
0.0
 20
0.0
 30
0.0
  3
*D24
  1
*D24
  0
LINE
  5
D51B
330
D518
100
AcDbEntity
  8
WY
 62
     0
100
AcDbLine
 10
795.7844817871495
 20
227.4139524471737
 30
0.0
 11
806.1734168884243
 21
227.4139524471737
 31
0.0
  0
LINE
  5
D51C
330
D518
100
AcDbEntity
  8
WY
 62
     0
100
AcDbLine
 10
795.7844817871495
 20
217.4139524471737
 30
0.0
 11
806.1734168884243
 21
217.4139524471737
 31
0.0
  0
LINE
  5
D51D
330
D518
100
AcDbEntity
  8
WY
 62
     0
100
AcDbLine
 10
804.6734168884243
 20
225.9139524471737
 30
0.0
 11
804.6734168884243
 21
218.9139524471737
 31
0.0
  0
SOLID
  5
D51E
330
D518
100
AcDbEntity
  8
WY
 62
     0
100
AcDbTrace
 10
804.9234168884243
 20
225.9139524471737
 30
0.0
 11
804.4234168884243
 21
225.9139524471737
 31
0.0
 12
804.6734168884243
 22
227.4139524471737
 32
0.0
 13
804.6734168884243
 23
227.4139524471737
 33
0.0
  0
SOLID
  5
D51F
330
D518
100
AcDbEntity
  8
WY
 62
     0
100
AcDbTrace
 10
804.4234168884243
 20
218.9139524471737
 30
0.0
 11
804.9234168884243
 21
218.9139524471737
 31
0.0
 12
804.6734168884243
 22
217.4139524471737
 32
0.0
 13
804.6734168884243
 23
217.4139524471737
 33
0.0
  0
MTEXT
  5
D520
330
D518
100
AcDbEntity
  8
WY
 62
     0
100
AcDbMText
 10
803.3234168884243
 20
222.4139524471737
 30
0.0
 40
1.2
 41
0.0
 71
     5
 72
     1
  1
\A1;10
 11
0.0
 21
1.0
 31
0.0
  0
POINT
  5
D521
330
D518
100
AcDbEntity
  8
DEFPOINTS
 62
     0
100
AcDbPoint
 10
794.2844817871495
 20
227.4139524471737
 30
0.0
  0
POINT
  5
D522
330
D518
100
AcDbEntity
  8
DEFPOINTS
 62
     0
100
AcDbPoint
 10
794.2844817871495
 20
217.4139524471737
 30
0.0
  0
POINT
  5
D523
330
D518
100
AcDbEntity
  8
DEFPOINTS
 62
     0
100
AcDbPoint
 10
804.6734168884243
 20
217.4139524471737
 30
0.0
  0
ENDBLK
  5
D51A
330
D518
100
AcDbEntity
  8
0
100
AcDbBlockEnd
  0
BLOCK
  5
D52D
330
D52C
100
AcDbEntity
  8
0
100
AcDbBlockBegin
  2
*D25
 70
     1
 10
0.0
 20
0.0
 30
0.0
  3
*D25
  1
*D25
  0
LINE
  5
D52F
330
D52C
100
AcDbEntity
  8
WY
 62
     0
100
AcDbLine
 10
833.9760697113618
 20
187.4811409628807
 30
0.0
 11
827.7537978724043
 21
187.4811409628807
 31
0.0
  0
LINE
  5
D530
330
D52C
100
AcDbEntity
  8
WY
 62
     0
100
AcDbLine
 10
834.5760697113619
 20
167.8811409628807
 30
0.0
 11
827.7537978724043
 21
167.8811409628807
 31
0.0
  0
LINE
  5
D531
330
D52C
100
AcDbEntity
  8
WY
 62
     0
100
AcDbLine
 10
829.2537978724043
 20
185.9811409628807
 30
0.0
 11
829.2537978724043
 21
169.3811409628807
 31
0.0
  0
SOLID
  5
D532
330
D52C
100
AcDbEntity
  8
WY
 62
     0
100
AcDbTrace
 10
829.5037978724043
 20
185.9811409628807
 30
0.0
 11
829.0037978724043
 21
185.9811409628807
 31
0.0
 12
829.2537978724043
 22
187.4811409628807
 32
0.0
 13
829.2537978724043
 23
187.4811409628807
 33
0.0
  0
SOLID
  5
D533
330
D52C
100
AcDbEntity
  8
WY
 62
     0
100
AcDbTrace
 10
829.0037978724043
 20
169.3811409628807
 30
0.0
 11
829.5037978724043
 21
169.3811409628807
 31
0.0
 12
829.2537978724043
 22
167.8811409628807
 32
0.0
 13
829.2537978724043
 23
167.8811409628807
 33
0.0
  0
MTEXT
  5
D534
330
D52C
100
AcDbEntity
  8
WY
 62
     0
100
AcDbMText
 10
827.9037978724043
 20
177.6811409628806
 30
0.0
 40
1.2
 41
0.0
 71
     5
 72
     1
  1
\A1;19.6
 11
0.0
 21
1.0
 31
0.0
  0
POINT
  5
D535
330
D52C
100
AcDbEntity
  8
DEFPOINTS
 62
     0
100
AcDbPoint
 10
835.4760697113618
 20
187.4811409628807
 30
0.0
  0
POINT
  5
D536
330
D52C
100
AcDbEntity
  8
DEFPOINTS
 62
     0
100
AcDbPoint
 10
836.0760697113619
 20
167.8811409628807
 30
0.0
  0
POINT
  5
D537
330
D52C
100
AcDbEntity
  8
DEFPOINTS
 62
     0
100
AcDbPoint
 10
829.2537978724043
 20
167.8811409628807
 30
0.0
  0
ENDBLK
  5
D52E
330
D52C
100
AcDbEntity
  8
0
100
AcDbBlockEnd
  0
BLOCK
  5
D5DE
330
D5DD
100
AcDbEntity
  8
0
100
AcDbBlockBegin
  2
*D27
 70
     1
 10
0.0
 20
0.0
 30
0.0
  3
*D27
  1
*D27
  0
LINE
  5
D5DF
330
D5DD
100
AcDbEntity
  8
WYMIARY
 62
     0
100
AcDbLine
 10
7.167309908420407
 20
63.73281148429299
 30
0.0
 11
7.167309908420407
 21
70.17512449951394
 31
0.0
  0
LINE
  5
D5E0
330
D5DD
100
AcDbEntity
  8
WYMIARY
 62
     0
100
AcDbLine
 10
37.16730990842041
 20
63.73281148429299
 30
0.0
 11
37.16730990842041
 21
70.17512449951394
 31
0.0
  0
LINE
  5
D5E1
330
D5DD
100
AcDbEntity
  8
WYMIARY
 62
     0
100
AcDbLine
 10
8.167309908420407
 20
68.67512449951394
 30
0.0
 11
36.16730990842041
 21
68.67512449951394
 31
0.0
  0
SOLID
  5
D5E2
330
D5DD
100
AcDbEntity
  8
WYMIARY
 62
     0
100
AcDbTrace
 10
8.167309908420407
 20
68.84179116618061
 30
0.0
 11
8.167309908420407
 21
68.50845783284727
 31
0.0
 12
7.167309908420407
 22
68.67512449951394
 32
0.0
 13
7.167309908420407
 23
68.67512449951394
 33
0.0
  0
SOLID
  5
D5E3
330
D5DD
100
AcDbEntity
  8
WYMIARY
 62
     0
100
AcDbTrace
 10
36.16730990842041
 20
68.50845783284727
 30
0.0
 11
36.16730990842041
 21
68.84179116618061
 31
0.0
 12
37.16730990842041
 22
68.67512449951394
 32
0.0
 13
37.16730990842041
 23
68.67512449951394
 33
0.0
  0
MTEXT
  5
D5E4
330
D5DD
100
AcDbEntity
  8
WYMIARY
 62
     0
100
AcDbMText
 10
22.16730990842041
 20
70.02512449951394
 30
0.0
 40
1.2
 41
0.0
 71
     5
 72
     1
  1
\A1;30
  0
POINT
  5
D5E5
330
D5DD
100
AcDbEntity
  8
DEFPOINTS
 62
     0
100
AcDbPoint
 10
7.167309908420407
 20
62.23281148429299
 30
0.0
  0
POINT
  5
D5E6
330
D5DD
100
AcDbEntity
  8
DEFPOINTS
 62
     0
100
AcDbPoint
 10
37.16730990842041
 20
62.23281148429299
 30
0.0
  0
POINT
  5
D5E7
330
D5DD
100
AcDbEntity
  8
DEFPOINTS
 62
     0
100
AcDbPoint
 10
37.16730990842041
 20
68.67512449951394
 30
0.0
  0
ENDBLK
  5
D5E8
330
D5DD
100
AcDbEntity
  8
0
100
AcDbBlockEnd
  0
BLOCK
  5
D5F8
330
D5F7
100
AcDbEntity
  8
0
100
AcDbBlockBegin
  2
*D28
 70
     1
 10
0.0
 20
0.0
 30
0.0
  3
*D28
  1
*D28
  0
LINE
  5
D5F9
330
D5F7
100
AcDbEntity
  8
WY
 62
     0
100
AcDbLine
 10
34.06730990842038
 20
51.32987451004377
 30
0.0
 11
34.06730990842038
 21
46.37987932054881
 31
0.0
  0
LINE
  5
D5FA
330
D5F7
100
AcDbEntity
  8
WY
 62
     0
100
AcDbLine
 10
37.16730990842052
 20
51.33281148429299
 30
0.0
 11
37.16730990842052
 21
46.37987932054881
 31
0.0
  0
LINE
  5
D5FB
330
D5F7
100
AcDbEntity
  8
WY
 62
     0
100
AcDbLine
 10
38.16730990842052
 20
47.87987932054881
 30
0.0
 11
42.66730990842052
 21
47.87987932054881
 31
0.0
  0
LINE
  5
D5FC
330
D5F7
100
AcDbEntity
  8
WY
 62
     0
100
AcDbLine
 10
34.06730990842038
 20
47.87987932054881
 30
0.0
 11
37.16730990842052
 21
47.87987932054881
 31
0.0
  0
LINE
  5
D5FD
330
D5F7
100
AcDbEntity
  8
WY
 62
     0
100
AcDbLine
 10
33.06730990842038
 20
47.87987932054881
 30
0.0
 11
32.06730990842038
 21
47.87987932054881
 31
0.0
  0
SOLID
  5
D5FE
330
D5F7
100
AcDbEntity
  8
WY
 62
     0
100
AcDbTrace
 10
33.06730990842038
 20
47.71321265388215
 30
0.0
 11
33.06730990842038
 21
48.04654598721547
 31
0.0
 12
34.06730990842038
 22
47.87987932054881
 32
0.0
 13
34.06730990842038
 23
47.87987932054881
 33
0.0
  0
SOLID
  5
D5FF
330
D5F7
100
AcDbEntity
  8
WY
 62
     0
100
AcDbTrace
 10
38.16730990842052
 20
48.04654598721547
 30
0.0
 11
38.16730990842052
 21
47.71321265388215
 31
0.0
 12
37.16730990842052
 22
47.87987932054881
 32
0.0
 13
37.16730990842052
 23
47.87987932054881
 33
0.0
  0
MTEXT
  5
D600
330
D5F7
100
AcDbEntity
  8
WY
 62
     0
100
AcDbMText
 10
40.91730990842052
 20
49.22987932054881
 30
0.0
 40
1.2
 41
0.0
 71
     5
 72
     1
  1
\A1;3.1
  0
POINT
  5
D601
330
D5F7
100
AcDbEntity
  8
DEFPOINTS
 62
     0
100
AcDbPoint
 10
34.06730990842038
 20
52.82987451004377
 30
0.0
  0
POINT
  5
D602
330
D5F7
100
AcDbEntity
  8
DEFPOINTS
 62
     0
100
AcDbPoint
 10
37.16730990842052
 20
52.83281148429299
 30
0.0
  0
POINT
  5
D603
330
D5F7
100
AcDbEntity
  8
DEFPOINTS
 62
     0
100
AcDbPoint
 10
37.16730990842052
 20
47.87987932054881
 30
0.0
  0
ENDBLK
  5
D604
330
D5F7
100
AcDbEntity
  8
0
100
AcDbBlockEnd
  0
BLOCK
  5
D609
330
D608
100
AcDbEntity
  8
0
100
AcDbBlockBegin
  2
*D29
 70
     1
 10
0.0
 20
0.0
 30
0.0
  3
*D29
  1
*D29
  0
LINE
  5
D60A
330
D608
100
AcDbEntity
  8
WY
 62
     0
100
AcDbLine
 10
34.06730990842038
 20
51.32987451004377
 30
0.0
 11
34.06730990842038
 21
46.37987932054881
 31
0.0
  0
LINE
  5
D60B
330
D608
100
AcDbEntity
  8
WY
 62
     0
100
AcDbLine
 10
15.06730990842038
 20
59.22806670618468
 30
0.0
 11
15.06730990842038
 21
46.37987932054881
 31
0.0
  0
LINE
  5
D60C
330
D608
100
AcDbEntity
  8
WY
 62
     0
100
AcDbLine
 10
33.06730990842038
 20
47.87987932054881
 30
0.0
 11
16.06730990842038
 21
47.87987932054881
 31
0.0
  0
SOLID
  5
D60D
330
D608
100
AcDbEntity
  8
WY
 62
     0
100
AcDbTrace
 10
33.06730990842038
 20
47.71321265388215
 30
0.0
 11
33.06730990842038
 21
48.04654598721547
 31
0.0
 12
34.06730990842038
 22
47.87987932054881
 32
0.0
 13
34.06730990842038
 23
47.87987932054881
 33
0.0
  0
SOLID
  5
D60E
330
D608
100
AcDbEntity
  8
WY
 62
     0
100
AcDbTrace
 10
16.06730990842038
 20
48.04654598721547
 30
0.0
 11
16.06730990842038
 21
47.71321265388215
 31
0.0
 12
15.06730990842038
 22
47.87987932054881
 32
0.0
 13
15.06730990842038
 23
47.87987932054881
 33
0.0
  0
MTEXT
  5
D60F
330
D608
100
AcDbEntity
  8
WY
 62
     0
100
AcDbMText
 10
24.56730990842038
 20
49.22987932054881
 30
0.0
 40
1.2
 41
0.0
 71
     5
 72
     1
  1
\A1;19
  0
POINT
  5
D610
330
D608
100
AcDbEntity
  8
DEFPOINTS
 62
     0
100
AcDbPoint
 10
34.06730990842038
 20
52.82987451004377
 30
0.0
  0
POINT
  5
D611
330
D608
100
AcDbEntity
  8
DEFPOINTS
 62
     0
100
AcDbPoint
 10
15.06730990842038
 20
60.72806670618468
 30
0.0
  0
POINT
  5
D612
330
D608
100
AcDbEntity
  8
DEFPOINTS
 62
     0
100
AcDbPoint
 10
15.06730990842038
 20
47.87987932054881
 30
0.0
  0
ENDBLK
  5
D613
330
D608
100
AcDbEntity
  8
0
100
AcDbBlockEnd
  0
BLOCK
  5
D618
330
D617
100
AcDbEntity
  8
0
100
AcDbBlockBegin
  2
*D30
 70
     1
 10
0.0
 20
0.0
 30
0.0
  3
*D30
  1
*D30
  0
LINE
  5
D619
330
D617
100
AcDbEntity
  8
WY
 62
     0
100
AcDbLine
 10
11.86730990842034
 20
51.62806670618468
 30
0.0
 11
11.86730990842034
 21
46.37987932054881
 31
0.0
  0
LINE
  5
D61A
330
D617
100
AcDbEntity
  8
WY
 62
     0
100
AcDbLine
 10
15.06730990842038
 20
46.37987932054881
 30
0.0
 11
15.06730990842038
 21
46.37987932054881
 31
0.0
  0
LINE
  5
D61B
330
D617
100
AcDbEntity
  8
WY
 62
     0
100
AcDbLine
 10
11.86730990842034
 20
47.87987932054881
 30
0.0
 11
15.06730990842038
 21
47.87987932054881
 31
0.0
  0
LINE
  5
D61C
330
D617
100
AcDbEntity
  8
WY
 62
     0
100
AcDbLine
 10
16.06730990842038
 20
47.87987932054881
 30
0.0
 11
17.06730990842038
 21
47.87987932054881
 31
0.0
  0
INSERT
  5
D61D
330
D617
100
AcDbEntity
  8
WY
 62
     0
100
AcDbBlockReference
  2
_OBLIQUE
 10
11.86730990842034
 20
47.87987932054881
 30
0.0
  0
SOLID
  5
D622
330
D617
100
AcDbEntity
  8
WY
 62
     0
100
AcDbTrace
 10
16.06730990842038
 20
48.04654598721547
 30
0.0
 11
16.06730990842038
 21
47.71321265388215
 31
0.0
 12
15.06730990842038
 22
47.87987932054881
 32
0.0
 13
15.06730990842038
 23
47.87987932054881
 33
0.0
  0
MTEXT
  5
D623
330
D617
100
AcDbEntity
  8
WY
 62
     0
100
AcDbMText
 10
13.46730990842036
 20
49.22987932054881
 30
0.0
 40
1.2
 41
0.0
 71
     5
 72
     1
  1
\A1;3.2
  0
POINT
  5
D624
330
D617
100
AcDbEntity
  8
DEFPOINTS
 62
     0
100
AcDbPoint
 10
11.86730990842034
 20
53.12806670618468
 30
0.0
  0
POINT
  5
D625
330
D617
100
AcDbEntity
  8
DEFPOINTS
 62
     0
100
AcDbPoint
 10
15.06730990842038
 20
47.87987932054881
 30
0.0
  0
POINT
  5
D626
330
D617
100
AcDbEntity
  8
DEFPOINTS
 62
     0
100
AcDbPoint
 10
15.06730990842038
 20
47.87987932054881
 30
0.0
  0
ENDBLK
  5
D627
330
D617
100
AcDbEntity
  8
0
100
AcDbBlockEnd
  0
BLOCK
  5
D62C
330
D62B
100
AcDbEntity
  8
0
100
AcDbBlockBegin
  2
*D31
 70
     1
 10
0.0
 20
0.0
 30
0.0
  3
*D31
  1
*D31
  0
LINE
  5
D62D
330
D62B
100
AcDbEntity
  8
WY
 62
     0
100
AcDbLine
 10
8.66730990842052
 20
59.22806670618468
 30
0.0
 11
8.66730990842052
 21
46.37987932054881
 31
0.0
  0
LINE
  5
D62E
330
D62B
100
AcDbEntity
  8
WY
 62
     0
100
AcDbLine
 10
11.86730990842034
 20
51.62806670618468
 30
0.0
 11
11.86730990842034
 21
46.37987932054881
 31
0.0
  0
LINE
  5
D62F
330
D62B
100
AcDbEntity
  8
WY
 62
     0
100
AcDbLine
 10
8.66730990842052
 20
47.87987932054881
 30
0.0
 11
11.86730990842034
 21
47.87987932054881
 31
0.0
  0
LINE
  5
D630
330
D62B
100
AcDbEntity
  8
WY
 62
     0
100
AcDbLine
 10
7.667309908420521
 20
47.87987932054881
 30
0.0
 11
6.667309908420521
 21
47.87987932054881
 31
0.0
  0
SOLID
  5
D631
330
D62B
100
AcDbEntity
  8
WY
 62
     0
100
AcDbTrace
 10
7.667309908420521
 20
47.71321265388215
 30
0.0
 11
7.667309908420521
 21
48.04654598721547
 31
0.0
 12
8.66730990842052
 22
47.87987932054881
 32
0.0
 13
8.66730990842052
 23
47.87987932054881
 33
0.0
  0
INSERT
  5
D632
330
D62B
100
AcDbEntity
  8
WY
 62
     0
100
AcDbBlockReference
  2
_OBLIQUE
 10
11.86730990842034
 20
47.87987932054881
 30
0.0
 50
180.0
  0
MTEXT
  5
D633
330
D62B
100
AcDbEntity
  8
WY
 62
     0
100
AcDbMText
 10
10.41843061475311
 20
49.22987932054881
 30
0.0
 40
1.2
 41
0.0
 71
     5
 72
     1
  1
\A1;3.2
  0
POINT
  5
D634
330
D62B
100
AcDbEntity
  8
DEFPOINTS
 62
     0
100
AcDbPoint
 10
8.66730990842052
 20
60.72806670618468
 30
0.0
  0
POINT
  5
D635
330
D62B
100
AcDbEntity
  8
DEFPOINTS
 62
     0
100
AcDbPoint
 10
11.86730990842034
 20
53.12806670618468
 30
0.0
  0
POINT
  5
D636
330
D62B
100
AcDbEntity
  8
DEFPOINTS
 62
     0
100
AcDbPoint
 10
11.86730990842034
 20
47.87987932054881
 30
0.0
  0
ENDBLK
  5
D637
330
D62B
100
AcDbEntity
  8
0
100
AcDbBlockEnd
  0
BLOCK
  5
D63C
330
D63B
100
AcDbEntity
  8
0
100
AcDbBlockBegin
  2
*D32
 70
     1
 10
0.0
 20
0.0
 30
0.0
  3
*D32
  1
*D32
  0
LINE
  5
D63D
330
D63B
100
AcDbEntity
  8
WY
 62
     0
100
AcDbLine
 10
8.229190123772128
 20
6.5
 30
0.0
 11
0.4500000000000446
 21
6.5
 31
0.0
  0
LINE
  5
D63E
330
D63B
100
AcDbEntity
  8
WY
 62
     0
100
AcDbLine
 10
5.967309908420475
 20
22.60000000000002
 30
0.0
 11
0.4500000000000455
 21
22.60000000000002
 31
0.0
  0
LINE
  5
D63F
330
D63B
100
AcDbEntity
  8
WY
 62
     0
100
AcDbLine
 10
1.950000000000045
 20
8.0
 30
0.0
 11
1.950000000000045
 21
21.10000000000002
 31
0.0
  0
SOLID
  5
D640
330
D63B
100
AcDbEntity
  8
WY
 62
     0
100
AcDbTrace
 10
1.700000000000045
 20
8.0
 30
0.0
 11
2.200000000000045
 21
8.0
 31
0.0
 12
1.950000000000045
 22
6.5
 32
0.0
 13
1.950000000000045
 23
6.5
 33
0.0
  0
SOLID
  5
D641
330
D63B
100
AcDbEntity
  8
WY
 62
     0
100
AcDbTrace
 10
2.200000000000045
 20
21.10000000000002
 30
0.0
 11
1.700000000000045
 21
21.10000000000002
 31
0.0
 12
1.950000000000045
 22
22.60000000000002
 32
0.0
 13
1.950000000000045
 23
22.60000000000002
 33
0.0
  0
MTEXT
  5
D642
330
D63B
100
AcDbEntity
  8
WY
 62
     0
100
AcDbMText
 10
0.6000000000000454
 20
14.55000000000001
 30
0.0
 40
1.2
 41
0.0
 71
     5
 72
     1
  1
\A1;16.1
 11
5.516636147205739E-17
 21
1.0
 31
0.0
  0
POINT
  5
D643
330
D63B
100
AcDbEntity
  8
DEFPOINTS
 62
     0
100
AcDbPoint
 10
9.729190123772128
 20
6.5
 30
0.0
  0
POINT
  5
D644
330
D63B
100
AcDbEntity
  8
DEFPOINTS
 62
     0
100
AcDbPoint
 10
7.467309908420475
 20
22.60000000000002
 30
0.0
  0
POINT
  5
D645
330
D63B
100
AcDbEntity
  8
DEFPOINTS
 62
     0
100
AcDbPoint
 10
1.950000000000045
 20
22.60000000000002
 30
0.0
  0
ENDBLK
  5
D646
330
D63B
100
AcDbEntity
  8
0
100
AcDbBlockEnd
  0
BLOCK
  5
D64B
330
D64A
100
AcDbEntity
  8
0
100
AcDbBlockBegin
  2
*D33
 70
     1
 10
0.0
 20
0.0
 30
0.0
  3
*D33
  1
*D33
  0
LINE
  5
D64C
330
D64A
100
AcDbEntity
  8
WY
 62
     0
100
AcDbLine
 10
36.01730990842043
 20
3.0
 30
0.0
 11
43.85291642017148
 21
2.999999999999999
 31
0.0
  0
LINE
  5
D64D
330
D64A
100
AcDbEntity
  8
WY
 62
     0
100
AcDbLine
 10
38.66730990842041
 20
7.0
 30
0.0
 11
43.85291642017148
 21
7.0
 31
0.0
  0
LINE
  5
D64E
330
D64A
100
AcDbEntity
  8
WY
 62
     0
100
AcDbLine
 10
42.35291642017148
 20
2.999999999999999
 30
0.0
 11
42.35291642017148
 21
7.0
 31
0.0
  0
LINE
  5
D64F
330
D64A
100
AcDbEntity
  8
WY
 62
     0
100
AcDbLine
 10
42.35291642017148
 20
1.499999999999999
 30
0.0
 11
42.35291642017148
 21
-0.0000000000000009
 31
0.0
  0
LINE
  5
D650
330
D64A
100
AcDbEntity
  8
WY
 62
     0
100
AcDbLine
 10
42.35291642017148
 20
8.5
 30
0.0
 11
42.35291642017148
 21
10.0
 31
0.0
  0
SOLID
  5
D651
330
D64A
100
AcDbEntity
  8
WY
 62
     0
100
AcDbTrace
 10
42.60291642017148
 20
1.499999999999999
 30
0.0
 11
42.10291642017148
 21
1.499999999999999
 31
0.0
 12
42.35291642017148
 22
2.999999999999999
 32
0.0
 13
42.35291642017148
 23
2.999999999999999
 33
0.0
  0
SOLID
  5
D652
330
D64A
100
AcDbEntity
  8
WY
 62
     0
100
AcDbTrace
 10
42.10291642017148
 20
8.5
 30
0.0
 11
42.60291642017148
 21
8.5
 31
0.0
 12
42.35291642017148
 22
7.0
 32
0.0
 13
42.35291642017148
 23
7.0
 33
0.0
  0
MTEXT
  5
D653
330
D64A
100
AcDbEntity
  8
WY
 62
     0
100
AcDbMText
 10
41.00291642017148
 20
5.0
 30
0.0
 40
1.2
 41
0.0
 71
     5
 72
     1
  1
\A1;4
 11
0.0
 21
1.0
 31
0.0
  0
POINT
  5
D654
330
D64A
100
AcDbEntity
  8
DEFPOINTS
 62
     0
100
AcDbPoint
 10
34.51730990842043
 20
3.0
 30
0.0
  0
POINT
  5
D655
330
D64A
100
AcDbEntity
  8
DEFPOINTS
 62
     0
100
AcDbPoint
 10
37.16730990842041
 20
7.0
 30
0.0
  0
POINT
  5
D656
330
D64A
100
AcDbEntity
  8
DEFPOINTS
 62
     0
100
AcDbPoint
 10
42.35291642017148
 20
7.0
 30
0.0
  0
ENDBLK
  5
D657
330
D64A
100
AcDbEntity
  8
0
100
AcDbBlockEnd
  0
BLOCK
  5
D65C
330
D65B
100
AcDbEntity
  8
0
100
AcDbBlockBegin
  2
*D34
 70
     1
 10
0.0
 20
0.0
 30
0.0
  3
*D34
  1
*D34
  0
LINE
  5
D65D
330
D65B
100
AcDbEntity
  8
WY
 62
     0
100
AcDbLine
 10
36.44818059920726
 20
61.33281148429296
 30
0.0
 11
44.93207707710008
 21
61.33281148429296
 31
0.0
  0
LINE
  5
D65E
330
D65B
100
AcDbEntity
  8
WY
 62
     0
100
AcDbLine
 10
36.44818059920726
 20
53.73281148429299
 30
0.0
 11
44.93207707710008
 21
53.73281148429299
 31
0.0
  0
LINE
  5
D65F
330
D65B
100
AcDbEntity
  8
WY
 62
     0
100
AcDbLine
 10
43.43207707710008
 20
59.83281148429296
 30
0.0
 11
43.43207707710008
 21
55.23281148429299
 31
0.0
  0
SOLID
  5
D660
330
D65B
100
AcDbEntity
  8
WY
 62
     0
100
AcDbTrace
 10
43.68207707710008
 20
59.83281148429296
 30
0.0
 11
43.18207707710008
 21
59.83281148429296
 31
0.0
 12
43.43207707710008
 22
61.33281148429296
 32
0.0
 13
43.43207707710008
 23
61.33281148429296
 33
0.0
  0
SOLID
  5
D661
330
D65B
100
AcDbEntity
  8
WY
 62
     0
100
AcDbTrace
 10
43.18207707710008
 20
55.23281148429299
 30
0.0
 11
43.68207707710008
 21
55.23281148429299
 31
0.0
 12
43.43207707710008
 22
53.73281148429299
 32
0.0
 13
43.43207707710008
 23
53.73281148429299
 33
0.0
  0
MTEXT
  5
D662
330
D65B
100
AcDbEntity
  8
WY
 62
     0
100
AcDbMText
 10
42.08207707710007
 20
57.53281148429298
 30
0.0
 40
1.2
 41
0.0
 71
     5
 72
     1
  1
\A1;7.6
 11
0.0
 21
1.0
 31
0.0
  0
POINT
  5
D663
330
D65B
100
AcDbEntity
  8
DEFPOINTS
 62
     0
100
AcDbPoint
 10
34.94818059920726
 20
61.33281148429296
 30
0.0
  0
POINT
  5
D664
330
D65B
100
AcDbEntity
  8
DEFPOINTS
 62
     0
100
AcDbPoint
 10
34.94818059920726
 20
53.73281148429299
 30
0.0
  0
POINT
  5
D665
330
D65B
100
AcDbEntity
  8
DEFPOINTS
 62
     0
100
AcDbPoint
 10
43.43207707710008
 20
53.73281148429299
 30
0.0
  0
ENDBLK
  5
D666
330
D65B
100
AcDbEntity
  8
0
100
AcDbBlockEnd
  0
BLOCK
  5
D708
330
D707
100
AcDbEntity
  8
0
100
AcDbBlockBegin
  2
*D35
 70
     1
 10
0.0
 20
0.0
 30
0.0
  3
*D35
  1
*D35
  0
LINE
  5
D70A
330
D707
100
AcDbEntity
  8
WYMIARY
 62
     0
100
AcDbLine
 10
613.2933765694578
 20
247.1206804273035
 30
0.0
 11
613.2933765694578
 21
253.5629934425245
 31
0.0
  0
LINE
  5
D70B
330
D707
100
AcDbEntity
  8
WYMIARY
 62
     0
100
AcDbLine
 10
643.2933765694578
 20
247.1206804273035
 30
0.0
 11
643.2933765694578
 21
253.5629934425245
 31
0.0
  0
LINE
  5
D70C
330
D707
100
AcDbEntity
  8
WYMIARY
 62
     0
100
AcDbLine
 10
614.4933765694578
 20
252.0629934425245
 30
0.0
 11
642.0933765694577
 21
252.0629934425245
 31
0.0
  0
SOLID
  5
D70D
330
D707
100
AcDbEntity
  8
WYMIARY
 62
     0
100
AcDbTrace
 10
614.4933765694578
 20
252.2629934425244
 30
0.0
 11
614.4933765694578
 21
251.8629934425245
 31
0.0
 12
613.2933765694578
 22
252.0629934425245
 32
0.0
 13
613.2933765694578
 23
252.0629934425245
 33
0.0
  0
SOLID
  5
D70E
330
D707
100
AcDbEntity
  8
WYMIARY
 62
     0
100
AcDbTrace
 10
642.0933765694577
 20
251.8629934425245
 30
0.0
 11
642.0933765694577
 21
252.2629934425244
 31
0.0
 12
643.2933765694578
 22
252.0629934425245
 32
0.0
 13
643.2933765694578
 23
252.0629934425245
 33
0.0
  0
MTEXT
  5
D70F
330
D707
100
AcDbEntity
  8
WYMIARY
 62
     0
100
AcDbMText
 10
628.2933765694578
 20
253.4129934425245
 30
0.0
 40
1.2
 41
0.0
 71
     5
 72
     1
  1
\A1;30
  0
POINT
  5
D710
330
D707
100
AcDbEntity
  8
DEFPOINTS
 62
     0
100
AcDbPoint
 10
613.2933765694578
 20
245.6206804273035
 30
0.0
  0
POINT
  5
D711
330
D707
100
AcDbEntity
  8
DEFPOINTS
 62
     0
100
AcDbPoint
 10
643.2933765694578
 20
245.6206804273035
 30
0.0
  0
POINT
  5
D712
330
D707
100
AcDbEntity
  8
DEFPOINTS
 62
     0
100
AcDbPoint
 10
643.2933765694578
 20
252.0629934425245
 30
0.0
  0
ENDBLK
  5
D709
330
D707
100
AcDbEntity
  8
0
100
AcDbBlockEnd
  0
BLOCK
  5
D714
330
D713
100
AcDbEntity
  8
0
100
AcDbBlockBegin
  2
*D36
 70
     1
 10
0.0
 20
0.0
 30
0.0
  3
*D36
  1
*D36
  0
LINE
  5
D716
330
D713
100
AcDbEntity
  8
WY
 62
     0
100
AcDbLine
 10
640.1933765694578
 20
234.7177434530543
 30
0.0
 11
640.1933765694578
 21
229.7677482635593
 31
0.0
  0
LINE
  5
D717
330
D713
100
AcDbEntity
  8
WY
 62
     0
100
AcDbLine
 10
643.2933765694579
 20
234.7206804273035
 30
0.0
 11
643.2933765694579
 21
229.7677482635593
 31
0.0
  0
LINE
  5
D718
330
D713
100
AcDbEntity
  8
WY
 62
     0
100
AcDbLine
 10
644.493376569458
 20
231.2677482635593
 30
0.0
 11
649.193376569458
 21
231.2677482635593
 31
0.0
  0
LINE
  5
D719
330
D713
100
AcDbEntity
  8
WY
 62
     0
100
AcDbLine
 10
640.1933765694578
 20
231.2677482635593
 30
0.0
 11
643.2933765694579
 21
231.2677482635593
 31
0.0
  0
LINE
  5
D71A
330
D713
100
AcDbEntity
  8
WY
 62
     0
100
AcDbLine
 10
638.9933765694577
 20
231.2677482635593
 30
0.0
 11
637.7933765694577
 21
231.2677482635593
 31
0.0
  0
SOLID
  5
D71B
330
D713
100
AcDbEntity
  8
WY
 62
     0
100
AcDbTrace
 10
638.9933765694577
 20
231.0677482635593
 30
0.0
 11
638.9933765694577
 21
231.4677482635593
 31
0.0
 12
640.1933765694578
 22
231.2677482635593
 32
0.0
 13
640.1933765694578
 23
231.2677482635593
 33
0.0
  0
SOLID
  5
D71C
330
D713
100
AcDbEntity
  8
WY
 62
     0
100
AcDbTrace
 10
644.493376569458
 20
231.4677482635593
 30
0.0
 11
644.493376569458
 21
231.0677482635593
 31
0.0
 12
643.2933765694579
 22
231.2677482635593
 32
0.0
 13
643.2933765694579
 23
231.2677482635593
 33
0.0
  0
MTEXT
  5
D71D
330
D713
100
AcDbEntity
  8
WY
 62
     0
100
AcDbMText
 10
647.4433765694579
 20
232.6177482635593
 30
0.0
 40
1.2
 41
0.0
 71
     5
 72
     1
  1
\A1;3.1
  0
POINT
  5
D71E
330
D713
100
AcDbEntity
  8
DEFPOINTS
 62
     0
100
AcDbPoint
 10
640.1933765694578
 20
236.2177434530543
 30
0.0
  0
POINT
  5
D71F
330
D713
100
AcDbEntity
  8
DEFPOINTS
 62
     0
100
AcDbPoint
 10
643.2933765694579
 20
236.2206804273035
 30
0.0
  0
POINT
  5
D720
330
D713
100
AcDbEntity
  8
DEFPOINTS
 62
     0
100
AcDbPoint
 10
643.2933765694579
 20
231.2677482635593
 30
0.0
  0
ENDBLK
  5
D715
330
D713
100
AcDbEntity
  8
0
100
AcDbBlockEnd
  0
BLOCK
  5
D722
330
D721
100
AcDbEntity
  8
0
100
AcDbBlockBegin
  2
*D37
 70
     1
 10
0.0
 20
0.0
 30
0.0
  3
*D37
  1
*D37
  0
LINE
  5
D724
330
D721
100
AcDbEntity
  8
WY
 62
     0
100
AcDbLine
 10
640.1933765694578
 20
234.7177434530543
 30
0.0
 11
640.1933765694578
 21
229.7677482635593
 31
0.0
  0
LINE
  5
D725
330
D721
100
AcDbEntity
  8
WY
 62
     0
100
AcDbLine
 10
621.1933765694578
 20
235.0159356491952
 30
0.0
 11
621.1933765694578
 21
229.7677482635593
 31
0.0
  0
LINE
  5
D726
330
D721
100
AcDbEntity
  8
WY
 62
     0
100
AcDbLine
 10
638.9933765694577
 20
231.2677482635593
 30
0.0
 11
622.3933765694578
 21
231.2677482635593
 31
0.0
  0
SOLID
  5
D727
330
D721
100
AcDbEntity
  8
WY
 62
     0
100
AcDbTrace
 10
638.9933765694577
 20
231.0677482635593
 30
0.0
 11
638.9933765694577
 21
231.4677482635593
 31
0.0
 12
640.1933765694578
 22
231.2677482635593
 32
0.0
 13
640.1933765694578
 23
231.2677482635593
 33
0.0
  0
SOLID
  5
D728
330
D721
100
AcDbEntity
  8
WY
 62
     0
100
AcDbTrace
 10
622.3933765694578
 20
231.4677482635593
 30
0.0
 11
622.3933765694578
 21
231.0677482635593
 31
0.0
 12
621.1933765694578
 22
231.2677482635593
 32
0.0
 13
621.1933765694578
 23
231.2677482635593
 33
0.0
  0
MTEXT
  5
D729
330
D721
100
AcDbEntity
  8
WY
 62
     0
100
AcDbMText
 10
630.6933765694578
 20
232.6177482635593
 30
0.0
 40
1.2
 41
0.0
 71
     5
 72
     1
  1
\A1;19
  0
POINT
  5
D72A
330
D721
100
AcDbEntity
  8
DEFPOINTS
 62
     0
100
AcDbPoint
 10
640.1933765694578
 20
236.2177434530543
 30
0.0
  0
POINT
  5
D72B
330
D721
100
AcDbEntity
  8
DEFPOINTS
 62
     0
100
AcDbPoint
 10
621.1933765694578
 20
236.5159356491952
 30
0.0
  0
POINT
  5
D72C
330
D721
100
AcDbEntity
  8
DEFPOINTS
 62
     0
100
AcDbPoint
 10
621.1933765694578
 20
231.2677482635593
 30
0.0
  0
ENDBLK
  5
D723
330
D721
100
AcDbEntity
  8
0
100
AcDbBlockEnd
  0
BLOCK
  5
D72E
330
D72D
100
AcDbEntity
  8
0
100
AcDbBlockBegin
  2
*D38
 70
     1
 10
0.0
 20
0.0
 30
0.0
  3
*D38
  1
*D38
  0
LINE
  5
D730
330
D72D
100
AcDbEntity
  8
WY
 62
     0
100
AcDbLine
 10
617.9933765694577
 20
235.0159356491952
 30
0.0
 11
617.9933765694577
 21
229.7677482635593
 31
0.0
  0
LINE
  5
D731
330
D72D
100
AcDbEntity
  8
WY
 62
     0
100
AcDbLine
 10
621.1933765694578
 20
229.7677482635593
 30
0.0
 11
621.1933765694578
 21
229.7677482635593
 31
0.0
  0
LINE
  5
D732
330
D72D
100
AcDbEntity
  8
WY
 62
     0
100
AcDbLine
 10
617.9933765694577
 20
231.2677482635593
 30
0.0
 11
621.1933765694578
 21
231.2677482635593
 31
0.0
  0
LINE
  5
D733
330
D72D
100
AcDbEntity
  8
WY
 62
     0
100
AcDbLine
 10
622.1933765694578
 20
231.2677482635593
 30
0.0
 11
623.1933765694578
 21
231.2677482635593
 31
0.0
  0
INSERT
  5
D734
330
D72D
100
AcDbEntity
  8
WY
 62
     0
100
AcDbBlockReference
  2
_OBLIQUE
 10
617.9933765694577
 20
231.2677482635593
 30
0.0
  0
SOLID
  5
D735
330
D72D
100
AcDbEntity
  8
WY
 62
     0
100
AcDbTrace
 10
622.1933765694578
 20
231.434414930226
 30
0.0
 11
622.1933765694578
 21
231.1010815968927
 31
0.0
 12
621.1933765694578
 22
231.2677482635593
 32
0.0
 13
621.1933765694578
 23
231.2677482635593
 33
0.0
  0
MTEXT
  5
D736
330
D72D
100
AcDbEntity
  8
WY
 62
     0
100
AcDbMText
 10
619.5933765694577
 20
232.6177482635593
 30
0.0
 40
1.2
 41
0.0
 71
     5
 72
     1
  1
\A1;3.2
  0
POINT
  5
D737
330
D72D
100
AcDbEntity
  8
DEFPOINTS
 62
     0
100
AcDbPoint
 10
617.9933765694577
 20
236.5159356491952
 30
0.0
  0
POINT
  5
D738
330
D72D
100
AcDbEntity
  8
DEFPOINTS
 62
     0
100
AcDbPoint
 10
621.1933765694578
 20
231.2677482635593
 30
0.0
  0
POINT
  5
D739
330
D72D
100
AcDbEntity
  8
DEFPOINTS
 62
     0
100
AcDbPoint
 10
621.1933765694578
 20
231.2677482635593
 30
0.0
  0
ENDBLK
  5
D72F
330
D72D
100
AcDbEntity
  8
0
100
AcDbBlockEnd
  0
BLOCK
  5
D73B
330
D73A
100
AcDbEntity
  8
0
100
AcDbBlockBegin
  2
*D39
 70
     1
 10
0.0
 20
0.0
 30
0.0
  3
*D39
  1
*D39
  0
LINE
  5
D73D
330
D73A
100
AcDbEntity
  8
WY
 62
     0
100
AcDbLine
 10
616.1933765694579
 20
242.6159356491952
 30
0.0
 11
616.1933765694579
 21
229.7677482635593
 31
0.0
  0
LINE
  5
D73E
330
D73A
100
AcDbEntity
  8
WY
 62
     0
100
AcDbLine
 10
621.1933765694578
 20
235.0159356491952
 30
0.0
 11
621.1933765694578
 21
229.7677482635593
 31
0.0
  0
LINE
  5
D73F
330
D73A
100
AcDbEntity
  8
WY
 62
     0
100
AcDbLine
 10
617.3933765694579
 20
231.2677482635593
 30
0.0
 11
619.9933765694577
 21
231.2677482635593
 31
0.0
  0
SOLID
  5
D740
330
D73A
100
AcDbEntity
  8
WY
 62
     0
100
AcDbTrace
 10
617.3933765694579
 20
231.4677482635593
 30
0.0
 11
617.3933765694579
 21
231.0677482635593
 31
0.0
 12
616.1933765694579
 22
231.2677482635593
 32
0.0
 13
616.1933765694579
 23
231.2677482635593
 33
0.0
  0
SOLID
  5
D741
330
D73A
100
AcDbEntity
  8
WY
 62
     0
100
AcDbTrace
 10
619.9933765694577
 20
231.0677482635593
 30
0.0
 11
619.9933765694577
 21
231.4677482635593
 31
0.0
 12
621.1933765694578
 22
231.2677482635593
 32
0.0
 13
621.1933765694578
 23
231.2677482635593
 33
0.0
  0
MTEXT
  5
D742
330
D73A
100
AcDbEntity
  8
WY
 62
     0
100
AcDbMText
 10
618.6933765694578
 20
232.6177482635593
 30
0.0
 40
1.2
 41
0.0
 71
     5
 72
     1
  1
\A1;5
  0
POINT
  5
D743
330
D73A
100
AcDbEntity
  8
DEFPOINTS
 62
     0
100
AcDbPoint
 10
616.1933765694579
 20
244.1159356491952
 30
0.0
  0
POINT
  5
D744
330
D73A
100
AcDbEntity
  8
DEFPOINTS
 62
     0
100
AcDbPoint
 10
621.1933765694578
 20
236.5159356491952
 30
0.0
  0
POINT
  5
D745
330
D73A
100
AcDbEntity
  8
DEFPOINTS
 62
     0
100
AcDbPoint
 10
621.1933765694578
 20
231.2677482635593
 30
0.0
  0
ENDBLK
  5
D73C
330
D73A
100
AcDbEntity
  8
0
100
AcDbBlockEnd
  0
BLOCK
  5
D748
330
D747
100
AcDbEntity
  8
0
100
AcDbBlockBegin
  2
*D40
 70
     1
 10
0.0
 20
0.0
 30
0.0
  3
*D40
  1
*D40
  0
LINE
  5
D74A
330
D747
100
AcDbEntity
  8
WY
 62
     0
100
AcDbLine
 10
614.3552567848095
 20
189.8878689430105
 30
0.0
 11
606.5760666610374
 21
189.8878689430105
 31
0.0
  0
LINE
  5
D74B
330
D747
100
AcDbEntity
  8
WY
 62
     0
100
AcDbLine
 10
612.0933765694579
 20
205.9878689430105
 30
0.0
 11
606.5760666610374
 21
205.9878689430105
 31
0.0
  0
LINE
  5
D74C
330
D747
100
AcDbEntity
  8
WY
 62
     0
100
AcDbLine
 10
608.0760666610374
 20
191.0878689430105
 30
0.0
 11
608.0760666610374
 21
204.7878689430106
 31
0.0
  0
SOLID
  5
D74D
330
D747
100
AcDbEntity
  8
WY
 62
     0
100
AcDbTrace
 10
607.8760666610374
 20
191.0878689430105
 30
0.0
 11
608.2760666610375
 21
191.0878689430105
 31
0.0
 12
608.0760666610374
 22
189.8878689430105
 32
0.0
 13
608.0760666610374
 23
189.8878689430105
 33
0.0
  0
SOLID
  5
D74E
330
D747
100
AcDbEntity
  8
WY
 62
     0
100
AcDbTrace
 10
608.2760666610375
 20
204.7878689430106
 30
0.0
 11
607.8760666610374
 21
204.7878689430106
 31
0.0
 12
608.0760666610374
 22
205.9878689430105
 32
0.0
 13
608.0760666610374
 23
205.9878689430105
 33
0.0
  0
MTEXT
  5
D74F
330
D747
100
AcDbEntity
  8
WY
 62
     0
100
AcDbMText
 10
606.7260666610374
 20
197.9378689430105
 30
0.0
 40
1.2
 41
0.0
 71
     5
 72
     1
  1
\A1;16.1
 11
0.0
 21
1.0
 31
0.0
  0
POINT
  5
D750
330
D747
100
AcDbEntity
  8
DEFPOINTS
 62
     0
100
AcDbPoint
 10
615.8552567848095
 20
189.8878689430105
 30
0.0
  0
POINT
  5
D751
330
D747
100
AcDbEntity
  8
DEFPOINTS
 62
     0
100
AcDbPoint
 10
613.5933765694579
 20
205.9878689430105
 30
0.0
  0
POINT
  5
D752
330
D747
100
AcDbEntity
  8
DEFPOINTS
 62
     0
100
AcDbPoint
 10
608.0760666610374
 20
205.9878689430105
 30
0.0
  0
ENDBLK
  5
D749
330
D747
100
AcDbEntity
  8
0
100
AcDbBlockEnd
  0
BLOCK
  5
D754
330
D753
100
AcDbEntity
  8
0
100
AcDbBlockBegin
  2
*D41
 70
     1
 10
0.0
 20
0.0
 30
0.0
  3
*D41
  1
*D41
  0
LINE
  5
D756
330
D753
100
AcDbEntity
  8
WY
 62
     0
100
AcDbLine
 10
642.1433765694578
 20
186.3878689430105
 30
0.0
 11
649.9789830812089
 21
186.3878689430105
 31
0.0
  0
LINE
  5
D757
330
D753
100
AcDbEntity
  8
WY
 62
     0
100
AcDbLine
 10
644.7933765694578
 20
190.3878689430105
 30
0.0
 11
649.9789830812089
 21
190.3878689430105
 31
0.0
  0
LINE
  5
D758
330
D753
100
AcDbEntity
  8
WY
 62
     0
100
AcDbLine
 10
648.4789830812089
 20
187.5878689430105
 30
0.0
 11
648.4789830812089
 21
189.1878689430105
 31
0.0
  0
SOLID
  5
D759
330
D753
100
AcDbEntity
  8
WY
 62
     0
100
AcDbTrace
 10
648.2789830812088
 20
187.5878689430105
 30
0.0
 11
648.6789830812089
 21
187.5878689430105
 31
0.0
 12
648.4789830812089
 22
186.3878689430105
 32
0.0
 13
648.4789830812089
 23
186.3878689430105
 33
0.0
  0
SOLID
  5
D75A
330
D753
100
AcDbEntity
  8
WY
 62
     0
100
AcDbTrace
 10
648.6789830812089
 20
189.1878689430105
 30
0.0
 11
648.2789830812088
 21
189.1878689430105
 31
0.0
 12
648.4789830812089
 22
190.3878689430105
 32
0.0
 13
648.4789830812089
 23
190.3878689430105
 33
0.0
  0
MTEXT
  5
D75B
330
D753
100
AcDbEntity
  8
WY
 62
     0
100
AcDbMText
 10
647.1289830812088
 20
188.3878689430105
 30
0.0
 40
1.2
 41
0.0
 71
     5
 72
     1
  1
\A1;4
 11
0.0
 21
1.0
 31
0.0
  0
POINT
  5
D75C
330
D753
100
AcDbEntity
  8
DEFPOINTS
 62
     0
100
AcDbPoint
 10
640.6433765694578
 20
186.3878689430105
 30
0.0
  0
POINT
  5
D75D
330
D753
100
AcDbEntity
  8
DEFPOINTS
 62
     0
100
AcDbPoint
 10
643.2933765694578
 20
190.3878689430105
 30
0.0
  0
POINT
  5
D75E
330
D753
100
AcDbEntity
  8
DEFPOINTS
 62
     0
100
AcDbPoint
 10
648.4789830812089
 20
190.3878689430105
 30
0.0
  0
ENDBLK
  5
D755
330
D753
100
AcDbEntity
  8
0
100
AcDbBlockEnd
  0
BLOCK
  5
D762
330
D761
100
AcDbEntity
  8
0
100
AcDbBlockBegin
  2
*D42
 70
     1
 10
0.0
 20
0.0
 30
0.0
  3
*D42
  1
*D42
  0
LINE
  5
D764
330
D761
100
AcDbEntity
  8
WY
 62
     0
100
AcDbLine
 10
642.5742472602446
 20
244.7206804273035
 30
0.0
 11
651.0581437381375
 21
244.7206804273035
 31
0.0
  0
LINE
  5
D765
330
D761
100
AcDbEntity
  8
WY
 62
     0
100
AcDbLine
 10
642.5742472602446
 20
237.1206804273035
 30
0.0
 11
651.0581437381375
 21
237.1206804273035
 31
0.0
  0
LINE
  5
D766
330
D761
100
AcDbEntity
  8
WY
 62
     0
100
AcDbLine
 10
649.5581437381375
 20
243.5206804273035
 30
0.0
 11
649.5581437381375
 21
238.3206804273035
 31
0.0
  0
SOLID
  5
D767
330
D761
100
AcDbEntity
  8
WY
 62
     0
100
AcDbTrace
 10
649.7581437381375
 20
243.5206804273035
 30
0.0
 11
649.3581437381374
 21
243.5206804273035
 31
0.0
 12
649.5581437381375
 22
244.7206804273035
 32
0.0
 13
649.5581437381375
 23
244.7206804273035
 33
0.0
  0
SOLID
  5
D768
330
D761
100
AcDbEntity
  8
WY
 62
     0
100
AcDbTrace
 10
649.3581437381374
 20
238.3206804273035
 30
0.0
 11
649.7581437381375
 21
238.3206804273035
 31
0.0
 12
649.5581437381375
 22
237.1206804273035
 32
0.0
 13
649.5581437381375
 23
237.1206804273035
 33
0.0
  0
MTEXT
  5
D769
330
D761
100
AcDbEntity
  8
WY
 62
     0
100
AcDbMText
 10
648.2081437381374
 20
240.9206804273035
 30
0.0
 40
1.2
 41
0.0
 71
     5
 72
     1
  1
\A1;7.6
 11
0.0
 21
1.0
 31
0.0
  0
POINT
  5
D76A
330
D761
100
AcDbEntity
  8
DEFPOINTS
 62
     0
100
AcDbPoint
 10
641.0742472602446
 20
244.7206804273035
 30
0.0
  0
POINT
  5
D76B
330
D761
100
AcDbEntity
  8
DEFPOINTS
 62
     0
100
AcDbPoint
 10
641.0742472602446
 20
237.1206804273035
 30
0.0
  0
POINT
  5
D76C
330
D761
100
AcDbEntity
  8
DEFPOINTS
 62
     0
100
AcDbPoint
 10
649.5581437381375
 20
237.1206804273035
 30
0.0
  0
ENDBLK
  5
D763
330
D761
100
AcDbEntity
  8
0
100
AcDbBlockEnd
  0
BLOCK
  5
D771
330
D770
100
AcDbEntity
  8
0
100
AcDbBlockBegin
  2
*D43
 70
     1
 10
0.0
 20
0.0
 30
0.0
  3
*D43
  1
*D43
  0
LINE
  5
D773
330
D770
100
AcDbEntity
  8
WY
 62
     0
100
AcDbLine
 10
644.4933765694578
 20
245.9206804273035
 30
0.0
 11
655.6114940316088
 21
245.9206804273035
 31
0.0
  0
LINE
  5
D774
330
D770
100
AcDbEntity
  8
WY
 62
     0
100
AcDbLine
 10
644.4933765694578
 20
235.9206804273035
 30
0.0
 11
655.6114940316088
 21
235.9206804273035
 31
0.0
  0
LINE
  5
D775
330
D770
100
AcDbEntity
  8
WY
 62
     0
100
AcDbLine
 10
654.1114940316088
 20
244.7206804273035
 30
0.0
 11
654.1114940316088
 21
237.1206804273035
 31
0.0
  0
SOLID
  5
D776
330
D770
100
AcDbEntity
  8
WY
 62
     0
100
AcDbTrace
 10
654.3114940316088
 20
244.7206804273035
 30
0.0
 11
653.9114940316088
 21
244.7206804273035
 31
0.0
 12
654.1114940316088
 22
245.9206804273035
 32
0.0
 13
654.1114940316088
 23
245.9206804273035
 33
0.0
  0
SOLID
  5
D777
330
D770
100
AcDbEntity
  8
WY
 62
     0
100
AcDbTrace
 10
653.9114940316088
 20
237.1206804273035
 30
0.0
 11
654.3114940316088
 21
237.1206804273035
 31
0.0
 12
654.1114940316088
 22
235.9206804273035
 32
0.0
 13
654.1114940316088
 23
235.9206804273035
 33
0.0
  0
MTEXT
  5
D778
330
D770
100
AcDbEntity
  8
WY
 62
     0
100
AcDbMText
 10
652.7614940316088
 20
240.9206804273035
 30
0.0
 40
1.2
 41
0.0
 71
     5
 72
     1
  1
\A1;10
 11
0.0
 21
1.0
 31
0.0
  0
POINT
  5
D779
330
D770
100
AcDbEntity
  8
DEFPOINTS
 62
     0
100
AcDbPoint
 10
642.9933765694578
 20
245.9206804273035
 30
0.0
  0
POINT
  5
D77A
330
D770
100
AcDbEntity
  8
DEFPOINTS
 62
     0
100
AcDbPoint
 10
642.9933765694578
 20
235.9206804273035
 30
0.0
  0
POINT
  5
D77B
330
D770
100
AcDbEntity
  8
DEFPOINTS
 62
     0
100
AcDbPoint
 10
654.1114940316088
 20
235.9206804273035
 30
0.0
  0
ENDBLK
  5
D772
330
D770
100
AcDbEntity
  8
0
100
AcDbBlockEnd
  0
BLOCK
  5
D780
330
D77F
100
AcDbEntity
  8
0
100
AcDbBlockBegin
  2
*D44
 70
     1
 10
0.0
 20
0.0
 30
0.0
  3
*D44
  1
*D44
  0
LINE
  5
D782
330
D77F
100
AcDbEntity
  8
WY
 62
     0
100
AcDbLine
 10
563.5548951977788
 20
245.9206804273035
 30
0.0
 11
574.6182603350056
 21
245.9206804273035
 31
0.0
  0
LINE
  5
D783
330
D77F
100
AcDbEntity
  8
WY
 62
     0
100
AcDbLine
 10
563.5548951977788
 20
235.9206804273035
 30
0.0
 11
574.6182603350056
 21
235.9206804273035
 31
0.0
  0
LINE
  5
D784
330
D77F
100
AcDbEntity
  8
WY
 62
     0
100
AcDbLine
 10
573.1182603350056
 20
244.7206804273035
 30
0.0
 11
573.1182603350056
 21
237.1206804273035
 31
0.0
  0
SOLID
  5
D785
330
D77F
100
AcDbEntity
  8
WY
 62
     0
100
AcDbTrace
 10
573.3182603350057
 20
244.7206804273035
 30
0.0
 11
572.9182603350056
 21
244.7206804273035
 31
0.0
 12
573.1182603350056
 22
245.9206804273035
 32
0.0
 13
573.1182603350056
 23
245.9206804273035
 33
0.0
  0
SOLID
  5
D786
330
D77F
100
AcDbEntity
  8
WY
 62
     0
100
AcDbTrace
 10
572.9182603350056
 20
237.1206804273035
 30
0.0
 11
573.3182603350057
 21
237.1206804273035
 31
0.0
 12
573.1182603350056
 22
235.9206804273035
 32
0.0
 13
573.1182603350056
 23
235.9206804273035
 33
0.0
  0
MTEXT
  5
D787
330
D77F
100
AcDbEntity
  8
WY
 62
     0
100
AcDbMText
 10
571.7682603350056
 20
240.9206804273035
 30
0.0
 40
1.2
 41
0.0
 71
     5
 72
     1
  1
\A1;10
 11
0.0
 21
1.0
 31
0.0
  0
POINT
  5
D788
330
D77F
100
AcDbEntity
  8
DEFPOINTS
 62
     0
100
AcDbPoint
 10
562.0548951977788
 20
245.9206804273035
 30
0.0
  0
POINT
  5
D789
330
D77F
100
AcDbEntity
  8
DEFPOINTS
 62
     0
100
AcDbPoint
 10
562.0548951977788
 20
235.9206804273035
 30
0.0
  0
POINT
  5
D78A
330
D77F
100
AcDbEntity
  8
DEFPOINTS
 62
     0
100
AcDbPoint
 10
573.1182603350056
 20
235.9206804273035
 30
0.0
  0
ENDBLK
  5
D781
330
D77F
100
AcDbEntity
  8
0
100
AcDbBlockEnd
  0
ENDSEC
  0
SECTION
  2
ENTITIES
  0
LINE
  5
2D2D
330
18
100
AcDbEntity
  8
WYMIARY
 62
     6
100
AcDbLine
 10
486.041244
 20
0.0
 30
0.0
 11
486.041244
 21
297.0
 31
0.0
  0
LINE
  5
2D2E
330
18
100
AcDbEntity
  8
WYMIARY
 62
     6
100
AcDbLine
 10
497.671651
 20
292.0
 30
0.0
 11
497.671651
 21
5.0
 31
0.0
  0
LINE
  5
2D34
330
18
100
AcDbEntity
  8
2
100
AcDbLine
 10
682.671651
 20
5.0
 30
0.0
 11
682.671651
 21
292.0
 31
0.0
  0
LINE
  5
2D35
330
18
100
AcDbEntity
  8
2
100
AcDbLine
 10
687.671651
 20
0.0
 30
0.0
 11
687.671651
 21
297.0
 31
0.0
  0
LINE
  5
2D36
330
18
100
AcDbEntity
  8
WY
  6
CONTINUOUS
 62
     3
100
AcDbLine
 10
682.671651
 20
19.689837
 30
0.0
 11
497.671651
 21
19.689837
 31
0.0
  0
LINE
  5
2D38
330
18
100
AcDbEntity
  8
2
100
AcDbLine
 10
497.671651
 20
5.0
 30
0.0
 11
682.671651
 21
5.0
 31
0.0
  0
LINE
  5
2D39
330
18
100
AcDbEntity
  8
2
 62
     6
100
AcDbLine
 10
497.671651
 20
0.0
 30
0.0
 11
687.671651
 21
0.0
 31
0.0
  0
LINE
  5
2D3A
330
18
100
AcDbEntity
  8
0
100
AcDbLine
 10
529.697667
 20
11.742481
 30
0.0
 11
528.795256
 21
11.742481
 31
0.0
  0
ELLIPSE
  5
2D3B
330
18
100
AcDbEntity
  8
0
100
AcDbEllipse
 10
529.697667
 20
11.742481
 30
0.0
 11
-1.203215696869327
 21
1.967000000000000E-13
 31
0.0
210
0.0
220
0.0
230
1.0
 40
0.958812
 41
-1.570796326794739
 42
0.0000000000001705
  0
TEXT
  5
2D3D
330
18
100
AcDbEntity
  8
1
100
AcDbText
 10
515.607578
 20
8.797457
 30
0.0
 40
5.0
  1
A4
 51
15.0
  7
ITALIC
100
AcDbText
  0
LINE
  5
2D40
330
18
100
AcDbEntity
  8
WYMIARY
 62
     6
100
AcDbLine
 10
497.671651
 20
0.0
 30
0.0
 11
486.041244
 21
0.0
 31
0.0
  0
TEXT
  5
2D42
330
18
100
AcDbEntity
  8
WY
100
AcDbText
 10
502.936765
 20
16.373844
 30
0.0
 40
2.0
  1
Skala
 51
15.0
  7
ITALIC
100
AcDbText
  0
TEXT
  5
2D43
330
18
100
AcDbEntity
  8
WY
100
AcDbText
 10
515.042219
 20
16.329369
 30
0.0
 40
2.0
  1
Format
 51
15.0
  7
ITALIC
100
AcDbText
  0
LINE
  5
2D44
330
18
100
AcDbEntity
  8
0
100
AcDbLine
 10
528.494452
 20
11.742481
 30
0.0
 11
528.795256
 21
11.742481
 31
0.0
  0
LINE
  5
2D45
330
18
100
AcDbEntity
  8
0
100
AcDbLine
 10
559.88722
 20
17.211264
 30
0.0
 11
559.88722
 21
9.015264
 31
0.0
  0
LINE
  5
2D46
330
18
100
AcDbEntity
  8
0
100
AcDbLine
 10
550.89322
 20
9.438264
 30
0.0
 11
550.89322
 21
7.416264
 31
0.0
  0
ARC
  5
2D47
330
18
100
AcDbEntity
  8
0
100
AcDbCircle
 10
551.5428
 20
9.724764
 30
0.0
 40
0.709955
100
AcDbArc
 50
203.80008
 51
272.051918
  0
LINE
  5
2D48
330
18
100
AcDbEntity
  8
0
100
AcDbLine
 10
549.34822
 20
7.416264
 30
0.0
 11
549.34822
 21
15.612264
 31
0.0
  0
ARC
  5
2D49
330
18
100
AcDbEntity
  8
0
100
AcDbCircle
 10
551.982126
 20
10.136416
 30
0.0
 40
1.128907
100
AcDbArc
 50
276.719576
 51
2.175194
  0
ARC
  5
2D4A
330
18
100
AcDbEntity
  8
0
100
AcDbCircle
 10
555.243059
 20
10.503572
 30
0.0
 40
1.488419
100
AcDbArc
 50
191.634268
 51
270.699113
  0
ARC
  5
2D4B
330
18
100
AcDbEntity
  8
0
100
AcDbCircle
 10
556.209381
 20
10.503572
 30
0.0
 40
1.488419
100
AcDbArc
 50
269.300887
 51
348.365732
  0
LINE
  5
2D4C
330
18
100
AcDbEntity
  8
0
100
AcDbLine
 10
558.34222
 20
9.015264
 30
0.0
 11
558.34222
 21
17.211264
 31
0.0
  0
ARC
  5
2D4D
330
18
100
AcDbEntity
  8
0
100
AcDbCircle
 10
545.056591
 20
10.472364
 30
0.0
 40
1.425319
100
AcDbArc
 50
269.703671
 51
350.465171
  0
ARC
  5
2D4E
330
18
100
AcDbEntity
  8
0
100
AcDbCircle
 10
544.201848
 20
10.472364
 30
0.0
 40
1.425319
100
AcDbArc
 50
189.534829
 51
270.2963290000001
  0
LINE
  5
2D4F
330
18
100
AcDbEntity
  8
0
100
AcDbLine
 10
547.14922
 20
9.015264
 30
0.0
 11
547.14922
 21
17.211264
 31
0.0
  0
LINE
  5
2D50
330
18
100
AcDbEntity
  8
0
100
AcDbLine
 10
548.69422
 20
17.211264
 30
0.0
 11
548.69422
 21
9.015264
 31
0.0
  0
LINE
  5
2D51
330
18
100
AcDbEntity
  8
0
100
AcDbLine
 10
539.892236
 20
14.361264
 30
0.0
 11
539.903809
 21
9.015264
 31
0.0
  0
LINE
  5
2D52
330
18
100
AcDbEntity
  8
0
100
AcDbLine
 10
538.361694
 20
9.015264
 30
0.0
 11
538.361694
 21
15.60367
 31
0.0
  0
LINE
  5
2D53
330
18
100
AcDbEntity
  8
0
100
AcDbLine
 10
529.697667
 20
9.895061
 30
0.0
 11
529.697667
 21
8.185369
 31
0.0
  0
LINE
  5
2D54
330
18
100
AcDbEntity
  8
0
100
AcDbLine
 10
535.613478
 20
8.185369
 30
0.0
 11
535.613478
 21
11.742481
 31
0.0
  0
LINE
  5
2D55
330
18
100
AcDbEntity
  8
1
100
AcDbLine
 10
563.469863
 20
5.0
 30
0.0
 11
563.469863
 21
19.689837
 31
0.0
  0
LINE
  5
2D56
330
18
100
AcDbEntity
  8
0
100
AcDbLine
 10
530.499811
 20
7.416263
 30
0.0
 11
534.811334
 21
7.416263
 31
0.0
  0
ELLIPSE
  5
2D57
330
18
100
AcDbEntity
  8
0
100
AcDbEllipse
 10
530.499811
 20
8.185369
 30
0.0
 11
-0.8021437979128705
 21
1.540000000000000E-14
 31
0.0
210
0.0
220
0.0
230
1.0
 40
0.958812
 41
0.00000000000002
 42
1.570796326794914
  0
ELLIPSE
  5
2D58
330
18
100
AcDbEntity
  8
0
100
AcDbEllipse
 10
534.811334
 20
8.185369
 30
0.0
 11
0.8021437979128704
 21
1.602000000000000E-13
 31
0.0
210
0.0
220
0.0
230
1.0
 40
0.958812
 41
4.712388980384497
 42
6.283185307179378
  0
LINE
  5
2D59
330
18
100
AcDbEntity
  8
0
100
AcDbLine
 10
539.892236
 20
9.015264
 30
0.0
 11
539.903809
 21
9.022759
 31
0.0
  0
LINE
  5
2D5A
330
18
100
AcDbEntity
  8
0
100
AcDbLine
 10
538.361694
 20
9.015264
 30
0.0
 11
539.903809
 21
9.015264
 31
0.0
  0
LINE
  5
2D5B
330
18
100
AcDbEntity
  8
0
100
AcDbLine
 10
544.194477
 20
9.047064
 30
0.0
 11
545.04922
 21
9.047064
 31
0.0
  0
LINE
  5
2D5C
330
18
100
AcDbEntity
  8
0
100
AcDbLine
 10
550.89322
 20
7.416264
 30
0.0
 11
549.34822
 21
7.416264
 31
0.0
  0
LINE
  5
2D5D
330
18
100
AcDbEntity
  8
0
100
AcDbLine
 10
548.69422
 20
9.015264
 30
0.0
 11
547.14922
 21
9.015264
 31
0.0
  0
LINE
  5
2D5E
330
18
100
AcDbEntity
  8
0
100
AcDbLine
 10
551.576266
 20
9.015264
 30
0.0
 11
552.11422
 21
9.015264
 31
0.0
  0
LINE
  5
2D5F
330
18
100
AcDbEntity
  8
0
100
AcDbLine
 10
555.26122
 20
9.015264
 30
0.0
 11
556.19122
 21
9.015264
 31
0.0
  0
LINE
  5
2D60
330
18
100
AcDbEntity
  8
0
100
AcDbLine
 10
559.88722
 20
9.015264
 30
0.0
 11
558.34222
 21
9.015264
 31
0.0
  0
ARC
  5
2D61
330
18
100
AcDbEntity
  8
0
100
AcDbCircle
 10
545.056591
 20
14.17837
 30
0.0
 40
1.425319
100
AcDbArc
 50
9.534829000000002
 51
90.296329
  0
LINE
  5
2D62
330
18
100
AcDbEntity
  8
0
100
AcDbLine
 10
546.46222
 20
11.81167
 30
0.0
 11
544.33822
 21
11.81167
 31
0.0
  0
LINE
  5
2D63
330
18
100
AcDbEntity
  8
0
100
AcDbLine
 10
545.01322
 20
11.13667
 30
0.0
 11
546.46222
 21
11.13667
 31
0.0
  0
LINE
  5
2D64
330
18
100
AcDbEntity
  8
0
100
AcDbLine
 10
529.697667
 20
13.461283
 30
0.0
 11
529.697667
 21
16.260974
 31
0.0
  0
ELLIPSE
  5
2D65
330
18
100
AcDbEntity
  8
0
100
AcDbEllipse
 10
532.630506
 20
15.17942
 30
0.0
 11
2.983077570132104
 21
2.996000000000000E-13
 31
0.0
210
0.0
220
0.0
230
1.0
 40
0.9588119999999999
 41
-1.562393163247347
 42
0.0084031635475457
  0
ELLIPSE
  5
2D66
330
18
100
AcDbEntity
  8
0
100
AcDbEllipse
 10
532.58733
 20
15.509539
 30
0.0
 11
-4.072692107280919
 21
9.250000000000000E-14
 31
0.0
210
0.0
220
0.0
230
1.0
 40
0.958812
 41
1.587553347046634
 42
2.408388587343224
  0
LINE
  5
2D67
330
18
100
AcDbEntity
  8
0
100
AcDbLine
 10
529.697667
 20
11.742481
 30
0.0
 11
529.697667
 21
11.034514
 31
0.0
  0
LINE
  5
2D68
330
18
100
AcDbEntity
  8
0
100
AcDbLine
 10
529.697667
 20
13.461283
 30
0.0
 11
529.697667
 21
12.896138
 31
0.0
  0
ELLIPSE
  5
2D69
330
18
100
AcDbEntity
  8
0
100
AcDbEllipse
 10
532.249598
 20
9.872487
 30
0.0
 11
2.960559210508897
 21
0.3570763225581005
 31
0.0
210
0.0
220
0.0
230
1.0
 40
0.820999
 41
1.335209029023201
 42
2.503032872947537
  0
ELLIPSE
  5
2D6A
330
18
100
AcDbEntity
  8
0
100
AcDbEllipse
 10
532.480104
 20
8.937306
 30
0.0
 11
3.015746449176212
 21
0.7746519372140013
 31
0.0
210
0.0
220
0.0
230
1.0
 40
0.846775
 41
1.29973646820557
 42
2.479974117225238
  0
LINE
  5
2D6B
330
18
100
AcDbEntity
  8
0
100
AcDbLine
 10
536.816694
 20
12.896138
 30
0.0
 11
536.51589
 21
12.896138
 31
0.0
  0
LINE
  5
2D6C
330
18
100
AcDbEntity
  8
0
100
AcDbLine
 10
535.613478
 20
12.896138
 30
0.0
 11
536.51589
 21
12.896138
 31
0.0
  0
ELLIPSE
  5
2D6D
330
18
100
AcDbEntity
  8
0
100
AcDbEllipse
 10
535.613478
 20
12.896138
 30
0.0
 11
1.203215696869352
 21
8.930000000000000E-14
 31
0.0
210
0.0
220
0.0
230
1.0
 40
0.9588119999999999
 41
4.712388980384611
 42
6.283185307179508
  0
LINE
  5
2D6E
330
18
100
AcDbEntity
  8
0
100
AcDbLine
 10
530.499811
 20
17.030079
 30
0.0
 11
534.811334
 21
17.030079
 31
0.0
  0
ELLIPSE
  5
2D6F
330
18
100
AcDbEntity
  8
0
100
AcDbEllipse
 10
530.499811
 20
16.260974
 30
0.0
 11
0.8021437979128704
 21
3.800000000000000E-14
 31
0.0
210
0.0
220
0.0
230
1.0
 40
0.958812
 41
1.570796326794851
 42
3.141592653589743
  0
LINE
  5
2D70
330
18
100
AcDbEntity
  8
0
100
AcDbLine
 10
535.613478
 20
15.155385
 30
0.0
 11
535.613478
 21
16.260974
 31
0.0
  0
ELLIPSE
  5
2D71
330
18
100
AcDbEntity
  8
0
100
AcDbEllipse
 10
534.811334
 20
16.260974
 30
0.0
 11
-0.8021437979128705
 21
3.800000000000000E-14
 31
0.0
210
0.0
220
0.0
230
1.0
 40
0.958812
 41
3.141592653589842
 42
4.712388980384734
  0
ARC
  5
2D72
330
18
100
AcDbEntity
  8
0
100
AcDbCircle
 10
540.798894
 20
14.34127
 30
0.0
 40
1.377457
100
AcDbArc
 50
16.265061
 51
130.527299
  0
ARC
  5
2D73
330
18
100
AcDbEntity
  8
0
100
AcDbCircle
 10
544.201848
 20
14.17837
 30
0.0
 40
1.425319
100
AcDbArc
 50
89.703671
 51
170.465171
  0
LINE
  5
2D74
330
18
100
AcDbEntity
  8
0
100
AcDbLine
 10
540.911147
 20
12.93607
 30
0.0
 11
542.12122
 21
12.93607
 31
0.0
  0
LINE
  5
2D75
330
18
100
AcDbEntity
  8
0
100
AcDbLine
 10
540.578809
 20
12.93607
 30
0.0
 11
542.12122
 21
12.93607
 31
0.0
  0
ARC
  5
2D76
330
18
100
AcDbEntity
  8
0
100
AcDbCircle
 10
540.229736
 20
14.361264
 30
0.0
 40
0.3375
100
AcDbArc
 50
360.0
 51
180.0
  0
LINE
  5
2D77
330
18
100
AcDbEntity
  8
0
100
AcDbLine
 10
540.567236
 20
14.361264
 30
0.0
 11
540.578809
 21
12.93607
 31
0.0
  0
ARC
  5
2D78
330
18
100
AcDbEntity
  8
0
100
AcDbCircle
 10
544.67572
 20
14.361264
 30
0.0
 40
0.3375
100
AcDbArc
 50
360.0
 51
180.0
  0
LINE
  5
2D79
330
18
100
AcDbEntity
  8
0
100
AcDbLine
 10
544.33822
 20
11.81167
 30
0.0
 11
544.33822
 21
10.236264
 31
0.0
  0
LINE
  5
2D7A
330
18
100
AcDbEntity
  8
0
100
AcDbLine
 10
544.33822
 20
12.71167
 30
0.0
 11
545.01322
 21
12.71167
 31
0.0
  0
LINE
  5
2D7B
330
18
100
AcDbEntity
  8
0
100
AcDbLine
 10
545.01322
 20
11.13667
 30
0.0
 11
545.01322
 21
10.252764
 31
0.0
  0
LINE
  5
2D7C
330
18
100
AcDbEntity
  8
0
100
AcDbLine
 10
544.33822
 20
11.81167
 30
0.0
 11
544.33822
 21
10.252764
 31
0.0
  0
ARC
  5
2D7D
330
18
100
AcDbEntity
  8
0
100
AcDbCircle
 10
544.67572
 20
10.252764
 30
0.0
 40
0.3375
100
AcDbArc
 50
180.0
 51
0.0
  0
LINE
  5
2D7E
330
18
100
AcDbEntity
  8
0
100
AcDbLine
 10
545.01322
 20
14.361264
 30
0.0
 11
545.01322
 21
12.71167
 31
0.0
  0
LINE
  5
2D7F
330
18
100
AcDbEntity
  8
0
100
AcDbLine
 10
544.33822
 20
14.361264
 30
0.0
 11
544.33822
 21
12.71167
 31
0.0
  0
LINE
  5
2D80
330
18
100
AcDbEntity
  8
0
100
AcDbLine
 10
542.12122
 20
12.93607
 30
0.0
 11
542.12122
 21
14.72707
 31
0.0
  0
LINE
  5
2D81
330
18
100
AcDbEntity
  8
0
100
AcDbLine
 10
542.79622
 20
10.236264
 30
0.0
 11
542.79622
 21
14.41447
 31
0.0
  0
LINE
  5
2D82
330
18
100
AcDbEntity
  8
0
100
AcDbLine
 10
539.903809
 20
15.60367
 30
0.0
 11
539.903809
 21
15.38827
 31
0.0
  0
LINE
  5
2D83
330
18
100
AcDbEntity
  8
0
100
AcDbLine
 10
538.361694
 20
15.60367
 30
0.0
 11
539.903809
 21
15.60367
 31
0.0
  0
LINE
  5
2D84
330
18
100
AcDbEntity
  8
0
100
AcDbLine
 10
544.194477
 20
15.60367
 30
0.0
 11
545.04922
 21
15.60367
 31
0.0
  0
ARC
  5
2D85
330
18
100
AcDbEntity
  8
0
100
AcDbCircle
 10
555.243059
 20
14.124104
 30
0.0
 40
1.488419
100
AcDbArc
 50
89.300887
 51
168.365732
  0
ARC
  5
2D86
330
18
100
AcDbEntity
  8
0
100
AcDbCircle
 10
551.752247
 20
14.207365
 30
0.0
 40
1.409039
100
AcDbArc
 50
15.47255
 51
127.56454
  0
LINE
  5
2D87
330
18
100
AcDbEntity
  8
0
100
AcDbLine
 10
546.46222
 20
11.13667
 30
0.0
 11
546.46222
 21
10.236264
 31
0.0
  0
LINE
  5
2D88
330
18
100
AcDbEntity
  8
0
100
AcDbLine
 10
546.46222
 20
11.81167
 30
0.0
 11
546.46222
 21
14.41447
 31
0.0
  0
LINE
  5
2D89
330
18
100
AcDbEntity
  8
0
100
AcDbLine
 10
553.11022
 20
14.583264
 30
0.0
 11
553.11022
 21
10.179264
 31
0.0
  0
LINE
  5
2D8A
330
18
100
AcDbEntity
  8
0
100
AcDbLine
 10
551.56822
 20
14.361264
 30
0.0
 11
551.56822
 21
10.252764
 31
0.0
  0
LINE
  5
2D8B
330
18
100
AcDbEntity
  8
0
100
AcDbLine
 10
550.89322
 20
14.361264
 30
0.0
 11
550.89322
 21
10.252764
 31
0.0
  0
ARC
  5
2D8C
330
18
100
AcDbEntity
  8
0
100
AcDbCircle
 10
551.23072
 20
10.252764
 30
0.0
 40
0.3375
100
AcDbArc
 50
180.0
 51
0.0
  0
ARC
  5
2D8D
330
18
100
AcDbEntity
  8
0
100
AcDbCircle
 10
551.23072
 20
14.361264
 30
0.0
 40
0.3375
100
AcDbArc
 50
360.0
 51
180.0
  0
LINE
  5
2D8E
330
18
100
AcDbEntity
  8
0
100
AcDbLine
 10
549.34822
 20
15.612264
 30
0.0
 11
550.89322
 21
15.612264
 31
0.0
  0
LINE
  5
2D8F
330
18
100
AcDbEntity
  8
0
100
AcDbLine
 10
547.14922
 20
17.211264
 30
0.0
 11
548.69422
 21
17.211264
 31
0.0
  0
LINE
  5
2D90
330
18
100
AcDbEntity
  8
0
100
AcDbLine
 10
550.89322
 20
15.612264
 30
0.0
 11
550.89322
 21
15.324264
 31
0.0
  0
ARC
  5
2D91
330
18
100
AcDbEntity
  8
0
100
AcDbCircle
 10
556.209381
 20
14.124104
 30
0.0
 40
1.488419
100
AcDbArc
 50
11.634268
 51
90.699113
  0
LINE
  5
2D92
330
18
100
AcDbEntity
  8
0
100
AcDbLine
 10
557.66722
 20
14.424264
 30
0.0
 11
557.66722
 21
10.203412
 31
0.0
  0
ARC
  5
2D93
330
18
100
AcDbEntity
  8
0
100
AcDbCircle
 10
555.72622
 20
14.361264
 30
0.0
 40
0.3375
100
AcDbArc
 50
360.0
 51
180.0
  0
ARC
  5
2D94
330
18
100
AcDbEntity
  8
0
100
AcDbCircle
 10
555.72622
 20
10.252764
 30
0.0
 40
0.3375
100
AcDbArc
 50
180.0
 51
0.0
  0
LINE
  5
2D95
330
18
100
AcDbEntity
  8
0
100
AcDbLine
 10
555.38872
 20
14.361264
 30
0.0
 11
555.38872
 21
10.252764
 31
0.0
  0
LINE
  5
2D96
330
18
100
AcDbEntity
  8
0
100
AcDbLine
 10
556.06372
 20
14.361264
 30
0.0
 11
556.06372
 21
10.252764
 31
0.0
  0
LINE
  5
2D97
330
18
100
AcDbEntity
  8
0
100
AcDbLine
 10
553.78522
 20
10.203412
 30
0.0
 11
553.78522
 21
14.424264
 31
0.0
  0
LINE
  5
2D98
330
18
100
AcDbEntity
  8
0
100
AcDbLine
 10
555.26122
 20
15.612412
 30
0.0
 11
556.19122
 21
15.612412
 31
0.0
  0
LINE
  5
2D99
330
18
100
AcDbEntity
  8
0
100
AcDbLine
 10
558.34222
 20
17.211264
 30
0.0
 11
559.88722
 21
17.211264
 31
0.0
  0
TEXT
  5
2D9A
330
18
100
AcDbEntity
  8
WY
100
AcDbText
 10
564.417407
 20
11.60401
 30
0.0
 40
2.0
  1
13-05-2016
 41
1.0
 51
15.0
  7
ITALIC
100
AcDbText
  0
TEXT
  5
2D9B
330
18
100
AcDbEntity
  8
WY
100
AcDbText
 10
568.848776
 20
16.149239
 30
0.0
 40
2.0
  1
Data
 51
15.0
  7
ITALIC
100
AcDbText
  0
TEXT
  5
2D9D
330
18
100
AcDbEntity
  8
1
100
AcDbText
 10
637.422754
 20
9.064009
 30
0.0
 40
5.0
  1
RM96
 41
0.8
 51
15.0
  7
ITALIC
100
AcDbText
  0
LINE
  5
2D9E
330
18
100
AcDbEntity
  8
1
100
AcDbLine
 10
627.394234
 20
5.0
 30
0.0
 11
627.394234
 21
19.689837
 31
0.0
  0
TEXT
  5
2D9F
330
18
100
AcDbEntity
  8
WY
100
AcDbText
 10
629.585432
 20
16.599248
 30
0.0
 40
2.0
  1
Product type
 51
15.0
  7
ITALIC
100
AcDbText
  0
LINE
  5
2DF2
330
18
100
AcDbEntity
  8
2
100
AcDbLine
 10
682.671651
 20
292.0
 30
0.0
 11
497.671651
 21
292.0
 31
0.0
  0
LINE
  5
2DF3
330
18
100
AcDbEntity
  8
2
100
AcDbLine
 10
687.671651
 20
297.0
 30
0.0
 11
497.671651
 21
297.0
 31
0.0
  0
LINE
  5
2E74
330
18
100
AcDbEntity
  8
WYMIARY
 62
     6
100
AcDbLine
 10
497.671651
 20
297.0
 30
0.0
 11
486.041244
 21
297.0
 31
0.0
  0
MTEXT
  5
31F2
330
18
100
AcDbEntity
  8
WYMIARY
100
AcDbMText
 10
780.543201
 20
224.476865
 30
0.0
 40
3.5
 41
15.6
 71
     1
 72
     5
  1

  7
ITALIC
  0
TEXT
  5
478E
330
18
100
AcDbEntity
  8
1
100
AcDbText
 10
500.301985
 20
8.797457
 30
0.0
 40
5.0
  1
1:1
 51
15.0
  7
ITALIC
100
AcDbText
  0
LINE
  5
482F
330
18
100
AcDbEntity
  8
WYMIARY
 62
     6
100
AcDbLine
 10
687.671651
 20
0.0
 30
0.0
 11
687.671651
 21
297.0
 31
0.0
  0
LINE
  5
4AD7
330
18
100
AcDbEntity
  8
WYMIARY
 62
     3
100
AcDbLine
 10
512.671651
 20
19.689837
 30
0.0
 11
512.671651
 21
5.0
 31
0.0
  0
LINE
  5
4AD9
330
18
100
AcDbEntity
  8
WYMIARY
 62
     3
100
AcDbLine
 10
527.671651
 20
19.689837
 30
0.0
 11
527.671651
 21
5.0
 31
0.0
  0
LINE
  5
4ADA
330
18
100
AcDbEntity
  8
WYMIARY
 62
     3
100
AcDbLine
 10
586.373187
 20
19.689837
 30
0.0
 11
586.373187
 21
5.0
 31
0.0
  0
TEXT
  5
4ADB
330
18
100
AcDbEntity
  8
WY
100
AcDbText
 10
587.562196
 20
16.599248
 30
0.0
 40
2.0
  1
Draw. No.
 51
15.0
  7
ITALIC
100
AcDbText
  0
TEXT
  5
4ADF
330
18
100
AcDbEntity
  8
1
100
AcDbText
 10
591.935141
 20
9.064009
 30
0.0
 40
4.0
  1
RM96-01A
 41
0.7
 51
15.0
  7
ITALIC
100
AcDbText
  0
LINE
  5
4AE9
330
18
100
AcDbEntity
  8
WYMIARY
 62
     6
100
AcDbLine
 10
687.671651
 20
0.0
 30
0.0
 11
687.671651
 21
297.0
 31
0.0
  0
LINE
  5
6488
330
18
100
AcDbEntity
  8
WYMIARY
 62
     6
100
AcDbLine
 10
687.671651
 20
0.0
 30
0.0
 11
687.671651
 21
297.0
 31
0.0
  0
LINE
  5
648E
330
18
100
AcDbEntity
  8
2
100
AcDbLine
 10
687.671651
 20
0.0
 30
0.0
 11
687.671651
 21
297.0
 31
0.0
  0
LINE
  5
6CB6
330
18
100
AcDbEntity
  8
WYMIARY
 62
     6
100
AcDbLine
 10
687.671651
 20
0.0
 30
0.0
 11
687.671651
 21
297.0
 31
0.0
  0
LINE
  5
6CB8
330
18
100
AcDbEntity
  8
2
100
AcDbLine
 10
687.671651
 20
0.0
 30
0.0
 11
687.671651
 21
297.0
 31
0.0
  0
LINE
  5
70B7
330
18
100
AcDbEntity
  8
2
100
AcDbLine
 10
687.671651
 20
0.0
 30
0.0
 11
497.671651
 21
0.0
 31
0.0
  0
LINE
  5
70B9
330
18
100
AcDbEntity
  8
WYMIARY
 62
     6
100
AcDbLine
 10
497.671651
 20
0.0
 30
0.0
 11
486.041244
 21
0.0
 31
0.0
  0
TEXT
  5
B1B7
330
18
100
AcDbEntity
  8
1
100
AcDbText
 10
580.281255
 20
280.703322
 30
0.0
 40
5.0
  1
RM96
 41
0.8
 51
15.0
  7
ITALIC
100
AcDbText
  0
TEXT
  5
BC03
330
18
100
AcDbEntity
  8
1
100
AcDbText
 10
541.054937
 20
264.191378
 30
0.0
 40
4.0
  1
1P /1 CO
 41
0.7
 51
15.0
  7
ITALIC
100
AcDbText
  0
TEXT
  5
BED1
330
18
100
AcDbEntity
  8
1
100
AcDbText
 10
605.327233
 20
264.191378
 30
0.0
 40
4.0
  1
1Z, 1R / 1 NO, 1 NC
 41
0.7
 51
15.0
  7
ITALIC
100
AcDbText
  0
LINE
  5
C558
330
18
100
AcDbEntity
  8
2
100
AcDbLine
 10
687.671651
 20
0.0
 30
0.0
 11
497.671651
 21
0.0
 31
0.0
  0
LINE
  5
C55D
330
18
100
AcDbEntity
  8
WYMIARY
 62
     6
100
AcDbLine
 10
497.671651
 20
0.0
 30
0.0
 11
486.041244
 21
0.0
 31
0.0
  0
LINE
  5
C6EB
330
18
100
AcDbEntity
  8
WYMIARY
 62
     3
100
AcDbLine
 10
628.90954
 20
135.835663
 30
0.0
 11
553.90954
 21
135.835663
 31
0.0
  0
LINE
  5
C6EC
330
18
100
AcDbEntity
  8
WYMIARY
 62
     3
100
AcDbLine
 10
553.90954
 20
135.835663
 30
0.0
 11
553.90954
 21
120.335663
 31
0.0
  0
LINE
  5
C6ED
330
18
100
AcDbEntity
  8
WYMIARY
 62
     3
100
AcDbLine
 10
553.90954
 20
120.335663
 30
0.0
 11
628.90954
 21
120.335663
 31
0.0
  0
LINE
  5
C6EE
330
18
100
AcDbEntity
  8
WYMIARY
 62
     3
100
AcDbLine
 10
628.90954
 20
120.335663
 30
0.0
 11
628.90954
 21
135.835663
 31
0.0
  0
LINE
  5
C6F3
330
18
100
AcDbEntity
  8
WYMIARY
 62
     3
100
AcDbLine
 10
627.90954
 20
135.835663
 30
0.0
 11
627.90954
 21
120.335663
 31
0.0
  0
LINE
  5
C6F5
330
18
100
AcDbEntity
  8
WYMIARY
 62
     3
100
AcDbLine
 10
554.90954
 20
135.835663
 30
0.0
 11
554.90954
 21
120.335663
 31
0.0
  0
LINE
  5
C6F7
330
18
100
AcDbEntity
  8
WYMIARY
 62
     3
100
AcDbLine
 10
562.90954
 20
135.835663
 30
0.0
 11
562.90954
 21
120.335663
 31
0.0
  0
LINE
  5
C6F9
330
18
100
AcDbEntity
  8
WYMIARY
 62
     3
100
AcDbLine
 10
619.90954
 20
135.835663
 30
0.0
 11
619.90954
 21
120.335663
 31
0.0
  0
LINE
  5
C6FB
330
18
100
AcDbEntity
  8
WYMIARY
 62
     3
100
AcDbLine
 10
572.10954
 20
135.835663
 30
0.0
 11
572.10954
 21
134.535663
 31
0.0
  0
LINE
  5
C6FD
330
18
100
AcDbEntity
  8
WYMIARY
 62
     3
100
AcDbLine
 10
610.70954
 20
135.835663
 30
0.0
 11
610.70954
 21
134.535663
 31
0.0
  0
LINE
  5
C70B
330
18
100
AcDbEntity
  8
WYMIARY
 62
     3
100
AcDbLine
 10
612.207456
 20
135.835663
 30
0.0
 11
613.707456
 21
135.835663
 31
0.0
  0
LINE
  5
C70C
330
18
100
AcDbEntity
  8
WYMIARY
 62
     3
100
AcDbLine
 10
570.60954
 20
135.835663
 30
0.0
 11
572.10954
 21
135.835663
 31
0.0
  0
LINE
  5
C71E
330
18
100
AcDbEntity
  8
WYMIARY
 62
     3
100
AcDbLine
 10
561.90954
 20
135.835663
 30
0.0
 11
561.90954
 21
134.535663
 31
0.0
  0
LINE
  5
C71F
330
18
100
AcDbEntity
  8
WYMIARY
 62
     3
100
AcDbLine
 10
620.90954
 20
135.835663
 30
0.0
 11
620.90954
 21
134.535663
 31
0.0
  0
LINE
  5
C789
330
18
100
AcDbEntity
  8
WYMIARY
 62
     3
100
AcDbLine
 10
553.90954
 20
120.335663
 30
0.0
 11
553.90954
 21
121.635663
 31
0.0
  0
LINE
  5
C78A
330
18
100
AcDbEntity
  8
WYMIARY
 62
     3
100
AcDbLine
 10
553.90954
 20
121.635663
 30
0.0
 11
554.90954
 21
121.635663
 31
0.0
  0
LINE
  5
C78B
330
18
100
AcDbEntity
  8
WYMIARY
 62
     3
100
AcDbLine
 10
553.90954
 20
135.835663
 30
0.0
 11
553.90954
 21
134.535663
 31
0.0
  0
LINE
  5
C78C
330
18
100
AcDbEntity
  8
WYMIARY
 62
     3
100
AcDbLine
 10
553.90954
 20
134.535663
 30
0.0
 11
554.90954
 21
134.535663
 31
0.0
  0
CIRCLE
  5
C78D
330
18
100
AcDbEntity
  8
WYMIARY
 62
     3
100
AcDbCircle
 10
567.50954
 20
124.335663
 30
0.0
 40
2.65
  0
CIRCLE
  5
C791
330
18
100
AcDbEntity
  8
WYMIARY
 62
     3
100
AcDbCircle
 10
567.50954
 20
131.835663
 30
0.0
 40
2.65
  0
LINE
  5
C792
330
18
100
AcDbEntity
  8
WYMIARY
 62
     3
100
AcDbLine
 10
609.70954
 20
129.285663
 30
0.0
 11
611.70954
 21
129.285663
 31
0.0
  0
LINE
  5
C793
330
18
100
AcDbEntity
  8
WYMIARY
 62
     3
100
AcDbLine
 10
609.70954
 20
126.885663
 30
0.0
 11
611.70954
 21
126.885663
 31
0.0
  0
CIRCLE
  5
C796
330
18
100
AcDbEntity
  8
WYMIARY
 62
     3
100
AcDbCircle
 10
624.40954
 20
131.326531
 30
0.0
 40
2.65
  0
CIRCLE
  5
C799
330
18
100
AcDbEntity
  8
WYMIARY
 62
     3
100
AcDbCircle
 10
624.40954
 20
124.659655
 30
0.0
 40
2.65
  0
CIRCLE
  5
C79D
330
18
100
AcDbEntity
  8
WYMIARY
 62
     3
100
AcDbCircle
 10
615.30954
 20
131.557954
 30
0.0
 40
2.65
  0
LINE
  5
C7BC
330
18
100
AcDbEntity
  8
WYMIARY
 62
     3
100
AcDbLine
 10
610.70954
 20
135.835663
 30
0.0
 11
611.70954
 21
135.835663
 31
0.0
  0
LINE
  5
C7BD
330
18
100
AcDbEntity
  8
WYMIARY
 62
     3
100
AcDbLine
 10
611.70954
 20
135.835663
 30
0.0
 11
611.70954
 21
120.335663
 31
0.0
  0
LINE
  5
C7BE
330
18
100
AcDbEntity
  8
WYMIARY
 62
     3
100
AcDbLine
 10
627.90954
 20
134.535663
 30
0.0
 11
628.90954
 21
134.535663
 31
0.0
  0
LINE
  5
C7BF
330
18
100
AcDbEntity
  8
WYMIARY
 62
     3
100
AcDbLine
 10
627.90954
 20
129.285663
 30
0.0
 11
628.90954
 21
129.285663
 31
0.0
  0
LINE
  5
C7C0
330
18
100
AcDbEntity
  8
WYMIARY
 62
     3
100
AcDbLine
 10
627.90954
 20
126.885663
 30
0.0
 11
628.90954
 21
126.885663
 31
0.0
  0
LINE
  5
C7C1
330
18
100
AcDbEntity
  8
WYMIARY
 62
     3
100
AcDbLine
 10
627.90954
 20
121.635663
 30
0.0
 11
628.90954
 21
121.635663
 31
0.0
  0
LINE
  5
C7C2
330
18
100
AcDbEntity
  8
WYMIARY
 62
     3
100
AcDbLine
 10
620.90954
 20
121.635663
 30
0.0
 11
620.90954
 21
120.335663
 31
0.0
  0
LINE
  5
C7C3
330
18
100
AcDbEntity
  8
WYMIARY
 62
     3
100
AcDbLine
 10
620.90954
 20
129.285663
 30
0.0
 11
620.90954
 21
126.885663
 31
0.0
  0
LINE
  5
C7C4
330
18
100
AcDbEntity
  8
WYMIARY
 62
     3
100
AcDbLine
 10
561.90954
 20
134.535663
 30
0.0
 11
562.90954
 21
134.535663
 31
0.0
  0
LINE
  5
C7C5
330
18
100
AcDbEntity
  8
WYMIARY
 62
     3
100
AcDbLine
 10
554.90954
 20
129.285663
 30
0.0
 11
553.90954
 21
129.285663
 31
0.0
  0
LINE
  5
C7C6
330
18
100
AcDbEntity
  8
WYMIARY
 62
     3
100
AcDbLine
 10
554.90954
 20
126.885663
 30
0.0
 11
553.90954
 21
126.885663
 31
0.0
  0
LINE
  5
C7C7
330
18
100
AcDbEntity
  8
WYMIARY
 62
     3
100
AcDbLine
 10
561.90954
 20
121.635663
 30
0.0
 11
562.90954
 21
121.635663
 31
0.0
  0
LINE
  5
C7C8
330
18
100
AcDbEntity
  8
WYMIARY
 62
     3
100
AcDbLine
 10
561.90954
 20
121.635663
 30
0.0
 11
561.90954
 21
120.335663
 31
0.0
  0
LINE
  5
C7C9
330
18
100
AcDbEntity
  8
WYMIARY
 62
     3
100
AcDbLine
 10
561.90954
 20
129.285663
 30
0.0
 11
561.90954
 21
126.885663
 31
0.0
  0
LINE
  5
C7D8
330
18
100
AcDbEntity
  8
WYMIARY
 62
     3
100
AcDbLine
 10
572.10954
 20
135.835663
 30
0.0
 11
571.10954
 21
135.835663
 31
0.0
  0
LINE
  5
C7D9
330
18
100
AcDbEntity
  8
WYMIARY
 62
     3
100
AcDbLine
 10
571.10954
 20
135.835663
 30
0.0
 11
571.10954
 21
120.335663
 31
0.0
  0
LINE
  5
C7DA
330
18
100
AcDbEntity
  8
WYMIARY
 62
     3
100
AcDbLine
 10
571.10954
 20
134.535663
 30
0.0
 11
611.70954
 21
134.535663
 31
0.0
  0
LINE
  5
C7DB
330
18
100
AcDbEntity
  8
WYMIARY
 62
     3
100
AcDbLine
 10
562.90954
 20
129.285663
 30
0.0
 11
561.90954
 21
129.285663
 31
0.0
  0
LINE
  5
C7DC
330
18
100
AcDbEntity
  8
WYMIARY
 62
     3
100
AcDbLine
 10
562.90954
 20
126.885663
 30
0.0
 11
561.90954
 21
126.885663
 31
0.0
  0
LINE
  5
C7DD
330
18
100
AcDbEntity
  8
WYMIARY
 62
     3
100
AcDbLine
 10
571.10954
 20
121.635663
 30
0.0
 11
611.70954
 21
121.635663
 31
0.0
  0
LINE
  5
C7DE
330
18
100
AcDbEntity
  8
WYMIARY
 62
     3
100
AcDbLine
 10
619.90954
 20
121.635663
 30
0.0
 11
620.90954
 21
121.635663
 31
0.0
  0
LINE
  5
C7DF
330
18
100
AcDbEntity
  8
WYMIARY
 62
     3
100
AcDbLine
 10
619.90954
 20
126.885663
 30
0.0
 11
620.90954
 21
126.885663
 31
0.0
  0
LINE
  5
C7E0
330
18
100
AcDbEntity
  8
WYMIARY
 62
     3
100
AcDbLine
 10
619.90954
 20
129.285663
 30
0.0
 11
620.90954
 21
129.285663
 31
0.0
  0
LINE
  5
C7E1
330
18
100
AcDbEntity
  8
WYMIARY
 62
     3
100
AcDbLine
 10
619.90954
 20
134.535663
 30
0.0
 11
620.90954
 21
134.535663
 31
0.0
  0
LINE
  5
C857
330
18
100
AcDbEntity
  8
WYMIARY
 62
     3
100
AcDbLine
 10
572.10954
 20
121.635663
 30
0.0
 11
572.10954
 21
120.335663
 31
0.0
  0
LINE
  5
C858
330
18
100
AcDbEntity
  8
WYMIARY
 62
     3
100
AcDbLine
 10
610.70954
 20
121.635663
 30
0.0
 11
610.70954
 21
120.335663
 31
0.0
  0
LINE
  5
C867
330
18
100
AcDbEntity
  8
WYMIARY
 62
     3
100
AcDbLine
 10
566.384853
 20
133.667456
 30
0.0
 11
567.50954
 21
132.542769
 31
0.0
  0
LINE
  5
C869
330
18
100
AcDbEntity
  8
WYMIARY
 62
     3
100
AcDbLine
 10
565.677746
 20
132.960349
 30
0.0
 11
566.802433
 21
131.835663
 31
0.0
  0
LINE
  5
C86A
330
18
100
AcDbEntity
  8
WYMIARY
 62
     3
100
AcDbLine
 10
568.98778
 20
130.357423
 30
0.0
 11
568.634227
 21
130.003869
 31
0.0
  0
LINE
  5
C86B
330
18
100
AcDbEntity
  8
WYMIARY
 62
     3
100
AcDbLine
 10
568.634227
 20
130.003869
 30
0.0
 11
567.50954
 21
131.128556
 31
0.0
  0
LINE
  5
C86C
330
18
100
AcDbEntity
  8
WYMIARY
 62
     3
100
AcDbLine
 10
569.341333
 20
130.710976
 30
0.0
 11
568.216647
 21
131.835663
 31
0.0
  0
LINE
  5
C86D
330
18
100
AcDbEntity
  8
WYMIARY
 62
     3
100
AcDbLine
 10
568.98778
 20
130.432423
 30
0.0
 11
569.341333
 21
130.785976
 31
0.0
  0
LINE
  5
C86F
330
18
100
AcDbEntity
  8
WYMIARY
 62
     3
100
AcDbLine
 10
567.50954
 20
132.542769
 30
0.0
 11
568.037328
 21
133.070557
 31
0.0
  0
LINE
  5
C870
330
18
100
AcDbEntity
  8
WYMIARY
 62
     3
100
AcDbLine
 10
568.037328
 20
133.070557
 30
0.0
 11
568.744435
 21
132.363451
 31
0.0
  0
LINE
  5
C872
330
18
100
AcDbEntity
  8
WYMIARY
 62
     3
100
AcDbLine
 10
568.216647
 20
131.835663
 30
0.0
 11
568.744435
 21
132.363451
 31
0.0
  0
LINE
  5
C873
330
18
100
AcDbEntity
  8
WYMIARY
 62
     3
100
AcDbLine
 10
567.50954
 20
131.128556
 30
0.0
 11
566.981752
 21
130.600768
 31
0.0
  0
LINE
  5
C874
330
18
100
AcDbEntity
  8
WYMIARY
 62
     3
100
AcDbLine
 10
566.274645
 20
131.307875
 30
0.0
 11
566.981752
 21
130.600768
 31
0.0
  0
LINE
  5
C875
330
18
100
AcDbEntity
  8
WYMIARY
 62
     3
100
AcDbLine
 10
566.802433
 20
131.835663
 30
0.0
 11
566.274645
 21
131.307875
 31
0.0
  0
LINE
  5
C878
330
18
100
AcDbEntity
  8
WYMIARY
 62
     3
100
AcDbLine
 10
566.384853
 20
133.667456
 30
0.0
 11
565.677746
 21
132.960349
 31
0.0
  0
LINE
  5
C87A
330
18
100
AcDbEntity
  8
WYMIARY
 62
     3
100
AcDbLine
 10
566.384853
 20
126.167456
 30
0.0
 11
567.50954
 21
125.042769
 31
0.0
  0
LINE
  5
C87B
330
18
100
AcDbEntity
  8
WYMIARY
 62
     3
100
AcDbLine
 10
567.50954
 20
123.628556
 30
0.0
 11
566.981752
 21
123.100768
 31
0.0
  0
LINE
  5
C87C
330
18
100
AcDbEntity
  8
WYMIARY
 62
     3
100
AcDbLine
 10
566.384853
 20
126.167456
 30
0.0
 11
565.677746
 21
125.460349
 31
0.0
  0
LINE
  5
C87D
330
18
100
AcDbEntity
  8
WYMIARY
 62
     3
100
AcDbLine
 10
566.274645
 20
123.807875
 30
0.0
 11
566.981752
 21
123.100768
 31
0.0
  0
LINE
  5
C87E
330
18
100
AcDbEntity
  8
WYMIARY
 62
     3
100
AcDbLine
 10
566.802433
 20
124.335663
 30
0.0
 11
566.274645
 21
123.807875
 31
0.0
  0
LINE
  5
C87F
330
18
100
AcDbEntity
  8
WYMIARY
 62
     3
100
AcDbLine
 10
565.677746
 20
125.460349
 30
0.0
 11
566.802433
 21
124.335663
 31
0.0
  0
LINE
  5
C880
330
18
100
AcDbEntity
  8
WYMIARY
 62
     3
100
AcDbLine
 10
568.037328
 20
125.570557
 30
0.0
 11
568.744435
 21
124.863451
 31
0.0
  0
LINE
  5
C881
330
18
100
AcDbEntity
  8
WYMIARY
 62
     3
100
AcDbLine
 10
567.50954
 20
125.042769
 30
0.0
 11
568.037328
 21
125.570557
 31
0.0
  0
LINE
  5
C882
330
18
100
AcDbEntity
  8
WYMIARY
 62
     3
100
AcDbLine
 10
569.341333
 20
123.210976
 30
0.0
 11
568.216647
 21
124.335663
 31
0.0
  0
LINE
  5
C883
330
18
100
AcDbEntity
  8
WYMIARY
 62
     3
100
AcDbLine
 10
568.216647
 20
124.335663
 30
0.0
 11
568.744435
 21
124.863451
 31
0.0
  0
LINE
  5
C884
330
18
100
AcDbEntity
  8
WYMIARY
 62
     3
100
AcDbLine
 10
568.634227
 20
122.503869
 30
0.0
 11
567.50954
 21
123.628556
 31
0.0
  0
LINE
  5
C885
330
18
100
AcDbEntity
  8
WYMIARY
 62
     3
100
AcDbLine
 10
568.98778
 20
122.857423
 30
0.0
 11
569.341333
 21
123.210976
 31
0.0
  0
LINE
  5
C886
330
18
100
AcDbEntity
  8
WYMIARY
 62
     3
100
AcDbLine
 10
568.98778
 20
122.857423
 30
0.0
 11
568.634227
 21
122.503869
 31
0.0
  0
LINE
  5
C895
330
18
100
AcDbEntity
  8
WYMIARY
 62
     3
100
AcDbLine
 10
613.477746
 20
132.682641
 30
0.0
 11
614.602433
 21
131.557954
 31
0.0
  0
LINE
  5
C896
330
18
100
AcDbEntity
  8
WYMIARY
 62
     3
100
AcDbLine
 10
614.184853
 20
133.389748
 30
0.0
 11
613.477746
 21
132.682641
 31
0.0
  0
LINE
  5
C897
330
18
100
AcDbEntity
  8
WYMIARY
 62
     3
100
AcDbLine
 10
616.78778
 20
130.079714
 30
0.0
 11
616.434227
 21
129.726161
 31
0.0
  0
LINE
  5
C898
330
18
100
AcDbEntity
  8
WYMIARY
 62
     3
100
AcDbLine
 10
616.434227
 20
129.726161
 30
0.0
 11
615.30954
 21
130.850848
 31
0.0
  0
LINE
  5
C899
330
18
100
AcDbEntity
  8
WYMIARY
 62
     3
100
AcDbLine
 10
616.016647
 20
131.557954
 30
0.0
 11
616.544435
 21
132.085743
 31
0.0
  0
LINE
  5
C89A
330
18
100
AcDbEntity
  8
WYMIARY
 62
     3
100
AcDbLine
 10
617.141333
 20
130.433268
 30
0.0
 11
616.016647
 21
131.557954
 31
0.0
  0
LINE
  5
C89B
330
18
100
AcDbEntity
  8
WYMIARY
 62
     3
100
AcDbLine
 10
615.30954
 20
132.265061
 30
0.0
 11
615.837328
 21
132.792849
 31
0.0
  0
LINE
  5
C89C
330
18
100
AcDbEntity
  8
WYMIARY
 62
     3
100
AcDbLine
 10
616.78778
 20
130.079714
 30
0.0
 11
617.141333
 21
130.433268
 31
0.0
  0
LINE
  5
C89D
330
18
100
AcDbEntity
  8
WYMIARY
 62
     3
100
AcDbLine
 10
615.837328
 20
132.792849
 30
0.0
 11
616.544435
 21
132.085743
 31
0.0
  0
LINE
  5
C89E
330
18
100
AcDbEntity
  8
WYMIARY
 62
     3
100
AcDbLine
 10
614.602433
 20
131.557954
 30
0.0
 11
614.074645
 21
131.030166
 31
0.0
  0
LINE
  5
C89F
330
18
100
AcDbEntity
  8
WYMIARY
 62
     3
100
AcDbLine
 10
615.30954
 20
130.850848
 30
0.0
 11
614.781752
 21
130.32306
 31
0.0
  0
LINE
  5
C8A0
330
18
100
AcDbEntity
  8
WYMIARY
 62
     3
100
AcDbLine
 10
614.184853
 20
133.389748
 30
0.0
 11
615.30954
 21
132.265061
 31
0.0
  0
LINE
  5
C8A1
330
18
100
AcDbEntity
  8
WYMIARY
 62
     3
100
AcDbLine
 10
614.074645
 20
131.030166
 30
0.0
 11
614.781752
 21
130.32306
 31
0.0
  0
LINE
  5
C8A2
330
18
100
AcDbEntity
  8
WYMIARY
 62
     3
100
AcDbLine
 10
623.243213
 20
133.158324
 30
0.0
 11
622.536106
 21
132.451218
 31
0.0
  0
LINE
  5
C8A3
330
18
100
AcDbEntity
  8
WYMIARY
 62
     3
100
AcDbLine
 10
622.536106
 20
132.451218
 30
0.0
 11
623.660793
 21
131.326531
 31
0.0
  0
LINE
  5
C8A5
330
18
100
AcDbEntity
  8
WYMIARY
 62
     3
100
AcDbLine
 10
623.133005
 20
130.798743
 30
0.0
 11
623.840112
 21
130.091636
 31
0.0
  0
LINE
  5
C8A6
330
18
100
AcDbEntity
  8
WYMIARY
 62
     3
100
AcDbLine
 10
623.243213
 20
133.158324
 30
0.0
 11
624.3679
 21
132.033638
 31
0.0
  0
LINE
  5
C8A7
330
18
100
AcDbEntity
  8
WYMIARY
 62
     3
100
AcDbLine
 10
624.3679
 20
130.619424
 30
0.0
 11
623.840112
 21
130.091636
 31
0.0
  0
LINE
  5
C8A8
330
18
100
AcDbEntity
  8
WYMIARY
 62
     3
100
AcDbLine
 10
623.660793
 20
131.326531
 30
0.0
 11
623.133005
 21
130.798743
 31
0.0
  0
LINE
  5
C8A9
330
18
100
AcDbEntity
  8
WYMIARY
 62
     3
100
AcDbLine
 10
624.895688
 20
132.561426
 30
0.0
 11
625.602795
 21
131.854319
 31
0.0
  0
LINE
  5
C8AA
330
18
100
AcDbEntity
  8
WYMIARY
 62
     3
100
AcDbLine
 10
625.84614
 20
129.848291
 30
0.0
 11
626.199693
 21
130.201844
 31
0.0
  0
LINE
  5
C8AB
330
18
100
AcDbEntity
  8
WYMIARY
 62
     3
100
AcDbLine
 10
624.3679
 20
132.033638
 30
0.0
 11
624.895688
 21
132.561426
 31
0.0
  0
LINE
  5
C8AC
330
18
100
AcDbEntity
  8
WYMIARY
 62
     3
100
AcDbLine
 10
626.199693
 20
130.201844
 30
0.0
 11
625.075006
 21
131.326531
 31
0.0
  0
LINE
  5
C8AD
330
18
100
AcDbEntity
  8
WYMIARY
 62
     3
100
AcDbLine
 10
625.075006
 20
131.326531
 30
0.0
 11
625.602795
 21
131.854319
 31
0.0
  0
LINE
  5
C8AE
330
18
100
AcDbEntity
  8
WYMIARY
 62
     3
100
AcDbLine
 10
625.492586
 20
129.494737
 30
0.0
 11
624.3679
 21
130.619424
 31
0.0
  0
LINE
  5
C8AF
330
18
100
AcDbEntity
  8
WYMIARY
 62
     3
100
AcDbLine
 10
625.84614
 20
129.848291
 30
0.0
 11
625.492586
 21
129.494737
 31
0.0
  0
LINE
  5
C8B0
330
18
100
AcDbEntity
  8
WYMIARY
 62
     3
100
AcDbLine
 10
623.284853
 20
126.491449
 30
0.0
 11
622.577746
 21
125.784342
 31
0.0
  0
LINE
  5
C8B1
330
18
100
AcDbEntity
  8
WYMIARY
 62
     3
100
AcDbLine
 10
622.577746
 20
125.784342
 30
0.0
 11
623.702433
 21
124.659655
 31
0.0
  0
LINE
  5
C8B2
330
18
100
AcDbEntity
  8
WYMIARY
 62
     3
100
AcDbLine
 10
623.174645
 20
124.131867
 30
0.0
 11
623.881752
 21
123.424761
 31
0.0
  0
LINE
  5
C8B3
330
18
100
AcDbEntity
  8
WYMIARY
 62
     3
100
AcDbLine
 10
623.284853
 20
126.491449
 30
0.0
 11
624.40954
 21
125.366762
 31
0.0
  0
LINE
  5
C8B4
330
18
100
AcDbEntity
  8
WYMIARY
 62
     3
100
AcDbLine
 10
624.40954
 20
123.952549
 30
0.0
 11
623.881752
 21
123.424761
 31
0.0
  0
LINE
  5
C8B5
330
18
100
AcDbEntity
  8
WYMIARY
 62
     3
100
AcDbLine
 10
623.702433
 20
124.659655
 30
0.0
 11
623.174645
 21
124.131867
 31
0.0
  0
LINE
  5
C8B6
330
18
100
AcDbEntity
  8
WYMIARY
 62
     3
100
AcDbLine
 10
624.937328
 20
125.89455
 30
0.0
 11
625.644435
 21
125.187443
 31
0.0
  0
LINE
  5
C8B7
330
18
100
AcDbEntity
  8
WYMIARY
 62
     3
100
AcDbLine
 10
625.88778
 20
123.181415
 30
0.0
 11
626.241333
 21
123.534969
 31
0.0
  0
LINE
  5
C8B8
330
18
100
AcDbEntity
  8
WYMIARY
 62
     3
100
AcDbLine
 10
624.40954
 20
125.366762
 30
0.0
 11
624.937328
 21
125.89455
 31
0.0
  0
LINE
  5
C8B9
330
18
100
AcDbEntity
  8
WYMIARY
 62
     3
100
AcDbLine
 10
626.241333
 20
123.534969
 30
0.0
 11
625.116647
 21
124.659655
 31
0.0
  0
LINE
  5
C8BA
330
18
100
AcDbEntity
  8
WYMIARY
 62
     3
100
AcDbLine
 10
625.116647
 20
124.659655
 30
0.0
 11
625.644435
 21
125.187443
 31
0.0
  0
LINE
  5
C8BB
330
18
100
AcDbEntity
  8
WYMIARY
 62
     3
100
AcDbLine
 10
625.534227
 20
122.827862
 30
0.0
 11
624.40954
 21
123.952549
 31
0.0
  0
LINE
  5
C8BC
330
18
100
AcDbEntity
  8
WYMIARY
 62
     3
100
AcDbLine
 10
625.88778
 20
123.181415
 30
0.0
 11
625.534227
 21
122.827862
 31
0.0
  0
CIRCLE
  5
C8BD
330
18
100
AcDbEntity
  8
WYMIARY
 62
     3
100
AcDbCircle
 10
624.40954
 20
124.659655
 30
0.0
 40
2.65
  0
LINE
  5
C8CE
330
18
100
AcDbEntity
  8
WYMIARY
 62
     3
100
AcDbLine
 10
567.50954
 20
124.260663
 30
0.0
 11
567.50954
 21
124.335663
 31
0.0
  0
DIMENSION
  5
C8DC
330
18
100
AcDbEntity
  8
WYMIARY
 62
     1
100
AcDbDimension
  2
*D4
 10
540.088709
 20
124.335663
 30
0.0
 11
538.438709
 21
128.085663
 31
0.0
 70
    32
  3
STANDARD
100
AcDbAlignedDimension
 13
567.50954
 23
131.835663
 33
0.0
 14
567.50954
 24
124.335663
 34
0.0
 50
270.0
100
AcDbRotatedDimension
1001
ACAD
1000
DSTYLE
1002
{
1070
   140
1040
1.8
1070
   147
1040
0.75
1002
}
  0
DIMENSION
  5
C901
330
18
100
AcDbEntity
  8
WYMIARY
 62
     1
100
AcDbDimension
  2
*D5
 10
637.209153
 20
120.335663
 30
0.0
 11
637.209153
 21
127.579232
 31
0.0
 70
   160
  3
STANDARD
100
AcDbAlignedDimension
 13
628.90954
 23
135.835663
 33
0.0
 14
628.90954
 24
120.335663
 34
0.0
 50
270.0
100
AcDbRotatedDimension
1001
ACAD
1000
DSTYLE
1002
{
1070
   140
1040
1.8
1070
   147
1040
0.75
1002
}
  0
TEXT
  5
C9C0
330
18
100
AcDbEntity
  8
1
100
AcDbText
 10
625.486572
 20
135.556426
 30
0.0
 40
2.0
  1
12
 50
270.0
 41
0.6
  7
ITALIC
100
AcDbText
  0
TEXT
  5
C9C1
330
18
100
AcDbEntity
  8
1
100
AcDbText
 10
623.604988
 20
139.016566
 30
0.0
 40
2.0
  1
NC
 50
270.0
 41
0.6
  7
ITALIC
100
AcDbText
  0
TEXT
  5
C9C2
330
18
100
AcDbEntity
  8
1
100
AcDbText
 10
623.718005
 20
119.771443
 30
0.0
 40
2.0
  1
COM
 50
270.0
 41
0.6
  7
ITALIC
100
AcDbText
  0
TEXT
  5
C9C3
330
18
100
AcDbEntity
  8
1
100
AcDbText
 10
625.486572
 20
122.304165
 30
0.0
 40
2.0
  1
11
 50
270.0
 41
0.6
  7
ITALIC
100
AcDbText
  0
TEXT
  5
C9C4
330
18
100
AcDbEntity
  8
1
100
AcDbText
 10
617.551702
 20
135.556426
 30
0.0
 40
2.0
  1
14
 50
270.0
 41
0.6
  7
ITALIC
100
AcDbText
  0
TEXT
  5
C9C5
330
18
100
AcDbEntity
  8
1
100
AcDbText
 10
613.935109
 20
139.099245
 30
0.0
 40
2.0
  1
NO
 50
270.0
 41
0.6
  7
ITALIC
100
AcDbText
  0
TEXT
  5
C9C6
330
18
100
AcDbEntity
  8
1
100
AcDbText
 10
563.342061
 20
135.525225
 30
0.0
 40
2.0
  1
A2
 50
270.0
 41
0.6
  7
ITALIC
100
AcDbText
  0
TEXT
  5
C9C7
330
18
100
AcDbEntity
  8
1
100
AcDbText
 10
563.237738
 20
129.257693
 30
0.0
 40
2.0
  1
COIL
 50
270.0
 41
0.6
  7
ITALIC
100
AcDbText
  0
TEXT
  5
C9C8
330
18
100
AcDbEntity
  8
1
100
AcDbText
 10
563.250469
 20
122.282317
 30
0.0
 40
2.0
  1
A1
 50
270.0
 41
0.6
  7
ITALIC
100
AcDbText
  0
TEXT
  5
CB29
330
18
100
AcDbEntity
  8
1
100
AcDbText
 10
556.241634
 20
160.970541
 30
0.0
 40
5.0
  1
RM96 1P / 1 CO + GZ96
 41
0.8
 51
15.0
  7
ITALIC
100
AcDbText
  0
LINE
  5
D238
330
18
100
AcDbEntity
  8
WYMIARY
 62
     3
100
AcDbLine
 10
579.70954
 20
133.085663
 30
0.0
 11
579.70954
 21
123.085663
 31
0.0
  0
LINE
  5
D239
330
18
100
AcDbEntity
  8
WYMIARY
 62
     3
100
AcDbLine
 10
579.70954
 20
128.085663
 30
0.0
 11
579.70954
 21
124.285663
 31
0.0
  0
LINE
  5
D23A
330
18
100
AcDbEntity
  8
WYMIARY
 62
     3
100
AcDbLine
 10
609.70954
 20
133.085663
 30
0.0
 11
609.70954
 21
123.085663
 31
0.0
  0
LINE
  5
D23B
330
18
100
AcDbEntity
  8
WYMIARY
 62
     3
100
AcDbLine
 10
609.70954
 20
123.085663
 30
0.0
 11
579.70954
 21
123.085663
 31
0.0
  0
LINE
  5
D241
330
18
100
AcDbEntity
  8
WYMIARY
 62
     3
100
AcDbLine
 10
609.70954
 20
133.085663
 30
0.0
 11
579.70954
 21
133.085663
 31
0.0
  0
LINE
  5
D24B
330
18
100
AcDbEntity
  8
WYMIARY
 62
     3
100
AcDbLine
 10
579.70954
 20
128.085663
 30
0.0
 11
579.70954
 21
131.885663
 31
0.0
  0
LINE
  5
D24E
330
18
100
AcDbEntity
  8
WYMIARY
 62
     3
100
AcDbLine
 10
572.10954
 20
134.535663
 30
0.0
 11
572.10954
 21
121.635663
 31
0.0
  0
LINE
  5
D24F
330
18
100
AcDbEntity
  8
WYMIARY
 62
     3
100
AcDbLine
 10
579.390286
 20
134.535663
 30
0.0
 11
579.390286
 21
121.635663
 31
0.0
  0
DIMENSION
  5
D274
330
18
100
AcDbEntity
  8
WYMIARY
 62
     1
100
AcDbDimension
  2
*D12
 10
628.90954
 20
110.969063
 30
0.0
 11
591.40954
 21
112.619063
 31
0.0
 70
    32
  3
STANDARD
100
AcDbAlignedDimension
 13
553.90954
 23
120.335663
 33
0.0
 14
628.90954
 24
120.335663
 34
0.0
100
AcDbRotatedDimension
1001
ACAD
1000
DSTYLE
1002
{
1070
   140
1040
1.8
1070
   147
1040
0.75
1002
}
  0
LINE
  5
D3B7
330
18
100
AcDbEntity
  8
1
  6
CONTINUOUS
 62
     7
100
AcDbLine
 10
558.8048951977788
 20
236.8206804273035
 30
0.0
 11
559.7048951977788
 21
236.8206804273035
 31
0.0
  0
LINE
  5
D3B8
330
18
100
AcDbEntity
  8
1
  6
CONTINUOUS
 62
     7
100
AcDbLine
 10
558.8048951977788
 20
237.4206804273035
 30
0.0
 11
558.8048951977788
 21
236.8206804273035
 31
0.0
  0
LINE
  5
D3B9
330
18
100
AcDbEntity
  8
1
  6
CONTINUOUS
 62
     7
100
AcDbLine
 10
559.7048951977788
 20
237.4206804273035
 30
0.0
 11
558.8048951977788
 21
237.4206804273035
 31
0.0
  0
LINE
  5
D3BA
330
18
100
AcDbEntity
  8
1
  6
CONTINUOUS
 62
     7
100
AcDbLine
 10
559.7048951977788
 20
236.8206804273035
 30
0.0
 11
559.7048951977788
 21
237.4206804273035
 31
0.0
  0
LINE
  5
D3BB
330
18
100
AcDbEntity
  8
1
  6
CONTINUOUS
 62
     7
100
AcDbLine
 10
558.8048951977788
 20
244.4206804273035
 30
0.0
 11
559.7048951977788
 21
244.4206804273035
 31
0.0
  0
LINE
  5
D3BC
330
18
100
AcDbEntity
  8
1
  6
CONTINUOUS
 62
     7
100
AcDbLine
 10
558.8048951977788
 20
245.0206804273035
 30
0.0
 11
558.8048951977788
 21
244.4206804273035
 31
0.0
  0
LINE
  5
D3BD
330
18
100
AcDbEntity
  8
1
  6
CONTINUOUS
 62
     7
100
AcDbLine
 10
559.7048951977788
 20
245.0206804273035
 30
0.0
 11
558.8048951977788
 21
245.0206804273035
 31
0.0
  0
LINE
  5
D3BE
330
18
100
AcDbEntity
  8
1
  6
CONTINUOUS
 62
     7
100
AcDbLine
 10
559.7048951977788
 20
244.4206804273035
 30
0.0
 11
559.7048951977788
 21
245.0206804273035
 31
0.0
  0
LINE
  5
D3BF
330
18
100
AcDbEntity
  8
1
  6
CONTINUOUS
 62
     7
100
AcDbLine
 10
533.8048951977788
 20
244.4206804273035
 30
0.0
 11
533.9048951977788
 21
244.4206804273035
 31
0.0
  0
LINE
  5
D3C0
330
18
100
AcDbEntity
  8
1
  6
CONTINUOUS
 62
     7
100
AcDbLine
 10
533.8048951977788
 20
245.0206804273035
 30
0.0
 11
533.8048951977788
 21
244.4206804273035
 31
0.0
  0
LINE
  5
D3C1
330
18
100
AcDbEntity
  8
1
  6
CONTINUOUS
 62
     7
100
AcDbLine
 10
533.9048951977788
 20
245.0206804273035
 30
0.0
 11
533.8048951977788
 21
245.0206804273035
 31
0.0
  0
LINE
  5
D3C2
330
18
100
AcDbEntity
  8
1
  6
CONTINUOUS
 62
     7
100
AcDbLine
 10
533.9048951977788
 20
244.4206804273035
 30
0.0
 11
533.9048951977788
 21
245.0206804273035
 31
0.0
  0
LINE
  5
D3C3
330
18
100
AcDbEntity
  8
1
  6
CONTINUOUS
 62
     7
100
AcDbLine
 10
537.0048951977788
 20
236.8206804273035
 30
0.0
 11
537.1048951977788
 21
236.8206804273035
 31
0.0
  0
LINE
  5
D3C4
330
18
100
AcDbEntity
  8
1
  6
CONTINUOUS
 62
     7
100
AcDbLine
 10
537.0048951977788
 20
237.4206804273035
 30
0.0
 11
537.0048951977788
 21
236.8206804273035
 31
0.0
  0
LINE
  5
D3C5
330
18
100
AcDbEntity
  8
1
  6
CONTINUOUS
 62
     7
100
AcDbLine
 10
537.1048951977788
 20
237.4206804273035
 30
0.0
 11
537.0048951977788
 21
237.4206804273035
 31
0.0
  0
LINE
  5
D3C6
330
18
100
AcDbEntity
  8
1
  6
CONTINUOUS
 62
     7
100
AcDbLine
 10
537.1048951977788
 20
236.8206804273035
 30
0.0
 11
537.1048951977788
 21
237.4206804273035
 31
0.0
  0
LINE
  5
D3C7
330
18
100
AcDbEntity
  8
1
  6
CONTINUOUS
 62
     7
100
AcDbLine
 10
540.3048951977788
 20
244.4206804273035
 30
0.0
 11
540.3048951977788
 21
245.0206804273035
 31
0.0
  0
LINE
  5
D3C8
330
18
100
AcDbEntity
  8
1
  6
CONTINUOUS
 62
     7
100
AcDbLine
 10
540.2048951977788
 20
244.4206804273035
 30
0.0
 11
540.3048951977788
 21
244.4206804273035
 31
0.0
  0
LINE
  5
D3C9
330
18
100
AcDbEntity
  8
1
  6
CONTINUOUS
 62
     7
100
AcDbLine
 10
540.2048951977788
 20
245.0206804273035
 30
0.0
 11
540.2048951977788
 21
244.4206804273035
 31
0.0
  0
LINE
  5
D3CA
330
18
100
AcDbEntity
  8
1
  6
CONTINUOUS
 62
     7
100
AcDbLine
 10
540.3048951977788
 20
245.0206804273035
 30
0.0
 11
540.2048951977788
 21
245.0206804273035
 31
0.0
  0
LINE
  5
D3CB
330
18
100
AcDbEntity
  8
1
  6
CONTINUOUS
 62
     7
100
AcDbLine
 10
535.793014982427
 20
236.3092881468521
 30
0.0
 11
534.9167754131305
 21
236.3092881468521
 31
0.0
  0
LINE
  5
D3CC
330
18
100
AcDbEntity
  8
1
  6
CONTINUOUS
 62
     7
100
AcDbLine
 10
534.9167754131305
 20
235.9881408120494
 30
0.0
 11
535.793014982427
 21
235.9881408120494
 31
0.0
  0
LINE
  5
D3CD
330
18
100
AcDbEntity
  8
1
  6
CONTINUOUS
 62
     7
100
AcDbLine
 10
562.3048951977788
 20
240.0206804273035
 30
0.0
 11
562.3048951977788
 21
241.8206804273035
 31
0.0
  0
LINE
  5
D3CE
330
18
100
AcDbEntity
  8
1
  6
CONTINUOUS
 62
     7
100
AcDbLine
 10
562.2926729284567
 20
240.2227530215199
 30
0.0
 11
562.3048951977788
 21
240.0206804273035
 31
0.0
  0
ELLIPSE
  5
D3CF
330
18
100
AcDbEntity
  8
1
  6
CONTINUOUS
 62
     7
100
AcDbEllipse
 10
562.2979110438805
 20
240.4825606426552
 30
0.0
 11
0.0
 21
0.3000000000000114
 31
0.0
210
0.0
220
0.0
230
1.0
 40
0.0349207694917658
 41
1.570796326794897
 42
2.61799387799144
  0
LINE
  5
D3D0
330
18
100
AcDbEntity
  8
1
  6
CONTINUOUS
 62
     7
100
AcDbLine
 10
562.2874348130329
 20
240.4825606426552
 30
0.0
 11
562.2874348130329
 21
241.3588002119518
 31
0.0
  0
ELLIPSE
  5
D3D1
330
18
100
AcDbEntity
  8
1
  6
CONTINUOUS
 62
     7
100
AcDbEllipse
 10
562.2979110438805
 20
241.3588002119518
 30
0.0
 11
0.0
 21
0.3000000000000114
 31
0.0
210
0.0
220
0.0
230
1.0
 40
0.0349207694917658
 41
0.5235987755983058
 42
1.570796326794897
  0
LINE
  5
D3D2
330
18
100
AcDbEntity
  8
1
  6
CONTINUOUS
 62
     7
100
AcDbLine
 10
562.2926729284567
 20
241.6186078330871
 30
0.0
 11
562.3048951977788
 21
241.8206804273035
 31
0.0
  0
ELLIPSE
  5
D3D3
330
18
100
AcDbEntity
  8
1
  6
CONTINUOUS
 62
     7
100
AcDbEllipse
 10
534.9167754131305
 20
245.4952373394841
 30
0.0
 11
0.3000000000000114
 21
0.0
 31
0.0
210
0.0
220
0.0
230
1.0
 40
0.1227845609029478
 41
1.570796326794897
 42
2.617993877991463
  0
ELLIPSE
  5
D3D4
330
18
100
AcDbEntity
  8
1
  6
CONTINUOUS
 62
     7
100
AcDbEllipse
 10
534.9167754131305
 20
245.8636962734052
 30
0.0
 11
0.3000000000000114
 21
0.0
 31
0.0
210
0.0
220
0.0
230
1.0
 40
0.034920769491671
 41
3.665191429191949
 42
4.71238898038469
  0
ELLIPSE
  5
D3D5
330
18
100
AcDbEntity
  8
1
  6
CONTINUOUS
 62
     7
100
AcDbEllipse
 10
561.9294521099594
 20
240.4825606426552
 30
0.0
 11
0.0
 21
0.3000000000000114
 31
0.0
210
0.0
220
0.0
230
1.0
 40
0.1227845609029004
 41
3.665191429188066
 42
4.712388980384691
  0
LINE
  5
D3D6
330
18
100
AcDbEntity
  8
1
  6
CONTINUOUS
 62
     7
100
AcDbLine
 10
561.9478697940948
 20
240.2227530215199
 30
0.0
 11
561.9048951977788
 21
240.0206804273035
 31
0.0
  0
LINE
  5
D3D7
330
18
100
AcDbEntity
  8
1
  6
CONTINUOUS
 62
     7
100
AcDbLine
 10
561.9048951977788
 20
241.8206804273035
 30
0.0
 11
561.9048951977788
 21
240.0206804273035
 31
0.0
  0
LINE
  5
D3D8
330
18
100
AcDbEntity
  8
1
  6
CONTINUOUS
 62
     7
100
AcDbLine
 10
561.9478697940948
 20
241.6186078330871
 30
0.0
 11
561.9048951977788
 21
241.8206804273035
 31
0.0
  0
ELLIPSE
  5
D3D9
330
18
100
AcDbEntity
  8
1
  6
CONTINUOUS
 62
     7
100
AcDbEllipse
 10
561.9294521099594
 20
241.3588002119518
 30
0.0
 11
0.0
 21
0.3000000000000114
 31
0.0
210
0.0
220
0.0
230
1.0
 40
0.1227845609029004
 41
4.712388980384691
 42
5.759586531581535
  0
LINE
  5
D3DA
330
18
100
AcDbEntity
  8
1
  6
CONTINUOUS
 62
     7
100
AcDbLine
 10
561.9662874782302
 20
241.3588002119518
 30
0.0
 11
561.9662874782302
 21
240.4825606426552
 31
0.0
  0
LINE
  5
D3DB
330
18
100
AcDbEntity
  8
1
  6
CONTINUOUS
 62
     7
100
AcDbLine
 10
534.6569677919952
 20
245.8584581579814
 30
0.0
 11
534.4548951977788
 21
245.8706804273035
 31
0.0
  0
LINE
  5
D3DC
330
18
100
AcDbEntity
  8
1
  6
CONTINUOUS
 62
     7
100
AcDbLine
 10
536.2548951977788
 20
245.8706804273035
 30
0.0
 11
534.4548951977788
 21
245.8706804273035
 31
0.0
  0
LINE
  5
D3DD
330
18
100
AcDbEntity
  8
1
  6
CONTINUOUS
 62
     7
100
AcDbLine
 10
536.0528226035624
 20
245.8584581579814
 30
0.0
 11
536.2548951977788
 21
245.8706804273035
 31
0.0
  0
ELLIPSE
  5
D3DE
330
18
100
AcDbEntity
  8
1
  6
CONTINUOUS
 62
     7
100
AcDbEllipse
 10
535.793014982427
 20
245.8636962734052
 30
0.0
 11
0.3000000000000114
 21
0.0
 31
0.0
210
0.0
220
0.0
230
1.0
 40
0.034920769491671
 41
4.71238898038469
 42
5.759586531578062
  0
LINE
  5
D3DF
330
18
100
AcDbEntity
  8
1
  6
CONTINUOUS
 62
     7
100
AcDbLine
 10
535.793014982427
 20
245.8532200425576
 30
0.0
 11
534.9167754131305
 21
245.8532200425576
 31
0.0
  0
LINE
  5
D3E0
330
18
100
AcDbEntity
  8
1
  6
CONTINUOUS
 62
     7
100
AcDbLine
 10
534.4548951977788
 20
245.4706804273035
 30
0.0
 11
536.2548951977788
 21
245.4706804273035
 31
0.0
  0
LINE
  5
D3E1
330
18
100
AcDbEntity
  8
1
  6
CONTINUOUS
 62
     7
100
AcDbLine
 10
534.6569677919952
 20
245.5136550236195
 30
0.0
 11
534.4548951977788
 21
245.4706804273035
 31
0.0
  0
LINE
  5
D3E2
330
18
100
AcDbEntity
  8
1
  6
CONTINUOUS
 62
     7
100
AcDbLine
 10
534.9167754131305
 20
245.532072707755
 30
0.0
 11
535.793014982427
 21
245.532072707755
 31
0.0
  0
ELLIPSE
  5
D3E3
330
18
100
AcDbEntity
  8
1
  6
CONTINUOUS
 62
     7
100
AcDbEllipse
 10
535.793014982427
 20
245.4952373394841
 30
0.0
 11
0.3000000000000114
 21
0.0
 31
0.0
210
0.0
220
0.0
230
1.0
 40
0.1227845609029478
 41
0.5235987755983058
 42
1.570796326794897
  0
LINE
  5
D3E4
330
18
100
AcDbEntity
  8
1
  6
CONTINUOUS
 62
     7
100
AcDbLine
 10
536.0528226035624
 20
245.5136550236195
 30
0.0
 11
536.2548951977788
 21
245.4706804273035
 31
0.0
  0
ELLIPSE
  5
D3E5
330
18
100
AcDbEntity
  8
1
  6
CONTINUOUS
 62
     7
100
AcDbEllipse
 10
535.793014982427
 20
236.3461235151229
 30
0.0
 11
0.3000000000000114
 21
0.0
 31
0.0
210
0.0
220
0.0
230
1.0
 40
0.1227845609029478
 41
4.712388980384691
 42
5.759586531581364
  0
ELLIPSE
  5
D3E6
330
18
100
AcDbEntity
  8
1
  6
CONTINUOUS
 62
     7
100
AcDbEllipse
 10
535.793014982427
 20
235.9776645812019
 30
0.0
 11
0.3000000000000114
 21
0.0
 31
0.0
210
0.0
220
0.0
230
1.0
 40
0.034920769491671
 41
0.5235987755994805
 42
1.570796326794897
  0
ELLIPSE
  5
D3E7
330
18
100
AcDbEntity
  8
1
  6
CONTINUOUS
 62
     7
100
AcDbEllipse
 10
534.9167754131305
 20
236.3461235151229
 30
0.0
 11
0.3000000000000114
 21
0.0
 31
0.0
210
0.0
220
0.0
230
1.0
 40
0.1227845609029478
 41
3.66519142918821
 42
4.712388980384691
  0
LINE
  5
D3E8
330
18
100
AcDbEntity
  8
1
  6
CONTINUOUS
 62
     7
100
AcDbLine
 10
534.6569677919952
 20
236.3277058309875
 30
0.0
 11
534.4548951977788
 21
236.3706804273035
 31
0.0
  0
LINE
  5
D3E9
330
18
100
AcDbEntity
  8
1
  6
CONTINUOUS
 62
     7
100
AcDbLine
 10
536.2548951977788
 20
236.3706804273035
 30
0.0
 11
534.4548951977788
 21
236.3706804273035
 31
0.0
  0
LINE
  5
D3EA
330
18
100
AcDbEntity
  8
1
  6
CONTINUOUS
 62
     7
100
AcDbLine
 10
536.0528226035624
 20
236.3277058309875
 30
0.0
 11
536.2548951977788
 21
236.3706804273035
 31
0.0
  0
LINE
  5
D3EB
330
18
100
AcDbEntity
  8
1
  6
CONTINUOUS
 62
     7
100
AcDbLine
 10
534.4548951977788
 20
235.9706804273035
 30
0.0
 11
536.2548951977788
 21
235.9706804273035
 31
0.0
  0
LINE
  5
D3EC
330
18
100
AcDbEntity
  8
1
  6
CONTINUOUS
 62
     7
100
AcDbLine
 10
534.6569677919952
 20
235.9829026966256
 30
0.0
 11
534.4548951977788
 21
235.9706804273035
 31
0.0
  0
ELLIPSE
  5
D3ED
330
18
100
AcDbEntity
  8
1
  6
CONTINUOUS
 62
     7
100
AcDbEllipse
 10
534.9167754131305
 20
235.9776645812019
 30
0.0
 11
0.3000000000000114
 21
0.0
 31
0.0
210
0.0
220
0.0
230
1.0
 40
0.034920769491671
 41
1.570796326794897
 42
2.617993877990285
  0
LINE
  5
D3EE
330
18
100
AcDbEntity
  8
1
  6
CONTINUOUS
 62
     7
100
AcDbLine
 10
536.0528226035624
 20
235.9829026966256
 30
0.0
 11
536.2548951977788
 21
235.9706804273035
 31
0.0
  0
LINE
  5
D3EF
330
18
100
AcDbEntity
  8
1
  6
CONTINUOUS
 62
     7
100
AcDbLine
 10
562.3048951977788
 20
241.8206804273035
 30
0.0
 11
561.9048951977788
 21
241.8206804273035
 31
0.0
  0
LINE
  5
D3F0
330
18
100
AcDbEntity
  8
1
  6
CONTINUOUS
 62
     7
100
AcDbLine
 10
561.9048951977788
 20
240.0206804273035
 30
0.0
 11
562.3048951977788
 21
240.0206804273035
 31
0.0
  0
LINE
  5
D3F1
330
18
100
AcDbEntity
  8
1
  6
CONTINUOUS
 62
     7
100
AcDbLine
 10
534.4548951977788
 20
245.8706804273035
 30
0.0
 11
534.4548951977788
 21
245.4706804273035
 31
0.0
  0
LINE
  5
D3F2
330
18
100
AcDbEntity
  8
1
  6
CONTINUOUS
 62
     7
100
AcDbLine
 10
536.2548951977788
 20
245.4706804273035
 30
0.0
 11
536.2548951977788
 21
245.8706804273035
 31
0.0
  0
LINE
  5
D3F3
330
18
100
AcDbEntity
  8
1
  6
CONTINUOUS
 62
     7
100
AcDbLine
 10
534.4548951977788
 20
236.3706804273035
 30
0.0
 11
534.4548951977788
 21
235.9706804273035
 31
0.0
  0
LINE
  5
D3F4
330
18
100
AcDbEntity
  8
1
  6
CONTINUOUS
 62
     7
100
AcDbLine
 10
536.2548951977788
 20
235.9706804273035
 30
0.0
 11
536.2548951977788
 21
236.3706804273035
 31
0.0
  0
LINE
  5
D3F5
330
18
100
AcDbEntity
  8
1
  6
CONTINUOUS
 62
     7
100
AcDbLine
 10
561.8548951977788
 20
245.4206804273035
 30
0.0
 11
532.8548951977788
 21
245.4206804273035
 31
0.0
  0
LINE
  5
D3F6
330
18
100
AcDbEntity
  8
1
  6
CONTINUOUS
 62
     7
100
AcDbLine
 10
532.8548951977788
 20
245.4206804273035
 30
0.0
 11
532.8548951977788
 21
236.4206804273035
 31
0.0
  0
LINE
  5
D3F7
330
18
100
AcDbEntity
  8
1
  6
CONTINUOUS
 62
     7
100
AcDbLine
 10
532.8548951977788
 20
236.4206804273035
 30
0.0
 11
561.8548951977788
 21
236.4206804273035
 31
0.0
  0
ARC
  5
D3F8
102
{ACAD_REACTORS
102
}
330
18
100
AcDbEntity
  8
1
  6
CONTINUOUS
 62
     7
100
AcDbCircle
 10
562.0548951977788
 20
245.6206804273035
 30
0.0
 40
0.2999999999999972
100
AcDbArc
 50
0.0
 51
90.0
  0
LINE
  5
D3F9
102
{ACAD_REACTORS
102
}
330
18
100
AcDbEntity
  8
1
  6
CONTINUOUS
 62
     7
100
AcDbLine
 10
562.3548951977788
 20
245.6206804273035
 30
0.0
 11
562.3548951977788
 21
236.2206804273035
 31
0.0
  0
ARC
  5
D3FA
102
{ACAD_REACTORS
102
}
330
18
100
AcDbEntity
  8
1
  6
CONTINUOUS
 62
     7
100
AcDbCircle
 10
562.0548951977788
 20
236.2206804273035
 30
0.0
 40
0.3000000000000114
100
AcDbArc
 50
270.0
 51
0.0
  0
LINE
  5
D3FB
102
{ACAD_REACTORS
102
}
330
18
100
AcDbEntity
  8
1
  6
CONTINUOUS
 62
     7
100
AcDbLine
 10
562.0548951977788
 20
235.9206804273035
 30
0.0
 11
532.6548951977788
 21
235.9206804273035
 31
0.0
  0
ARC
  5
D3FC
330
18
100
AcDbEntity
  8
1
  6
CONTINUOUS
 62
     7
100
AcDbCircle
 10
532.6548951977788
 20
236.2206804273035
 30
0.0
 40
0.3000000000000114
100
AcDbArc
 50
180.0
 51
270.0
  0
LINE
  5
D3FD
102
{ACAD_REACTORS
102
}
330
18
100
AcDbEntity
  8
1
  6
CONTINUOUS
 62
     7
100
AcDbLine
 10
532.3548951977788
 20
236.2206804273035
 30
0.0
 11
532.3548951977788
 21
245.6206804273035
 31
0.0
  0
ARC
  5
D3FE
102
{ACAD_REACTORS
102
}
330
18
100
AcDbEntity
  8
1
  6
CONTINUOUS
 62
     7
100
AcDbCircle
 10
532.6548951977788
 20
245.6206804273035
 30
0.0
 40
0.2999999999999972
100
AcDbArc
 50
90.0
 51
180.0
  0
LINE
  5
D3FF
330
18
100
AcDbEntity
  8
1
  6
CONTINUOUS
 62
     7
100
AcDbLine
 10
561.8548951977788
 20
236.4206804273035
 30
0.0
 11
561.8548951977788
 21
245.4206804273035
 31
0.0
  0
LINE
  5
D400
330
18
100
AcDbEntity
  8
1
  6
CONTINUOUS
 62
     7
100
AcDbLine
 10
532.6548951977788
 20
245.9206804273035
 30
0.0
 11
562.0548951977788
 21
245.9206804273035
 31
0.0
  0
LINE
  5
D401
330
18
100
AcDbEntity
  8
1
  6
CONTINUOUS
 62
     7
100
AcDbLine
 10
559.9548951977788
 20
243.5206804273035
 30
0.0
 11
534.7548951977788
 21
243.5206804273035
 31
0.0
  0
LINE
  5
D402
330
18
100
AcDbEntity
  8
1
  6
CONTINUOUS
 62
     7
100
AcDbLine
 10
559.9548951977788
 20
238.3206804273035
 30
0.0
 11
559.9548951977788
 21
243.5206804273035
 31
0.0
  0
LINE
  5
D403
330
18
100
AcDbEntity
  8
1
  6
CONTINUOUS
 62
     7
100
AcDbLine
 10
534.7548951977788
 20
243.5206804273035
 30
0.0
 11
534.7548951977788
 21
238.3206804273035
 31
0.0
  0
LINE
  5
D404
330
18
100
AcDbEntity
  8
1
  6
CONTINUOUS
 62
     7
100
AcDbLine
 10
534.7548951977788
 20
238.3206804273035
 30
0.0
 11
559.9548951977788
 21
238.3206804273035
 31
0.0
  0
LINE
  5
D405
330
18
100
AcDbEntity
  8
1
  6
CONTINUOUS
 62
     7
100
AcDbLine
 10
560.0548951977788
 20
243.6206804273035
 30
0.0
 11
559.9548951977788
 21
243.5206804273035
 31
0.0
  0
LINE
  5
D406
330
18
100
AcDbEntity
  8
1
  6
CONTINUOUS
 62
     7
100
AcDbLine
 10
559.9548951977788
 20
238.3206804273035
 30
0.0
 11
560.0548951977788
 21
238.2206804273035
 31
0.0
  0
LINE
  5
D407
330
18
100
AcDbEntity
  8
1
  6
CONTINUOUS
 62
     7
100
AcDbLine
 10
534.6548951977788
 20
243.6206804273035
 30
0.0
 11
534.7548951977788
 21
243.5206804273035
 31
0.0
  0
LINE
  5
D408
330
18
100
AcDbEntity
  8
1
  6
CONTINUOUS
 62
     7
100
AcDbLine
 10
534.7548951977788
 20
238.3206804273035
 30
0.0
 11
534.6548951977788
 21
238.2206804273035
 31
0.0
  0
ARC
  5
D409
330
18
100
AcDbEntity
  8
1
  6
CONTINUOUS
 62
     7
100
AcDbCircle
 10
557.6548951977788
 20
204.7878689430105
 30
0.0
 40
0.2000000000000171
100
AcDbArc
 50
270.0
 51
0.0
  0
ARC
  5
D40A
330
18
100
AcDbEntity
  8
1
  6
CONTINUOUS
 62
     7
100
AcDbCircle
 10
561.0548951977788
 20
204.7878689430105
 30
0.0
 40
0.2000000000000171
100
AcDbArc
 50
180.0
 51
270.0
  0
LINE
  5
D40B
330
18
100
AcDbEntity
  8
1
  6
CONTINUOUS
 62
     7
100
AcDbLine
 10
559.9828318133722
 20
204.7878689430105
 30
0.0
 11
559.9548951977788
 21
205.5878689430105
 31
0.0
  0
LINE
  5
D40C
330
18
100
AcDbEntity
  8
1
  6
CONTINUOUS
 62
     7
100
AcDbLine
 10
558.7548951977788
 20
205.5878689430105
 30
0.0
 11
558.7269585821854
 21
204.7878689430105
 31
0.0
  0
ARC
  5
D40D
102
{ACAD_REACTORS
102
}
330
18
100
AcDbEntity
  8
1
  6
CONTINUOUS
 62
     7
100
AcDbCircle
 10
532.6548951977788
 20
205.6878689430105
 30
0.0
 40
0.3000000000000114
100
AcDbArc
 50
90.0
 51
180.0
  0
LINE
  5
D40E
330
18
100
AcDbEntity
  8
1
  6
CONTINUOUS
 62
     7
100
AcDbLine
 10
532.3548951977788
 20
205.6878689430105
 30
0.0
 11
532.3548951977788
 21
190.3878689430105
 31
0.0
  0
LINE
  5
D40F
330
18
100
AcDbEntity
  8
1
  6
CONTINUOUS
 62
     7
100
AcDbLine
 10
532.3548951977788
 20
190.3878689430105
 30
0.0
 11
532.6548951977788
 21
190.3878689430105
 31
0.0
  0
LINE
  5
D410
330
18
100
AcDbEntity
  8
1
  6
CONTINUOUS
 62
     7
100
AcDbLine
 10
532.6548951977788
 20
205.9878689430105
 30
0.0
 11
555.8563075354338
 21
205.9878689430105
 31
0.0
  0
ARC
  5
D411
330
18
100
AcDbEntity
  8
1
  6
CONTINUOUS
 62
     7
100
AcDbCircle
 10
562.0548951977788
 20
204.2878689430105
 30
0.0
 40
0.2999999999999972
100
AcDbArc
 50
0.0
 51
90.0
  0
ARC
  5
D412
330
18
100
AcDbEntity
  8
1
  6
CONTINUOUS
 62
     7
100
AcDbCircle
 10
556.606625087132
 20
204.8878689430105
 30
0.0
 40
0.3000000000000398
100
AcDbArc
 50
190.0000000000043
 51
270.0
  0
ARC
  5
D413
330
18
100
AcDbEntity
  8
1
  6
CONTINUOUS
 62
     7
100
AcDbCircle
 10
555.8563075354338
 20
205.6878689430105
 30
0.0
 40
0.3000000000000148
100
AcDbArc
 50
9.999999999998986
 51
90.0
  0
LINE
  5
D414
330
18
100
AcDbEntity
  8
1
  6
CONTINUOUS
 62
     7
100
AcDbLine
 10
532.6548951977788
 20
190.3878689430105
 30
0.0
 11
562.0548951977788
 21
190.3878689430105
 31
0.0
  0
LINE
  5
D415
330
18
100
AcDbEntity
  8
1
  6
CONTINUOUS
 62
     7
100
AcDbLine
 10
556.606625087132
 20
204.5878689430105
 30
0.0
 11
562.0548951977788
 21
204.5878689430105
 31
0.0
  0
LINE
  5
D416
102
{ACAD_REACTORS
102
}
330
18
100
AcDbEntity
  8
1
  6
CONTINUOUS
 62
     7
100
AcDbLine
 10
562.3548951977788
 20
204.2878689430105
 30
0.0
 11
562.3548951977788
 21
190.3878689430105
 31
0.0
  0
LINE
  5
D417
330
18
100
AcDbEntity
  8
1
  6
CONTINUOUS
 62
     7
100
AcDbLine
 10
562.0548951977788
 20
190.3878689430105
 30
0.0
 11
562.3548951977788
 21
190.3878689430105
 31
0.0
  0
LINE
  5
D418
330
18
100
AcDbEntity
  8
1
  6
CONTINUOUS
 62
     7
100
AcDbLine
 10
556.1517498613374
 20
205.7399633963106
 30
0.0
 11
556.3111827612283
 21
204.8357744897104
 31
0.0
  0
ARC
  5
D419
102
{ACAD_REACTORS
102
}
330
18
100
AcDbEntity
  8
1
  6
CONTINUOUS
 62
     7
100
AcDbCircle
 10
534.9167754131305
 20
190.1878689430105
 30
0.0
 40
0.3000000000000114
100
AcDbArc
 50
210.0000000000004
 51
270.0
  0
LINE
  5
D41A
330
18
100
AcDbEntity
  8
1
  6
CONTINUOUS
 62
     7
100
AcDbLine
 10
534.6569677919952
 20
190.0378689430105
 30
0.0
 11
534.4548951977788
 21
190.3878689430105
 31
0.0
  0
ARC
  5
D41B
330
18
100
AcDbEntity
  8
1
  6
CONTINUOUS
 62
     7
100
AcDbCircle
 10
535.793014982427
 20
190.1878689430105
 30
0.0
 40
0.3000000000000114
100
AcDbArc
 50
270.0
 51
329.9999999999996
  0
LINE
  5
D41C
330
18
100
AcDbEntity
  8
1
  6
CONTINUOUS
 62
     7
100
AcDbLine
 10
535.793014982427
 20
189.8878689430105
 30
0.0
 11
534.9167754131305
 21
189.8878689430105
 31
0.0
  0
LINE
  5
D41D
330
18
100
AcDbEntity
  8
1
  6
CONTINUOUS
 62
     7
100
AcDbLine
 10
536.0528226035624
 20
190.0378689430105
 30
0.0
 11
536.2548951977788
 21
190.3878689430105
 31
0.0
  0
LINE
  5
D41E
102
{ACAD_REACTORS
102
}
330
18
100
AcDbEntity
  8
1
  6
CONTINUOUS
 62
     7
100
AcDbLine
 10
559.7048951977788
 20
186.3878689430105
 30
0.0
 11
559.7048951977788
 21
190.3878689430105
 31
0.0
  0
LINE
  5
D41F
330
18
100
AcDbEntity
  8
1
  6
CONTINUOUS
 62
     7
100
AcDbLine
 10
559.7048951977788
 20
186.3878689430105
 30
0.0
 11
558.8048951977788
 21
186.3878689430105
 31
0.0
  0
LINE
  5
D420
330
18
100
AcDbEntity
  8
1
  6
CONTINUOUS
 62
     7
100
AcDbLine
 10
558.8048951977788
 20
186.3878689430105
 30
0.0
 11
558.8048951977788
 21
190.3878689430105
 31
0.0
  0
LINE
  5
D421
330
18
100
AcDbEntity
  8
1
  6
CONTINUOUS
 62
     7
100
AcDbLine
 10
533.9048951977788
 20
186.3878689430105
 30
0.0
 11
533.8048951977788
 21
186.3878689430105
 31
0.0
  0
LINE
  5
D422
330
18
100
AcDbEntity
  8
1
  6
CONTINUOUS
 62
     7
100
AcDbLine
 10
533.9048951977788
 20
186.3878689430105
 30
0.0
 11
533.9048951977788
 21
190.3878689430105
 31
0.0
  0
LINE
  5
D423
330
18
100
AcDbEntity
  8
1
  6
CONTINUOUS
 62
     7
100
AcDbLine
 10
533.8048951977788
 20
186.3878689430105
 30
0.0
 11
533.8048951977788
 21
190.3878689430105
 31
0.0
  0
LINE
  5
D424
330
18
100
AcDbEntity
  8
1
  6
CONTINUOUS
 62
     7
100
AcDbLine
 10
540.3048951977788
 20
186.3878689430105
 30
0.0
 11
540.3048951977788
 21
190.3878689430105
 31
0.0
  0
LINE
  5
D425
330
18
100
AcDbEntity
  8
1
  6
CONTINUOUS
 62
     7
100
AcDbLine
 10
540.2048951977788
 20
186.3878689430105
 30
0.0
 11
540.2048951977788
 21
190.3878689430105
 31
0.0
  0
LINE
  5
D426
330
18
100
AcDbEntity
  8
1
  6
CONTINUOUS
 62
     7
100
AcDbLine
 10
540.3048951977788
 20
186.3878689430105
 30
0.0
 11
540.2048951977788
 21
186.3878689430105
 31
0.0
  0
LINE
  5
D427
330
18
100
AcDbEntity
  8
1
  6
CONTINUOUS
 62
     7
100
AcDbLine
 10
557.8548951977788
 20
204.7878689430105
 30
0.0
 11
560.8548951977788
 21
204.7878689430105
 31
0.0
  0
LINE
  5
D428
330
18
100
AcDbEntity
  8
1
  6
CONTINUOUS
 62
     7
100
AcDbLine
 10
562.2926729284567
 20
190.0378689430105
 30
0.0
 11
562.3048951977788
 21
190.3878689430105
 31
0.0
  0
LINE
  5
D429
330
18
100
AcDbEntity
  8
1
  6
CONTINUOUS
 62
     7
100
AcDbLine
 10
561.9478697940948
 20
190.0378689430105
 30
0.0
 11
561.9048951977787
 21
190.3878689430105
 31
0.0
  0
LINE
  5
D42A
330
18
100
AcDbEntity
  8
1
  6
CONTINUOUS
 62
     7
100
AcDbLine
 10
562.2874348130329
 20
189.8878689430105
 30
0.0
 11
561.9662874782302
 21
189.8878689430105
 31
0.0
  0
LINE
  5
D42B
330
18
100
AcDbEntity
  8
1
  6
CONTINUOUS
 62
     7
100
AcDbLine
 10
562.2926729284567
 20
190.0378689430105
 30
0.0
 11
562.2874348130329
 21
189.8878689430105
 31
0.0
  0
LINE
  5
D42C
330
18
100
AcDbEntity
  8
1
  6
CONTINUOUS
 62
     7
100
AcDbLine
 10
561.9662874782302
 20
189.8878689430105
 30
0.0
 11
561.9478697940948
 21
190.0378689430105
 31
0.0
  0
LINE
  5
D42D
330
18
100
AcDbEntity
  8
1
  6
CONTINUOUS
 62
     7
100
AcDbLine
 10
558.7548951977788
 20
205.5878689430105
 30
0.0
 11
559.9548951977788
 21
205.5878689430105
 31
0.0
  0
LINE
  5
D42E
330
18
100
AcDbEntity
  8
1
  6
CONTINUOUS
 62
     7
100
AcDbLine
 10
537.1048951977788
 20
186.3878689430105
 30
0.0
 11
537.0048951977788
 21
186.3878689430105
 31
0.0
  0
LINE
  5
D42F
330
18
100
AcDbEntity
  8
1
  6
CONTINUOUS
 62
     7
100
AcDbLine
 10
537.0048951977788
 20
186.3878689430105
 30
0.0
 11
537.0048951977788
 21
190.3878689430105
 31
0.0
  0
LINE
  5
D430
330
18
100
AcDbEntity
  8
1
  6
CONTINUOUS
 62
     7
100
AcDbLine
 10
537.1048951977788
 20
186.3878689430105
 30
0.0
 11
537.1048951977788
 21
190.3878689430105
 31
0.0
  0
DIMENSION
  5
D470
102
{ACAD_REACTORS
102
}
102
{ACAD_XDICTIONARY
360
D471
102
}
330
18
100
AcDbEntity
  8
WYMIARY
100
AcDbDimension
  2
*D15
 10
562.3548951977788
 20
252.0629934425245
 30
0.0
 11
547.3548951977788
 21
253.4129934425245
 31
0.0
 70
    32
  3
STANDARD
100
AcDbAlignedDimension
 13
532.3548951977788
 23
245.6206804273035
 33
0.0
 14
562.3548951977788
 24
245.6206804273035
 34
0.0
100
AcDbRotatedDimension
1001
ACAD
1000
DSTYLE
1002
{
1070
   287
1070
     5
1070
    41
1040
1.2
1070
   271
1070
     1
1070
   147
1040
0.75
1070
   279
1070
     2
1070
    74
1070
     1
1070
   140
1040
1.2
1070
   284
1070
     8
1070
    78
1070
     8
1002
}
  0
LINE
  5
D482
330
18
100
AcDbEntity
  8
OSIE
 48
0.2
100
AcDbLine
 10
530.2069334689285
 20
240.9206804273035
 30
0.0
 11
564.3550811214193
 21
240.9206804273035
 31
0.0
  0
LINE
  5
D484
102
{ACAD_REACTORS
102
}
330
18
100
AcDbEntity
  8
OSIE
 48
0.2
100
AcDbLine
 10
537.0548951977787
 20
237.6414413599676
 30
0.0
 11
537.0548951977787
 21
236.5159356491952
 31
0.0
  0
LINE
  5
D485
102
{ACAD_REACTORS
102
}
330
18
100
AcDbEntity
  8
OSIE
 48
0.2
100
AcDbLine
 10
533.8548951977789
 20
245.2414413599676
 30
0.0
 11
533.8548951977789
 21
244.1159356491952
 31
0.0
  0
LINE
  5
D486
102
{ACAD_REACTORS
102
}
330
18
100
AcDbEntity
  8
OSIE
 48
0.2
100
AcDbLine
 10
540.2548951977788
 20
245.2414413599676
 30
0.0
 11
540.2548951977788
 21
244.1159356491952
 31
0.0
  0
LINE
  5
D487
102
{ACAD_REACTORS
102
}
330
18
100
AcDbEntity
  8
OSIE
 48
0.2
100
AcDbLine
 10
559.2548951977788
 20
236.2177434530543
 30
0.0
 11
559.2548951977788
 21
238.0529278761147
 31
0.0
  0
LINE
  5
D488
330
18
100
AcDbEntity
  8
OSIE
 48
0.2
100
AcDbLine
 10
559.2548951977788
 20
243.7940119390927
 30
0.0
 11
559.2548951977788
 21
245.6143164884526
 31
0.0
  0
LINE
  5
D489
102
{ACAD_REACTORS
102
}
330
18
100
AcDbEntity
  8
OSIE
 48
0.2
100
AcDbLine
 10
558.3967173535094
 20
244.7206804273035
 30
0.0
 11
560.1357658885656
 21
244.7206804273035
 31
0.0
  0
LINE
  5
D48A
102
{ACAD_REACTORS
102
}
330
18
100
AcDbEntity
  8
OSIE
 48
0.2
100
AcDbLine
 10
558.3967173535094
 20
237.1206804273035
 30
0.0
 11
560.1357658885656
 21
237.1206804273035
 31
0.0
  0
LINE
  5
D48B
330
18
100
AcDbEntity
  8
OSIE
 48
0.2
100
AcDbLine
 10
536.5176477761116
 20
237.1206804273035
 30
0.0
 11
537.6756590669786
 21
237.1206804273035
 31
0.0
  0
LINE
  5
D48C
330
18
100
AcDbEntity
  8
OSIE
 48
0.2
100
AcDbLine
 10
533.3176477761117
 20
244.7206804273035
 30
0.0
 11
534.4756590669787
 21
244.7206804273035
 31
0.0
  0
LINE
  5
D48D
330
18
100
AcDbEntity
  8
OSIE
 48
0.2
100
AcDbLine
 10
539.7176477761117
 20
244.7206804273035
 30
0.0
 11
540.8756590669786
 21
244.7206804273035
 31
0.0
  0
DIMENSION
  5
D493
102
{ACAD_REACTORS
102
}
102
{ACAD_XDICTIONARY
360
D494
102
}
330
18
100
AcDbEntity
  8
WY
100
AcDbDimension
  2
*D16
 10
562.3548951977789
 20
231.2677482635593
 30
0.0
 11
566.5048951977789
 21
232.6177482635593
 31
0.0
 70
    32
  3
STANDARD
100
AcDbAlignedDimension
 13
559.2548951977788
 23
236.2177434530543
 33
0.0
 14
562.3548951977789
 24
236.2206804273035
 34
0.0
100
AcDbRotatedDimension
1001
ACAD
1000
DSTYLE
1002
{
1070
   287
1070
     3
1070
   172
1070
     1
1070
    41
1040
1.2
1070
   271
1070
     1
1070
   147
1040
0.75
1070
   279
1070
     0
1070
    74
1070
     0
1070
   140
1040
1.2
1070
   284
1070
     8
1070
    78
1070
     8
1002
}
  0
DIMENSION
  5
D4B1
102
{ACAD_REACTORS
102
}
102
{ACAD_XDICTIONARY
360
D4B2
102
}
330
18
100
AcDbEntity
  8
WY
100
AcDbDimension
  2
*D17
 10
540.2548951977788
 20
231.2677482635593
 30
0.0
 11
549.7548951977788
 21
232.6177482635593
 31
0.0
 70
    32
  3
STANDARD
100
AcDbAlignedDimension
 13
559.2548951977788
 23
236.2177434530543
 33
0.0
 14
540.2548951977788
 24
244.1159356491952
 34
0.0
100
AcDbRotatedDimension
1001
ACAD
1000
DSTYLE
1002
{
1070
   287
1070
     4
1070
    41
1040
1.2
1070
   271
1070
     1
1070
   147
1040
0.75
1070
   174
1070
     1
1070
   279
1070
     1
1070
    74
1070
     1
1070
   140
1040
1.2
1070
   284
1070
     8
1070
    78
1070
     8
1002
}
  0
DIMENSION
  5
D4C0
102
{ACAD_REACTORS
102
}
102
{ACAD_XDICTIONARY
360
D4C1
102
}
330
18
100
AcDbEntity
  8
WY
100
AcDbDimension
  2
*D18
 10
540.2548951977788
 20
231.2677482635593
 30
0.0
 11
538.6548951977787
 21
231.2677482635593
 31
0.0
 70
   160
  3
STANDARD
100
AcDbAlignedDimension
 13
537.0548951977787
 23
236.5159356491952
 33
0.0
 14
540.2548951977788
 24
231.2677482635593
 34
0.0
100
AcDbRotatedDimension
1001
ACAD
1000
DSTYLE
1002
{
1070
   287
1070
     4
1070
     7
1000

1070
     6
1000
OBLIQUE
1070
     5
1000

1070
   173
1070
     1
1070
   172
1070
     1
1070
    41
1040
1.2
1070
   271
1070
     1
1070
   147
1040
0.75
1070
   174
1070
     1
1070
   279
1070
     1
1070
    74
1070
     1
1070
   140
1040
1.2
1070
   284
1070
     8
1070
    78
1070
     8
1002
}
  0
DIMENSION
  5
D4D0
102
{ACAD_REACTORS
102
}
102
{ACAD_XDICTIONARY
360
D4D1
102
}
330
18
100
AcDbEntity
  8
WY
100
AcDbDimension
  2
*D19
 10
537.0548951977787
 20
231.2677482635593
 30
0.0
 11
535.6060159041115
 21
231.2677482635593
 31
0.0
 70
   160
  3
STANDARD
100
AcDbAlignedDimension
 13
533.8548951977789
 23
244.1159356491952
 33
0.0
 14
537.0548951977787
 24
236.5159356491952
 34
0.0
100
AcDbRotatedDimension
1001
ACAD
1000
DSTYLE
1002
{
1070
   287
1070
     4
1070
     7
1000
OBLIQUE
1070
     6
1000

1070
     5
1000

1070
   173
1070
     1
1070
   172
1070
     1
1070
    41
1040
1.2
1070
   271
1070
     1
1070
   147
1040
0.75
1070
   174
1070
     1
1070
   279
1070
     1
1070
    74
1070
     1
1070
   140
1040
1.2
1070
   284
1070
     8
1070
    78
1070
     8
1002
}
  0
DIMENSION
  5
D4E6
102
{ACAD_REACTORS
102
}
102
{ACAD_XDICTIONARY
360
D4E7
102
}
330
18
100
AcDbEntity
  8
WY
100
AcDbDimension
  2
*D21
 10
527.1375852893584
 20
205.9878689430105
 30
0.0
 11
525.7875852893584
 21
197.9378689430105
 31
0.0
 70
    32
  3
STANDARD
100
AcDbAlignedDimension
 13
534.9167754131305
 23
189.8878689430105
 33
0.0
 14
532.6548951977788
 24
205.9878689430105
 34
0.0
 50
90.0
100
AcDbRotatedDimension
1001
ACAD
1000
DSTYLE
1002
{
1070
   287
1070
     4
1070
    41
1040
1.2
1070
   271
1070
     1
1070
   147
1040
0.75
1070
   174
1070
     1
1070
   279
1070
     1
1070
    74
1070
     1
1070
   140
1040
1.2
1070
   284
1070
     8
1070
    78
1070
     8
1002
}
  0
DIMENSION
  5
D4F5
102
{ACAD_REACTORS
102
}
102
{ACAD_XDICTIONARY
360
D4F6
102
}
330
18
100
AcDbEntity
  8
WY
100
AcDbDimension
  2
*D22
 10
567.5405017095298
 20
190.3878689430105
 30
0.0
 11
566.1905017095298
 21
188.3878689430105
 31
0.0
 70
    32
  3
STANDARD
100
AcDbAlignedDimension
 13
559.7048951977788
 23
186.3878689430105
 33
0.0
 14
562.3548951977788
 24
190.3878689430105
 34
0.0
 50
90.0
100
AcDbRotatedDimension
1001
ACAD
1000
DSTYLE
1002
{
1070
   287
1070
     4
1070
   172
1070
     1
1070
    41
1040
1.2
1070
   271
1070
     1
1070
   147
1040
0.75
1070
   174
1070
     1
1070
   279
1070
     1
1070
    74
1070
     1
1070
   140
1040
1.2
1070
   284
1070
     8
1070
    78
1070
     8
1002
}
  0
DIMENSION
  5
D506
102
{ACAD_REACTORS
102
}
102
{ACAD_XDICTIONARY
360
D507
102
}
330
18
100
AcDbEntity
  8
WY
100
AcDbDimension
  2
*D23
 10
568.6196623664584
 20
237.1206804273035
 30
0.0
 11
567.2696623664584
 21
240.9206804273035
 31
0.0
 70
    32
  3
STANDARD
100
AcDbAlignedDimension
 13
560.1357658885656
 23
244.7206804273035
 33
0.0
 14
560.1357658885656
 24
237.1206804273035
 34
0.0
 50
90.0
100
AcDbRotatedDimension
1001
ACAD
1000
DSTYLE
1002
{
1070
   287
1070
     4
1070
    41
1040
1.2
1070
   271
1070
     1
1070
   147
1040
0.75
1070
   174
1070
     1
1070
   279
1070
     1
1070
    74
1070
     1
1070
   140
1040
1.2
1070
   284
1070
     8
1070
    78
1070
     8
1002
}
  0
LINE
  5
D66A
330
18
100
AcDbEntity
  8
1
  6
CONTINUOUS
 62
     7
100
AcDbLine
 10
639.7433765694578
 20
236.8206804273035
 30
0.0
 11
640.6433765694578
 21
236.8206804273035
 31
0.0
  0
LINE
  5
D66B
330
18
100
AcDbEntity
  8
1
  6
CONTINUOUS
 62
     7
100
AcDbLine
 10
639.7433765694578
 20
237.4206804273035
 30
0.0
 11
639.7433765694578
 21
236.8206804273035
 31
0.0
  0
LINE
  5
D66C
330
18
100
AcDbEntity
  8
1
  6
CONTINUOUS
 62
     7
100
AcDbLine
 10
640.6433765694578
 20
237.4206804273035
 30
0.0
 11
639.7433765694578
 21
237.4206804273035
 31
0.0
  0
LINE
  5
D66D
330
18
100
AcDbEntity
  8
1
  6
CONTINUOUS
 62
     7
100
AcDbLine
 10
640.6433765694578
 20
236.8206804273035
 30
0.0
 11
640.6433765694578
 21
237.4206804273035
 31
0.0
  0
LINE
  5
D66E
330
18
100
AcDbEntity
  8
1
  6
CONTINUOUS
 62
     7
100
AcDbLine
 10
639.7433765694578
 20
244.4206804273035
 30
0.0
 11
640.6433765694578
 21
244.4206804273035
 31
0.0
  0
LINE
  5
D66F
330
18
100
AcDbEntity
  8
1
  6
CONTINUOUS
 62
     7
100
AcDbLine
 10
639.7433765694578
 20
245.0206804273035
 30
0.0
 11
639.7433765694578
 21
244.4206804273035
 31
0.0
  0
LINE
  5
D670
330
18
100
AcDbEntity
  8
1
  6
CONTINUOUS
 62
     7
100
AcDbLine
 10
640.6433765694578
 20
245.0206804273035
 30
0.0
 11
639.7433765694578
 21
245.0206804273035
 31
0.0
  0
LINE
  5
D671
330
18
100
AcDbEntity
  8
1
  6
CONTINUOUS
 62
     7
100
AcDbLine
 10
640.6433765694578
 20
244.4206804273035
 30
0.0
 11
640.6433765694578
 21
245.0206804273035
 31
0.0
  0
LINE
  5
D672
330
18
100
AcDbEntity
  8
1
  6
CONTINUOUS
 62
     7
100
AcDbLine
 10
616.1433765694578
 20
244.4206804273035
 30
0.0
 11
616.2433765694578
 21
244.4206804273035
 31
0.0
  0
LINE
  5
D673
330
18
100
AcDbEntity
  8
1
  6
CONTINUOUS
 62
     7
100
AcDbLine
 10
616.1433765694578
 20
245.0206804273035
 30
0.0
 11
616.1433765694578
 21
244.4206804273035
 31
0.0
  0
LINE
  5
D674
330
18
100
AcDbEntity
  8
1
  6
CONTINUOUS
 62
     7
100
AcDbLine
 10
616.2433765694578
 20
245.0206804273035
 30
0.0
 11
616.1433765694578
 21
245.0206804273035
 31
0.0
  0
LINE
  5
D675
330
18
100
AcDbEntity
  8
1
  6
CONTINUOUS
 62
     7
100
AcDbLine
 10
616.2433765694578
 20
244.4206804273035
 30
0.0
 11
616.2433765694578
 21
245.0206804273035
 31
0.0
  0
LINE
  5
D67A
330
18
100
AcDbEntity
  8
1
  6
CONTINUOUS
 62
     7
100
AcDbLine
 10
621.2433765694578
 20
236.8206804273035
 30
0.0
 11
621.2433765694578
 21
237.4206804273035
 31
0.0
  0
LINE
  5
D67B
330
18
100
AcDbEntity
  8
1
  6
CONTINUOUS
 62
     7
100
AcDbLine
 10
621.1433765694578
 20
236.8206804273035
 30
0.0
 11
621.2433765694578
 21
236.8206804273035
 31
0.0
  0
LINE
  5
D67C
330
18
100
AcDbEntity
  8
1
  6
CONTINUOUS
 62
     7
100
AcDbLine
 10
621.1433765694578
 20
237.4206804273035
 30
0.0
 11
621.1433765694578
 21
236.8206804273035
 31
0.0
  0
LINE
  5
D67D
330
18
100
AcDbEntity
  8
1
  6
CONTINUOUS
 62
     7
100
AcDbLine
 10
621.2433765694578
 20
237.4206804273035
 30
0.0
 11
621.1433765694578
 21
237.4206804273035
 31
0.0
  0
LINE
  5
D67E
330
18
100
AcDbEntity
  8
1
  6
CONTINUOUS
 62
     7
100
AcDbLine
 10
616.7314963541061
 20
236.3092881468521
 30
0.0
 11
615.8552567848095
 21
236.3092881468521
 31
0.0
  0
LINE
  5
D67F
330
18
100
AcDbEntity
  8
1
  6
CONTINUOUS
 62
     7
100
AcDbLine
 10
615.8552567848095
 20
235.9881408120494
 30
0.0
 11
616.7314963541061
 21
235.9881408120494
 31
0.0
  0
LINE
  5
D680
330
18
100
AcDbEntity
  8
1
  6
CONTINUOUS
 62
     7
100
AcDbLine
 10
643.2433765694578
 20
240.0206804273035
 30
0.0
 11
643.2433765694578
 21
241.8206804273035
 31
0.0
  0
LINE
  5
D681
330
18
100
AcDbEntity
  8
1
  6
CONTINUOUS
 62
     7
100
AcDbLine
 10
643.2311543001357
 20
240.2227530215199
 30
0.0
 11
643.2433765694578
 21
240.0206804273035
 31
0.0
  0
ELLIPSE
  5
D682
330
18
100
AcDbEntity
  8
1
  6
CONTINUOUS
 62
     7
100
AcDbEllipse
 10
643.2363924155595
 20
240.4825606426552
 30
0.0
 11
0.0
 21
0.3000000000000114
 31
0.0
210
0.0
220
0.0
230
1.0
 40
0.0349207694917658
 41
1.570796326794897
 42
2.61799387799144
  0
LINE
  5
D683
330
18
100
AcDbEntity
  8
1
  6
CONTINUOUS
 62
     7
100
AcDbLine
 10
643.2259161847119
 20
240.4825606426552
 30
0.0
 11
643.2259161847119
 21
241.3588002119518
 31
0.0
  0
ELLIPSE
  5
D684
330
18
100
AcDbEntity
  8
1
  6
CONTINUOUS
 62
     7
100
AcDbEllipse
 10
643.2363924155595
 20
241.3588002119518
 30
0.0
 11
0.0
 21
0.3000000000000114
 31
0.0
210
0.0
220
0.0
230
1.0
 40
0.0349207694917658
 41
0.5235987755983058
 42
1.570796326794897
  0
LINE
  5
D685
330
18
100
AcDbEntity
  8
1
  6
CONTINUOUS
 62
     7
100
AcDbLine
 10
643.2311543001357
 20
241.6186078330871
 30
0.0
 11
643.2433765694578
 21
241.8206804273035
 31
0.0
  0
ELLIPSE
  5
D686
330
18
100
AcDbEntity
  8
1
  6
CONTINUOUS
 62
     7
100
AcDbEllipse
 10
615.8552567848095
 20
245.4952373394841
 30
0.0
 11
0.3000000000000114
 21
0.0
 31
0.0
210
0.0
220
0.0
230
1.0
 40
0.1227845609029478
 41
1.570796326794897
 42
2.617993877991463
  0
ELLIPSE
  5
D687
330
18
100
AcDbEntity
  8
1
  6
CONTINUOUS
 62
     7
100
AcDbEllipse
 10
615.8552567848095
 20
245.8636962734052
 30
0.0
 11
0.3000000000000114
 21
0.0
 31
0.0
210
0.0
220
0.0
230
1.0
 40
0.034920769491671
 41
3.665191429191949
 42
4.71238898038469
  0
ELLIPSE
  5
D688
330
18
100
AcDbEntity
  8
1
  6
CONTINUOUS
 62
     7
100
AcDbEllipse
 10
642.8679334816384
 20
240.4825606426552
 30
0.0
 11
0.0
 21
0.3000000000000114
 31
0.0
210
0.0
220
0.0
230
1.0
 40
0.1227845609029004
 41
3.665191429188066
 42
4.712388980384691
  0
LINE
  5
D689
330
18
100
AcDbEntity
  8
1
  6
CONTINUOUS
 62
     7
100
AcDbLine
 10
642.8863511657738
 20
240.2227530215199
 30
0.0
 11
642.8433765694579
 21
240.0206804273035
 31
0.0
  0
LINE
  5
D68A
330
18
100
AcDbEntity
  8
1
  6
CONTINUOUS
 62
     7
100
AcDbLine
 10
642.8433765694579
 20
241.8206804273035
 30
0.0
 11
642.8433765694579
 21
240.0206804273035
 31
0.0
  0
LINE
  5
D68B
330
18
100
AcDbEntity
  8
1
  6
CONTINUOUS
 62
     7
100
AcDbLine
 10
642.8863511657738
 20
241.6186078330871
 30
0.0
 11
642.8433765694579
 21
241.8206804273035
 31
0.0
  0
ELLIPSE
  5
D68C
330
18
100
AcDbEntity
  8
1
  6
CONTINUOUS
 62
     7
100
AcDbEllipse
 10
642.8679334816384
 20
241.3588002119518
 30
0.0
 11
0.0
 21
0.3000000000000114
 31
0.0
210
0.0
220
0.0
230
1.0
 40
0.1227845609029004
 41
4.712388980384691
 42
5.759586531581535
  0
LINE
  5
D68D
330
18
100
AcDbEntity
  8
1
  6
CONTINUOUS
 62
     7
100
AcDbLine
 10
642.9047688499093
 20
241.3588002119518
 30
0.0
 11
642.9047688499093
 21
240.4825606426552
 31
0.0
  0
LINE
  5
D68E
330
18
100
AcDbEntity
  8
1
  6
CONTINUOUS
 62
     7
100
AcDbLine
 10
615.5954491636742
 20
245.8584581579814
 30
0.0
 11
615.3933765694578
 21
245.8706804273035
 31
0.0
  0
LINE
  5
D68F
330
18
100
AcDbEntity
  8
1
  6
CONTINUOUS
 62
     7
100
AcDbLine
 10
617.1933765694578
 20
245.8706804273035
 30
0.0
 11
615.3933765694578
 21
245.8706804273035
 31
0.0
  0
LINE
  5
D690
330
18
100
AcDbEntity
  8
1
  6
CONTINUOUS
 62
     7
100
AcDbLine
 10
616.9913039752414
 20
245.8584581579814
 30
0.0
 11
617.1933765694578
 21
245.8706804273035
 31
0.0
  0
ELLIPSE
  5
D691
330
18
100
AcDbEntity
  8
1
  6
CONTINUOUS
 62
     7
100
AcDbEllipse
 10
616.7314963541061
 20
245.8636962734052
 30
0.0
 11
0.3000000000000114
 21
0.0
 31
0.0
210
0.0
220
0.0
230
1.0
 40
0.034920769491671
 41
4.71238898038469
 42
5.759586531578062
  0
LINE
  5
D692
330
18
100
AcDbEntity
  8
1
  6
CONTINUOUS
 62
     7
100
AcDbLine
 10
616.7314963541061
 20
245.8532200425576
 30
0.0
 11
615.8552567848095
 21
245.8532200425576
 31
0.0
  0
LINE
  5
D693
330
18
100
AcDbEntity
  8
1
  6
CONTINUOUS
 62
     7
100
AcDbLine
 10
615.3933765694578
 20
245.4706804273035
 30
0.0
 11
617.1933765694578
 21
245.4706804273035
 31
0.0
  0
LINE
  5
D694
330
18
100
AcDbEntity
  8
1
  6
CONTINUOUS
 62
     7
100
AcDbLine
 10
615.5954491636742
 20
245.5136550236195
 30
0.0
 11
615.3933765694578
 21
245.4706804273035
 31
0.0
  0
LINE
  5
D695
330
18
100
AcDbEntity
  8
1
  6
CONTINUOUS
 62
     7
100
AcDbLine
 10
615.8552567848095
 20
245.532072707755
 30
0.0
 11
616.7314963541061
 21
245.532072707755
 31
0.0
  0
ELLIPSE
  5
D696
330
18
100
AcDbEntity
  8
1
  6
CONTINUOUS
 62
     7
100
AcDbEllipse
 10
616.7314963541061
 20
245.4952373394841
 30
0.0
 11
0.3000000000000114
 21
0.0
 31
0.0
210
0.0
220
0.0
230
1.0
 40
0.1227845609029478
 41
0.5235987755983058
 42
1.570796326794897
  0
LINE
  5
D697
330
18
100
AcDbEntity
  8
1
  6
CONTINUOUS
 62
     7
100
AcDbLine
 10
616.9913039752414
 20
245.5136550236195
 30
0.0
 11
617.1933765694578
 21
245.4706804273035
 31
0.0
  0
ELLIPSE
  5
D698
330
18
100
AcDbEntity
  8
1
  6
CONTINUOUS
 62
     7
100
AcDbEllipse
 10
616.7314963541061
 20
236.3461235151229
 30
0.0
 11
0.3000000000000114
 21
0.0
 31
0.0
210
0.0
220
0.0
230
1.0
 40
0.1227845609029478
 41
4.712388980384691
 42
5.759586531581364
  0
ELLIPSE
  5
D699
330
18
100
AcDbEntity
  8
1
  6
CONTINUOUS
 62
     7
100
AcDbEllipse
 10
616.7314963541061
 20
235.9776645812019
 30
0.0
 11
0.3000000000000114
 21
0.0
 31
0.0
210
0.0
220
0.0
230
1.0
 40
0.034920769491671
 41
0.5235987755994805
 42
1.570796326794897
  0
ELLIPSE
  5
D69A
330
18
100
AcDbEntity
  8
1
  6
CONTINUOUS
 62
     7
100
AcDbEllipse
 10
615.8552567848095
 20
236.3461235151229
 30
0.0
 11
0.3000000000000114
 21
0.0
 31
0.0
210
0.0
220
0.0
230
1.0
 40
0.1227845609029478
 41
3.66519142918821
 42
4.712388980384691
  0
LINE
  5
D69B
330
18
100
AcDbEntity
  8
1
  6
CONTINUOUS
 62
     7
100
AcDbLine
 10
615.5954491636742
 20
236.3277058309875
 30
0.0
 11
615.3933765694578
 21
236.3706804273035
 31
0.0
  0
LINE
  5
D69C
330
18
100
AcDbEntity
  8
1
  6
CONTINUOUS
 62
     7
100
AcDbLine
 10
617.1933765694578
 20
236.3706804273035
 30
0.0
 11
615.3933765694578
 21
236.3706804273035
 31
0.0
  0
LINE
  5
D69D
330
18
100
AcDbEntity
  8
1
  6
CONTINUOUS
 62
     7
100
AcDbLine
 10
616.9913039752414
 20
236.3277058309875
 30
0.0
 11
617.1933765694578
 21
236.3706804273035
 31
0.0
  0
LINE
  5
D69E
330
18
100
AcDbEntity
  8
1
  6
CONTINUOUS
 62
     7
100
AcDbLine
 10
615.3933765694578
 20
235.9706804273035
 30
0.0
 11
617.1933765694578
 21
235.9706804273035
 31
0.0
  0
LINE
  5
D69F
330
18
100
AcDbEntity
  8
1
  6
CONTINUOUS
 62
     7
100
AcDbLine
 10
615.5954491636742
 20
235.9829026966256
 30
0.0
 11
615.3933765694578
 21
235.9706804273035
 31
0.0
  0
ELLIPSE
  5
D6A0
330
18
100
AcDbEntity
  8
1
  6
CONTINUOUS
 62
     7
100
AcDbEllipse
 10
615.8552567848095
 20
235.9776645812019
 30
0.0
 11
0.3000000000000114
 21
0.0
 31
0.0
210
0.0
220
0.0
230
1.0
 40
0.034920769491671
 41
1.570796326794897
 42
2.617993877990285
  0
LINE
  5
D6A1
330
18
100
AcDbEntity
  8
1
  6
CONTINUOUS
 62
     7
100
AcDbLine
 10
616.9913039752414
 20
235.9829026966256
 30
0.0
 11
617.1933765694578
 21
235.9706804273035
 31
0.0
  0
LINE
  5
D6A2
330
18
100
AcDbEntity
  8
1
  6
CONTINUOUS
 62
     7
100
AcDbLine
 10
643.2433765694578
 20
241.8206804273035
 30
0.0
 11
642.8433765694579
 21
241.8206804273035
 31
0.0
  0
LINE
  5
D6A3
330
18
100
AcDbEntity
  8
1
  6
CONTINUOUS
 62
     7
100
AcDbLine
 10
642.8433765694579
 20
240.0206804273035
 30
0.0
 11
643.2433765694578
 21
240.0206804273035
 31
0.0
  0
LINE
  5
D6A4
330
18
100
AcDbEntity
  8
1
  6
CONTINUOUS
 62
     7
100
AcDbLine
 10
615.3933765694578
 20
245.8706804273035
 30
0.0
 11
615.3933765694578
 21
245.4706804273035
 31
0.0
  0
LINE
  5
D6A5
330
18
100
AcDbEntity
  8
1
  6
CONTINUOUS
 62
     7
100
AcDbLine
 10
617.1933765694578
 20
245.4706804273035
 30
0.0
 11
617.1933765694578
 21
245.8706804273035
 31
0.0
  0
LINE
  5
D6A6
330
18
100
AcDbEntity
  8
1
  6
CONTINUOUS
 62
     7
100
AcDbLine
 10
615.3933765694578
 20
236.3706804273035
 30
0.0
 11
615.3933765694578
 21
235.9706804273035
 31
0.0
  0
LINE
  5
D6A7
330
18
100
AcDbEntity
  8
1
  6
CONTINUOUS
 62
     7
100
AcDbLine
 10
617.1933765694578
 20
235.9706804273035
 30
0.0
 11
617.1933765694578
 21
236.3706804273035
 31
0.0
  0
LINE
  5
D6A8
330
18
100
AcDbEntity
  8
1
  6
CONTINUOUS
 62
     7
100
AcDbLine
 10
642.7933765694578
 20
245.4206804273035
 30
0.0
 11
613.7933765694578
 21
245.4206804273035
 31
0.0
  0
LINE
  5
D6A9
330
18
100
AcDbEntity
  8
1
  6
CONTINUOUS
 62
     7
100
AcDbLine
 10
613.7933765694578
 20
245.4206804273035
 30
0.0
 11
613.7933765694578
 21
236.4206804273035
 31
0.0
  0
LINE
  5
D6AA
330
18
100
AcDbEntity
  8
1
  6
CONTINUOUS
 62
     7
100
AcDbLine
 10
613.7933765694578
 20
236.4206804273035
 30
0.0
 11
642.7933765694578
 21
236.4206804273035
 31
0.0
  0
ARC
  5
D6AB
102
{ACAD_REACTORS
102
}
330
18
100
AcDbEntity
  8
1
  6
CONTINUOUS
 62
     7
100
AcDbCircle
 10
642.9933765694578
 20
245.6206804273035
 30
0.0
 40
0.2999999999999972
100
AcDbArc
 50
0.0
 51
90.0
  0
LINE
  5
D6AC
102
{ACAD_REACTORS
102
}
330
18
100
AcDbEntity
  8
1
  6
CONTINUOUS
 62
     7
100
AcDbLine
 10
643.2933765694578
 20
245.6206804273035
 30
0.0
 11
643.2933765694578
 21
236.2206804273035
 31
0.0
  0
ARC
  5
D6AD
102
{ACAD_REACTORS
102
}
330
18
100
AcDbEntity
  8
1
  6
CONTINUOUS
 62
     7
100
AcDbCircle
 10
642.9933765694578
 20
236.2206804273035
 30
0.0
 40
0.3000000000000114
100
AcDbArc
 50
270.0
 51
0.0
  0
LINE
  5
D6AE
102
{ACAD_REACTORS
102
}
330
18
100
AcDbEntity
  8
1
  6
CONTINUOUS
 62
     7
100
AcDbLine
 10
642.9933765694578
 20
235.9206804273035
 30
0.0
 11
613.5933765694579
 21
235.9206804273035
 31
0.0
  0
ARC
  5
D6AF
330
18
100
AcDbEntity
  8
1
  6
CONTINUOUS
 62
     7
100
AcDbCircle
 10
613.5933765694579
 20
236.2206804273035
 30
0.0
 40
0.3000000000000114
100
AcDbArc
 50
180.0
 51
270.0
  0
LINE
  5
D6B0
102
{ACAD_REACTORS
102
}
330
18
100
AcDbEntity
  8
1
  6
CONTINUOUS
 62
     7
100
AcDbLine
 10
613.2933765694578
 20
236.2206804273035
 30
0.0
 11
613.2933765694578
 21
245.6206804273035
 31
0.0
  0
ARC
  5
D6B1
330
18
100
AcDbEntity
  8
1
  6
CONTINUOUS
 62
     7
100
AcDbCircle
 10
613.5933765694579
 20
245.6206804273035
 30
0.0
 40
0.2999999999999972
100
AcDbArc
 50
90.0
 51
180.0
  0
LINE
  5
D6B2
330
18
100
AcDbEntity
  8
1
  6
CONTINUOUS
 62
     7
100
AcDbLine
 10
642.7933765694578
 20
236.4206804273035
 30
0.0
 11
642.7933765694578
 21
245.4206804273035
 31
0.0
  0
LINE
  5
D6B3
330
18
100
AcDbEntity
  8
1
  6
CONTINUOUS
 62
     7
100
AcDbLine
 10
613.5933765694579
 20
245.9206804273035
 30
0.0
 11
642.9933765694578
 21
245.9206804273035
 31
0.0
  0
LINE
  5
D6B4
330
18
100
AcDbEntity
  8
1
  6
CONTINUOUS
 62
     7
100
AcDbLine
 10
640.8933765694578
 20
243.5206804273035
 30
0.0
 11
615.6933765694578
 21
243.5206804273035
 31
0.0
  0
LINE
  5
D6B5
330
18
100
AcDbEntity
  8
1
  6
CONTINUOUS
 62
     7
100
AcDbLine
 10
640.8933765694578
 20
238.3206804273035
 30
0.0
 11
640.8933765694578
 21
243.5206804273035
 31
0.0
  0
LINE
  5
D6B6
330
18
100
AcDbEntity
  8
1
  6
CONTINUOUS
 62
     7
100
AcDbLine
 10
615.6933765694578
 20
243.5206804273035
 30
0.0
 11
615.6933765694578
 21
238.3206804273035
 31
0.0
  0
LINE
  5
D6B7
330
18
100
AcDbEntity
  8
1
  6
CONTINUOUS
 62
     7
100
AcDbLine
 10
615.6933765694578
 20
238.3206804273035
 30
0.0
 11
640.8933765694578
 21
238.3206804273035
 31
0.0
  0
LINE
  5
D6B8
330
18
100
AcDbEntity
  8
1
  6
CONTINUOUS
 62
     7
100
AcDbLine
 10
640.9933765694578
 20
243.6206804273035
 30
0.0
 11
640.8933765694578
 21
243.5206804273035
 31
0.0
  0
LINE
  5
D6B9
330
18
100
AcDbEntity
  8
1
  6
CONTINUOUS
 62
     7
100
AcDbLine
 10
640.8933765694578
 20
238.3206804273035
 30
0.0
 11
640.9933765694578
 21
238.2206804273035
 31
0.0
  0
LINE
  5
D6BA
330
18
100
AcDbEntity
  8
1
  6
CONTINUOUS
 62
     7
100
AcDbLine
 10
615.5933765694579
 20
243.6206804273035
 30
0.0
 11
615.6933765694578
 21
243.5206804273035
 31
0.0
  0
LINE
  5
D6BB
330
18
100
AcDbEntity
  8
1
  6
CONTINUOUS
 62
     7
100
AcDbLine
 10
615.6933765694578
 20
238.3206804273035
 30
0.0
 11
615.5933765694579
 21
238.2206804273035
 31
0.0
  0
ARC
  5
D6BC
330
18
100
AcDbEntity
  8
1
  6
CONTINUOUS
 62
     7
100
AcDbCircle
 10
638.5933765694579
 20
204.7878689430105
 30
0.0
 40
0.2000000000000171
100
AcDbArc
 50
270.0
 51
0.0
  0
ARC
  5
D6BD
330
18
100
AcDbEntity
  8
1
  6
CONTINUOUS
 62
     7
100
AcDbCircle
 10
641.9933765694578
 20
204.7878689430105
 30
0.0
 40
0.2000000000000171
100
AcDbArc
 50
180.0
 51
270.0
  0
LINE
  5
D6BE
330
18
100
AcDbEntity
  8
1
  6
CONTINUOUS
 62
     7
100
AcDbLine
 10
640.9213131850512
 20
204.7878689430105
 30
0.0
 11
640.8933765694578
 21
205.5878689430105
 31
0.0
  0
LINE
  5
D6BF
330
18
100
AcDbEntity
  8
1
  6
CONTINUOUS
 62
     7
100
AcDbLine
 10
639.6933765694578
 20
205.5878689430105
 30
0.0
 11
639.6654399538644
 21
204.7878689430105
 31
0.0
  0
ARC
  5
D6C0
102
{ACAD_REACTORS
102
}
330
18
100
AcDbEntity
  8
1
  6
CONTINUOUS
 62
     7
100
AcDbCircle
 10
613.5933765694579
 20
205.6878689430105
 30
0.0
 40
0.3000000000000114
100
AcDbArc
 50
90.0
 51
180.0
  0
LINE
  5
D6C1
330
18
100
AcDbEntity
  8
1
  6
CONTINUOUS
 62
     7
100
AcDbLine
 10
613.2933765694578
 20
205.6878689430105
 30
0.0
 11
613.2933765694578
 21
190.3878689430105
 31
0.0
  0
LINE
  5
D6C2
330
18
100
AcDbEntity
  8
1
  6
CONTINUOUS
 62
     7
100
AcDbLine
 10
613.2933765694578
 20
190.3878689430105
 30
0.0
 11
613.5933765694579
 21
190.3878689430105
 31
0.0
  0
LINE
  5
D6C3
330
18
100
AcDbEntity
  8
1
  6
CONTINUOUS
 62
     7
100
AcDbLine
 10
613.5933765694579
 20
205.9878689430105
 30
0.0
 11
636.7947889071128
 21
205.9878689430105
 31
0.0
  0
ARC
  5
D6C4
330
18
100
AcDbEntity
  8
1
  6
CONTINUOUS
 62
     7
100
AcDbCircle
 10
642.9933765694578
 20
204.2878689430105
 30
0.0
 40
0.2999999999999972
100
AcDbArc
 50
0.0
 51
90.0
  0
ARC
  5
D6C5
330
18
100
AcDbEntity
  8
1
  6
CONTINUOUS
 62
     7
100
AcDbCircle
 10
637.545106458811
 20
204.8878689430105
 30
0.0
 40
0.3000000000000398
100
AcDbArc
 50
190.0000000000043
 51
270.0
  0
ARC
  5
D6C6
330
18
100
AcDbEntity
  8
1
  6
CONTINUOUS
 62
     7
100
AcDbCircle
 10
636.7947889071128
 20
205.6878689430105
 30
0.0
 40
0.3000000000000148
100
AcDbArc
 50
9.999999999998986
 51
90.0
  0
LINE
  5
D6C7
330
18
100
AcDbEntity
  8
1
  6
CONTINUOUS
 62
     7
100
AcDbLine
 10
613.5933765694579
 20
190.3878689430105
 30
0.0
 11
642.9933765694578
 21
190.3878689430105
 31
0.0
  0
LINE
  5
D6C8
330
18
100
AcDbEntity
  8
1
  6
CONTINUOUS
 62
     7
100
AcDbLine
 10
637.545106458811
 20
204.5878689430105
 30
0.0
 11
642.9933765694578
 21
204.5878689430105
 31
0.0
  0
LINE
  5
D6C9
102
{ACAD_REACTORS
102
}
330
18
100
AcDbEntity
  8
1
  6
CONTINUOUS
 62
     7
100
AcDbLine
 10
643.2933765694578
 20
204.2878689430105
 30
0.0
 11
643.2933765694578
 21
190.3878689430105
 31
0.0
  0
LINE
  5
D6CA
330
18
100
AcDbEntity
  8
1
  6
CONTINUOUS
 62
     7
100
AcDbLine
 10
642.9933765694578
 20
190.3878689430105
 30
0.0
 11
643.2933765694578
 21
190.3878689430105
 31
0.0
  0
LINE
  5
D6CB
330
18
100
AcDbEntity
  8
1
  6
CONTINUOUS
 62
     7
100
AcDbLine
 10
637.0902312330164
 20
205.7399633963106
 30
0.0
 11
637.2496641329074
 21
204.8357744897104
 31
0.0
  0
ARC
  5
D6CC
102
{ACAD_REACTORS
102
}
330
18
100
AcDbEntity
  8
1
  6
CONTINUOUS
 62
     7
100
AcDbCircle
 10
615.8552567848095
 20
190.1878689430105
 30
0.0
 40
0.3000000000000114
100
AcDbArc
 50
210.0000000000004
 51
270.0
  0
LINE
  5
D6CD
330
18
100
AcDbEntity
  8
1
  6
CONTINUOUS
 62
     7
100
AcDbLine
 10
615.5954491636742
 20
190.0378689430105
 30
0.0
 11
615.3933765694578
 21
190.3878689430105
 31
0.0
  0
ARC
  5
D6CE
330
18
100
AcDbEntity
  8
1
  6
CONTINUOUS
 62
     7
100
AcDbCircle
 10
616.7314963541061
 20
190.1878689430105
 30
0.0
 40
0.3000000000000114
100
AcDbArc
 50
270.0
 51
329.9999999999996
  0
LINE
  5
D6CF
330
18
100
AcDbEntity
  8
1
  6
CONTINUOUS
 62
     7
100
AcDbLine
 10
616.7314963541061
 20
189.8878689430105
 30
0.0
 11
615.8552567848095
 21
189.8878689430105
 31
0.0
  0
LINE
  5
D6D0
330
18
100
AcDbEntity
  8
1
  6
CONTINUOUS
 62
     7
100
AcDbLine
 10
616.9913039752414
 20
190.0378689430105
 30
0.0
 11
617.1933765694578
 21
190.3878689430105
 31
0.0
  0
LINE
  5
D6D1
102
{ACAD_REACTORS
102
}
330
18
100
AcDbEntity
  8
1
  6
CONTINUOUS
 62
     7
100
AcDbLine
 10
640.6433765694578
 20
186.3878689430105
 30
0.0
 11
640.6433765694578
 21
190.3878689430105
 31
0.0
  0
LINE
  5
D6D2
330
18
100
AcDbEntity
  8
1
  6
CONTINUOUS
 62
     7
100
AcDbLine
 10
640.6433765694578
 20
186.3878689430105
 30
0.0
 11
639.7433765694578
 21
186.3878689430105
 31
0.0
  0
LINE
  5
D6D3
330
18
100
AcDbEntity
  8
1
  6
CONTINUOUS
 62
     7
100
AcDbLine
 10
639.7433765694578
 20
186.3878689430105
 30
0.0
 11
639.7433765694578
 21
190.3878689430105
 31
0.0
  0
LINE
  5
D6D4
330
18
100
AcDbEntity
  8
1
  6
CONTINUOUS
 62
     7
100
AcDbLine
 10
616.2433765694578
 20
186.3878689430105
 30
0.0
 11
616.1433765694578
 21
186.3878689430105
 31
0.0
  0
LINE
  5
D6D5
330
18
100
AcDbEntity
  8
1
  6
CONTINUOUS
 62
     7
100
AcDbLine
 10
616.2433765694578
 20
186.3878689430105
 30
0.0
 11
616.2433765694578
 21
189.8878689430105
 31
0.0
  0
LINE
  5
D6D6
330
18
100
AcDbEntity
  8
1
  6
CONTINUOUS
 62
     7
100
AcDbLine
 10
616.1433765694578
 20
186.3878689430105
 30
0.0
 11
616.1433765694578
 21
189.8878689430105
 31
0.0
  0
LINE
  5
D6D7
330
18
100
AcDbEntity
  8
1
  6
CONTINUOUS
 62
     7
100
AcDbLine
 10
621.2433765694578
 20
186.3878689430105
 30
0.0
 11
621.2433765694578
 21
190.3878689430105
 31
0.0
  0
LINE
  5
D6D8
330
18
100
AcDbEntity
  8
1
  6
CONTINUOUS
 62
     7
100
AcDbLine
 10
621.1433765694578
 20
186.3878689430105
 30
0.0
 11
621.1433765694578
 21
190.3878689430105
 31
0.0
  0
LINE
  5
D6D9
330
18
100
AcDbEntity
  8
1
  6
CONTINUOUS
 62
     7
100
AcDbLine
 10
621.2433765694578
 20
186.3878689430105
 30
0.0
 11
621.1433765694578
 21
186.3878689430105
 31
0.0
  0
LINE
  5
D6DA
330
18
100
AcDbEntity
  8
1
  6
CONTINUOUS
 62
     7
100
AcDbLine
 10
638.7933765694578
 20
204.7878689430105
 30
0.0
 11
641.7933765694578
 21
204.7878689430105
 31
0.0
  0
LINE
  5
D6DB
330
18
100
AcDbEntity
  8
1
  6
CONTINUOUS
 62
     7
100
AcDbLine
 10
643.2311543001357
 20
190.0378689430105
 30
0.0
 11
643.2433765694578
 21
190.3878689430105
 31
0.0
  0
LINE
  5
D6DC
330
18
100
AcDbEntity
  8
1
  6
CONTINUOUS
 62
     7
100
AcDbLine
 10
642.8863511657738
 20
190.0378689430105
 30
0.0
 11
642.8433765694577
 21
190.3878689430105
 31
0.0
  0
LINE
  5
D6DD
330
18
100
AcDbEntity
  8
1
  6
CONTINUOUS
 62
     7
100
AcDbLine
 10
643.2259161847119
 20
189.8878689430105
 30
0.0
 11
642.9047688499093
 21
189.8878689430105
 31
0.0
  0
LINE
  5
D6DE
330
18
100
AcDbEntity
  8
1
  6
CONTINUOUS
 62
     7
100
AcDbLine
 10
643.2311543001357
 20
190.0378689430105
 30
0.0
 11
643.2259161847119
 21
189.8878689430105
 31
0.0
  0
LINE
  5
D6DF
330
18
100
AcDbEntity
  8
1
  6
CONTINUOUS
 62
     7
100
AcDbLine
 10
642.9047688499093
 20
189.8878689430105
 30
0.0
 11
642.8863511657738
 21
190.0378689430105
 31
0.0
  0
LINE
  5
D6E0
330
18
100
AcDbEntity
  8
1
  6
CONTINUOUS
 62
     7
100
AcDbLine
 10
639.6933765694578
 20
205.5878689430105
 30
0.0
 11
640.8933765694578
 21
205.5878689430105
 31
0.0
  0
DIMENSION
  5
D6E4
102
{ACAD_REACTORS
102
}
102
{ACAD_XDICTIONARY
360
D6E5
102
}
330
18
100
AcDbEntity
  8
WYMIARY
100
AcDbDimension
  2
*D35
 10
643.2933765694578
 20
252.0629934425245
 30
0.0
 11
628.2933765694578
 21
253.4129934425245
 31
0.0
 70
    32
  3
STANDARD
100
AcDbAlignedDimension
 13
613.2933765694578
 23
245.6206804273035
 33
0.0
 14
643.2933765694578
 24
245.6206804273035
 34
0.0
100
AcDbRotatedDimension
1001
ACAD
1000
DSTYLE
1002
{
1070
   287
1070
     5
1070
    41
1040
1.2
1070
   271
1070
     1
1070
   147
1040
0.75
1070
   279
1070
     2
1070
    74
1070
     1
1070
   140
1040
1.2
1070
   284
1070
     8
1070
    78
1070
     8
1002
}
  0
LINE
  5
D6E7
330
18
100
AcDbEntity
  8
OSIE
 48
0.2
100
AcDbLine
 10
611.1454148406075
 20
240.9206804273035
 30
0.0
 11
645.2935624930983
 21
240.9206804273035
 31
0.0
  0
LINE
  5
D6E9
102
{ACAD_REACTORS
102
}
330
18
100
AcDbEntity
  8
OSIE
 48
0.2
100
AcDbLine
 10
616.1933765694579
 20
245.2414413599676
 30
0.0
 11
616.1933765694579
 21
244.1159356491952
 31
0.0
  0
LINE
  5
D6EA
102
{ACAD_REACTORS
102
}
330
18
100
AcDbEntity
  8
OSIE
 48
0.2
100
AcDbLine
 10
621.1933765694578
 20
237.6414413599676
 30
0.0
 11
621.1933765694578
 21
236.5159356491952
 31
0.0
  0
LINE
  5
D6EB
102
{ACAD_REACTORS
102
}
330
18
100
AcDbEntity
  8
OSIE
 48
0.2
100
AcDbLine
 10
640.1933765694578
 20
236.2177434530543
 30
0.0
 11
640.1933765694578
 21
238.0529278761147
 31
0.0
  0
LINE
  5
D6EC
330
18
100
AcDbEntity
  8
OSIE
 48
0.2
100
AcDbLine
 10
640.1933765694578
 20
243.7940119390927
 30
0.0
 11
640.1933765694578
 21
245.6143164884526
 31
0.0
  0
LINE
  5
D6ED
102
{ACAD_REACTORS
102
}
330
18
100
AcDbEntity
  8
OSIE
 48
0.2
100
AcDbLine
 10
639.3351987251884
 20
244.7206804273035
 30
0.0
 11
641.0742472602446
 21
244.7206804273035
 31
0.0
  0
LINE
  5
D6EE
102
{ACAD_REACTORS
102
}
330
18
100
AcDbEntity
  8
OSIE
 48
0.2
100
AcDbLine
 10
639.3351987251884
 20
237.1206804273035
 30
0.0
 11
641.0742472602446
 21
237.1206804273035
 31
0.0
  0
LINE
  5
D6F0
330
18
100
AcDbEntity
  8
OSIE
 48
0.2
100
AcDbLine
 10
615.6561291477907
 20
244.7206804273035
 30
0.0
 11
616.8141404386577
 21
244.7206804273035
 31
0.0
  0
LINE
  5
D6F1
330
18
100
AcDbEntity
  8
OSIE
 48
0.2
100
AcDbLine
 10
620.6561291477907
 20
237.1206804273035
 30
0.0
 11
621.8141404386577
 21
237.1206804273035
 31
0.0
  0
DIMENSION
  5
D6F2
102
{ACAD_REACTORS
102
}
102
{ACAD_XDICTIONARY
360
D6F3
102
}
330
18
100
AcDbEntity
  8
WY
100
AcDbDimension
  2
*D36
 10
643.2933765694579
 20
231.2677482635593
 30
0.0
 11
647.4433765694579
 21
232.6177482635593
 31
0.0
 70
    32
  3
STANDARD
100
AcDbAlignedDimension
 13
640.1933765694578
 23
236.2177434530543
 33
0.0
 14
643.2933765694579
 24
236.2206804273035
 34
0.0
100
AcDbRotatedDimension
1001
ACAD
1000
DSTYLE
1002
{
1070
   287
1070
     3
1070
   172
1070
     1
1070
    41
1040
1.2
1070
   271
1070
     1
1070
   147
1040
0.75
1070
   279
1070
     0
1070
    74
1070
     0
1070
   140
1040
1.2
1070
   284
1070
     8
1070
    78
1070
     8
1002
}
  0
DIMENSION
  5
D6F5
102
{ACAD_REACTORS
102
}
102
{ACAD_XDICTIONARY
360
D6F6
102
}
330
18
100
AcDbEntity
  8
WY
100
AcDbDimension
  2
*D37
 10
621.1933765694578
 20
231.2677482635593
 30
0.0
 11
630.6933765694578
 21
232.6177482635593
 31
0.0
 70
    32
  3
STANDARD
100
AcDbAlignedDimension
 13
640.1933765694578
 23
236.2177434530543
 33
0.0
 14
621.1933765694578
 24
236.5159356491952
 34
0.0
100
AcDbRotatedDimension
1001
ACAD
1000
DSTYLE
1002
{
1070
   287
1070
     4
1070
    41
1040
1.2
1070
   271
1070
     1
1070
   147
1040
0.75
1070
   174
1070
     1
1070
   279
1070
     1
1070
    74
1070
     1
1070
   140
1040
1.2
1070
   284
1070
     8
1070
    78
1070
     8
1002
}
  0
DIMENSION
  5
D6FB
102
{ACAD_REACTORS
102
}
102
{ACAD_XDICTIONARY
360
D6FC
102
}
330
18
100
AcDbEntity
  8
WY
100
AcDbDimension
  2
*D39
 10
621.1933765694578
 20
231.2677482635593
 30
0.0
 11
618.6933765694578
 21
231.2677482635593
 31
0.0
 70
   160
  3
STANDARD
100
AcDbAlignedDimension
 13
616.1933765694579
 23
244.1159356491952
 33
0.0
 14
621.1933765694578
 24
236.5159356491952
 34
0.0
100
AcDbRotatedDimension
1001
ACAD
1000
DSTYLE
1002
{
1070
   287
1070
     4
1070
     7
1000

1070
     6
1000

1070
     5
1000

1070
   173
1070
     1
1070
   172
1070
     1
1070
    41
1040
1.2
1070
   271
1070
     1
1070
   147
1040
0.75
1070
   174
1070
     1
1070
   279
1070
     1
1070
    74
1070
     1
1070
   140
1040
1.2
1070
   284
1070
     8
1070
    78
1070
     8
1002
}
  0
DIMENSION
  5
D6FE
102
{ACAD_REACTORS
102
}
102
{ACAD_XDICTIONARY
360
D6FF
102
}
330
18
100
AcDbEntity
  8
WY
100
AcDbDimension
  2
*D40
 10
608.0760666610374
 20
205.9878689430105
 30
0.0
 11
606.7260666610374
 21
197.9378689430105
 31
0.0
 70
    32
  3
STANDARD
100
AcDbAlignedDimension
 13
615.8552567848095
 23
189.8878689430105
 33
0.0
 14
613.5933765694579
 24
205.9878689430105
 34
0.0
 50
90.0
100
AcDbRotatedDimension
1001
ACAD
1000
DSTYLE
1002
{
1070
   287
1070
     4
1070
    41
1040
1.2
1070
   271
1070
     1
1070
   147
1040
0.75
1070
   174
1070
     1
1070
   279
1070
     1
1070
    74
1070
     1
1070
   140
1040
1.2
1070
   284
1070
     8
1070
    78
1070
     8
1002
}
  0
DIMENSION
  5
D701
102
{ACAD_REACTORS
102
}
102
{ACAD_XDICTIONARY
360
D702
102
}
330
18
100
AcDbEntity
  8
WY
100
AcDbDimension
  2
*D41
 10
648.4789830812089
 20
190.3878689430105
 30
0.0
 11
647.1289830812088
 21
188.3878689430105
 31
0.0
 70
    32
  3
STANDARD
100
AcDbAlignedDimension
 13
640.6433765694578
 23
186.3878689430105
 33
0.0
 14
643.2933765694578
 24
190.3878689430105
 34
0.0
 50
90.0
100
AcDbRotatedDimension
1001
ACAD
1000
DSTYLE
1002
{
1070
   287
1070
     4
1070
   172
1070
     1
1070
    41
1040
1.2
1070
   271
1070
     1
1070
   147
1040
0.75
1070
   174
1070
     1
1070
   279
1070
     1
1070
    74
1070
     1
1070
   140
1040
1.2
1070
   284
1070
     8
1070
    78
1070
     8
1002
}
  0
DIMENSION
  5
D704
102
{ACAD_REACTORS
102
}
102
{ACAD_XDICTIONARY
360
D705
102
}
330
18
100
AcDbEntity
  8
WY
100
AcDbDimension
  2
*D42
 10
649.5581437381375
 20
237.1206804273035
 30
0.0
 11
648.2081437381374
 21
240.9206804273035
 31
0.0
 70
    32
  3
STANDARD
100
AcDbAlignedDimension
 13
641.0742472602446
 23
244.7206804273035
 33
0.0
 14
641.0742472602446
 24
237.1206804273035
 34
0.0
 50
90.0
100
AcDbRotatedDimension
1001
ACAD
1000
DSTYLE
1002
{
1070
   287
1070
     4
1070
    41
1040
1.2
1070
   271
1070
     1
1070
   147
1040
0.75
1070
   174
1070
     1
1070
   279
1070
     1
1070
    74
1070
     1
1070
   140
1040
1.2
1070
   284
1070
     8
1070
    78
1070
     8
1002
}
  0
DIMENSION
  5
D76D
102
{ACAD_REACTORS
102
}
102
{ACAD_XDICTIONARY
360
D76E
102
}
330
18
100
AcDbEntity
  8
WY
100
AcDbDimension
  2
*D43
 10
654.1114940316088
 20
235.9206804273035
 30
0.0
 11
652.7614940316088
 21
240.9206804273035
 31
0.0
 70
    32
  3
STANDARD
100
AcDbAlignedDimension
 13
642.9933765694578
 23
245.9206804273035
 33
0.0
 14
642.9933765694578
 24
235.9206804273035
 34
0.0
 50
90.0
100
AcDbRotatedDimension
1001
ACAD
1000
DSTYLE
1002
{
1070
   287
1070
     4
1070
    41
1040
1.2
1070
   271
1070
     1
1070
   147
1040
0.75
1070
   174
1070
     1
1070
   279
1070
     1
1070
    74
1070
     1
1070
   140
1040
1.2
1070
   284
1070
     8
1070
    78
1070
     8
1002
}
  0
DIMENSION
  5
D77C
102
{ACAD_REACTORS
102
}
102
{ACAD_XDICTIONARY
360
D77D
102
}
330
18
100
AcDbEntity
  8
WY
100
AcDbDimension
  2
*D44
 10
573.1182603350056
 20
235.9206804273035
 30
0.0
 11
571.7682603350056
 21
240.9206804273035
 31
0.0
 70
    32
  3
STANDARD
100
AcDbAlignedDimension
 13
562.0548951977788
 23
245.9206804273035
 33
0.0
 14
562.0548951977788
 24
235.9206804273035
 34
0.0
 50
90.0
100
AcDbRotatedDimension
1001
ACAD
1000
DSTYLE
1002
{
1070
   287
1070
     4
1070
    41
1040
1.2
1070
   271
1070
     1
1070
   147
1040
0.75
1070
   174
1070
     1
1070
   279
1070
     1
1070
    74
1070
     1
1070
   140
1040
1.2
1070
   284
1070
     8
1070
    78
1070
     8
1002
}
  0
ENDSEC
  0
SECTION
  2
OBJECTS
  0
DICTIONARY
  5
C
330
0
100
AcDbDictionary
  3
ACAD_DETAILVIEWSTYLE
350
D4AA
  3
ACAD_GROUP
350
D
  3
ACAD_IMAGE_VARS
350
D2F7
  3
ACAD_MLINESTYLE
350
E
  3
ACAD_SCALELIST
350
D2AF
  3
ACAD_SECTIONVIEWSTYLE
350
D4AB
  3
ACDBVARIABLEDICTIONARY
350
C1B
  3
APPDATA
350
D2F5
  3
DIMOFFSETDICTIONARY
350
D44F
  3
DWGPROPS
350
D78D
  0
DICTIONARY
  5
D47F
330
2
100
AcDbDictionary
280
     1
  3
ACAD_LAYERSTATES
360
D480
  0
DICTIONARY
  5
D471
330
D470
100
AcDbDictionary
280
     1
  0
DICTIONARY
  5
D494
330
D493
100
AcDbDictionary
280
     1
  0
DICTIONARY
  5
D4B2
330
D4B1
100
AcDbDictionary
280
     1
  0
DICTIONARY
  5
D4C1
330
D4C0
100
AcDbDictionary
280
     1
  0
DICTIONARY
  5
D4D1
330
D4D0
100
AcDbDictionary
280
     1
  0
DICTIONARY
  5
D4E7
330
D4E6
100
AcDbDictionary
280
     1
  0
DICTIONARY
  5
D4F6
330
D4F5
100
AcDbDictionary
280
     1
  0
DICTIONARY
  5
D507
330
D506
100
AcDbDictionary
280
     1
  0
DICTIONARY
  5
D6E5
330
D6E4
100
AcDbDictionary
280
     1
  0
DICTIONARY
  5
D6F3
330
D6F2
100
AcDbDictionary
280
     1
  0
DICTIONARY
  5
D6F6
330
D6F5
100
AcDbDictionary
280
     1
  0
DICTIONARY
  5
D6FC
330
D6FB
100
AcDbDictionary
280
     1
  0
DICTIONARY
  5
D6FF
330
D6FE
100
AcDbDictionary
280
     1
  0
DICTIONARY
  5
D702
330
D701
100
AcDbDictionary
280
     1
  0
DICTIONARY
  5
D705
330
D704
100
AcDbDictionary
280
     1
  0
DICTIONARY
  5
D76E
330
D76D
100
AcDbDictionary
280
     1
  0
DICTIONARY
  5
D77D
330
D77C
100
AcDbDictionary
280
     1
  0
DICTIONARY
  5
D4AA
102
{ACAD_REACTORS
330
C
102
}
330
C
100
AcDbDictionary
  0
DICTIONARY
  5
D
102
{ACAD_REACTORS
330
C
102
}
330
C
100
AcDbDictionary
  0
RASTERVARIABLES
  5
D2F7
102
{ACAD_REACTORS
330
C
102
}
330
C
100
AcDbRasterVariables
 90
        0
 70
     1
 71
     1
 72
     0
  0
DICTIONARY
  5
E
102
{ACAD_REACTORS
330
C
102
}
330
C
100
AcDbDictionary
  3
STANDARD
350
1B
  0
DICTIONARY
  5
D2AF
102
{ACAD_REACTORS
330
C
102
}
330
C
100
AcDbDictionary
  0
DICTIONARY
  5
D4AB
102
{ACAD_REACTORS
330
C
102
}
330
C
100
AcDbDictionary
  0
DICTIONARY
  5
C1B
102
{ACAD_REACTORS
330
C
102
}
330
C
100
AcDbDictionary
  3
HPTRANSPARENCY
350
D44E
  3
SORTENTS
350
C1C
  0
DICTIONARY
  5
D2F5
102
{ACAD_REACTORS
330
C
102
}
330
C
100
AcDbDictionary
  0
DICTIONARY
  5
D44F
102
{ACAD_REACTORS
330
C
102
}
330
C
100
AcDbDictionary
  3
DIMRAILANGLE
350
D4AF
  3
DIMRAILFIRSTOFFSET
350
D4AD
  3
DIMRAILOFFSET
350
D4AE
  3
DIMRAILSENABLED
350
D4B0
  0
XRECORD
  5
D78D
102
{ACAD_REACTORS
330
C
102
}
330
C
100
AcDbXrecord
  1
DWGPROPS COOKIE
  2

  3

  4

  6

  7

  8
pikusl
  9

300
=
301
=
302
=
303
=
304
=
305
=
306
=
307
=
308
=
309
=
 40
0.0
 41
2448721.315803356
 42
2457522.236424792
  1

 90
        0
  0
DICTIONARY
  5
D480
102
{ACAD_REACTORS
330
D47F
102
}
330
D47F
100
AcDbDictionary
  0
MLINESTYLE
  5
1B
102
{ACAD_REACTORS
330
E
102
}
330
E
100
AcDbMlineStyle
  2
STANDARD
 70
     0
  3

 62
     0
 51
90.0
 52
90.0
 71
     2
 49
0.5
 62
   256
  6
BYLAYER
 49
-0.5
 62
   256
  6
BYLAYER
  0
DICTIONARYVAR
  5
D44E
102
{ACAD_REACTORS
330
C1B
102
}
330
C1B
100
DictionaryVariables
280
     0
  1
ByLayer
  0
DICTIONARYVAR
  5
C1C
102
{ACAD_REACTORS
330
C1B
102
}
330
C1B
100
DictionaryVariables
280
     0
  1
96
  0
DICTIONARYVAR
  5
D4AF
102
{ACAD_REACTORS
330
D44F
102
}
330
D44F
100
DictionaryVariables
280
     0
  1
0.261799
  0
DICTIONARYVAR
  5
D4AD
102
{ACAD_REACTORS
330
D44F
102
}
330
D44F
100
DictionaryVariables
280
     0
  1
0.400000
  0
DICTIONARYVAR
  5
D4AE
102
{ACAD_REACTORS
330
D44F
102
}
330
D44F
100
DictionaryVariables
280
     0
  1
0.250000
  0
DICTIONARYVAR
  5
D4B0
102
{ACAD_REACTORS
330
D44F
102
}
330
D44F
100
DictionaryVariables
280
     0
  1
1
  0
ENDSEC
  0
EOF
