  0
SECTION
  2
HEADER
  9
$ACADVER
  1
AC1014
  9
$ACADMAINTVER
 70
     9
  9
$DWGCODEPAGE
  3
ANSI_1250
  9
$INSBASE
 10
0.0
 20
0.0
 30
0.0
  9
$EXTMIN
 10
486.041244
 20
0.0
 30
0.0
  9
$EXTMAX
 10
687.671651
 20
297.0
 30
0.0
  9
$LIMMIN
 10
0.0
 20
0.0
  9
$LIMMAX
 10
420.0
 20
297.0
  9
$ORTHOMODE
 70
     0
  9
$REGENMODE
 70
     1
  9
$FILLMODE
 70
     1
  9
$QTEXTMODE
 70
     0
  9
$MIRRTEXT
 70
     1
  9
$DRAGMODE
 70
     2
  9
$LTSCALE
 40
6.0
  9
$OSMODE
 70
  9143
  9
$ATTMODE
 70
     1
  9
$TEXTSIZE
 40
0.2
  9
$TRACEWID
 40
0.05
  9
$TEXTSTYLE
  7
ITALIC
  9
$CLAYER
  8
WY
  9
$CELTYPE
  6
BYLAYER
  9
$CECOLOR
 62
   256
  9
$CELTSCALE
 40
1.0
  9
$DELOBJ
 70
     1
  9
$DISPSILH
 70
     0
  9
$DIMSCALE
 40
1.0
  9
$DIMASZ
 40
1.5
  9
$DIMEXO
 40
1.5
  9
$DIMDLI
 40
7.0
  9
$DIMRND
 40
0.0
  9
$DIMDLE
 40
0.0
  9
$DIMEXE
 40
1.5
  9
$DIMTP
 40
0.1
  9
$DIMTM
 40
0.0
  9
$DIMTXT
 40
1.0
  9
$DIMCEN
 40
-1.0
  9
$DIMTSZ
 40
0.0
  9
$DIMTOL
 70
     0
  9
$DIMLIM
 70
     0
  9
$DIMTIH
 70
     0
  9
$DIMTOH
 70
     1
  9
$DIMSE1
 70
     0
  9
$DIMSE2
 70
     0
  9
$DIMTAD
 70
     1
  9
$DIMZIN
 70
     8
  9
$DIMBLK
  1

  9
$DIMASO
 70
     1
  9
$DIMSHO
 70
     0
  9
$DIMPOST
  1

  9
$DIMAPOST
  1

  9
$DIMALT
 70
     0
  9
$DIMALTD
 70
     2
  9
$DIMALTF
 40
25.4
  9
$DIMLFAC
 40
1.0
  9
$DIMTOFL
 70
     0
  9
$DIMTVP
 40
0.0
  9
$DIMTIX
 70
     1
  9
$DIMSOXD
 70
     0
  9
$DIMSAH
 70
     0
  9
$DIMBLK1
  1

  9
$DIMBLK2
  1

  9
$DIMSTYLE
  2
STANDARD
  9
$DIMCLRD
 70
     0
  9
$DIMCLRE
 70
     0
  9
$DIMCLRT
 70
     0
  9
$DIMTFAC
 40
1.0
  9
$DIMGAP
 40
0.5
  9
$DIMJUST
 70
     0
  9
$DIMSD1
 70
     0
  9
$DIMSD2
 70
     0
  9
$DIMTOLJ
 70
     1
  9
$DIMTZIN
 70
     8
  9
$DIMALTZ
 70
     0
  9
$DIMALTTZ
 70
     0
  9
$DIMFIT
 70
     3
  9
$DIMUPT
 70
     0
  9
$DIMUNIT
 70
     2
  9
$DIMDEC
 70
     1
  9
$DIMTDEC
 70
     4
  9
$DIMALTU
 70
     2
  9
$DIMALTTD
 70
     2
  9
$DIMTXSTY
  7
STANDARD
  9
$DIMAUNIT
 70
     0
  9
$LUNITS
 70
     2
  9
$LUPREC
 70
     2
  9
$SKETCHINC
 40
0.1
  9
$FILLETRAD
 40
0.1
  9
$AUNITS
 70
     0
  9
$AUPREC
 70
     2
  9
$MENU
  1
ACAD
  9
$ELEVATION
 40
0.0
  9
$PELEVATION
 40
0.0
  9
$THICKNESS
 40
0.0
  9
$LIMCHECK
 70
     0
  9
$CHAMFERA
 40
0.0
  9
$CHAMFERB
 40
0.0
  9
$CHAMFERC
 40
0.0
  9
$CHAMFERD
 40
0.0
  9
$SKPOLY
 70
     0
  9
$TDCREATE
 40
2448721.39913669
  9
$TDUPDATE
 40
2457522.359822222
  9
$TDINDWG
 40
1.5401173843
  9
$TDUSRTIMER
 40
2457522.272053496
  9
$USRTIMER
 70
     1
  9
$ANGBASE
 50
0.0
  9
$ANGDIR
 70
     0
  9
$PDMODE
 70
     0
  9
$PDSIZE
 40
0.0
  9
$PLINEWID
 40
0.5
  9
$COORDS
 70
     1
  9
$SPLFRAME
 70
     0
  9
$SPLINETYPE
 70
     6
  9
$SPLINESEGS
 70
     8
  9
$ATTDIA
 70
     0
  9
$ATTREQ
 70
     1
  9
$HANDLING
 70
     1
  9
$HANDSEED
  5
80AD
  9
$SURFTAB1
 70
     6
  9
$SURFTAB2
 70
     6
  9
$SURFTYPE
 70
     6
  9
$SURFU
 70
     6
  9
$SURFV
 70
     6
  9
$UCSNAME
  2

  9
$UCSORG
 10
0.0
 20
0.0
 30
0.0
  9
$UCSXDIR
 10
1.0
 20
0.0
 30
0.0
  9
$UCSYDIR
 10
0.0
 20
1.0
 30
0.0
  9
$PUCSNAME
  2

  9
$PUCSORG
 10
0.0
 20
0.0
 30
0.0
  9
$PUCSXDIR
 10
1.0
 20
0.0
 30
0.0
  9
$PUCSYDIR
 10
0.0
 20
1.0
 30
0.0
  9
$USERI1
 70
     0
  9
$USERI2
 70
     0
  9
$USERI3
 70
     0
  9
$USERI4
 70
     0
  9
$USERI5
 70
     0
  9
$USERR1
 40
0.0
  9
$USERR2
 40
0.0
  9
$USERR3
 40
0.0
  9
$USERR4
 40
0.0
  9
$USERR5
 40
0.0
  9
$WORLDVIEW
 70
     1
  9
$SHADEDGE
 70
     3
  9
$SHADEDIF
 70
    70
  9
$TILEMODE
 70
     1
  9
$MAXACTVP
 70
    16
  9
$PINSBASE
 10
0.0
 20
0.0
 30
0.0
  9
$PLIMCHECK
 70
     0
  9
$PEXTMIN
 10
1.000000000000000E+20
 20
1.000000000000000E+20
 30
1.000000000000000E+20
  9
$PEXTMAX
 10
-1.000000000000000E+20
 20
-1.000000000000000E+20
 30
-1.000000000000000E+20
  9
$PLIMMIN
 10
0.0
 20
0.0
  9
$PLIMMAX
 10
0.0
 20
0.0
  9
$UNITMODE
 70
     0
  9
$VISRETAIN
 70
     0
  9
$PLINEGEN
 70
     0
  9
$PSLTSCALE
 70
     0
  9
$TREEDEPTH
 70
  3020
  9
$PICKSTYLE
 70
     1
  9
$CMLSTYLE
  2
STANDARD
  9
$CMLJUST
 70
     0
  9
$CMLSCALE
 40
1.0
  9
$PROXYGRAPHICS
 70
     1
  9
$MEASUREMENT
 70
     0
  0
ENDSEC
  0
SECTION
  2
CLASSES
  0
CLASS
  1
HATCH
  2
AcDbHatch
  3
ObjectDBX Classes
 90
        0
280
     0
281
     1
  0
CLASS
  1
LWPOLYLINE
  2
AcDbPolyline
  3
ObjectDBX Classes
 90
        0
280
     0
281
     1
  0
CLASS
  1
DICTIONARYVAR
  2
AcDbDictionaryVar
  3
ObjectDBX Classes
 90
        0
280
     0
281
     0
  0
CLASS
  1
SCALE
  2
AcDbScale
  3
ObjectDBX Classes
 90
     1153
280
     0
281
     0
  0
CLASS
  1
VISUALSTYLE
  2
AcDbVisualStyle
  3
ObjectDBX Classes
 90
     4095
280
     0
281
     0
  0
CLASS
  1
MATERIAL
  2
AcDbMaterial
  3
ObjectDBX Classes
 90
     1153
280
     0
281
     0
  0
CLASS
  1
TABLESTYLE
  2
AcDbTableStyle
  3
ObjectDBX Classes
 90
     4095
280
     0
281
     0
  0
CLASS
  1
MLEADERSTYLE
  2
AcDbMLeaderStyle
  3
ACDB_MLEADERSTYLE_CLASS
 90
     4095
280
     0
281
     0
  0
CLASS
  1
SUN
  2
AcDbSun
  3
SCENEOE
 90
     1153
280
     0
281
     0
  0
CLASS
  1
RASTERVARIABLES
  2
AcDbRasterVariables
  3
ISM
 90
        0
280
     0
281
     0
  0
CLASS
  1
ACDBDICTIONARYWDFLT
  2
AcDbDictionaryWithDefault
  3
ObjectDBX Classes
 90
        0
280
     0
281
     0
  0
CLASS
  1
DIMASSOC
  2
AcDbDimAssoc
  3
"AcDbDimAssoc|Product Desc:     AcDim ARX App For Dimension|Company:          Autodesk, Inc.|WEB Address:      www.autodesk.com"
 90
        0
280
     0
281
     0
  0
CLASS
  1
XRECORD
  2
AcDbXrecord
  3
ObjectDBX Classes
 90
        0
280
     0
281
     0
  0
ENDSEC
  0
SECTION
  2
TABLES
  0
TABLE
  2
VPORT
  5
8
330
0
100
AcDbSymbolTable
 70
     1
  0
VPORT
  5
7786
330
8
100
AcDbSymbolTableRecord
100
AcDbViewportTableRecord
  2
*ACTIVE
 70
     0
 10
0.0
 20
0.0
 11
1.0
 21
1.0
 12
586.8564475000001
 22
148.5
 13
0.0
 23
0.0
 14
1.0
 24
1.0
 15
5.0
 25
5.0
 16
0.0
 26
0.0
 36
1.0
 17
0.0
 27
0.0
 37
0.0
 40
302.94
 41
2.811127379209371
 42
50.0
 43
0.0
 44
0.0
 50
0.0
 51
0.0
 71
    16
 72
   100
 73
     1
 74
     0
 75
     0
 76
     0
 77
     0
 78
     0
  0
ENDTAB
  0
TABLE
  2
LTYPE
  5
5
330
0
100
AcDbSymbolTable
 70
     3
  0
LTYPE
  5
12
330
5
100
AcDbSymbolTableRecord
100
AcDbLinetypeTableRecord
  2
BYBLOCK
 70
     0
  3

 72
    65
 73
     0
 40
0.0
  0
LTYPE
  5
13
330
5
100
AcDbSymbolTableRecord
100
AcDbLinetypeTableRecord
  2
BYLAYER
 70
     0
  3

 72
    65
 73
     0
 40
0.0
  0
LTYPE
  5
14
330
5
100
AcDbSymbolTableRecord
100
AcDbLinetypeTableRecord
  2
CONTINUOUS
 70
     0
  3
Solid line
 72
    65
 73
     0
 40
0.0
  0
LTYPE
  5
1D
330
5
100
AcDbSymbolTableRecord
100
AcDbLinetypeTableRecord
  2
CENTER
 70
     0
  3
____ _ ____ _ ____ _ ____ _ ____ _ ____ _ ____
 72
    65
 73
     4
 40
2.0
 49
1.25
 74
     0
 49
-0.25
 74
     0
 49
0.25
 74
     0
 49
-0.25
 74
     0
  0
LTYPE
  5
1E
330
5
100
AcDbSymbolTableRecord
100
AcDbLinetypeTableRecord
  2
HIDDEN
 70
     0
  3
_ _ _ _ _ _ _ _ _ _ _ _ _ _ _ _ _ _ _ _ _ _ _
 72
    65
 73
     2
 40
0.375
 49
0.25
 74
     0
 49
-0.125
 74
     0
  0
ENDTAB
  0
TABLE
  2
LAYER
  5
2
102
{ACAD_XDICTIONARY
360
7CDC
102
}
330
0
100
AcDbSymbolTable
 70
     8
  0
LAYER
  5
F
330
2
100
AcDbSymbolTableRecord
100
AcDbLayerTableRecord
  2
0
 70
     0
 62
     7
  6
CONTINUOUS
  0
LAYER
  5
21
330
2
100
AcDbSymbolTableRecord
100
AcDbLayerTableRecord
  2
1
 70
     0
 62
     3
  6
CONTINUOUS
  0
LAYER
  5
22
330
2
100
AcDbSymbolTableRecord
100
AcDbLayerTableRecord
  2
2
 70
     0
 62
     6
  6
CONTINUOUS
  0
LAYER
  5
23
330
2
100
AcDbSymbolTableRecord
100
AcDbLayerTableRecord
  2
3
 70
     0
 62
     4
  6
HIDDEN
  0
LAYER
  5
24
330
2
100
AcDbSymbolTableRecord
100
AcDbLayerTableRecord
  2
OSIE
 70
     0
 62
     2
  6
CENTER
  0
LAYER
  5
25
330
2
100
AcDbSymbolTableRecord
100
AcDbLayerTableRecord
  2
WY
 70
     0
 62
     1
  6
CONTINUOUS
  0
LAYER
  5
26
330
2
100
AcDbSymbolTableRecord
100
AcDbLayerTableRecord
  2
DEFPOINTS
 70
     0
 62
     7
  6
CONTINUOUS
  0
LAYER
  5
464
330
2
100
AcDbSymbolTableRecord
100
AcDbLayerTableRecord
  2
WYMIARY
 70
     0
 62
     1
  6
CONTINUOUS
  0
ENDTAB
  0
TABLE
  2
STYLE
  5
3
330
0
100
AcDbSymbolTable
 70
     2
  0
STYLE
  5
10
330
3
100
AcDbSymbolTableRecord
100
AcDbTextStyleTableRecord
  2
STANDARD
 70
     0
 40
0.0
 41
1.0
 50
0.0
 71
     0
 42
6.0
  3
txt
  4

  0
STYLE
  5
1C
330
3
100
AcDbSymbolTableRecord
100
AcDbTextStyleTableRecord
  2
ITALIC
 70
     0
 40
0.0
 41
1.0
 50
15.0
 71
     0
 42
0.2
  3
simplex
  4

  0
ENDTAB
  0
TABLE
  2
VIEW
  5
6
330
0
100
AcDbSymbolTable
 70
     0
  0
ENDTAB
  0
TABLE
  2
UCS
  5
7
330
0
100
AcDbSymbolTable
 70
     0
  0
ENDTAB
  0
TABLE
  2
APPID
  5
9
330
0
100
AcDbSymbolTable
 70
     1
  0
APPID
  5
11
330
9
100
AcDbSymbolTableRecord
100
AcDbRegAppTableRecord
  2
ACAD
 70
     0
  0
ENDTAB
  0
TABLE
  2
DIMSTYLE
  5
A
330
0
100
AcDbSymbolTable
 70
     1
  0
DIMSTYLE
105
3B
102
{ACAD_REACTORS
330
78C3
330
78D0
330
78F7
330
78FA
330
7909
330
7916
330
7928
330
79AF
330
79EB
330
7CFD
330
7D22
330
7D40
330
7D4F
330
7D5E
330
7D6D
330
7D83
330
7D92
330
7DA3
330
7DB2
330
7E24
330
7E2B
330
7E2E
330
7E34
330
7E37
330
7E3A
330
7E3D
330
7E40
330
7E43
330
8008
330
800F
330
8015
330
8018
330
801B
330
801E
330
8021
330
8024
330
8027
102
}
330
A
100
AcDbSymbolTableRecord
100
AcDbDimStyleTableRecord
  2
STANDARD
 70
     0
  3

  4

  5

  6

  7

 40
1.0
 41
3.5
 42
1.5
 43
7.0
 44
1.5
 45
0.0
 46
0.0
 47
0.1
 48
0.0
140
3.6
141
-1.0
142
0.0
143
25.4
144
1.0
145
0.0
146
1.0
147
1.5
 71
     0
 72
     0
 73
     0
 74
     0
 75
     0
 76
     0
 77
     1
 78
     0
170
     0
171
     2
172
     0
173
     0
174
     0
175
     0
176
     0
177
     0
178
     0
270
     2
271
     2
272
     4
273
     2
274
     2
340
10
275
     0
280
     0
281
     0
282
     0
283
     1
284
     0
285
     0
286
     0
287
     3
288
     0
  0
ENDTAB
  0
TABLE
  2
BLOCK_RECORD
  5
1
330
0
100
AcDbSymbolTable
 70
    62
  0
BLOCK_RECORD
  5
18
330
1
100
AcDbSymbolTableRecord
100
AcDbBlockTableRecord
  2
*MODEL_SPACE
  0
BLOCK_RECORD
  5
15
330
1
100
AcDbSymbolTableRecord
100
AcDbBlockTableRecord
  2
*PAPER_SPACE
  0
BLOCK_RECORD
  5
7092
330
1
100
AcDbSymbolTableRecord
100
AcDbBlockTableRecord
  2
*D0
  0
BLOCK_RECORD
  5
709E
330
1
100
AcDbSymbolTableRecord
100
AcDbBlockTableRecord
  2
*D1
  0
BLOCK_RECORD
  5
70AA
330
1
100
AcDbSymbolTableRecord
100
AcDbBlockTableRecord
  2
*D2
  0
BLOCK_RECORD
  5
71E8
330
1
100
AcDbSymbolTableRecord
100
AcDbBlockTableRecord
  2
*D3
  0
BLOCK_RECORD
  5
71F4
330
1
100
AcDbSymbolTableRecord
100
AcDbBlockTableRecord
  2
*D4
  0
BLOCK_RECORD
  5
7200
330
1
100
AcDbSymbolTableRecord
100
AcDbBlockTableRecord
  2
*D5
  0
BLOCK_RECORD
  5
7854
330
1
100
AcDbSymbolTableRecord
100
AcDbBlockTableRecord
  2
*X7
  0
BLOCK_RECORD
  5
785C
330
1
100
AcDbSymbolTableRecord
100
AcDbBlockTableRecord
  2
*X8
  0
BLOCK_RECORD
  5
78C4
330
1
100
AcDbSymbolTableRecord
100
AcDbBlockTableRecord
  2
*D9
  0
BLOCK_RECORD
  5
78FB
330
1
100
AcDbSymbolTableRecord
100
AcDbBlockTableRecord
  2
*D10
  0
BLOCK_RECORD
  5
790A
330
1
100
AcDbSymbolTableRecord
100
AcDbBlockTableRecord
  2
*D11
  0
BLOCK_RECORD
  5
7917
330
1
100
AcDbSymbolTableRecord
100
AcDbBlockTableRecord
  2
*D12
  0
BLOCK_RECORD
  5
79B0
330
1
100
AcDbSymbolTableRecord
100
AcDbBlockTableRecord
  2
*D13
  0
BLOCK_RECORD
  5
7B99
330
1
100
AcDbSymbolTableRecord
100
AcDbBlockTableRecord
  2
*D14
  0
BLOCK_RECORD
  5
7BA5
330
1
100
AcDbSymbolTableRecord
100
AcDbBlockTableRecord
  2
*D15
  0
BLOCK_RECORD
  5
7BB2
330
1
100
AcDbSymbolTableRecord
100
AcDbBlockTableRecord
  2
*D16
  0
BLOCK_RECORD
  5
7BBE
330
1
100
AcDbSymbolTableRecord
100
AcDbBlockTableRecord
  2
*D17
  0
BLOCK_RECORD
  5
7BCC
330
1
100
AcDbSymbolTableRecord
100
AcDbBlockTableRecord
  2
*D18
  0
BLOCK_RECORD
  5
7C17
330
1
100
AcDbSymbolTableRecord
100
AcDbBlockTableRecord
  2
*X20
  0
BLOCK_RECORD
  5
7D00
330
1
100
AcDbSymbolTableRecord
100
AcDbBlockTableRecord
  2
*D21
  0
BLOCK_RECORD
  5
7D15
330
1
100
AcDbSymbolTableRecord
100
AcDbBlockTableRecord
  2
*D22
  0
BLOCK_RECORD
  5
7D25
330
1
100
AcDbSymbolTableRecord
100
AcDbBlockTableRecord
  2
*D23
  0
BLOCK_RECORD
  5
7D34
330
1
100
AcDbSymbolTableRecord
100
AcDbBlockTableRecord
  2
*D24
  0
BLOCK_RECORD
  5
7D43
330
1
100
AcDbSymbolTableRecord
100
AcDbBlockTableRecord
  2
*D25
  0
BLOCK_RECORD
  5
7D52
330
1
100
AcDbSymbolTableRecord
100
AcDbBlockTableRecord
  2
*D26
  0
BLOCK_RECORD
  5
7D61
330
1
100
AcDbSymbolTableRecord
100
AcDbBlockTableRecord
  2
*D27
  0
BLOCK_RECORD
  5
7D70
330
1
100
AcDbSymbolTableRecord
100
AcDbBlockTableRecord
  2
*D28
  0
BLOCK_RECORD
  5
7D86
330
1
100
AcDbSymbolTableRecord
100
AcDbBlockTableRecord
  2
*D29
  0
BLOCK_RECORD
  5
7D95
330
1
100
AcDbSymbolTableRecord
100
AcDbBlockTableRecord
  2
*D30
  0
BLOCK_RECORD
  5
7DA6
330
1
100
AcDbSymbolTableRecord
100
AcDbBlockTableRecord
  2
*D31
  0
BLOCK_RECORD
  5
7DB5
330
1
100
AcDbSymbolTableRecord
100
AcDbBlockTableRecord
  2
*D32
  0
BLOCK_RECORD
  5
7E46
330
1
100
AcDbSymbolTableRecord
100
AcDbBlockTableRecord
  2
*D33
  0
BLOCK_RECORD
  5
7E52
330
1
100
AcDbSymbolTableRecord
100
AcDbBlockTableRecord
  2
*D34
  0
BLOCK_RECORD
  5
7E5E
330
1
100
AcDbSymbolTableRecord
100
AcDbBlockTableRecord
  2
*D35
  0
BLOCK_RECORD
  5
7E6A
330
1
100
AcDbSymbolTableRecord
100
AcDbBlockTableRecord
  2
*D36
  0
BLOCK_RECORD
  5
7E76
330
1
100
AcDbSymbolTableRecord
100
AcDbBlockTableRecord
  2
*D37
  0
BLOCK_RECORD
  5
7E82
330
1
100
AcDbSymbolTableRecord
100
AcDbBlockTableRecord
  2
*D38
  0
BLOCK_RECORD
  5
7E91
330
1
100
AcDbSymbolTableRecord
100
AcDbBlockTableRecord
  2
*D39
  0
BLOCK_RECORD
  5
7E9D
330
1
100
AcDbSymbolTableRecord
100
AcDbBlockTableRecord
  2
*D40
  0
BLOCK_RECORD
  5
7EAB
330
1
100
AcDbSymbolTableRecord
100
AcDbBlockTableRecord
  2
*D41
  0
BLOCK_RECORD
  5
7EB7
330
1
100
AcDbSymbolTableRecord
100
AcDbBlockTableRecord
  2
*D42
  0
BLOCK_RECORD
  5
7F36
330
1
100
AcDbSymbolTableRecord
100
AcDbBlockTableRecord
  2
*D43
  0
BLOCK_RECORD
  5
7F42
330
1
100
AcDbSymbolTableRecord
100
AcDbBlockTableRecord
  2
*D44
  0
BLOCK_RECORD
  5
7F4E
330
1
100
AcDbSymbolTableRecord
100
AcDbBlockTableRecord
  2
*D45
  0
BLOCK_RECORD
  5
7F5A
330
1
100
AcDbSymbolTableRecord
100
AcDbBlockTableRecord
  2
*D46
  0
BLOCK_RECORD
  5
7F66
330
1
100
AcDbSymbolTableRecord
100
AcDbBlockTableRecord
  2
*D47
  0
BLOCK_RECORD
  5
7F75
330
1
100
AcDbSymbolTableRecord
100
AcDbBlockTableRecord
  2
*D48
  0
BLOCK_RECORD
  5
7F81
330
1
100
AcDbSymbolTableRecord
100
AcDbBlockTableRecord
  2
*D49
  0
BLOCK_RECORD
  5
7F8F
330
1
100
AcDbSymbolTableRecord
100
AcDbBlockTableRecord
  2
*D50
  0
BLOCK_RECORD
  5
7F9B
330
1
100
AcDbSymbolTableRecord
100
AcDbBlockTableRecord
  2
*D51
  0
BLOCK_RECORD
  5
802A
330
1
100
AcDbSymbolTableRecord
100
AcDbBlockTableRecord
  2
*D52
  0
BLOCK_RECORD
  5
8036
330
1
100
AcDbSymbolTableRecord
100
AcDbBlockTableRecord
  2
*D53
  0
BLOCK_RECORD
  5
8042
330
1
100
AcDbSymbolTableRecord
100
AcDbBlockTableRecord
  2
*D54
  0
BLOCK_RECORD
  5
804E
330
1
100
AcDbSymbolTableRecord
100
AcDbBlockTableRecord
  2
*D55
  0
BLOCK_RECORD
  5
805A
330
1
100
AcDbSymbolTableRecord
100
AcDbBlockTableRecord
  2
*D56
  0
BLOCK_RECORD
  5
8066
330
1
100
AcDbSymbolTableRecord
100
AcDbBlockTableRecord
  2
*D57
  0
BLOCK_RECORD
  5
8075
330
1
100
AcDbSymbolTableRecord
100
AcDbBlockTableRecord
  2
*D58
  0
BLOCK_RECORD
  5
8081
330
1
100
AcDbSymbolTableRecord
100
AcDbBlockTableRecord
  2
*D59
  0
BLOCK_RECORD
  5
808F
330
1
100
AcDbSymbolTableRecord
100
AcDbBlockTableRecord
  2
*D60
  0
BLOCK_RECORD
  5
809B
330
1
100
AcDbSymbolTableRecord
100
AcDbBlockTableRecord
  2
*D61
  0
ENDTAB
  0
ENDSEC
  0
SECTION
  2
BLOCKS
  0
BLOCK
  5
29
330
18
100
AcDbEntity
  8
0
100
AcDbBlockBegin
  2
*MODEL_SPACE
 70
     0
 10
0.0
 20
0.0
 30
0.0
  3
*MODEL_SPACE
  1

  0
ENDBLK
  5
2A
330
18
100
AcDbEntity
  8
0
100
AcDbBlockEnd
  0
BLOCK
  5
27
330
15
100
AcDbEntity
 67
     1
  8
0
100
AcDbBlockBegin
  2
*PAPER_SPACE
 70
     0
 10
0.0
 20
0.0
 30
0.0
  3
*PAPER_SPACE
  1

  0
ENDBLK
  5
28
330
15
100
AcDbEntity
 67
     1
  8
0
100
AcDbBlockEnd
  0
BLOCK
  5
743C
330
7092
100
AcDbEntity
  8
0
100
AcDbBlockBegin
  2
*D0
 70
     1
 10
0.0
 20
0.0
 30
0.0
  3
*D0
  1
*D0
  0
LINE
  5
743D
330
7092
100
AcDbEntity
  8
WYMIARY
 62
     0
100
AcDbLine
 10
574.9468375944363
 20
89.14637764568084
 30
0.0
 11
567.1610015944362
 21
89.14637764568084
 31
0.0
  0
LINE
  5
743E
330
7092
100
AcDbEntity
  8
WYMIARY
 62
     0
100
AcDbLine
 10
574.9468375944363
 20
76.04637764568085
 30
0.0
 11
567.1610015944362
 21
76.04637764568085
 31
0.0
  0
LINE
  5
743F
330
7092
100
AcDbEntity
  8
WYMIARY
 62
     0
100
AcDbLine
 10
568.6610015944362
 20
85.64637764568084
 30
0.0
 11
568.6610015944362
 21
79.54637764568085
 31
0.0
  0
SOLID
  5
7440
330
7092
100
AcDbEntity
  8
WYMIARY
 62
     0
100
AcDbTrace
 10
569.2443349277696
 20
85.64637764568084
 30
0.0
 11
568.0776682611029
 21
85.64637764568084
 31
0.0
 12
568.6610015944362
 22
89.14637764568084
 32
0.0
 13
568.6610015944362
 23
89.14637764568084
 33
0.0
  0
SOLID
  5
7441
330
7092
100
AcDbEntity
  8
WYMIARY
 62
     0
100
AcDbTrace
 10
568.0776682611029
 20
79.54637764568085
 30
0.0
 11
569.2443349277696
 21
79.54637764568085
 31
0.0
 12
568.6610015944362
 22
76.04637764568085
 32
0.0
 13
568.6610015944362
 23
76.04637764568085
 33
0.0
  0
MTEXT
  5
7442
330
7092
100
AcDbEntity
  8
WYMIARY
 62
     0
100
AcDbMText
 10
567.0110015944363
 20
82.59637764568083
 30
0.0
 40
1.8
 41
0.0
 71
     5
 72
     1
  1
\A1;13.10
 11
0.0
 21
1.0
 31
0.0
  0
POINT
  5
7443
330
7092
100
AcDbEntity
  8
DEFPOINTS
 62
     0
100
AcDbPoint
 10
576.4468375944363
 20
89.14637764568084
 30
0.0
  0
POINT
  5
7444
330
7092
100
AcDbEntity
  8
DEFPOINTS
 62
     0
100
AcDbPoint
 10
576.4468375944363
 20
76.04637764568085
 30
0.0
  0
POINT
  5
7445
330
7092
100
AcDbEntity
  8
DEFPOINTS
 62
     0
100
AcDbPoint
 10
568.6610015944362
 20
76.04637764568085
 30
0.0
  0
ENDBLK
  5
7446
330
7092
100
AcDbEntity
  8
0
100
AcDbBlockEnd
  0
BLOCK
  5
7474
330
709E
100
AcDbEntity
  8
0
100
AcDbBlockBegin
  2
*D1
 70
     1
 10
0.0
 20
0.0
 30
0.0
  3
*D1
  1
*D1
  0
LINE
  5
7475
330
709E
100
AcDbEntity
  8
WYMIARY
 62
     0
100
AcDbLine
 10
575.585475
 20
166.7411446076135
 30
0.0
 11
567.799639
 21
166.7411446076135
 31
0.0
  0
LINE
  5
7476
330
709E
100
AcDbEntity
  8
WYMIARY
 62
     0
100
AcDbLine
 10
575.585475
 20
153.6411446076135
 30
0.0
 11
567.799639
 21
153.6411446076135
 31
0.0
  0
LINE
  5
7477
330
709E
100
AcDbEntity
  8
WYMIARY
 62
     0
100
AcDbLine
 10
569.299639
 20
163.2411446076135
 30
0.0
 11
569.299639
 21
157.1411446076135
 31
0.0
  0
SOLID
  5
7478
330
709E
100
AcDbEntity
  8
WYMIARY
 62
     0
100
AcDbTrace
 10
569.8829723333333
 20
163.2411446076135
 30
0.0
 11
568.7163056666666
 21
163.2411446076135
 31
0.0
 12
569.299639
 22
166.7411446076135
 32
0.0
 13
569.299639
 23
166.7411446076135
 33
0.0
  0
SOLID
  5
7479
330
709E
100
AcDbEntity
  8
WYMIARY
 62
     0
100
AcDbTrace
 10
568.7163056666666
 20
157.1411446076135
 30
0.0
 11
569.8829723333333
 21
157.1411446076135
 31
0.0
 12
569.299639
 22
153.6411446076135
 32
0.0
 13
569.299639
 23
153.6411446076135
 33
0.0
  0
MTEXT
  5
747A
330
709E
100
AcDbEntity
  8
WYMIARY
 62
     0
100
AcDbMText
 10
567.649639
 20
160.1911446076135
 30
0.0
 40
1.8
 41
0.0
 71
     5
 72
     1
  1
\A1;13.10
 11
0.0
 21
1.0
 31
0.0
  0
POINT
  5
747B
330
709E
100
AcDbEntity
  8
DEFPOINTS
 62
     0
100
AcDbPoint
 10
577.085475
 20
166.7411446076135
 30
0.0
  0
POINT
  5
747C
330
709E
100
AcDbEntity
  8
DEFPOINTS
 62
     0
100
AcDbPoint
 10
577.085475
 20
153.6411446076135
 30
0.0
  0
POINT
  5
747D
330
709E
100
AcDbEntity
  8
DEFPOINTS
 62
     0
100
AcDbPoint
 10
569.299639
 20
153.6411446076135
 30
0.0
  0
ENDBLK
  5
747E
330
709E
100
AcDbEntity
  8
0
100
AcDbBlockEnd
  0
BLOCK
  5
74AC
330
70AA
100
AcDbEntity
  8
0
100
AcDbBlockBegin
  2
*D2
 70
     1
 10
0.0
 20
0.0
 30
0.0
  3
*D2
  1
*D2
  0
LINE
  5
74AD
330
70AA
100
AcDbEntity
  8
WYMIARY
 62
     0
100
AcDbLine
 10
573.7371868360176
 20
242.143969
 30
0.0
 11
565.9513508360176
 21
242.143969
 31
0.0
  0
LINE
  5
74AE
330
70AA
100
AcDbEntity
  8
WYMIARY
 62
     0
100
AcDbLine
 10
573.7371868360176
 20
229.043969
 30
0.0
 11
565.9513508360176
 21
229.043969
 31
0.0
  0
LINE
  5
74AF
330
70AA
100
AcDbEntity
  8
WYMIARY
 62
     0
100
AcDbLine
 10
567.4513508360176
 20
238.643969
 30
0.0
 11
567.4513508360176
 21
232.543969
 31
0.0
  0
SOLID
  5
74B0
330
70AA
100
AcDbEntity
  8
WYMIARY
 62
     0
100
AcDbTrace
 10
568.034684169351
 20
238.643969
 30
0.0
 11
566.8680175026842
 21
238.643969
 31
0.0
 12
567.4513508360176
 22
242.143969
 32
0.0
 13
567.4513508360176
 23
242.143969
 33
0.0
  0
SOLID
  5
74B1
330
70AA
100
AcDbEntity
  8
WYMIARY
 62
     0
100
AcDbTrace
 10
566.8680175026842
 20
232.543969
 30
0.0
 11
568.034684169351
 21
232.543969
 31
0.0
 12
567.4513508360176
 22
229.043969
 32
0.0
 13
567.4513508360176
 23
229.043969
 33
0.0
  0
MTEXT
  5
74B2
330
70AA
100
AcDbEntity
  8
WYMIARY
 62
     0
100
AcDbMText
 10
565.8013508360176
 20
235.593969
 30
0.0
 40
1.8
 41
0.0
 71
     5
 72
     1
  1
\A1;13.10
 11
0.0
 21
1.0
 31
0.0
  0
POINT
  5
74B3
330
70AA
100
AcDbEntity
  8
DEFPOINTS
 62
     0
100
AcDbPoint
 10
575.2371868360176
 20
242.143969
 30
0.0
  0
POINT
  5
74B4
330
70AA
100
AcDbEntity
  8
DEFPOINTS
 62
     0
100
AcDbPoint
 10
575.2371868360176
 20
229.043969
 30
0.0
  0
POINT
  5
74B5
330
70AA
100
AcDbEntity
  8
DEFPOINTS
 62
     0
100
AcDbPoint
 10
567.4513508360176
 20
229.043969
 30
0.0
  0
ENDBLK
  5
74B6
330
70AA
100
AcDbEntity
  8
0
100
AcDbBlockEnd
  0
BLOCK
  5
7531
330
71E8
100
AcDbEntity
  8
0
100
AcDbBlockBegin
  2
*D3
 70
     1
 10
0.0
 20
0.0
 30
0.0
  3
*D3
  1
*D3
  0
LINE
  5
7532
330
71E8
100
AcDbEntity
  8
WYMIARY
 62
     0
100
AcDbLine
 10
577.085475
 20
168.2411446076135
 30
0.0
 11
577.085475
 21
172.8740646076135
 31
0.0
  0
LINE
  5
7533
330
71E8
100
AcDbEntity
  8
WYMIARY
 62
     0
100
AcDbLine
 10
606.585475
 20
168.2411446076135
 30
0.0
 11
606.585475
 21
172.8740646076135
 31
0.0
  0
LINE
  5
7534
330
71E8
100
AcDbEntity
  8
WYMIARY
 62
     0
100
AcDbLine
 10
580.585475
 20
171.3740646076135
 30
0.0
 11
603.085475
 21
171.3740646076135
 31
0.0
  0
SOLID
  5
7535
330
71E8
100
AcDbEntity
  8
WYMIARY
 62
     0
100
AcDbTrace
 10
580.585475
 20
171.9573979409468
 30
0.0
 11
580.585475
 21
170.7907312742801
 31
0.0
 12
577.085475
 22
171.3740646076135
 32
0.0
 13
577.085475
 23
171.3740646076135
 33
0.0
  0
SOLID
  5
7536
330
71E8
100
AcDbEntity
  8
WYMIARY
 62
     0
100
AcDbTrace
 10
603.085475
 20
170.7907312742801
 30
0.0
 11
603.085475
 21
171.9573979409468
 31
0.0
 12
606.585475
 22
171.3740646076135
 32
0.0
 13
606.585475
 23
171.3740646076135
 33
0.0
  0
MTEXT
  5
7537
330
71E8
100
AcDbEntity
  8
WYMIARY
 62
     0
100
AcDbMText
 10
591.835475
 20
173.0240646076135
 30
0.0
 40
1.8
 41
0.0
 71
     5
 72
     1
  1
\A1;29.50
  0
POINT
  5
7538
330
71E8
100
AcDbEntity
  8
DEFPOINTS
 62
     0
100
AcDbPoint
 10
577.085475
 20
166.7411446076135
 30
0.0
  0
POINT
  5
7539
330
71E8
100
AcDbEntity
  8
DEFPOINTS
 62
     0
100
AcDbPoint
 10
606.585475
 20
166.7411446076135
 30
0.0
  0
POINT
  5
753A
330
71E8
100
AcDbEntity
  8
DEFPOINTS
 62
     0
100
AcDbPoint
 10
606.585475
 20
171.3740646076135
 30
0.0
  0
ENDBLK
  5
753B
330
71E8
100
AcDbEntity
  8
0
100
AcDbBlockEnd
  0
BLOCK
  5
753C
330
71F4
100
AcDbEntity
  8
0
100
AcDbBlockBegin
  2
*D4
 70
     1
 10
0.0
 20
0.0
 30
0.0
  3
*D4
  1
*D4
  0
LINE
  5
753D
330
71F4
100
AcDbEntity
  8
WYMIARY
 62
     0
100
AcDbLine
 10
575.2371868360176
 20
243.643969
 30
0.0
 11
575.2371868360176
 21
248.276889
 31
0.0
  0
LINE
  5
753E
330
71F4
100
AcDbEntity
  8
WYMIARY
 62
     0
100
AcDbLine
 10
604.7371868360176
 20
243.643969
 30
0.0
 11
604.7371868360176
 21
248.276889
 31
0.0
  0
LINE
  5
753F
330
71F4
100
AcDbEntity
  8
WYMIARY
 62
     0
100
AcDbLine
 10
578.7371868360176
 20
246.776889
 30
0.0
 11
601.2371868360176
 21
246.776889
 31
0.0
  0
SOLID
  5
7540
330
71F4
100
AcDbEntity
  8
WYMIARY
 62
     0
100
AcDbTrace
 10
578.7371868360176
 20
247.3602223333334
 30
0.0
 11
578.7371868360176
 21
246.1935556666667
 31
0.0
 12
575.2371868360176
 22
246.776889
 32
0.0
 13
575.2371868360176
 23
246.776889
 33
0.0
  0
SOLID
  5
7541
330
71F4
100
AcDbEntity
  8
WYMIARY
 62
     0
100
AcDbTrace
 10
601.2371868360176
 20
246.1935556666667
 30
0.0
 11
601.2371868360176
 21
247.3602223333334
 31
0.0
 12
604.7371868360176
 22
246.776889
 32
0.0
 13
604.7371868360176
 23
246.776889
 33
0.0
  0
MTEXT
  5
7542
330
71F4
100
AcDbEntity
  8
WYMIARY
 62
     0
100
AcDbMText
 10
589.9871868360176
 20
248.426889
 30
0.0
 40
1.8
 41
0.0
 71
     5
 72
     1
  1
\A1;29.50
  0
POINT
  5
7543
330
71F4
100
AcDbEntity
  8
DEFPOINTS
 62
     0
100
AcDbPoint
 10
575.2371868360176
 20
242.143969
 30
0.0
  0
POINT
  5
7544
330
71F4
100
AcDbEntity
  8
DEFPOINTS
 62
     0
100
AcDbPoint
 10
604.7371868360176
 20
242.143969
 30
0.0
  0
POINT
  5
7545
330
71F4
100
AcDbEntity
  8
DEFPOINTS
 62
     0
100
AcDbPoint
 10
604.7371868360176
 20
246.776889
 30
0.0
  0
ENDBLK
  5
7546
330
71F4
100
AcDbEntity
  8
0
100
AcDbBlockEnd
  0
BLOCK
  5
7547
330
7200
100
AcDbEntity
  8
0
100
AcDbBlockBegin
  2
*D5
 70
     1
 10
0.0
 20
0.0
 30
0.0
  3
*D5
  1
*D5
  0
LINE
  5
7548
330
7200
100
AcDbEntity
  8
WYMIARY
 62
     0
100
AcDbLine
 10
576.4468375944363
 20
90.64637764568084
 30
0.0
 11
576.4468375944363
 21
95.27929764568086
 31
0.0
  0
LINE
  5
7549
330
7200
100
AcDbEntity
  8
WYMIARY
 62
     0
100
AcDbLine
 10
605.9468375944363
 20
90.64637764568084
 30
0.0
 11
605.9468375944363
 21
95.27929764568086
 31
0.0
  0
LINE
  5
754A
330
7200
100
AcDbEntity
  8
WYMIARY
 62
     0
100
AcDbLine
 10
579.9468375944363
 20
93.77929764568086
 30
0.0
 11
602.4468375944363
 21
93.77929764568086
 31
0.0
  0
SOLID
  5
754B
330
7200
100
AcDbEntity
  8
WYMIARY
 62
     0
100
AcDbTrace
 10
579.9468375944363
 20
94.36263097901418
 30
0.0
 11
579.9468375944363
 21
93.19596431234753
 31
0.0
 12
576.4468375944363
 22
93.77929764568086
 32
0.0
 13
576.4468375944363
 23
93.77929764568086
 33
0.0
  0
SOLID
  5
754C
330
7200
100
AcDbEntity
  8
WYMIARY
 62
     0
100
AcDbTrace
 10
602.4468375944363
 20
93.19596431234753
 30
0.0
 11
602.4468375944363
 21
94.36263097901418
 31
0.0
 12
605.9468375944363
 22
93.77929764568086
 32
0.0
 13
605.9468375944363
 23
93.77929764568086
 33
0.0
  0
MTEXT
  5
754D
330
7200
100
AcDbEntity
  8
WYMIARY
 62
     0
100
AcDbMText
 10
591.1968375944363
 20
95.42929764568086
 30
0.0
 40
1.8
 41
0.0
 71
     5
 72
     1
  1
\A1;29.50
  0
POINT
  5
754E
330
7200
100
AcDbEntity
  8
DEFPOINTS
 62
     0
100
AcDbPoint
 10
576.4468375944363
 20
89.14637764568084
 30
0.0
  0
POINT
  5
754F
330
7200
100
AcDbEntity
  8
DEFPOINTS
 62
     0
100
AcDbPoint
 10
605.9468375944363
 20
89.14637764568084
 30
0.0
  0
POINT
  5
7550
330
7200
100
AcDbEntity
  8
DEFPOINTS
 62
     0
100
AcDbPoint
 10
605.9468375944363
 20
93.77929764568086
 30
0.0
  0
ENDBLK
  5
7551
330
7200
100
AcDbEntity
  8
0
100
AcDbBlockEnd
  0
BLOCK
  5
7855
330
7854
100
AcDbEntity
  8
0
100
AcDbBlockBegin
  2
*X7
 70
     1
 10
0.0
 20
0.0
 30
0.0
  3
*X7
  1
*X7
  0
LINE
  5
7856
330
7854
100
AcDbEntity
  8
0
 62
     0
100
AcDbLine
 10
88.82691175585164
 20
258.5325392406231
 30
0.0
 11
92.60196456361612
 21
262.3075920483876
 31
0.0
  0
LINE
  5
7857
330
7854
100
AcDbEntity
  8
0
 62
     0
100
AcDbLine
 10
88.50778834685005
 20
261.7489497375542
 30
0.0
 11
92.60196456361612
 21
265.8431259543203
 31
0.0
  0
LINE
  5
7858
330
7854
100
AcDbEntity
  8
0
 62
     0
100
AcDbLine
 10
88.50778834685005
 20
265.2844836434869
 30
0.0
 11
89.25584394398615
 21
266.032539240623
 31
0.0
  0
LINE
  5
7859
330
7854
100
AcDbEntity
  8
0
 62
     0
100
AcDbLine
 10
92.36244566178438
 20
258.5325392406231
 30
0.0
 11
92.60196456361612
 21
258.7720581424548
 31
0.0
  0
ENDBLK
  5
785A
330
7854
100
AcDbEntity
  8
0
100
AcDbBlockEnd
  0
BLOCK
  5
785D
330
785C
100
AcDbEntity
  8
0
100
AcDbBlockBegin
  2
*X8
 70
     1
 10
0.0
 20
0.0
 30
0.0
  3
*X8
  1
*X8
  0
LINE
  5
785E
330
785C
100
AcDbEntity
  8
0
 62
     0
100
AcDbLine
 10
71.14924222618795
 20
258.532539240623
 30
0.0
 11
74.75778834685006
 21
262.1410853612851
 31
0.0
  0
LINE
  5
785F
330
785C
100
AcDbEntity
  8
0
 62
     0
100
AcDbLine
 10
70.66361213008396
 20
261.5824430504518
 30
0.0
 11
74.75778834685006
 21
265.6766192672179
 31
0.0
  0
LINE
  5
7860
330
785C
100
AcDbEntity
  8
0
 62
     0
100
AcDbLine
 10
70.66361213008396
 20
265.1179769563845
 30
0.0
 11
71.57817441432245
 21
266.032539240623
 31
0.0
  0
LINE
  5
7861
330
785C
100
AcDbEntity
  8
0
 62
     0
100
AcDbLine
 10
74.68477613212069
 20
258.532539240623
 30
0.0
 11
74.75778834685006
 21
258.6055514553524
 31
0.0
  0
ENDBLK
  5
7862
330
785C
100
AcDbEntity
  8
0
100
AcDbBlockEnd
  0
BLOCK
  5
78C5
330
78C4
100
AcDbEntity
  8
0
100
AcDbBlockBegin
  2
*D9
 70
     1
 10
0.0
 20
0.0
 30
0.0
  3
*D9
  1
*D9
  0
LINE
  5
78C6
330
78C4
100
AcDbEntity
  8
WYMIARY
 62
     0
100
AcDbLine
 10
13.32208562949734
 20
18.37336629588081
 30
0.0
 11
10.13170593016847
 21
18.37336629588081
 31
0.0
  0
LINE
  5
78C7
330
78C4
100
AcDbEntity
  8
WYMIARY
 62
     0
100
AcDbLine
 10
17.60533040032379
 20
0.3733662958807004
 30
0.0
 11
10.13170593016847
 21
0.3733662958807008
 31
0.0
  0
LINE
  5
78C8
330
78C4
100
AcDbEntity
  8
WYMIARY
 62
     0
100
AcDbLine
 10
11.63170593016847
 20
14.87336629588081
 30
0.0
 11
11.63170593016847
 21
3.873366295880701
 31
0.0
  0
SOLID
  5
78C9
330
78C4
100
AcDbEntity
  8
WYMIARY
 62
     0
100
AcDbTrace
 10
12.2150392635018
 20
14.87336629588081
 30
0.0
 11
11.04837259683513
 21
14.87336629588081
 31
0.0
 12
11.63170593016847
 22
18.37336629588081
 32
0.0
 13
11.63170593016847
 23
18.37336629588081
 33
0.0
  0
SOLID
  5
78CA
330
78C4
100
AcDbEntity
  8
WYMIARY
 62
     0
100
AcDbTrace
 10
11.04837259683513
 20
3.873366295880701
 30
0.0
 11
12.2150392635018
 21
3.873366295880701
 31
0.0
 12
11.63170593016847
 22
0.3733662958807007
 32
0.0
 13
11.63170593016847
 23
0.3733662958807007
 33
0.0
  0
MTEXT
  5
78CB
330
78C4
100
AcDbEntity
  8
WYMIARY
 62
     0
100
AcDbMText
 10
8.881705930168465
 20
9.373366295880757
 30
0.0
 40
3.5
 41
0.0
 71
     5
 72
     1
  1
\A1;18.00
 11
9.868649107779107E-17
 21
1.0
 31
0.0
  0
POINT
  5
78CC
330
78C4
100
AcDbEntity
  8
DEFPOINTS
 62
     0
100
AcDbPoint
 10
14.82208562949734
 20
18.37336629588081
 30
0.0
  0
POINT
  5
78CD
330
78C4
100
AcDbEntity
  8
DEFPOINTS
 62
     0
100
AcDbPoint
 10
19.10533040032379
 20
0.3733662958807002
 30
0.0
  0
POINT
  5
78CE
330
78C4
100
AcDbEntity
  8
DEFPOINTS
 62
     0
100
AcDbPoint
 10
11.63170593016847
 20
0.3733662958807007
 30
0.0
  0
ENDBLK
  5
78CF
330
78C4
100
AcDbEntity
  8
0
100
AcDbBlockEnd
  0
BLOCK
  5
78FC
330
78FB
100
AcDbEntity
  8
0
100
AcDbBlockBegin
  2
*D10
 70
     1
 10
0.0
 20
0.0
 30
0.0
  3
*D10
  1
*D10
  0
LINE
  5
78FD
330
78FB
100
AcDbEntity
  8
WYMIARY
 62
     0
100
AcDbLine
 10
142.7034833127937
 20
178.0926849177271
 30
0.0
 11
137.9012227891675
 21
178.0926849177271
 31
0.0
  0
LINE
  5
78FE
330
78FB
100
AcDbEntity
  8
WYMIARY
 62
     0
100
AcDbLine
 10
142.7034833127937
 20
183.5926849177271
 30
0.0
 11
137.9012227891675
 21
183.5926849177271
 31
0.0
  0
LINE
  5
78FF
330
78FB
100
AcDbEntity
  8
WYMIARY
 62
     0
100
AcDbLine
 10
139.4012227891675
 20
187.0926849177271
 30
0.0
 11
139.4012227891675
 21
209.5093515843938
 31
0.0
  0
LINE
  5
7900
330
78FB
100
AcDbEntity
  8
WYMIARY
 62
     0
100
AcDbLine
 10
139.4012227891675
 20
174.5926849177271
 30
0.0
 11
139.4012227891675
 21
171.0926849177271
 31
0.0
  0
SOLID
  5
7901
330
78FB
100
AcDbEntity
  8
WYMIARY
 62
     0
100
AcDbTrace
 10
139.9845561225009
 20
174.5926849177271
 30
0.0
 11
138.8178894558342
 21
174.5926849177271
 31
0.0
 12
139.4012227891675
 22
178.0926849177271
 32
0.0
 13
139.4012227891675
 23
178.0926849177271
 33
0.0
  0
SOLID
  5
7902
330
78FB
100
AcDbEntity
  8
WYMIARY
 62
     0
100
AcDbTrace
 10
138.8178894558342
 20
187.0926849177271
 30
0.0
 11
139.9845561225009
 21
187.0926849177271
 31
0.0
 12
139.4012227891675
 22
183.5926849177271
 32
0.0
 13
139.4012227891675
 23
183.5926849177271
 33
0.0
  0
MTEXT
  5
7903
330
78FB
100
AcDbEntity
  8
WYMIARY
 62
     0
100
AcDbMText
 10
136.6512227891675
 20
200.0510182510604
 30
0.0
 40
3.5
 41
0.0
 71
     5
 72
     1
  1
\A1;5.50x6
 11
0.0
 21
1.0
 31
0.0
  0
POINT
  5
7904
330
78FB
100
AcDbEntity
  8
DEFPOINTS
 62
     0
100
AcDbPoint
 10
144.2034833127937
 20
178.0926849177271
 30
0.0
  0
POINT
  5
7905
330
78FB
100
AcDbEntity
  8
DEFPOINTS
 62
     0
100
AcDbPoint
 10
144.2034833127937
 20
183.5926849177271
 30
0.0
  0
POINT
  5
7906
330
78FB
100
AcDbEntity
  8
DEFPOINTS
 62
     0
100
AcDbPoint
 10
139.4012227891675
 20
183.5926849177271
 30
0.0
  0
ENDBLK
  5
7908
330
78FB
100
AcDbEntity
  8
0
100
AcDbBlockEnd
  0
BLOCK
  5
790B
330
790A
100
AcDbEntity
  8
0
100
AcDbBlockBegin
  2
*D11
 70
     1
 10
0.0
 20
0.0
 30
0.0
  3
*D11
  1
*D11
  0
LINE
  5
790C
330
790A
100
AcDbEntity
  8
WYMIARY
 62
     0
100
AcDbLine
 10
162.2034833127937
 20
180.8426849177271
 30
0.0
 11
170.9213927745451
 21
180.8426849177271
 31
0.0
  0
LINE
  5
790D
330
790A
100
AcDbEntity
  8
WYMIARY
 62
     0
100
AcDbLine
 10
162.2034833127937
 20
218.3426849177271
 30
0.0
 11
170.9213927745451
 21
218.3426849177271
 31
0.0
  0
LINE
  5
790E
330
790A
100
AcDbEntity
  8
WYMIARY
 62
     0
100
AcDbLine
 10
169.4213927745451
 20
184.3426849177271
 30
0.0
 11
169.4213927745451
 21
214.8426849177271
 31
0.0
  0
SOLID
  5
790F
330
790A
100
AcDbEntity
  8
WYMIARY
 62
     0
100
AcDbTrace
 10
168.8380594412118
 20
184.3426849177271
 30
0.0
 11
170.0047261078785
 21
184.3426849177271
 31
0.0
 12
169.4213927745451
 22
180.8426849177271
 32
0.0
 13
169.4213927745451
 23
180.8426849177271
 33
0.0
  0
SOLID
  5
7910
330
790A
100
AcDbEntity
  8
WYMIARY
 62
     0
100
AcDbTrace
 10
170.0047261078785
 20
214.8426849177271
 30
0.0
 11
168.8380594412118
 21
214.8426849177271
 31
0.0
 12
169.4213927745451
 22
218.3426849177271
 32
0.0
 13
169.4213927745451
 23
218.3426849177271
 33
0.0
  0
MTEXT
  5
7911
330
790A
100
AcDbEntity
  8
WYMIARY
 62
     0
100
AcDbMText
 10
166.3797261078785
 20
199.5926849177271
 30
0.0
 40
3.5
 41
0.0
 71
     5
 72
     1
  1
\A1;37.50%%p0,1
 11
0.0
 21
1.0
 31
0.0
  0
POINT
  5
7912
330
790A
100
AcDbEntity
  8
DEFPOINTS
 62
     0
100
AcDbPoint
 10
160.7034833127937
 20
180.8426849177271
 30
0.0
  0
POINT
  5
7913
330
790A
100
AcDbEntity
  8
DEFPOINTS
 62
     0
100
AcDbPoint
 10
160.7034833127937
 20
218.3426849177271
 30
0.0
  0
POINT
  5
7914
330
790A
100
AcDbEntity
  8
DEFPOINTS
 62
     0
100
AcDbPoint
 10
169.4213927745451
 20
218.3426849177271
 30
0.0
  0
ENDBLK
  5
7915
330
790A
100
AcDbEntity
  8
0
100
AcDbBlockEnd
  0
BLOCK
  5
7918
330
7917
100
AcDbEntity
  8
0
100
AcDbBlockBegin
  2
*D12
 70
     1
 10
0.0
 20
0.0
 30
0.0
  3
*D12
  1
*D12
  0
LINE
  5
7919
330
7917
100
AcDbEntity
  8
WYMIARY
 62
     0
100
AcDbLine
 10
35.66488700880777
 20
123.3733662958809
 30
0.0
 11
35.66488700880777
 21
108.8249226752484
 31
0.0
  0
LINE
  5
791A
330
7917
100
AcDbEntity
  8
WYMIARY
 62
     0
100
AcDbLine
 10
32.85533040032402
 20
123.3733662958809
 30
0.0
 11
32.85533040032402
 21
108.8249226752484
 31
0.0
  0
LINE
  5
791B
330
7917
100
AcDbEntity
  8
WYMIARY
 62
     0
100
AcDbLine
 10
32.85533040032402
 20
110.3249226752484
 30
0.0
 11
20.45533040032402
 21
110.3249226752484
 31
0.0
  0
LINE
  5
791C
330
7917
100
AcDbEntity
  8
WYMIARY
 62
     0
100
AcDbLine
 10
39.16488700880777
 20
110.3249226752484
 30
0.0
 11
42.66488700880777
 21
110.3249226752484
 31
0.0
  0
LINE
  5
791D
330
7917
100
AcDbEntity
  8
WYMIARY
 62
     0
100
AcDbLine
 10
29.35533040032402
 20
110.3249226752484
 30
0.0
 11
25.85533040032402
 21
110.3249226752484
 31
0.0
  0
SOLID
  5
791E
330
7917
100
AcDbEntity
  8
WYMIARY
 62
     0
100
AcDbTrace
 10
39.16488700880777
 20
110.9082560085817
 30
0.0
 11
39.16488700880777
 21
109.741589341915
 31
0.0
 12
35.66488700880777
 22
110.3249226752484
 32
0.0
 13
35.66488700880777
 23
110.3249226752484
 33
0.0
  0
SOLID
  5
791F
330
7917
100
AcDbEntity
  8
WYMIARY
 62
     0
100
AcDbTrace
 10
29.35533040032402
 20
109.741589341915
 30
0.0
 11
29.35533040032402
 21
110.9082560085817
 31
0.0
 12
32.85533040032402
 22
110.3249226752484
 32
0.0
 13
32.85533040032402
 23
110.3249226752484
 33
0.0
  0
MTEXT
  5
7920
330
7917
100
AcDbEntity
  8
WYMIARY
 62
     0
100
AcDbMText
 10
23.15533040032402
 20
113.6249226752484
 30
0.0
 40
3.6
 41
0.0
 71
     5
 72
     1
  1
\A1;S
  0
POINT
  5
7921
330
7917
100
AcDbEntity
  8
DEFPOINTS
 62
     0
100
AcDbPoint
 10
35.66488700880777
 20
124.8733662958809
 30
0.0
  0
POINT
  5
7922
330
7917
100
AcDbEntity
  8
DEFPOINTS
 62
     0
100
AcDbPoint
 10
32.85533040032402
 20
124.8733662958809
 30
0.0
  0
POINT
  5
7923
330
7917
100
AcDbEntity
  8
DEFPOINTS
 62
     0
100
AcDbPoint
 10
32.85533040032402
 20
110.3249226752484
 30
0.0
  0
ENDBLK
  5
7924
330
7917
100
AcDbEntity
  8
0
100
AcDbBlockEnd
  0
BLOCK
  5
79B1
330
79B0
100
AcDbEntity
  8
0
100
AcDbBlockBegin
  2
*D13
 70
     1
 10
0.0
 20
0.0
 30
0.0
  3
*D13
  1
*D13
  0
LINE
  5
79B2
330
79B0
100
AcDbEntity
  8
WYMIARY
 62
     0
100
AcDbLine
 10
45.45587824633732
 20
101.4294002624323
 30
0.0
 11
45.45587824633732
 21
87.42479190671335
 31
0.0
  0
LINE
  5
79B3
330
79B0
100
AcDbEntity
  8
WYMIARY
 62
     0
100
AcDbLine
 10
43.34039545179243
 20
101.4294002624323
 30
0.0
 11
43.34039545179243
 21
87.42479190671335
 31
0.0
  0
LINE
  5
79B4
330
79B0
100
AcDbEntity
  8
WYMIARY
 62
     0
100
AcDbLine
 10
39.84039545179243
 20
88.92479190671335
 30
0.0
 11
30.94039545179243
 21
88.92479190671335
 31
0.0
  0
LINE
  5
79B5
330
79B0
100
AcDbEntity
  8
WYMIARY
 62
     0
100
AcDbLine
 10
48.95587824633732
 20
88.92479190671335
 30
0.0
 11
52.45587824633732
 21
88.92479190671335
 31
0.0
  0
SOLID
  5
79B6
330
79B0
100
AcDbEntity
  8
WYMIARY
 62
     0
100
AcDbTrace
 10
48.95587824633732
 20
89.50812524004668
 30
0.0
 11
48.95587824633732
 21
88.34145857338002
 31
0.0
 12
45.45587824633732
 22
88.92479190671335
 32
0.0
 13
45.45587824633732
 23
88.92479190671335
 33
0.0
  0
SOLID
  5
79B7
330
79B0
100
AcDbEntity
  8
WYMIARY
 62
     0
100
AcDbTrace
 10
39.84039545179243
 20
88.34145857338002
 30
0.0
 11
39.84039545179243
 21
89.50812524004668
 31
0.0
 12
43.34039545179243
 22
88.92479190671335
 32
0.0
 13
43.34039545179243
 23
88.92479190671335
 33
0.0
  0
MTEXT
  5
79B8
330
79B0
100
AcDbEntity
  8
WYMIARY
 62
     0
100
AcDbMText
 10
33.64039545179243
 20
92.22479190671335
 30
0.0
 40
3.6
 41
0.0
 71
     5
 72
     1
  1
\A1;S
  0
POINT
  5
79B9
330
79B0
100
AcDbEntity
  8
DEFPOINTS
 62
     0
100
AcDbPoint
 10
45.45587824633732
 20
102.9294002624323
 30
0.0
  0
POINT
  5
79BA
330
79B0
100
AcDbEntity
  8
DEFPOINTS
 62
     0
100
AcDbPoint
 10
43.34039545179243
 20
102.9294002624323
 30
0.0
  0
POINT
  5
79BB
330
79B0
100
AcDbEntity
  8
DEFPOINTS
 62
     0
100
AcDbPoint
 10
43.34039545179243
 20
88.92479190671335
 30
0.0
  0
ENDBLK
  5
79BD
330
79B0
100
AcDbEntity
  8
0
100
AcDbBlockEnd
  0
BLOCK
  5
7B9A
330
7B99
100
AcDbEntity
  8
0
100
AcDbBlockBegin
  2
*D14
 70
     1
 10
0.0
 20
0.0
 30
0.0
  3
*D14
  1
*D14
  0
LINE
  5
7B9C
330
7B99
100
AcDbEntity
  8
WYMIARY
 62
     0
100
AcDbLine
 10
795.8662509363838
 20
97.86372250937528
 30
0.0
 11
792.6758712370549
 21
97.86372250937528
 31
0.0
  0
LINE
  5
7B9D
330
7B99
100
AcDbEntity
  8
WYMIARY
 62
     0
100
AcDbLine
 10
800.1494957072102
 20
79.86372250937517
 30
0.0
 11
792.6758712370549
 21
79.86372250937517
 31
0.0
  0
LINE
  5
7B9E
330
7B99
100
AcDbEntity
  8
WYMIARY
 62
     0
100
AcDbLine
 10
794.1758712370549
 20
94.36372250937528
 30
0.0
 11
794.1758712370549
 21
83.36372250937517
 31
0.0
  0
SOLID
  5
7B9F
330
7B99
100
AcDbEntity
  8
WYMIARY
 62
     0
100
AcDbTrace
 10
794.7592045703883
 20
94.36372250937528
 30
0.0
 11
793.5925379037216
 21
94.36372250937528
 31
0.0
 12
794.1758712370549
 22
97.86372250937528
 32
0.0
 13
794.1758712370549
 23
97.86372250937528
 33
0.0
  0
SOLID
  5
7BA0
330
7B99
100
AcDbEntity
  8
WYMIARY
 62
     0
100
AcDbTrace
 10
793.5925379037216
 20
83.36372250937517
 30
0.0
 11
794.7592045703883
 21
83.36372250937517
 31
0.0
 12
794.1758712370549
 22
79.86372250937517
 32
0.0
 13
794.1758712370549
 23
79.86372250937517
 33
0.0
  0
MTEXT
  5
7BA1
330
7B99
100
AcDbEntity
  8
WYMIARY
 62
     0
100
AcDbMText
 10
791.4258712370549
 20
88.86372250937522
 30
0.0
 40
3.5
 41
0.0
 71
     5
 72
     1
  1
\A1;18.00
 11
0.0
 21
1.0
 31
0.0
  0
POINT
  5
7BA2
330
7B99
100
AcDbEntity
  8
DEFPOINTS
 62
     0
100
AcDbPoint
 10
797.3662509363838
 20
97.86372250937528
 30
0.0
  0
POINT
  5
7BA3
330
7B99
100
AcDbEntity
  8
DEFPOINTS
 62
     0
100
AcDbPoint
 10
801.6494957072102
 20
79.86372250937517
 30
0.0
  0
POINT
  5
7BA4
330
7B99
100
AcDbEntity
  8
DEFPOINTS
 62
     0
100
AcDbPoint
 10
794.1758712370549
 20
79.86372250937517
 30
0.0
  0
ENDBLK
  5
7B9B
330
7B99
100
AcDbEntity
  8
0
100
AcDbBlockEnd
  0
BLOCK
  5
7BA6
330
7BA5
100
AcDbEntity
  8
0
100
AcDbBlockBegin
  2
*D15
 70
     1
 10
0.0
 20
0.0
 30
0.0
  3
*D15
  1
*D15
  0
LINE
  5
7BA8
330
7BA5
100
AcDbEntity
  8
WYMIARY
 62
     0
100
AcDbLine
 10
925.2476486196801
 20
257.5830411312215
 30
0.0
 11
920.445388096054
 21
257.5830411312215
 31
0.0
  0
LINE
  5
7BA9
330
7BA5
100
AcDbEntity
  8
WYMIARY
 62
     0
100
AcDbLine
 10
925.2476486196801
 20
263.0830411312215
 30
0.0
 11
920.445388096054
 21
263.0830411312215
 31
0.0
  0
LINE
  5
7BAA
330
7BA5
100
AcDbEntity
  8
WYMIARY
 62
     0
100
AcDbLine
 10
921.945388096054
 20
266.5830411312215
 30
0.0
 11
921.945388096054
 21
288.9997077978883
 31
0.0
  0
LINE
  5
7BAB
330
7BA5
100
AcDbEntity
  8
WYMIARY
 62
     0
100
AcDbLine
 10
921.945388096054
 20
254.0830411312215
 30
0.0
 11
921.945388096054
 21
250.5830411312215
 31
0.0
  0
SOLID
  5
7BAC
330
7BA5
100
AcDbEntity
  8
WYMIARY
 62
     0
100
AcDbTrace
 10
922.5287214293874
 20
254.0830411312215
 30
0.0
 11
921.3620547627206
 21
254.0830411312215
 31
0.0
 12
921.945388096054
 22
257.5830411312215
 32
0.0
 13
921.945388096054
 23
257.5830411312215
 33
0.0
  0
SOLID
  5
7BAD
330
7BA5
100
AcDbEntity
  8
WYMIARY
 62
     0
100
AcDbTrace
 10
921.3620547627206
 20
266.5830411312215
 30
0.0
 11
922.5287214293874
 21
266.5830411312215
 31
0.0
 12
921.945388096054
 22
263.0830411312215
 32
0.0
 13
921.945388096054
 23
263.0830411312215
 33
0.0
  0
MTEXT
  5
7BAE
330
7BA5
100
AcDbEntity
  8
WYMIARY
 62
     0
100
AcDbMText
 10
919.195388096054
 20
279.5413744645549
 30
0.0
 40
3.5
 41
0.0
 71
     5
 72
     1
  1
\A1;5.50x6
 11
0.0
 21
1.0
 31
0.0
  0
POINT
  5
7BAF
330
7BA5
100
AcDbEntity
  8
DEFPOINTS
 62
     0
100
AcDbPoint
 10
926.7476486196801
 20
257.5830411312215
 30
0.0
  0
POINT
  5
7BB0
330
7BA5
100
AcDbEntity
  8
DEFPOINTS
 62
     0
100
AcDbPoint
 10
926.7476486196801
 20
263.0830411312215
 30
0.0
  0
POINT
  5
7BB1
330
7BA5
100
AcDbEntity
  8
DEFPOINTS
 62
     0
100
AcDbPoint
 10
921.945388096054
 20
263.0830411312215
 30
0.0
  0
ENDBLK
  5
7BA7
330
7BA5
100
AcDbEntity
  8
0
100
AcDbBlockEnd
  0
BLOCK
  5
7BB3
330
7BB2
100
AcDbEntity
  8
0
100
AcDbBlockBegin
  2
*D16
 70
     1
 10
0.0
 20
0.0
 30
0.0
  3
*D16
  1
*D16
  0
LINE
  5
7BB5
330
7BB2
100
AcDbEntity
  8
WYMIARY
 62
     0
100
AcDbLine
 10
944.7476486196801
 20
260.3330411312215
 30
0.0
 11
953.4655580814316
 21
260.3330411312215
 31
0.0
  0
LINE
  5
7BB6
330
7BB2
100
AcDbEntity
  8
WYMIARY
 62
     0
100
AcDbLine
 10
944.7476486196801
 20
297.8330411312215
 30
0.0
 11
953.4655580814316
 21
297.8330411312215
 31
0.0
  0
LINE
  5
7BB7
330
7BB2
100
AcDbEntity
  8
WYMIARY
 62
     0
100
AcDbLine
 10
951.9655580814316
 20
263.8330411312215
 30
0.0
 11
951.9655580814316
 21
294.3330411312215
 31
0.0
  0
SOLID
  5
7BB8
330
7BB2
100
AcDbEntity
  8
WYMIARY
 62
     0
100
AcDbTrace
 10
951.3822247480982
 20
263.8330411312215
 30
0.0
 11
952.548891414765
 21
263.8330411312215
 31
0.0
 12
951.9655580814316
 22
260.3330411312215
 32
0.0
 13
951.9655580814316
 23
260.3330411312215
 33
0.0
  0
SOLID
  5
7BB9
330
7BB2
100
AcDbEntity
  8
WYMIARY
 62
     0
100
AcDbTrace
 10
952.548891414765
 20
294.3330411312215
 30
0.0
 11
951.3822247480982
 21
294.3330411312215
 31
0.0
 12
951.9655580814316
 22
297.8330411312215
 32
0.0
 13
951.9655580814316
 23
297.8330411312215
 33
0.0
  0
MTEXT
  5
7BBA
330
7BB2
100
AcDbEntity
  8
WYMIARY
 62
     0
100
AcDbMText
 10
948.923891414765
 20
279.0830411312215
 30
0.0
 40
3.5
 41
0.0
 71
     5
 72
     1
  1
\A1;37.50%%p0,1
 11
0.0
 21
1.0
 31
0.0
  0
POINT
  5
7BBB
330
7BB2
100
AcDbEntity
  8
DEFPOINTS
 62
     0
100
AcDbPoint
 10
943.2476486196801
 20
260.3330411312215
 30
0.0
  0
POINT
  5
7BBC
330
7BB2
100
AcDbEntity
  8
DEFPOINTS
 62
     0
100
AcDbPoint
 10
943.2476486196801
 20
297.8330411312215
 30
0.0
  0
POINT
  5
7BBD
330
7BB2
100
AcDbEntity
  8
DEFPOINTS
 62
     0
100
AcDbPoint
 10
951.9655580814316
 20
297.8330411312215
 30
0.0
  0
ENDBLK
  5
7BB4
330
7BB2
100
AcDbEntity
  8
0
100
AcDbBlockEnd
  0
BLOCK
  5
7BBF
330
7BBE
100
AcDbEntity
  8
0
100
AcDbBlockBegin
  2
*D17
 70
     1
 10
0.0
 20
0.0
 30
0.0
  3
*D17
  1
*D17
  0
LINE
  5
7BC1
330
7BBE
100
AcDbEntity
  8
WYMIARY
 62
     0
100
AcDbLine
 10
818.2090523156943
 20
202.8637225093754
 30
0.0
 11
818.2090523156943
 21
188.3152788887428
 31
0.0
  0
LINE
  5
7BC2
330
7BBE
100
AcDbEntity
  8
WYMIARY
 62
     0
100
AcDbLine
 10
815.3994957072105
 20
202.8637225093754
 30
0.0
 11
815.3994957072105
 21
188.3152788887428
 31
0.0
  0
LINE
  5
7BC3
330
7BBE
100
AcDbEntity
  8
WYMIARY
 62
     0
100
AcDbLine
 10
815.3994957072105
 20
189.8152788887428
 30
0.0
 11
802.9994957072104
 21
189.8152788887428
 31
0.0
  0
LINE
  5
7BC4
330
7BBE
100
AcDbEntity
  8
WYMIARY
 62
     0
100
AcDbLine
 10
821.7090523156943
 20
189.8152788887428
 30
0.0
 11
825.2090523156943
 21
189.8152788887428
 31
0.0
  0
LINE
  5
7BC5
330
7BBE
100
AcDbEntity
  8
WYMIARY
 62
     0
100
AcDbLine
 10
811.8994957072105
 20
189.8152788887428
 30
0.0
 11
808.3994957072105
 21
189.8152788887428
 31
0.0
  0
SOLID
  5
7BC6
330
7BBE
100
AcDbEntity
  8
WYMIARY
 62
     0
100
AcDbTrace
 10
821.7090523156943
 20
190.3986122220762
 30
0.0
 11
821.7090523156943
 21
189.2319455554095
 31
0.0
 12
818.2090523156943
 22
189.8152788887428
 32
0.0
 13
818.2090523156943
 23
189.8152788887428
 33
0.0
  0
SOLID
  5
7BC7
330
7BBE
100
AcDbEntity
  8
WYMIARY
 62
     0
100
AcDbTrace
 10
811.8994957072105
 20
189.2319455554095
 30
0.0
 11
811.8994957072105
 21
190.3986122220762
 31
0.0
 12
815.3994957072105
 22
189.8152788887428
 32
0.0
 13
815.3994957072105
 23
189.8152788887428
 33
0.0
  0
MTEXT
  5
7BC8
330
7BBE
100
AcDbEntity
  8
WYMIARY
 62
     0
100
AcDbMText
 10
805.6994957072104
 20
193.1152788887428
 30
0.0
 40
3.6
 41
0.0
 71
     5
 72
     1
  1
\A1;S
  0
POINT
  5
7BC9
330
7BBE
100
AcDbEntity
  8
DEFPOINTS
 62
     0
100
AcDbPoint
 10
818.2090523156943
 20
204.3637225093754
 30
0.0
  0
POINT
  5
7BCA
330
7BBE
100
AcDbEntity
  8
DEFPOINTS
 62
     0
100
AcDbPoint
 10
815.3994957072105
 20
204.3637225093754
 30
0.0
  0
POINT
  5
7BCB
330
7BBE
100
AcDbEntity
  8
DEFPOINTS
 62
     0
100
AcDbPoint
 10
815.3994957072105
 20
189.8152788887428
 30
0.0
  0
ENDBLK
  5
7BC0
330
7BBE
100
AcDbEntity
  8
0
100
AcDbBlockEnd
  0
BLOCK
  5
7BCD
330
7BCC
100
AcDbEntity
  8
0
100
AcDbBlockBegin
  2
*D18
 70
     1
 10
0.0
 20
0.0
 30
0.0
  3
*D18
  1
*D18
  0
LINE
  5
7BCF
330
7BCC
100
AcDbEntity
  8
WYMIARY
 62
     0
100
AcDbLine
 10
828.0000435532238
 20
180.9197564759267
 30
0.0
 11
828.0000435532238
 21
166.9151481202078
 31
0.0
  0
LINE
  5
7BD0
330
7BCC
100
AcDbEntity
  8
WYMIARY
 62
     0
100
AcDbLine
 10
825.884560758679
 20
180.9197564759267
 30
0.0
 11
825.884560758679
 21
166.9151481202078
 31
0.0
  0
LINE
  5
7BD1
330
7BCC
100
AcDbEntity
  8
WYMIARY
 62
     0
100
AcDbLine
 10
822.384560758679
 20
168.4151481202078
 30
0.0
 11
813.4845607586789
 21
168.4151481202078
 31
0.0
  0
LINE
  5
7BD2
330
7BCC
100
AcDbEntity
  8
WYMIARY
 62
     0
100
AcDbLine
 10
831.5000435532238
 20
168.4151481202078
 30
0.0
 11
835.0000435532238
 21
168.4151481202078
 31
0.0
  0
SOLID
  5
7BD3
330
7BCC
100
AcDbEntity
  8
WYMIARY
 62
     0
100
AcDbTrace
 10
831.5000435532238
 20
168.9984814535412
 30
0.0
 11
831.5000435532238
 21
167.8318147868745
 31
0.0
 12
828.0000435532238
 22
168.4151481202078
 32
0.0
 13
828.0000435532238
 23
168.4151481202078
 33
0.0
  0
SOLID
  5
7BD4
330
7BCC
100
AcDbEntity
  8
WYMIARY
 62
     0
100
AcDbTrace
 10
822.384560758679
 20
167.8318147868745
 30
0.0
 11
822.384560758679
 21
168.9984814535412
 31
0.0
 12
825.884560758679
 22
168.4151481202078
 32
0.0
 13
825.884560758679
 23
168.4151481202078
 33
0.0
  0
MTEXT
  5
7BD5
330
7BCC
100
AcDbEntity
  8
WYMIARY
 62
     0
100
AcDbMText
 10
816.1845607586789
 20
171.7151481202078
 30
0.0
 40
3.6
 41
0.0
 71
     5
 72
     1
  1
\A1;S
  0
POINT
  5
7BD6
330
7BCC
100
AcDbEntity
  8
DEFPOINTS
 62
     0
100
AcDbPoint
 10
828.0000435532238
 20
182.4197564759267
 30
0.0
  0
POINT
  5
7BD7
330
7BCC
100
AcDbEntity
  8
DEFPOINTS
 62
     0
100
AcDbPoint
 10
825.884560758679
 20
182.4197564759267
 30
0.0
  0
POINT
  5
7BD8
330
7BCC
100
AcDbEntity
  8
DEFPOINTS
 62
     0
100
AcDbPoint
 10
825.884560758679
 20
168.4151481202078
 30
0.0
  0
ENDBLK
  5
7BCE
330
7BCC
100
AcDbEntity
  8
0
100
AcDbBlockEnd
  0
BLOCK
  5
7C18
330
7C17
100
AcDbEntity
  8
0
100
AcDbBlockBegin
  2
*X20
 70
     1
 10
0.0
 20
0.0
 30
0.0
  3
*X20
  1
*X20
  0
LINE
  5
7C19
330
7C17
100
AcDbEntity
  8
0
 62
     0
100
AcDbLine
 10
284.7657831678812
 20
170.2144846156604
 30
0.0
 11
288.2657831678811
 21
173.7144846156604
 31
0.0
  0
LINE
  5
7C1A
330
7C17
100
AcDbEntity
  8
0
 62
     0
100
AcDbLine
 10
343.7657831678811
 20
229.2144846156604
 30
0.0
 11
347.2657831678812
 21
232.7144846156604
 31
0.0
  0
LINE
  5
7C1B
330
7C17
100
AcDbEntity
  8
0
 62
     0
100
AcDbLine
 10
284.7657831678812
 20
172.3358049592201
 30
0.0
 11
288.2657831678811
 21
175.83580495922
 31
0.0
  0
LINE
  5
7C1C
330
7C17
100
AcDbEntity
  8
0
 62
     0
100
AcDbLine
 10
343.7657831678811
 20
231.33580495922
 30
0.0
 11
347.2657831678812
 21
234.8358049592201
 31
0.0
  0
LINE
  5
7C1D
330
7C17
100
AcDbEntity
  8
0
 62
     0
100
AcDbLine
 10
284.7657831678812
 20
174.4571253027797
 30
0.0
 11
288.2657831678811
 21
177.9571253027797
 31
0.0
  0
LINE
  5
7C1E
330
7C17
100
AcDbEntity
  8
0
 62
     0
100
AcDbLine
 10
343.7657831678811
 20
233.4571253027796
 30
0.0
 11
347.2657831678812
 21
236.9571253027797
 31
0.0
  0
LINE
  5
7C1F
330
7C17
100
AcDbEntity
  8
0
 62
     0
100
AcDbLine
 10
284.7657831678812
 20
176.5784456463394
 30
0.0
 11
288.2657831678811
 21
180.0784456463393
 31
0.0
  0
LINE
  5
7C20
330
7C17
100
AcDbEntity
  8
0
 62
     0
100
AcDbLine
 10
343.7657831678811
 20
235.5784456463393
 30
0.0
 11
347.2657831678812
 21
239.0784456463394
 31
0.0
  0
LINE
  5
7C21
330
7C17
100
AcDbEntity
  8
0
 62
     0
100
AcDbLine
 10
284.7657831678812
 20
178.699765989899
 30
0.0
 11
288.2657831678811
 21
182.199765989899
 31
0.0
  0
LINE
  5
7C22
330
7C17
100
AcDbEntity
  8
0
 62
     0
100
AcDbLine
 10
343.7657831678811
 20
237.6997659898989
 30
0.0
 11
347.2657831678812
 21
241.199765989899
 31
0.0
  0
LINE
  5
7C23
330
7C17
100
AcDbEntity
  8
0
 62
     0
100
AcDbLine
 10
284.7657831678812
 20
180.8210863334587
 30
0.0
 11
288.2657831678811
 21
184.3210863334586
 31
0.0
  0
LINE
  5
7C24
330
7C17
100
AcDbEntity
  8
0
 62
     0
100
AcDbLine
 10
343.7657831678811
 20
239.8210863334586
 30
0.0
 11
347.2657831678812
 21
243.3210863334587
 31
0.0
  0
LINE
  5
7C25
330
7C17
100
AcDbEntity
  8
0
 62
     0
100
AcDbLine
 10
284.7657831678812
 20
182.9424066770183
 30
0.0
 11
288.2657831678811
 21
186.4424066770182
 31
0.0
  0
LINE
  5
7C26
330
7C17
100
AcDbEntity
  8
0
 62
     0
100
AcDbLine
 10
343.7657831678811
 20
241.9424066770182
 30
0.0
 11
347.2657831678812
 21
245.4424066770183
 31
0.0
  0
LINE
  5
7C27
330
7C17
100
AcDbEntity
  8
0
 62
     0
100
AcDbLine
 10
284.7657831678812
 20
185.0637270205779
 30
0.0
 11
288.2657831678811
 21
188.5637270205779
 31
0.0
  0
LINE
  5
7C28
330
7C17
100
AcDbEntity
  8
0
 62
     0
100
AcDbLine
 10
343.7657831678811
 20
244.0637270205779
 30
0.0
 11
347.2657831678812
 21
247.5637270205779
 31
0.0
  0
LINE
  5
7C29
330
7C17
100
AcDbEntity
  8
0
 62
     0
100
AcDbLine
 10
284.7657831678812
 20
187.1850473641376
 30
0.0
 11
288.2657831678811
 21
190.6850473641375
 31
0.0
  0
LINE
  5
7C2A
330
7C17
100
AcDbEntity
  8
0
 62
     0
100
AcDbLine
 10
343.7657831678811
 20
246.1850473641375
 30
0.0
 11
347.2657831678812
 21
249.6850473641376
 31
0.0
  0
LINE
  5
7C2B
330
7C17
100
AcDbEntity
  8
0
 62
     0
100
AcDbLine
 10
284.7657831678812
 20
189.3063677076972
 30
0.0
 11
288.2657831678811
 21
192.8063677076972
 31
0.0
  0
LINE
  5
7C2C
330
7C17
100
AcDbEntity
  8
0
 62
     0
100
AcDbLine
 10
343.7657831678811
 20
248.3063677076971
 30
0.0
 11
347.2657831678812
 21
251.8063677076972
 31
0.0
  0
LINE
  5
7C2D
330
7C17
100
AcDbEntity
  8
0
 62
     0
100
AcDbLine
 10
284.7657831678812
 20
191.4276880512569
 30
0.0
 11
288.2657831678811
 21
194.9276880512568
 31
0.0
  0
LINE
  5
7C2E
330
7C17
100
AcDbEntity
  8
0
 62
     0
100
AcDbLine
 10
343.7657831678811
 20
250.4276880512568
 30
0.0
 11
347.2657831678812
 21
253.9276880512569
 31
0.0
  0
LINE
  5
7C2F
330
7C17
100
AcDbEntity
  8
0
 62
     0
100
AcDbLine
 10
284.7657831678812
 20
193.5490083948165
 30
0.0
 11
288.2657831678811
 21
197.0490083948164
 31
0.0
  0
LINE
  5
7C30
330
7C17
100
AcDbEntity
  8
0
 62
     0
100
AcDbLine
 10
343.7657831678811
 20
252.5490083948164
 30
0.0
 11
347.2657831678812
 21
256.0490083948165
 31
0.0
  0
LINE
  5
7C31
330
7C17
100
AcDbEntity
  8
0
 62
     0
100
AcDbLine
 10
284.7657831678812
 20
195.6703287383762
 30
0.0
 11
288.2657831678811
 21
199.1703287383761
 31
0.0
  0
LINE
  5
7C32
330
7C17
100
AcDbEntity
  8
0
 62
     0
100
AcDbLine
 10
343.7657831678811
 20
254.6703287383761
 30
0.0
 11
347.2657831678812
 21
258.1703287383762
 31
0.0
  0
LINE
  5
7C33
330
7C17
100
AcDbEntity
  8
0
 62
     0
100
AcDbLine
 10
284.7657831678812
 20
197.7916490819358
 30
0.0
 11
288.2657831678811
 21
201.2916490819357
 31
0.0
  0
LINE
  5
7C34
330
7C17
100
AcDbEntity
  8
0
 62
     0
100
AcDbLine
 10
343.7657831678811
 20
256.7916490819357
 30
0.0
 11
347.2657831678812
 21
260.2916490819358
 31
0.0
  0
LINE
  5
7C35
330
7C17
100
AcDbEntity
  8
0
 62
     0
100
AcDbLine
 10
284.7657831678812
 20
199.9129694254954
 30
0.0
 11
288.2657831678811
 21
203.4129694254954
 31
0.0
  0
LINE
  5
7C36
330
7C17
100
AcDbEntity
  8
0
 62
     0
100
AcDbLine
 10
343.7657831678811
 20
258.9129694254954
 30
0.0
 11
346.9862529461547
 21
262.1334392037689
 31
0.0
  0
LINE
  5
7C37
330
7C17
100
AcDbEntity
  8
0
 62
     0
100
AcDbLine
 10
284.7657831678812
 20
202.0342897690551
 30
0.0
 11
288.2657831678811
 21
205.534289769055
 31
0.0
  0
LINE
  5
7C38
330
7C17
100
AcDbEntity
  8
0
 62
     0
100
AcDbLine
 10
343.6783510128134
 20
260.9468576139873
 30
0.0
 11
346.1585124307828
 21
263.4270190319567
 31
0.0
  0
LINE
  5
7C39
330
7C17
100
AcDbEntity
  8
0
 62
     0
100
AcDbLine
 10
284.7657831678812
 20
204.1556101126147
 30
0.0
 11
288.2657831678811
 21
207.6556101126147
 31
0.0
  0
LINE
  5
7C3A
330
7C17
100
AcDbEntity
  8
0
 62
     0
100
AcDbLine
 10
341.7745633731965
 20
261.16439031793
 30
0.0
 11
344.9175797244688
 21
264.3074066692024
 31
0.0
  0
LINE
  5
7C3B
330
7C17
100
AcDbEntity
  8
0
 62
     0
100
AcDbLine
 10
284.7657831678812
 20
206.2769304561744
 30
0.0
 11
288.2657831678811
 21
209.7769304561743
 31
0.0
  0
LINE
  5
7C3C
330
7C17
100
AcDbEntity
  8
0
 62
     0
100
AcDbLine
 10
339.6532430296369
 20
261.16439031793
 30
0.0
 11
343.1532430296368
 21
264.6643903179299
 31
0.0
  0
LINE
  5
7C3D
330
7C17
100
AcDbEntity
  8
0
 62
     0
100
AcDbLine
 10
284.7657831678812
 20
208.398250799734
 30
0.0
 11
288.2657831678811
 21
211.8982507997339
 31
0.0
  0
LINE
  5
7C3E
330
7C17
100
AcDbEntity
  8
0
 62
     0
100
AcDbLine
 10
337.5319226860772
 20
261.16439031793
 30
0.0
 11
341.0319226860771
 21
264.6643903179299
 31
0.0
  0
LINE
  5
7C3F
330
7C17
100
AcDbEntity
  8
0
 62
     0
100
AcDbLine
 10
284.7657831678812
 20
210.5195711432937
 30
0.0
 11
288.2657831678811
 21
214.0195711432936
 31
0.0
  0
LINE
  5
7C40
330
7C17
100
AcDbEntity
  8
0
 62
     0
100
AcDbLine
 10
335.4106023425176
 20
261.16439031793
 30
0.0
 11
338.9106023425175
 21
264.6643903179299
 31
0.0
  0
LINE
  5
7C41
330
7C17
100
AcDbEntity
  8
0
 62
     0
100
AcDbLine
 10
284.7657831678812
 20
212.6408914868533
 30
0.0
 11
288.2657831678811
 21
216.1408914868532
 31
0.0
  0
LINE
  5
7C42
330
7C17
100
AcDbEntity
  8
0
 62
     0
100
AcDbLine
 10
333.2892819989579
 20
261.16439031793
 30
0.0
 11
336.7892819989578
 21
264.66439031793
 31
0.0
  0
LINE
  5
7C43
330
7C17
100
AcDbEntity
  8
0
 62
     0
100
AcDbLine
 10
284.7657831678812
 20
214.7622118304129
 30
0.0
 11
288.2657831678811
 21
218.2622118304129
 31
0.0
  0
LINE
  5
7C44
330
7C17
100
AcDbEntity
  8
0
 62
     0
100
AcDbLine
 10
331.1679616553983
 20
261.16439031793
 30
0.0
 11
334.6679616553982
 21
264.66439031793
 31
0.0
  0
LINE
  5
7C45
330
7C17
100
AcDbEntity
  8
0
 62
     0
100
AcDbLine
 10
284.7657831678812
 20
216.8835321739726
 30
0.0
 11
288.2657831678811
 21
220.3835321739725
 31
0.0
  0
LINE
  5
7C46
330
7C17
100
AcDbEntity
  8
0
 62
     0
100
AcDbLine
 10
329.0466413118386
 20
261.16439031793
 30
0.0
 11
332.5466413118386
 21
264.66439031793
 31
0.0
  0
LINE
  5
7C47
330
7C17
100
AcDbEntity
  8
0
 62
     0
100
AcDbLine
 10
284.7657831678812
 20
219.0048525175322
 30
0.0
 11
288.2657831678811
 21
222.5048525175322
 31
0.0
  0
LINE
  5
7C48
330
7C17
100
AcDbEntity
  8
0
 62
     0
100
AcDbLine
 10
326.925320968279
 20
261.16439031793
 30
0.0
 11
330.425320968279
 21
264.66439031793
 31
0.0
  0
LINE
  5
7C49
330
7C17
100
AcDbEntity
  8
0
 62
     0
100
AcDbLine
 10
284.7657831678812
 20
221.1261728610919
 30
0.0
 11
288.2657831678811
 21
224.6261728610918
 31
0.0
  0
LINE
  5
7C4A
330
7C17
100
AcDbEntity
  8
0
 62
     0
100
AcDbLine
 10
324.8040006247194
 20
261.16439031793
 30
0.0
 11
328.3040006247193
 21
264.66439031793
 31
0.0
  0
LINE
  5
7C4B
330
7C17
100
AcDbEntity
  8
0
 62
     0
100
AcDbLine
 10
284.7657831678812
 20
223.2474932046515
 30
0.0
 11
288.2657831678811
 21
226.7474932046514
 31
0.0
  0
LINE
  5
7C4C
330
7C17
100
AcDbEntity
  8
0
 62
     0
100
AcDbLine
 10
322.6826802811597
 20
261.16439031793
 30
0.0
 11
326.1826802811597
 21
264.66439031793
 31
0.0
  0
LINE
  5
7C4D
330
7C17
100
AcDbEntity
  8
0
 62
     0
100
AcDbLine
 10
284.7657831678812
 20
225.3688135482111
 30
0.0
 11
288.2657831678811
 21
228.8688135482111
 31
0.0
  0
LINE
  5
7C4E
330
7C17
100
AcDbEntity
  8
0
 62
     0
100
AcDbLine
 10
320.5613599376001
 20
261.16439031793
 30
0.0
 11
324.0613599376001
 21
264.66439031793
 31
0.0
  0
LINE
  5
7C4F
330
7C17
100
AcDbEntity
  8
0
 62
     0
100
AcDbLine
 10
284.7657831678812
 20
227.4901338917708
 30
0.0
 11
288.2657831678811
 21
230.9901338917707
 31
0.0
  0
LINE
  5
7C50
330
7C17
100
AcDbEntity
  8
0
 62
     0
100
AcDbLine
 10
318.4400395940405
 20
261.16439031793
 30
0.0
 11
321.9400395940404
 21
264.66439031793
 31
0.0
  0
LINE
  5
7C51
330
7C17
100
AcDbEntity
  8
0
 62
     0
100
AcDbLine
 10
284.7657831678812
 20
229.6114542353304
 30
0.0
 11
288.2657831678811
 21
233.1114542353304
 31
0.0
  0
LINE
  5
7C52
330
7C17
100
AcDbEntity
  8
0
 62
     0
100
AcDbLine
 10
316.3187192504808
 20
261.16439031793
 30
0.0
 11
319.8187192504808
 21
264.66439031793
 31
0.0
  0
LINE
  5
7C53
330
7C17
100
AcDbEntity
  8
0
 62
     0
100
AcDbLine
 10
284.7657831678812
 20
231.7327745788901
 30
0.0
 11
288.2657831678811
 21
235.23277457889
 31
0.0
  0
LINE
  5
7C54
330
7C17
100
AcDbEntity
  8
0
 62
     0
100
AcDbLine
 10
314.1973989069211
 20
261.16439031793
 30
0.0
 11
317.6973989069211
 21
264.66439031793
 31
0.0
  0
LINE
  5
7C55
330
7C17
100
AcDbEntity
  8
0
 62
     0
100
AcDbLine
 10
284.7657831678812
 20
233.8540949224497
 30
0.0
 11
288.2657831678811
 21
237.3540949224497
 31
0.0
  0
LINE
  5
7C56
330
7C17
100
AcDbEntity
  8
0
 62
     0
100
AcDbLine
 10
312.0760785633615
 20
261.16439031793
 30
0.0
 11
315.5760785633615
 21
264.66439031793
 31
0.0
  0
LINE
  5
7C57
330
7C17
100
AcDbEntity
  8
0
 62
     0
100
AcDbLine
 10
284.7657831678812
 20
235.9754152660093
 30
0.0
 11
288.2657831678811
 21
239.4754152660093
 31
0.0
  0
LINE
  5
7C58
330
7C17
100
AcDbEntity
  8
0
 62
     0
100
AcDbLine
 10
309.9547582198019
 20
261.16439031793
 30
0.0
 11
313.4547582198019
 21
264.66439031793
 31
0.0
  0
LINE
  5
7C59
330
7C17
100
AcDbEntity
  8
0
 62
     0
100
AcDbLine
 10
284.7657831678812
 20
238.096735609569
 30
0.0
 11
288.2657831678811
 21
241.596735609569
 31
0.0
  0
LINE
  5
7C5A
330
7C17
100
AcDbEntity
  8
0
 62
     0
100
AcDbLine
 10
307.8334378762422
 20
261.16439031793
 30
0.0
 11
311.3334378762423
 21
264.66439031793
 31
0.0
  0
LINE
  5
7C5B
330
7C17
100
AcDbEntity
  8
0
 62
     0
100
AcDbLine
 10
284.7657831678812
 20
240.2180559531286
 30
0.0
 11
288.2657831678811
 21
243.7180559531286
 31
0.0
  0
LINE
  5
7C5C
330
7C17
100
AcDbEntity
  8
0
 62
     0
100
AcDbLine
 10
305.7121175326826
 20
261.16439031793
 30
0.0
 11
309.2121175326826
 21
264.6643903179301
 31
0.0
  0
LINE
  5
7C5D
330
7C17
100
AcDbEntity
  8
0
 62
     0
100
AcDbLine
 10
284.7657831678812
 20
242.3393762966883
 30
0.0
 11
288.2657831678811
 21
245.8393762966882
 31
0.0
  0
LINE
  5
7C5E
330
7C17
100
AcDbEntity
  8
0
 62
     0
100
AcDbLine
 10
303.590797189123
 20
261.16439031793
 30
0.0
 11
307.090797189123
 21
264.6643903179301
 31
0.0
  0
LINE
  5
7C5F
330
7C17
100
AcDbEntity
  8
0
 62
     0
100
AcDbLine
 10
284.7657831678812
 20
244.4606966402479
 30
0.0
 11
288.2657831678811
 21
247.9606966402479
 31
0.0
  0
LINE
  5
7C60
330
7C17
100
AcDbEntity
  8
0
 62
     0
100
AcDbLine
 10
301.4694768455633
 20
261.16439031793
 30
0.0
 11
304.9694768455633
 21
264.6643903179301
 31
0.0
  0
LINE
  5
7C61
330
7C17
100
AcDbEntity
  8
0
 62
     0
100
AcDbLine
 10
284.7657831678812
 20
246.5820169838076
 30
0.0
 11
288.2657831678811
 21
250.0820169838075
 31
0.0
  0
LINE
  5
7C62
330
7C17
100
AcDbEntity
  8
0
 62
     0
100
AcDbLine
 10
299.3481565020036
 20
261.16439031793
 30
0.0
 11
302.8481565020037
 21
264.6643903179301
 31
0.0
  0
LINE
  5
7C63
330
7C17
100
AcDbEntity
  8
0
 62
     0
100
AcDbLine
 10
284.7657831678812
 20
248.7033373273672
 30
0.0
 11
288.2657831678811
 21
252.2033373273672
 31
0.0
  0
LINE
  5
7C64
330
7C17
100
AcDbEntity
  8
0
 62
     0
100
AcDbLine
 10
297.226836158444
 20
261.16439031793
 30
0.0
 11
300.7268361584441
 21
264.6643903179301
 31
0.0
  0
LINE
  5
7C65
330
7C17
100
AcDbEntity
  8
0
 62
     0
100
AcDbLine
 10
284.7657831678812
 20
250.8246576709269
 30
0.0
 11
288.2657831678811
 21
254.3246576709268
 31
0.0
  0
LINE
  5
7C66
330
7C17
100
AcDbEntity
  8
0
 62
     0
100
AcDbLine
 10
295.1055158148844
 20
261.16439031793
 30
0.0
 11
298.6055158148844
 21
264.6643903179301
 31
0.0
  0
LINE
  5
7C67
330
7C17
100
AcDbEntity
  8
0
 62
     0
100
AcDbLine
 10
284.7657831678812
 20
252.9459780144865
 30
0.0
 11
288.2657831678811
 21
256.4459780144865
 31
0.0
  0
LINE
  5
7C68
330
7C17
100
AcDbEntity
  8
0
 62
     0
100
AcDbLine
 10
292.9841954713247
 20
261.16439031793
 30
0.0
 11
296.4841954713248
 21
264.6643903179301
 31
0.0
  0
LINE
  5
7C69
330
7C17
100
AcDbEntity
  8
0
 62
     0
100
AcDbLine
 10
284.7657831678812
 20
255.0672983580461
 30
0.0
 11
288.2657831678811
 21
258.5672983580461
 31
0.0
  0
LINE
  5
7C6A
330
7C17
100
AcDbEntity
  8
0
 62
     0
100
AcDbLine
 10
290.8628751277651
 20
261.16439031793
 30
0.0
 11
294.3628751277652
 21
264.6643903179302
 31
0.0
  0
LINE
  5
7C6B
330
7C17
100
AcDbEntity
  8
0
 62
     0
100
AcDbLine
 10
284.7657831678812
 20
257.1886187016058
 30
0.0
 11
288.2664008777937
 21
260.6892364115183
 31
0.0
  0
LINE
  5
7C6C
330
7C17
100
AcDbEntity
  8
0
 62
     0
100
AcDbLine
 10
288.740937074293
 20
261.1637726080176
 30
0.0
 11
292.2415547842056
 21
264.6643903179302
 31
0.0
  0
LINE
  5
7C6D
330
7C17
100
AcDbEntity
  8
0
 62
     0
100
AcDbLine
 10
284.7657831678812
 20
259.3099390451654
 30
0.0
 11
290.1202344406459
 21
264.6643903179302
 31
0.0
  0
LINE
  5
7C6E
330
7C17
100
AcDbEntity
  8
0
 62
     0
100
AcDbLine
 10
284.8594435745498
 20
261.5249197953937
 30
0.0
 11
287.9052536904176
 21
264.5707299112615
 31
0.0
  0
LINE
  5
7C6F
330
7C17
100
AcDbEntity
  8
0
 62
     0
100
AcDbLine
 10
284.7657831678812
 20
168.0931642721008
 30
0.0
 11
288.2657831678811
 21
171.5931642721008
 31
0.0
  0
LINE
  5
7C70
330
7C17
100
AcDbEntity
  8
0
 62
     0
100
AcDbLine
 10
343.7657831678811
 20
227.0931642721007
 30
0.0
 11
347.2657831678812
 21
230.5931642721008
 31
0.0
  0
LINE
  5
7C71
330
7C17
100
AcDbEntity
  8
0
 62
     0
100
AcDbLine
 10
284.7657831678812
 20
165.9718439285411
 30
0.0
 11
288.2657831678811
 21
169.4718439285411
 31
0.0
  0
LINE
  5
7C72
330
7C17
100
AcDbEntity
  8
0
 62
     0
100
AcDbLine
 10
343.7657831678811
 20
224.9718439285411
 30
0.0
 11
347.2657831678812
 21
228.4718439285412
 31
0.0
  0
LINE
  5
7C73
330
7C17
100
AcDbEntity
  8
0
 62
     0
100
AcDbLine
 10
284.7657831678812
 20
163.8505235849815
 30
0.0
 11
288.2657831678811
 21
167.3505235849815
 31
0.0
  0
LINE
  5
7C74
330
7C17
100
AcDbEntity
  8
0
 62
     0
100
AcDbLine
 10
343.7657831678811
 20
222.8505235849814
 30
0.0
 11
347.2657831678812
 21
226.3505235849815
 31
0.0
  0
LINE
  5
7C75
330
7C17
100
AcDbEntity
  8
0
 62
     0
100
AcDbLine
 10
284.7657831678812
 20
161.7292032414219
 30
0.0
 11
288.2657831678811
 21
165.2292032414218
 31
0.0
  0
LINE
  5
7C76
330
7C17
100
AcDbEntity
  8
0
 62
     0
100
AcDbLine
 10
343.7657831678811
 20
220.7292032414218
 30
0.0
 11
347.2657831678812
 21
224.2292032414219
 31
0.0
  0
LINE
  5
7C77
330
7C17
100
AcDbEntity
  8
0
 62
     0
100
AcDbLine
 10
284.7657831678812
 20
159.6078828978622
 30
0.0
 11
288.2657831678811
 21
163.1078828978622
 31
0.0
  0
LINE
  5
7C78
330
7C17
100
AcDbEntity
  8
0
 62
     0
100
AcDbLine
 10
343.7657831678811
 20
218.6078828978621
 30
0.0
 11
347.2657831678812
 21
222.1078828978623
 31
0.0
  0
LINE
  5
7C79
330
7C17
100
AcDbEntity
  8
0
 62
     0
100
AcDbLine
 10
284.7657831678812
 20
157.4865625543026
 30
0.0
 11
288.2657831678811
 21
160.9865625543025
 31
0.0
  0
LINE
  5
7C7A
330
7C17
100
AcDbEntity
  8
0
 62
     0
100
AcDbLine
 10
343.7657831678811
 20
216.4865625543025
 30
0.0
 11
347.2657831678812
 21
219.9865625543026
 31
0.0
  0
LINE
  5
7C7B
330
7C17
100
AcDbEntity
  8
0
 62
     0
100
AcDbLine
 10
284.7657831678812
 20
155.3652422107429
 30
0.0
 11
288.2657831678811
 21
158.8652422107429
 31
0.0
  0
LINE
  5
7C7C
330
7C17
100
AcDbEntity
  8
0
 62
     0
100
AcDbLine
 10
343.7657831678811
 20
214.3652422107428
 30
0.0
 11
347.2657831678812
 21
217.865242210743
 31
0.0
  0
LINE
  5
7C7D
330
7C17
100
AcDbEntity
  8
0
 62
     0
100
AcDbLine
 10
284.7657831678812
 20
153.2439218671833
 30
0.0
 11
288.2657831678811
 21
156.7439218671832
 31
0.0
  0
LINE
  5
7C7E
330
7C17
100
AcDbEntity
  8
0
 62
     0
100
AcDbLine
 10
343.7657831678811
 20
212.2439218671832
 30
0.0
 11
347.2657831678812
 21
215.7439218671833
 31
0.0
  0
LINE
  5
7C7F
330
7C17
100
AcDbEntity
  8
0
 62
     0
100
AcDbLine
 10
284.7657831678812
 20
151.1226015236237
 30
0.0
 11
288.2657831678811
 21
154.6226015236236
 31
0.0
  0
LINE
  5
7C80
330
7C17
100
AcDbEntity
  8
0
 62
     0
100
AcDbLine
 10
343.7657831678811
 20
210.1226015236236
 30
0.0
 11
347.2657831678812
 21
213.6226015236237
 31
0.0
  0
LINE
  5
7C81
330
7C17
100
AcDbEntity
  8
0
 62
     0
100
AcDbLine
 10
284.7657831678812
 20
149.001281180064
 30
0.0
 11
288.2657831678811
 21
152.501281180064
 31
0.0
  0
LINE
  5
7C82
330
7C17
100
AcDbEntity
  8
0
 62
     0
100
AcDbLine
 10
343.7657831678811
 20
208.0012811800639
 30
0.0
 11
347.2657831678812
 21
211.501281180064
 31
0.0
  0
LINE
  5
7C83
330
7C17
100
AcDbEntity
  8
0
 62
     0
100
AcDbLine
 10
284.7657831678812
 20
146.8799608365044
 30
0.0
 11
288.2657831678811
 21
150.3799608365043
 31
0.0
  0
LINE
  5
7C84
330
7C17
100
AcDbEntity
  8
0
 62
     0
100
AcDbLine
 10
343.7657831678811
 20
205.8799608365043
 30
0.0
 11
347.2657831678812
 21
209.3799608365044
 31
0.0
  0
LINE
  5
7C85
330
7C17
100
AcDbEntity
  8
0
 62
     0
100
AcDbLine
 10
284.7657831678812
 20
144.7586404929447
 30
0.0
 11
288.2657831678811
 21
148.2586404929447
 31
0.0
  0
LINE
  5
7C86
330
7C17
100
AcDbEntity
  8
0
 62
     0
100
AcDbLine
 10
343.7657831678811
 20
203.7586404929446
 30
0.0
 11
347.2657831678812
 21
207.2586404929447
 31
0.0
  0
LINE
  5
7C87
330
7C17
100
AcDbEntity
  8
0
 62
     0
100
AcDbLine
 10
284.7657831678812
 20
142.6373201493851
 30
0.0
 11
288.2657831678811
 21
146.137320149385
 31
0.0
  0
LINE
  5
7C88
330
7C17
100
AcDbEntity
  8
0
 62
     0
100
AcDbLine
 10
343.7657831678811
 20
201.637320149385
 30
0.0
 11
347.2657831678812
 21
205.1373201493851
 31
0.0
  0
LINE
  5
7C89
330
7C17
100
AcDbEntity
  8
0
 62
     0
100
AcDbLine
 10
284.7657831678812
 20
140.5159998058255
 30
0.0
 11
288.2657831678811
 21
144.0159998058254
 31
0.0
  0
LINE
  5
7C8A
330
7C17
100
AcDbEntity
  8
0
 62
     0
100
AcDbLine
 10
343.7657831678811
 20
199.5159998058254
 30
0.0
 11
347.2657831678812
 21
203.0159998058255
 31
0.0
  0
LINE
  5
7C8B
330
7C17
100
AcDbEntity
  8
0
 62
     0
100
AcDbLine
 10
284.7657831678812
 20
138.3946794622658
 30
0.0
 11
288.2657831678811
 21
141.8946794622657
 31
0.0
  0
LINE
  5
7C8C
330
7C17
100
AcDbEntity
  8
0
 62
     0
100
AcDbLine
 10
343.7657831678811
 20
197.3946794622657
 30
0.0
 11
347.2657831678812
 21
200.8946794622658
 31
0.0
  0
LINE
  5
7C8D
330
7C17
100
AcDbEntity
  8
0
 62
     0
100
AcDbLine
 10
285.1568143671051
 20
136.6643903179301
 30
0.0
 11
288.656814367105
 21
140.16439031793
 31
0.0
  0
LINE
  5
7C8E
330
7C17
100
AcDbEntity
  8
0
 62
     0
100
AcDbLine
 10
343.7657831678811
 20
195.2733591187061
 30
0.0
 11
347.2657831678812
 21
198.7733591187062
 31
0.0
  0
LINE
  5
7C8F
330
7C17
100
AcDbEntity
  8
0
 62
     0
100
AcDbLine
 10
287.2781347106647
 20
136.6643903179301
 30
0.0
 11
290.2657831678811
 21
139.6520387751465
 31
0.0
  0
LINE
  5
7C90
330
7C17
100
AcDbEntity
  8
0
 62
     0
100
AcDbLine
 10
343.7657831678811
 20
193.1520387751464
 30
0.0
 11
347.2657831678812
 21
196.6520387751465
 31
0.0
  0
LINE
  5
7C91
330
7C17
100
AcDbEntity
  8
0
 62
     0
100
AcDbLine
 10
289.3994550542243
 20
136.6643903179301
 30
0.0
 11
290.2657831678811
 21
137.5307184315868
 31
0.0
  0
LINE
  5
7C92
330
7C17
100
AcDbEntity
  8
0
 62
     0
100
AcDbLine
 10
343.7657831678811
 20
191.0307184315868
 30
0.0
 11
347.2657831678812
 21
194.5307184315869
 31
0.0
  0
LINE
  5
7C93
330
7C17
100
AcDbEntity
  8
0
 62
     0
100
AcDbLine
 10
343.7657831678811
 20
188.9093980880272
 30
0.0
 11
347.2657831678812
 21
192.4093980880272
 31
0.0
  0
LINE
  5
7C94
330
7C17
100
AcDbEntity
  8
0
 62
     0
100
AcDbLine
 10
343.7657831678811
 20
186.7880777444675
 30
0.0
 11
347.2657831678812
 21
190.2880777444676
 31
0.0
  0
LINE
  5
7C95
330
7C17
100
AcDbEntity
  8
0
 62
     0
100
AcDbLine
 10
343.7657831678811
 20
184.6667574009079
 30
0.0
 11
347.2657831678812
 21
188.166757400908
 31
0.0
  0
LINE
  5
7C96
330
7C17
100
AcDbEntity
  8
0
 62
     0
100
AcDbLine
 10
343.7657831678811
 20
182.5454370573482
 30
0.0
 11
347.2657831678812
 21
186.0454370573483
 31
0.0
  0
LINE
  5
7C97
330
7C17
100
AcDbEntity
  8
0
 62
     0
100
AcDbLine
 10
343.7657831678811
 20
180.4241167137886
 30
0.0
 11
347.2657831678812
 21
183.9241167137887
 31
0.0
  0
LINE
  5
7C98
330
7C17
100
AcDbEntity
  8
0
 62
     0
100
AcDbLine
 10
343.7657831678811
 20
178.3027963702289
 30
0.0
 11
347.2657831678812
 21
181.802796370229
 31
0.0
  0
LINE
  5
7C99
330
7C17
100
AcDbEntity
  8
0
 62
     0
100
AcDbLine
 10
343.7657831678811
 20
176.1814760266693
 30
0.0
 11
347.2657831678812
 21
179.6814760266694
 31
0.0
  0
LINE
  5
7C9A
330
7C17
100
AcDbEntity
  8
0
 62
     0
100
AcDbLine
 10
343.7657831678811
 20
174.0601556831097
 30
0.0
 11
347.2657831678812
 21
177.5601556831097
 31
0.0
  0
LINE
  5
7C9B
330
7C17
100
AcDbEntity
  8
0
 62
     0
100
AcDbLine
 10
343.7657831678811
 20
171.93883533955
 30
0.0
 11
347.2657831678812
 21
175.4388353395501
 31
0.0
  0
LINE
  5
7C9C
330
7C17
100
AcDbEntity
  8
0
 62
     0
100
AcDbLine
 10
343.7657831678811
 20
169.8175149959904
 30
0.0
 11
347.2657831678812
 21
173.3175149959905
 31
0.0
  0
LINE
  5
7C9D
330
7C17
100
AcDbEntity
  8
0
 62
     0
100
AcDbLine
 10
343.7657831678811
 20
167.6961946524307
 30
0.0
 11
347.2657831678812
 21
171.1961946524308
 31
0.0
  0
LINE
  5
7C9E
330
7C17
100
AcDbEntity
  8
0
 62
     0
100
AcDbLine
 10
343.7657831678811
 20
165.5748743088711
 30
0.0
 11
347.2657831678812
 21
169.0748743088712
 31
0.0
  0
LINE
  5
7C9F
330
7C17
100
AcDbEntity
  8
0
 62
     0
100
AcDbLine
 10
343.7657831678811
 20
163.4535539653114
 30
0.0
 11
347.2657831678812
 21
166.9535539653115
 31
0.0
  0
LINE
  5
7CA0
330
7C17
100
AcDbEntity
  8
0
 62
     0
100
AcDbLine
 10
343.7657831678811
 20
161.3322336217518
 30
0.0
 11
347.2657831678812
 21
164.8322336217519
 31
0.0
  0
LINE
  5
7CA1
330
7C17
100
AcDbEntity
  8
0
 62
     0
100
AcDbLine
 10
343.7657831678811
 20
159.2109132781922
 30
0.0
 11
347.2657831678812
 21
162.7109132781922
 31
0.0
  0
LINE
  5
7CA2
330
7C17
100
AcDbEntity
  8
0
 62
     0
100
AcDbLine
 10
343.7657831678811
 20
157.0895929346325
 30
0.0
 11
347.2657831678812
 21
160.5895929346326
 31
0.0
  0
LINE
  5
7CA3
330
7C17
100
AcDbEntity
  8
0
 62
     0
100
AcDbLine
 10
343.7657831678811
 20
154.9682725910729
 30
0.0
 11
347.2657831678812
 21
158.468272591073
 31
0.0
  0
LINE
  5
7CA4
330
7C17
100
AcDbEntity
  8
0
 62
     0
100
AcDbLine
 10
343.7657831678811
 20
152.8469522475132
 30
0.0
 11
347.2657831678812
 21
156.3469522475133
 31
0.0
  0
LINE
  5
7CA5
330
7C17
100
AcDbEntity
  8
0
 62
     0
100
AcDbLine
 10
343.7657831678811
 20
150.7256319039536
 30
0.0
 11
347.2657831678812
 21
154.2256319039537
 31
0.0
  0
LINE
  5
7CA6
330
7C17
100
AcDbEntity
  8
0
 62
     0
100
AcDbLine
 10
343.7657831678811
 20
148.6043115603939
 30
0.0
 11
347.2657831678812
 21
152.104311560394
 31
0.0
  0
LINE
  5
7CA7
330
7C17
100
AcDbEntity
  8
0
 62
     0
100
AcDbLine
 10
343.7657831678811
 20
146.4829912168343
 30
0.0
 11
347.2657831678812
 21
149.9829912168344
 31
0.0
  0
LINE
  5
7CA8
330
7C17
100
AcDbEntity
  8
0
 62
     0
100
AcDbLine
 10
343.7657831678811
 20
144.3616708732746
 30
0.0
 11
347.2657831678812
 21
147.8616708732748
 31
0.0
  0
LINE
  5
7CA9
330
7C17
100
AcDbEntity
  8
0
 62
     0
100
AcDbLine
 10
343.7657831678811
 20
142.240350529715
 30
0.0
 11
347.2657831678812
 21
145.7403505297151
 31
0.0
  0
LINE
  5
7CAA
330
7C17
100
AcDbEntity
  8
0
 62
     0
100
AcDbLine
 10
341.7657831678811
 20
138.1190301861554
 30
0.0
 11
347.2657831678812
 21
143.6190301861555
 31
0.0
  0
LINE
  5
7CAB
330
7C17
100
AcDbEntity
  8
0
 62
     0
100
AcDbLine
 10
342.4324636432154
 20
136.66439031793
 30
0.0
 11
347.2657831678812
 21
141.4977098425958
 31
0.0
  0
LINE
  5
7CAC
330
7C17
100
AcDbEntity
  8
0
 62
     0
100
AcDbLine
 10
344.553783986775
 20
136.66439031793
 30
0.0
 11
347.2657831678812
 21
139.3763894990362
 31
0.0
  0
LINE
  5
7CAD
330
7C17
100
AcDbEntity
  8
0
 62
     0
100
AcDbLine
 10
346.6751043303347
 20
136.66439031793
 30
0.0
 11
347.2657831678812
 21
137.2550691554765
 31
0.0
  0
ENDBLK
  5
7CAE
330
7C17
100
AcDbEntity
  8
0
100
AcDbBlockEnd
  0
BLOCK
  5
7D01
330
7D00
100
AcDbEntity
  8
0
100
AcDbBlockBegin
  2
*D21
 70
     1
 10
0.0
 20
0.0
 30
0.0
  3
*D21
  1
*D21
  0
LINE
  5
7D03
330
7D00
100
AcDbEntity
  8
WY
 62
     0
100
AcDbLine
 10
560.1084045092938
 20
260.8407069284278
 30
0.0
 11
560.1084045092938
 21
264.83501965191
 31
0.0
  0
LINE
  5
7D04
330
7D00
100
AcDbEntity
  8
WY
 62
     0
100
AcDbLine
 10
589.2084045092938
 20
260.8407069284278
 30
0.0
 11
589.2084045092938
 21
264.83501965191
 31
0.0
  0
LINE
  5
7D05
330
7D00
100
AcDbEntity
  8
WY
 62
     0
100
AcDbLine
 10
561.6084045092938
 20
263.33501965191
 30
0.0
 11
587.7084045092938
 21
263.33501965191
 31
0.0
  0
SOLID
  5
7D06
330
7D00
100
AcDbEntity
  8
WY
 62
     0
100
AcDbTrace
 10
561.6084045092938
 20
263.58501965191
 30
0.0
 11
561.6084045092938
 21
263.08501965191
 31
0.0
 12
560.1084045092938
 22
263.33501965191
 32
0.0
 13
560.1084045092938
 23
263.33501965191
 33
0.0
  0
SOLID
  5
7D07
330
7D00
100
AcDbEntity
  8
WY
 62
     0
100
AcDbTrace
 10
587.7084045092938
 20
263.08501965191
 30
0.0
 11
587.7084045092938
 21
263.58501965191
 31
0.0
 12
589.2084045092938
 22
263.33501965191
 32
0.0
 13
589.2084045092938
 23
263.33501965191
 33
0.0
  0
MTEXT
  5
7D08
330
7D00
100
AcDbEntity
  8
WY
 62
     0
100
AcDbMText
 10
574.6584045092939
 20
264.33501965191
 30
0.0
 40
1.0
 41
0.0
 71
     5
 72
     1
  1
\A1;29.1
  0
POINT
  5
7D09
330
7D00
100
AcDbEntity
  8
DEFPOINTS
 62
     0
100
AcDbPoint
 10
560.1084045092938
 20
259.3407069284278
 30
0.0
  0
POINT
  5
7D0A
330
7D00
100
AcDbEntity
  8
DEFPOINTS
 62
     0
100
AcDbPoint
 10
589.2084045092938
 20
259.3407069284278
 30
0.0
  0
POINT
  5
7D0B
330
7D00
100
AcDbEntity
  8
DEFPOINTS
 62
     0
100
AcDbPoint
 10
589.2084045092938
 20
263.33501965191
 30
0.0
  0
ENDBLK
  5
7D02
330
7D00
100
AcDbEntity
  8
0
100
AcDbBlockEnd
  0
BLOCK
  5
7D16
330
7D15
100
AcDbEntity
  8
0
100
AcDbBlockBegin
  2
*D22
 70
     1
 10
0.0
 20
0.0
 30
0.0
  3
*D22
  1
*D22
  0
LINE
  5
7D18
330
7D15
100
AcDbEntity
  8
WY
 62
     0
100
AcDbLine
 10
772.860673863608
 20
241.9999785475405
 30
0.0
 11
772.860673863608
 21
235.9013969848746
 31
0.0
  0
LINE
  5
7D19
330
7D15
100
AcDbEntity
  8
WY
 62
     0
100
AcDbLine
 10
769.960673863608
 20
243.1337256829606
 30
0.0
 11
769.960673863608
 21
235.9013969848746
 31
0.0
  0
LINE
  5
7D1A
330
7D15
100
AcDbEntity
  8
WY
 62
     0
100
AcDbLine
 10
774.360673863608
 20
237.4013969848746
 30
0.0
 11
775.860673863608
 21
237.4013969848746
 31
0.0
  0
LINE
  5
7D1B
330
7D15
100
AcDbEntity
  8
WY
 62
     0
100
AcDbLine
 10
768.460673863608
 20
237.4013969848746
 30
0.0
 11
766.960673863608
 21
237.4013969848746
 31
0.0
  0
SOLID
  5
7D1C
330
7D15
100
AcDbEntity
  8
WY
 62
     0
100
AcDbTrace
 10
774.360673863608
 20
237.6513969848746
 30
0.0
 11
774.360673863608
 21
237.1513969848746
 31
0.0
 12
772.860673863608
 22
237.4013969848746
 32
0.0
 13
772.860673863608
 23
237.4013969848746
 33
0.0
  0
SOLID
  5
7D1D
330
7D15
100
AcDbEntity
  8
WY
 62
     0
100
AcDbTrace
 10
768.460673863608
 20
237.1513969848746
 30
0.0
 11
768.460673863608
 21
237.6513969848746
 31
0.0
 12
769.960673863608
 22
237.4013969848746
 32
0.0
 13
769.960673863608
 23
237.4013969848746
 33
0.0
  0
MTEXT
  5
7D1E
330
7D15
100
AcDbEntity
  8
WY
 62
     0
100
AcDbMText
 10
771.410673863608
 20
238.4013969848746
 30
0.0
 40
1.0
 41
0.0
 71
     5
 72
     1
  1
\A1;2.9
  0
POINT
  5
7D1F
330
7D15
100
AcDbEntity
  8
DEFPOINTS
 62
     0
100
AcDbPoint
 10
772.860673863608
 20
243.4999785475405
 30
0.0
  0
POINT
  5
7D20
330
7D15
100
AcDbEntity
  8
DEFPOINTS
 62
     0
100
AcDbPoint
 10
769.960673863608
 20
244.6337256829606
 30
0.0
  0
POINT
  5
7D21
330
7D15
100
AcDbEntity
  8
DEFPOINTS
 62
     0
100
AcDbPoint
 10
769.960673863608
 20
237.4013969848746
 30
0.0
  0
ENDBLK
  5
7D17
330
7D15
100
AcDbEntity
  8
0
100
AcDbBlockEnd
  0
BLOCK
  5
7D26
330
7D25
100
AcDbEntity
  8
0
100
AcDbBlockBegin
  2
*D23
 70
     1
 10
0.0
 20
0.0
 30
0.0
  3
*D23
  1
*D23
  0
LINE
  5
7D28
330
7D25
100
AcDbEntity
  8
WY
 62
     0
100
AcDbLine
 10
586.3084045092938
 20
246.474454063848
 30
0.0
 11
586.3084045092938
 21
239.242125365762
 31
0.0
  0
LINE
  5
7D29
330
7D25
100
AcDbEntity
  8
WY
 62
     0
100
AcDbLine
 10
571.3401519995728
 20
246.474454063848
 30
0.0
 11
571.3401519995728
 21
239.242125365762
 31
0.0
  0
LINE
  5
7D2A
330
7D25
100
AcDbEntity
  8
WY
 62
     0
100
AcDbLine
 10
584.8084045092938
 20
240.742125365762
 30
0.0
 11
572.8401519995728
 21
240.742125365762
 31
0.0
  0
SOLID
  5
7D2B
330
7D25
100
AcDbEntity
  8
WY
 62
     0
100
AcDbTrace
 10
584.8084045092938
 20
240.492125365762
 30
0.0
 11
584.8084045092938
 21
240.992125365762
 31
0.0
 12
586.3084045092938
 22
240.742125365762
 32
0.0
 13
586.3084045092938
 23
240.742125365762
 33
0.0
  0
SOLID
  5
7D2C
330
7D25
100
AcDbEntity
  8
WY
 62
     0
100
AcDbTrace
 10
572.8401519995728
 20
240.992125365762
 30
0.0
 11
572.8401519995728
 21
240.492125365762
 31
0.0
 12
571.3401519995728
 22
240.742125365762
 32
0.0
 13
571.3401519995728
 23
240.742125365762
 33
0.0
  0
MTEXT
  5
7D2D
330
7D25
100
AcDbEntity
  8
WY
 62
     0
100
AcDbMText
 10
578.8242782544332
 20
241.742125365762
 30
0.0
 40
1.0
 41
0.0
 71
     5
 72
     1
  1
\A1;15
  0
POINT
  5
7D2E
330
7D25
100
AcDbEntity
  8
DEFPOINTS
 62
     0
100
AcDbPoint
 10
586.3084045092938
 20
247.974454063848
 30
0.0
  0
POINT
  5
7D2F
330
7D25
100
AcDbEntity
  8
DEFPOINTS
 62
     0
100
AcDbPoint
 10
571.3401519995728
 20
247.974454063848
 30
0.0
  0
POINT
  5
7D30
330
7D25
100
AcDbEntity
  8
DEFPOINTS
 62
     0
100
AcDbPoint
 10
571.3401519995728
 20
240.742125365762
 30
0.0
  0
ENDBLK
  5
7D27
330
7D25
100
AcDbEntity
  8
0
100
AcDbBlockEnd
  0
BLOCK
  5
7D35
330
7D34
100
AcDbEntity
  8
0
100
AcDbBlockBegin
  2
*D24
 70
     1
 10
0.0
 20
0.0
 30
0.0
  3
*D24
  1
*D24
  0
LINE
  5
7D37
330
7D34
100
AcDbEntity
  8
WY
 62
     0
100
AcDbLine
 10
755.092421353887
 20
238.9013969848746
 30
0.0
 11
755.092421353887
 21
238.9013969848746
 31
0.0
  0
LINE
  5
7D38
330
7D34
100
AcDbEntity
  8
WY
 62
     0
100
AcDbLine
 10
749.960673863608
 20
243.1337256829606
 30
0.0
 11
749.960673863608
 21
235.9013969848746
 31
0.0
  0
LINE
  5
7D39
330
7D34
100
AcDbEntity
  8
WY
 62
     0
100
AcDbLine
 10
753.592421353887
 20
237.4013969848746
 30
0.0
 11
751.460673863608
 21
237.4013969848746
 31
0.0
  0
SOLID
  5
7D3A
330
7D34
100
AcDbEntity
  8
WY
 62
     0
100
AcDbTrace
 10
753.592421353887
 20
237.1513969848746
 30
0.0
 11
753.592421353887
 21
237.6513969848746
 31
0.0
 12
755.092421353887
 22
237.4013969848746
 32
0.0
 13
755.092421353887
 23
237.4013969848746
 33
0.0
  0
SOLID
  5
7D3B
330
7D34
100
AcDbEntity
  8
WY
 62
     0
100
AcDbTrace
 10
751.460673863608
 20
237.6513969848746
 30
0.0
 11
751.460673863608
 21
237.1513969848746
 31
0.0
 12
749.960673863608
 22
237.4013969848746
 32
0.0
 13
749.960673863608
 23
237.4013969848746
 33
0.0
  0
MTEXT
  5
7D3C
330
7D34
100
AcDbEntity
  8
WY
 62
     0
100
AcDbMText
 10
752.5265476087475
 20
238.4013969848746
 30
0.0
 40
1.0
 41
0.0
 71
     5
 72
     1
  1
\A1;5.1
  0
POINT
  5
7D3D
330
7D34
100
AcDbEntity
  8
DEFPOINTS
 62
     0
100
AcDbPoint
 10
755.092421353887
 20
237.4013969848746
 30
0.0
  0
POINT
  5
7D3E
330
7D34
100
AcDbEntity
  8
DEFPOINTS
 62
     0
100
AcDbPoint
 10
749.960673863608
 20
244.6337256829606
 30
0.0
  0
POINT
  5
7D3F
330
7D34
100
AcDbEntity
  8
DEFPOINTS
 62
     0
100
AcDbPoint
 10
749.960673863608
 20
237.4013969848746
 30
0.0
  0
ENDBLK
  5
7D36
330
7D34
100
AcDbEntity
  8
0
100
AcDbBlockEnd
  0
BLOCK
  5
7D44
330
7D43
100
AcDbEntity
  8
0
100
AcDbBlockBegin
  2
*D25
 70
     1
 10
0.0
 20
0.0
 30
0.0
  3
*D25
  1
*D25
  0
LINE
  5
7D46
330
7D43
100
AcDbEntity
  8
WY
 62
     0
100
AcDbLine
 10
566.3084045092938
 20
246.474454063848
 30
0.0
 11
566.3084045092938
 21
239.242125365762
 31
0.0
  0
LINE
  5
7D47
330
7D43
100
AcDbEntity
  8
WY
 62
     0
100
AcDbLine
 10
561.3084045092938
 20
246.474454063848
 30
0.0
 11
561.3084045092938
 21
239.242125365762
 31
0.0
  0
LINE
  5
7D48
330
7D43
100
AcDbEntity
  8
WY
 62
     0
100
AcDbLine
 10
564.8084045092938
 20
240.742125365762
 30
0.0
 11
562.8084045092938
 21
240.742125365762
 31
0.0
  0
SOLID
  5
7D49
330
7D43
100
AcDbEntity
  8
WY
 62
     0
100
AcDbTrace
 10
564.8084045092938
 20
240.492125365762
 30
0.0
 11
564.8084045092938
 21
240.992125365762
 31
0.0
 12
566.3084045092938
 22
240.742125365762
 32
0.0
 13
566.3084045092938
 23
240.742125365762
 33
0.0
  0
SOLID
  5
7D4A
330
7D43
100
AcDbEntity
  8
WY
 62
     0
100
AcDbTrace
 10
562.8084045092938
 20
240.992125365762
 30
0.0
 11
562.8084045092938
 21
240.492125365762
 31
0.0
 12
561.3084045092938
 22
240.742125365762
 32
0.0
 13
561.3084045092938
 23
240.742125365762
 33
0.0
  0
MTEXT
  5
7D4B
330
7D43
100
AcDbEntity
  8
WY
 62
     0
100
AcDbMText
 10
563.8084045092938
 20
241.742125365762
 30
0.0
 40
1.0
 41
0.0
 71
     5
 72
     1
  1
\A1;5
  0
POINT
  5
7D4C
330
7D43
100
AcDbEntity
  8
DEFPOINTS
 62
     0
100
AcDbPoint
 10
566.3084045092938
 20
247.974454063848
 30
0.0
  0
POINT
  5
7D4D
330
7D43
100
AcDbEntity
  8
DEFPOINTS
 62
     0
100
AcDbPoint
 10
561.3084045092938
 20
247.974454063848
 30
0.0
  0
POINT
  5
7D4E
330
7D43
100
AcDbEntity
  8
DEFPOINTS
 62
     0
100
AcDbPoint
 10
561.3084045092938
 20
240.742125365762
 30
0.0
  0
ENDBLK
  5
7D45
330
7D43
100
AcDbEntity
  8
0
100
AcDbBlockEnd
  0
BLOCK
  5
7D53
330
7D52
100
AcDbEntity
  8
0
100
AcDbBlockBegin
  2
*D26
 70
     1
 10
0.0
 20
0.0
 30
0.0
  3
*D26
  1
*D26
  0
LINE
  5
7D55
330
7D52
100
AcDbEntity
  8
WY
 62
     0
100
AcDbLine
 10
566.3084045092938
 20
246.474454063848
 30
0.0
 11
566.3084045092938
 21
239.242125365762
 31
0.0
  0
LINE
  5
7D56
330
7D52
100
AcDbEntity
  8
WY
 62
     0
100
AcDbLine
 10
571.3401519995728
 20
246.474454063848
 30
0.0
 11
571.3401519995728
 21
239.242125365762
 31
0.0
  0
LINE
  5
7D57
330
7D52
100
AcDbEntity
  8
WY
 62
     0
100
AcDbLine
 10
567.8084045092938
 20
240.742125365762
 30
0.0
 11
569.8401519995728
 21
240.742125365762
 31
0.0
  0
SOLID
  5
7D58
330
7D52
100
AcDbEntity
  8
WY
 62
     0
100
AcDbTrace
 10
567.8084045092938
 20
240.992125365762
 30
0.0
 11
567.8084045092938
 21
240.492125365762
 31
0.0
 12
566.3084045092938
 22
240.742125365762
 32
0.0
 13
566.3084045092938
 23
240.742125365762
 33
0.0
  0
SOLID
  5
7D59
330
7D52
100
AcDbEntity
  8
WY
 62
     0
100
AcDbTrace
 10
569.8401519995728
 20
240.492125365762
 30
0.0
 11
569.8401519995728
 21
240.992125365762
 31
0.0
 12
571.3401519995728
 22
240.742125365762
 32
0.0
 13
571.3401519995728
 23
240.742125365762
 33
0.0
  0
MTEXT
  5
7D5A
330
7D52
100
AcDbEntity
  8
WY
 62
     0
100
AcDbMText
 10
568.8242782544332
 20
241.742125365762
 30
0.0
 40
1.0
 41
0.0
 71
     5
 72
     1
  1
\A1;5
  0
POINT
  5
7D5B
330
7D52
100
AcDbEntity
  8
DEFPOINTS
 62
     0
100
AcDbPoint
 10
566.3084045092938
 20
247.974454063848
 30
0.0
  0
POINT
  5
7D5C
330
7D52
100
AcDbEntity
  8
DEFPOINTS
 62
     0
100
AcDbPoint
 10
571.3401519995728
 20
247.974454063848
 30
0.0
  0
POINT
  5
7D5D
330
7D52
100
AcDbEntity
  8
DEFPOINTS
 62
     0
100
AcDbPoint
 10
571.3401519995728
 20
240.742125365762
 30
0.0
  0
ENDBLK
  5
7D54
330
7D52
100
AcDbEntity
  8
0
100
AcDbBlockEnd
  0
BLOCK
  5
7D62
330
7D61
100
AcDbEntity
  8
0
100
AcDbBlockBegin
  2
*D27
 70
     1
 10
0.0
 20
0.0
 30
0.0
  3
*D27
  1
*D27
  0
LINE
  5
7D64
330
7D61
100
AcDbEntity
  8
WY
 62
     0
100
AcDbLine
 10
590.9084045092937
 20
256.8407069284278
 30
0.0
 11
597.0189240358827
 21
256.8407069284278
 31
0.0
  0
LINE
  5
7D65
330
7D61
100
AcDbEntity
  8
WY
 62
     0
100
AcDbLine
 10
590.9084045092937
 20
249.3407069284278
 30
0.0
 11
597.0189240358827
 21
249.3407069284278
 31
0.0
  0
LINE
  5
7D66
330
7D61
100
AcDbEntity
  8
WY
 62
     0
100
AcDbLine
 10
595.5189240358827
 20
255.3407069284278
 30
0.0
 11
595.5189240358827
 21
250.8407069284278
 31
0.0
  0
SOLID
  5
7D67
330
7D61
100
AcDbEntity
  8
WY
 62
     0
100
AcDbTrace
 10
595.7689240358827
 20
255.3407069284278
 30
0.0
 11
595.2689240358827
 21
255.3407069284278
 31
0.0
 12
595.5189240358827
 22
256.8407069284278
 32
0.0
 13
595.5189240358827
 23
256.8407069284278
 33
0.0
  0
SOLID
  5
7D68
330
7D61
100
AcDbEntity
  8
WY
 62
     0
100
AcDbTrace
 10
595.2689240358827
 20
250.8407069284278
 30
0.0
 11
595.7689240358827
 21
250.8407069284278
 31
0.0
 12
595.5189240358827
 22
249.3407069284278
 32
0.0
 13
595.5189240358827
 23
249.3407069284278
 33
0.0
  0
MTEXT
  5
7D69
330
7D61
100
AcDbEntity
  8
WY
 62
     0
100
AcDbMText
 10
594.5189240358827
 20
253.0907069284278
 30
0.0
 40
1.0
 41
0.0
 71
     5
 72
     1
  1
\A1;7.5
 11
0.0
 21
1.0
 31
0.0
  0
POINT
  5
7D6A
330
7D61
100
AcDbEntity
  8
DEFPOINTS
 62
     0
100
AcDbPoint
 10
589.4084045092937
 20
256.8407069284278
 30
0.0
  0
POINT
  5
7D6B
330
7D61
100
AcDbEntity
  8
DEFPOINTS
 62
     0
100
AcDbPoint
 10
589.4084045092937
 20
249.3407069284278
 30
0.0
  0
POINT
  5
7D6C
330
7D61
100
AcDbEntity
  8
DEFPOINTS
 62
     0
100
AcDbPoint
 10
595.5189240358827
 20
249.3407069284278
 30
0.0
  0
ENDBLK
  5
7D63
330
7D61
100
AcDbEntity
  8
0
100
AcDbBlockEnd
  0
BLOCK
  5
7D71
330
7D70
100
AcDbEntity
  8
0
100
AcDbBlockBegin
  2
*D28
 70
     1
 10
0.0
 20
0.0
 30
0.0
  3
*D28
  1
*D28
  0
LINE
  5
7D73
330
7D70
100
AcDbEntity
  8
WY
 62
     0
100
AcDbLine
 10
561.3084045092938
 20
246.474454063848
 30
0.0
 11
561.3084045092938
 21
239.242125365762
 31
0.0
  0
LINE
  5
7D74
330
7D70
100
AcDbEntity
  8
WY
 62
     0
100
AcDbLine
 10
560.1084045092938
 20
245.3407069284278
 30
0.0
 11
560.1084045092938
 21
239.242125365762
 31
0.0
  0
LINE
  5
7D75
330
7D70
100
AcDbEntity
  8
WY
 62
     0
100
AcDbLine
 10
560.1084045092938
 20
240.742125365762
 30
0.0
 11
554.441737842627
 21
240.742125365762
 31
0.0
  0
LINE
  5
7D76
330
7D70
100
AcDbEntity
  8
WY
 62
     0
100
AcDbLine
 10
561.3084045092938
 20
240.742125365762
 30
0.0
 11
560.1084045092938
 21
240.742125365762
 31
0.0
  0
LINE
  5
7D77
330
7D70
100
AcDbEntity
  8
WY
 62
     0
100
AcDbLine
 10
562.8084045092938
 20
240.742125365762
 30
0.0
 11
564.3084045092938
 21
240.742125365762
 31
0.0
  0
LINE
  5
7D78
330
7D70
100
AcDbEntity
  8
WY
 62
     0
100
AcDbLine
 10
558.6084045092938
 20
240.742125365762
 30
0.0
 11
557.1084045092938
 21
240.742125365762
 31
0.0
  0
SOLID
  5
7D79
330
7D70
100
AcDbEntity
  8
WY
 62
     0
100
AcDbTrace
 10
562.8084045092938
 20
240.992125365762
 30
0.0
 11
562.8084045092938
 21
240.492125365762
 31
0.0
 12
561.3084045092938
 22
240.742125365762
 32
0.0
 13
561.3084045092938
 23
240.742125365762
 33
0.0
  0
SOLID
  5
7D7A
330
7D70
100
AcDbEntity
  8
WY
 62
     0
100
AcDbTrace
 10
558.6084045092938
 20
240.492125365762
 30
0.0
 11
558.6084045092938
 21
240.992125365762
 31
0.0
 12
560.1084045092938
 22
240.742125365762
 32
0.0
 13
560.1084045092938
 23
240.742125365762
 33
0.0
  0
MTEXT
  5
7D7B
330
7D70
100
AcDbEntity
  8
WY
 62
     0
100
AcDbMText
 10
555.7750711759604
 20
241.742125365762
 30
0.0
 40
1.0
 41
0.0
 71
     5
 72
     1
  1
\A1;1.2
  0
POINT
  5
7D7C
330
7D70
100
AcDbEntity
  8
DEFPOINTS
 62
     0
100
AcDbPoint
 10
561.3084045092938
 20
247.974454063848
 30
0.0
  0
POINT
  5
7D7D
330
7D70
100
AcDbEntity
  8
DEFPOINTS
 62
     0
100
AcDbPoint
 10
560.1084045092938
 20
246.8407069284278
 30
0.0
  0
POINT
  5
7D7E
330
7D70
100
AcDbEntity
  8
DEFPOINTS
 62
     0
100
AcDbPoint
 10
560.1084045092938
 20
240.742125365762
 30
0.0
  0
ENDBLK
  5
7D72
330
7D70
100
AcDbEntity
  8
0
100
AcDbBlockEnd
  0
BLOCK
  5
7D87
330
7D86
100
AcDbEntity
  8
0
100
AcDbBlockBegin
  2
*D29
 70
     1
 10
0.0
 20
0.0
 30
0.0
  3
*D29
  1
*D29
  0
LINE
  5
7D89
330
7D86
100
AcDbEntity
  8
WY
 62
     0
100
AcDbLine
 10
558.7321249726346
 20
207.5641785190692
 30
0.0
 11
552.2490852962221
 21
207.5641785190692
 31
0.0
  0
LINE
  5
7D8A
330
7D86
100
AcDbEntity
  8
WY
 62
     0
100
AcDbLine
 10
559.4321249726345
 20
233.1641785190693
 30
0.0
 11
552.2490852962221
 21
233.1641785190693
 31
0.0
  0
LINE
  5
7D8B
330
7D86
100
AcDbEntity
  8
WY
 62
     0
100
AcDbLine
 10
553.7490852962221
 20
209.0641785190692
 30
0.0
 11
553.7490852962221
 21
231.6641785190693
 31
0.0
  0
SOLID
  5
7D8C
330
7D86
100
AcDbEntity
  8
WY
 62
     0
100
AcDbTrace
 10
553.4990852962221
 20
209.0641785190692
 30
0.0
 11
553.9990852962221
 21
209.0641785190692
 31
0.0
 12
553.7490852962221
 22
207.5641785190692
 32
0.0
 13
553.7490852962221
 23
207.5641785190692
 33
0.0
  0
SOLID
  5
7D8D
330
7D86
100
AcDbEntity
  8
WY
 62
     0
100
AcDbTrace
 10
553.9990852962221
 20
231.6641785190693
 30
0.0
 11
553.4990852962221
 21
231.6641785190693
 31
0.0
 12
553.7490852962221
 22
233.1641785190693
 32
0.0
 13
553.7490852962221
 23
233.1641785190693
 33
0.0
  0
MTEXT
  5
7D8E
330
7D86
100
AcDbEntity
  8
WY
 62
     0
100
AcDbMText
 10
552.7490852962221
 20
220.3641785190692
 30
0.0
 40
1.0
 41
0.0
 71
     5
 72
     1
  1
\A1;25.6
 11
0.0
 21
1.0
 31
0.0
  0
POINT
  5
7D8F
330
7D86
100
AcDbEntity
  8
DEFPOINTS
 62
     0
100
AcDbPoint
 10
560.2321249726346
 20
207.5641785190692
 30
0.0
  0
POINT
  5
7D90
330
7D86
100
AcDbEntity
  8
DEFPOINTS
 62
     0
100
AcDbPoint
 10
560.9321249726345
 20
233.1641785190693
 30
0.0
  0
POINT
  5
7D91
330
7D86
100
AcDbEntity
  8
DEFPOINTS
 62
     0
100
AcDbPoint
 10
553.7490852962221
 20
233.1641785190693
 30
0.0
  0
ENDBLK
  5
7D88
330
7D86
100
AcDbEntity
  8
0
100
AcDbBlockEnd
  0
BLOCK
  5
7D96
330
7D95
100
AcDbEntity
  8
0
100
AcDbBlockBegin
  2
*D30
 70
     1
 10
0.0
 20
0.0
 30
0.0
  3
*D30
  1
*D30
  0
LINE
  5
7D98
330
7D95
100
AcDbEntity
  8
WY
 62
     0
100
AcDbLine
 10
558.7321249726346
 20
207.5641785190692
 30
0.0
 11
552.2490852962221
 21
207.5641785190692
 31
0.0
  0
LINE
  5
7D99
330
7D95
100
AcDbEntity
  8
WY
 62
     0
100
AcDbLine
 10
559.5887739267998
 20
203.9641785190692
 30
0.0
 11
552.2490852962221
 21
203.9641785190692
 31
0.0
  0
LINE
  5
7D9A
330
7D95
100
AcDbEntity
  8
WY
 62
     0
100
AcDbLine
 10
553.7490852962221
 20
207.5641785190692
 30
0.0
 11
553.7490852962221
 21
203.9641785190692
 31
0.0
  0
LINE
  5
7D9B
330
7D95
100
AcDbEntity
  8
WY
 62
     0
100
AcDbLine
 10
553.7490852962221
 20
209.0641785190692
 30
0.0
 11
553.7490852962221
 21
210.5641785190692
 31
0.0
  0
LINE
  5
7D9C
330
7D95
100
AcDbEntity
  8
WY
 62
     0
100
AcDbLine
 10
553.7490852962221
 20
202.4641785190692
 30
0.0
 11
553.7490852962221
 21
200.9641785190692
 31
0.0
  0
SOLID
  5
7D9D
330
7D95
100
AcDbEntity
  8
WY
 62
     0
100
AcDbTrace
 10
553.4990852962221
 20
209.0641785190692
 30
0.0
 11
553.9990852962221
 21
209.0641785190692
 31
0.0
 12
553.7490852962221
 22
207.5641785190692
 32
0.0
 13
553.7490852962221
 23
207.5641785190692
 33
0.0
  0
SOLID
  5
7D9E
330
7D95
100
AcDbEntity
  8
WY
 62
     0
100
AcDbTrace
 10
553.9990852962221
 20
202.4641785190692
 30
0.0
 11
553.4990852962221
 21
202.4641785190692
 31
0.0
 12
553.7490852962221
 22
203.9641785190692
 32
0.0
 13
553.7490852962221
 23
203.9641785190692
 33
0.0
  0
MTEXT
  5
7D9F
330
7D95
100
AcDbEntity
  8
WY
 62
     0
100
AcDbMText
 10
552.7490852962221
 20
205.7641785190692
 30
0.0
 40
1.0
 41
0.0
 71
     5
 72
     1
  1
\A1;3.6
 11
0.0
 21
1.0
 31
0.0
  0
POINT
  5
7DA0
330
7D95
100
AcDbEntity
  8
DEFPOINTS
 62
     0
100
AcDbPoint
 10
560.2321249726346
 20
207.5641785190692
 30
0.0
  0
POINT
  5
7DA1
330
7D95
100
AcDbEntity
  8
DEFPOINTS
 62
     0
100
AcDbPoint
 10
561.0887739267998
 20
203.9641785190692
 30
0.0
  0
POINT
  5
7DA2
330
7D95
100
AcDbEntity
  8
DEFPOINTS
 62
     0
100
AcDbPoint
 10
553.7490852962221
 20
203.9641785190692
 30
0.0
  0
ENDBLK
  5
7D97
330
7D95
100
AcDbEntity
  8
0
100
AcDbBlockEnd
  0
BLOCK
  5
7DA7
330
7DA6
100
AcDbEntity
  8
0
100
AcDbBlockBegin
  2
*D31
 70
     1
 10
0.0
 20
0.0
 30
0.0
  3
*D31
  1
*D31
  0
LINE
  5
7DA9
330
7DA6
100
AcDbEntity
  8
WY
 62
     0
100
AcDbLine
 10
613.3915987978178
 20
206.0641785190692
 30
0.0
 11
613.3915987978178
 21
193.4809527397601
 31
0.0
  0
LINE
  5
7DAA
330
7DA6
100
AcDbEntity
  8
WY
 62
     0
100
AcDbLine
 10
625.8915987978178
 20
206.0641785190692
 30
0.0
 11
625.8915987978178
 21
193.4809527397601
 31
0.0
  0
LINE
  5
7DAB
330
7DA6
100
AcDbEntity
  8
WY
 62
     0
100
AcDbLine
 10
614.8915987978178
 20
194.9809527397601
 30
0.0
 11
624.3915987978178
 21
194.9809527397601
 31
0.0
  0
SOLID
  5
7DAC
330
7DA6
100
AcDbEntity
  8
WY
 62
     0
100
AcDbTrace
 10
614.8915987978178
 20
195.2309527397601
 30
0.0
 11
614.8915987978178
 21
194.7309527397601
 31
0.0
 12
613.3915987978178
 22
194.9809527397601
 32
0.0
 13
613.3915987978178
 23
194.9809527397601
 33
0.0
  0
SOLID
  5
7DAD
330
7DA6
100
AcDbEntity
  8
WY
 62
     0
100
AcDbTrace
 10
624.3915987978178
 20
194.7309527397601
 30
0.0
 11
624.3915987978178
 21
195.2309527397601
 31
0.0
 12
625.8915987978178
 22
194.9809527397601
 32
0.0
 13
625.8915987978178
 23
194.9809527397601
 33
0.0
  0
MTEXT
  5
7DAE
330
7DA6
100
AcDbEntity
  8
WY
 62
     0
100
AcDbMText
 10
619.6415987978178
 20
195.9809527397601
 30
0.0
 40
1.0
 41
0.0
 71
     5
 72
     1
  1
\A1;12.5
  0
POINT
  5
7DAF
330
7DA6
100
AcDbEntity
  8
DEFPOINTS
 62
     0
100
AcDbPoint
 10
613.3915987978178
 20
207.5641785190692
 30
0.0
  0
POINT
  5
7DB0
330
7DA6
100
AcDbEntity
  8
DEFPOINTS
 62
     0
100
AcDbPoint
 10
625.8915987978178
 20
207.5641785190692
 30
0.0
  0
POINT
  5
7DB1
330
7DA6
100
AcDbEntity
  8
DEFPOINTS
 62
     0
100
AcDbPoint
 10
625.8915987978178
 20
194.9809527397601
 30
0.0
  0
ENDBLK
  5
7DA8
330
7DA6
100
AcDbEntity
  8
0
100
AcDbBlockEnd
  0
BLOCK
  5
7DB6
330
7DB5
100
AcDbEntity
  8
0
100
AcDbBlockBegin
  2
*D32
 70
     1
 10
0.0
 20
0.0
 30
0.0
  3
*D32
  1
*D32
  0
LINE
  5
7DB8
330
7DB5
100
AcDbEntity
  8
WY
 62
     0
100
AcDbLine
 10
615.5765403200755
 20
202.4641785190692
 30
0.0
 11
615.5765403200755
 21
197.3387911457197
 31
0.0
  0
LINE
  5
7DB9
330
7DB5
100
AcDbEntity
  8
WY
 62
     0
100
AcDbLine
 10
616.6765403200754
 20
202.4641785190692
 30
0.0
 11
616.6765403200754
 21
197.3387911457197
 31
0.0
  0
LINE
  5
7DBA
330
7DB5
100
AcDbEntity
  8
WY
 62
     0
100
AcDbLine
 10
616.6765403200754
 20
198.8387911457197
 30
0.0
 11
622.0098736534087
 21
198.8387911457197
 31
0.0
  0
LINE
  5
7DBB
330
7DB5
100
AcDbEntity
  8
WY
 62
     0
100
AcDbLine
 10
615.5765403200755
 20
198.8387911457197
 30
0.0
 11
616.6765403200754
 21
198.8387911457197
 31
0.0
  0
LINE
  5
7DBC
330
7DB5
100
AcDbEntity
  8
WY
 62
     0
100
AcDbLine
 10
614.0765403200755
 20
198.8387911457197
 30
0.0
 11
612.5765403200755
 21
198.8387911457197
 31
0.0
  0
LINE
  5
7DBD
330
7DB5
100
AcDbEntity
  8
WY
 62
     0
100
AcDbLine
 10
618.1765403200754
 20
198.8387911457197
 30
0.0
 11
619.6765403200754
 21
198.8387911457197
 31
0.0
  0
SOLID
  5
7DBE
330
7DB5
100
AcDbEntity
  8
WY
 62
     0
100
AcDbTrace
 10
614.0765403200755
 20
198.5887911457197
 30
0.0
 11
614.0765403200755
 21
199.0887911457197
 31
0.0
 12
615.5765403200755
 22
198.8387911457197
 32
0.0
 13
615.5765403200755
 23
198.8387911457197
 33
0.0
  0
SOLID
  5
7DBF
330
7DB5
100
AcDbEntity
  8
WY
 62
     0
100
AcDbTrace
 10
618.1765403200754
 20
199.0887911457197
 30
0.0
 11
618.1765403200754
 21
198.5887911457197
 31
0.0
 12
616.6765403200754
 22
198.8387911457197
 32
0.0
 13
616.6765403200754
 23
198.8387911457197
 33
0.0
  0
MTEXT
  5
7DC0
330
7DB5
100
AcDbEntity
  8
WY
 62
     0
100
AcDbMText
 10
620.8432069867421
 20
199.8387911457197
 30
0.0
 40
1.0
 41
0.0
 71
     5
 72
     1
  1
\A1;1.1
  0
POINT
  5
7DC3
330
7DB5
100
AcDbEntity
  8
DEFPOINTS
 62
     0
100
AcDbPoint
 10
615.5765403200755
 20
203.9641785190692
 30
0.0
  0
POINT
  5
7DC4
330
7DB5
100
AcDbEntity
  8
DEFPOINTS
 62
     0
100
AcDbPoint
 10
616.6765403200754
 20
203.9641785190692
 30
0.0
  0
POINT
  5
7DC5
330
7DB5
100
AcDbEntity
  8
DEFPOINTS
 62
     0
100
AcDbPoint
 10
616.6765403200754
 20
198.8387911457197
 30
0.0
  0
ENDBLK
  5
7DB7
330
7DB5
100
AcDbEntity
  8
0
100
AcDbBlockEnd
  0
BLOCK
  5
7E47
330
7E46
100
AcDbEntity
  8
0
100
AcDbBlockBegin
  2
*D33
 70
     1
 10
0.0
 20
0.0
 30
0.0
  3
*D33
  1
*D33
  0
LINE
  5
7E49
330
7E46
100
AcDbEntity
  8
WY
 62
     0
100
AcDbLine
 10
560.1084045092938
 20
176.5018722922004
 30
0.0
 11
560.1084045092938
 21
180.4961850156826
 31
0.0
  0
LINE
  5
7E4A
330
7E46
100
AcDbEntity
  8
WY
 62
     0
100
AcDbLine
 10
589.2084045092938
 20
176.5018722922004
 30
0.0
 11
589.2084045092938
 21
180.4961850156826
 31
0.0
  0
LINE
  5
7E4B
330
7E46
100
AcDbEntity
  8
WY
 62
     0
100
AcDbLine
 10
561.6084045092938
 20
178.9961850156826
 30
0.0
 11
587.7084045092938
 21
178.9961850156826
 31
0.0
  0
SOLID
  5
7E4C
330
7E46
100
AcDbEntity
  8
WY
 62
     0
100
AcDbTrace
 10
561.6084045092938
 20
179.2461850156826
 30
0.0
 11
561.6084045092938
 21
178.7461850156826
 31
0.0
 12
560.1084045092938
 22
178.9961850156826
 32
0.0
 13
560.1084045092938
 23
178.9961850156826
 33
0.0
  0
SOLID
  5
7E4D
330
7E46
100
AcDbEntity
  8
WY
 62
     0
100
AcDbTrace
 10
587.7084045092938
 20
178.7461850156826
 30
0.0
 11
587.7084045092938
 21
179.2461850156826
 31
0.0
 12
589.2084045092938
 22
178.9961850156826
 32
0.0
 13
589.2084045092938
 23
178.9961850156826
 33
0.0
  0
MTEXT
  5
7E4E
330
7E46
100
AcDbEntity
  8
WY
 62
     0
100
AcDbMText
 10
574.6584045092939
 20
179.9961850156826
 30
0.0
 40
1.0
 41
0.0
 71
     5
 72
     1
  1
\A1;29.1
  0
POINT
  5
7E4F
330
7E46
100
AcDbEntity
  8
DEFPOINTS
 62
     0
100
AcDbPoint
 10
560.1084045092938
 20
175.0018722922004
 30
0.0
  0
POINT
  5
7E50
330
7E46
100
AcDbEntity
  8
DEFPOINTS
 62
     0
100
AcDbPoint
 10
589.2084045092938
 20
175.0018722922004
 30
0.0
  0
POINT
  5
7E51
330
7E46
100
AcDbEntity
  8
DEFPOINTS
 62
     0
100
AcDbPoint
 10
589.2084045092938
 20
178.9961850156826
 30
0.0
  0
ENDBLK
  5
7E48
330
7E46
100
AcDbEntity
  8
0
100
AcDbBlockEnd
  0
BLOCK
  5
7E53
330
7E52
100
AcDbEntity
  8
0
100
AcDbBlockBegin
  2
*D34
 70
     1
 10
0.0
 20
0.0
 30
0.0
  3
*D34
  1
*D34
  0
LINE
  5
7E55
330
7E52
100
AcDbEntity
  8
WY
 62
     0
100
AcDbLine
 10
586.3084045092938
 20
162.1356194276206
 30
0.0
 11
586.3084045092938
 21
154.9032907295345
 31
0.0
  0
LINE
  5
7E56
330
7E52
100
AcDbEntity
  8
WY
 62
     0
100
AcDbLine
 10
566.3084045092938
 20
162.1356194276206
 30
0.0
 11
566.3084045092938
 21
154.9032907295345
 31
0.0
  0
LINE
  5
7E57
330
7E52
100
AcDbEntity
  8
WY
 62
     0
100
AcDbLine
 10
584.8084045092938
 20
156.4032907295345
 30
0.0
 11
567.8084045092938
 21
156.4032907295345
 31
0.0
  0
SOLID
  5
7E58
330
7E52
100
AcDbEntity
  8
WY
 62
     0
100
AcDbTrace
 10
584.8084045092938
 20
156.1532907295345
 30
0.0
 11
584.8084045092938
 21
156.6532907295345
 31
0.0
 12
586.3084045092938
 22
156.4032907295345
 32
0.0
 13
586.3084045092938
 23
156.4032907295345
 33
0.0
  0
SOLID
  5
7E59
330
7E52
100
AcDbEntity
  8
WY
 62
     0
100
AcDbTrace
 10
567.8084045092938
 20
156.6532907295345
 30
0.0
 11
567.8084045092938
 21
156.1532907295345
 31
0.0
 12
566.3084045092938
 22
156.4032907295345
 32
0.0
 13
566.3084045092938
 23
156.4032907295345
 33
0.0
  0
MTEXT
  5
7E5A
330
7E52
100
AcDbEntity
  8
WY
 62
     0
100
AcDbMText
 10
576.3084045092938
 20
157.4032907295345
 30
0.0
 40
1.0
 41
0.0
 71
     5
 72
     1
  1
\A1;20
  0
POINT
  5
7E5B
330
7E52
100
AcDbEntity
  8
DEFPOINTS
 62
     0
100
AcDbPoint
 10
586.3084045092938
 20
163.6356194276206
 30
0.0
  0
POINT
  5
7E5C
330
7E52
100
AcDbEntity
  8
DEFPOINTS
 62
     0
100
AcDbPoint
 10
566.3084045092938
 20
163.6356194276206
 30
0.0
  0
POINT
  5
7E5D
330
7E52
100
AcDbEntity
  8
DEFPOINTS
 62
     0
100
AcDbPoint
 10
566.3084045092938
 20
156.4032907295345
 30
0.0
  0
ENDBLK
  5
7E54
330
7E52
100
AcDbEntity
  8
0
100
AcDbBlockEnd
  0
BLOCK
  5
7E5F
330
7E5E
100
AcDbEntity
  8
0
100
AcDbBlockBegin
  2
*D35
 70
     1
 10
0.0
 20
0.0
 30
0.0
  3
*D35
  1
*D35
  0
LINE
  5
7E61
330
7E5E
100
AcDbEntity
  8
WY
 62
     0
100
AcDbLine
 10
566.3084045092938
 20
162.1356194276206
 30
0.0
 11
566.3084045092938
 21
154.9032907295345
 31
0.0
  0
LINE
  5
7E62
330
7E5E
100
AcDbEntity
  8
WY
 62
     0
100
AcDbLine
 10
561.3084045092938
 20
162.1356194276206
 30
0.0
 11
561.3084045092938
 21
154.9032907295345
 31
0.0
  0
LINE
  5
7E63
330
7E5E
100
AcDbEntity
  8
WY
 62
     0
100
AcDbLine
 10
564.8084045092938
 20
156.4032907295345
 30
0.0
 11
562.8084045092938
 21
156.4032907295345
 31
0.0
  0
SOLID
  5
7E64
330
7E5E
100
AcDbEntity
  8
WY
 62
     0
100
AcDbTrace
 10
564.8084045092938
 20
156.1532907295345
 30
0.0
 11
564.8084045092938
 21
156.6532907295345
 31
0.0
 12
566.3084045092938
 22
156.4032907295345
 32
0.0
 13
566.3084045092938
 23
156.4032907295345
 33
0.0
  0
SOLID
  5
7E65
330
7E5E
100
AcDbEntity
  8
WY
 62
     0
100
AcDbTrace
 10
562.8084045092938
 20
156.6532907295345
 30
0.0
 11
562.8084045092938
 21
156.1532907295345
 31
0.0
 12
561.3084045092938
 22
156.4032907295345
 32
0.0
 13
561.3084045092938
 23
156.4032907295345
 33
0.0
  0
MTEXT
  5
7E66
330
7E5E
100
AcDbEntity
  8
WY
 62
     0
100
AcDbMText
 10
563.8084045092938
 20
157.4032907295345
 30
0.0
 40
1.0
 41
0.0
 71
     5
 72
     1
  1
\A1;5
  0
POINT
  5
7E67
330
7E5E
100
AcDbEntity
  8
DEFPOINTS
 62
     0
100
AcDbPoint
 10
566.3084045092938
 20
163.6356194276206
 30
0.0
  0
POINT
  5
7E68
330
7E5E
100
AcDbEntity
  8
DEFPOINTS
 62
     0
100
AcDbPoint
 10
561.3084045092938
 20
163.6356194276206
 30
0.0
  0
POINT
  5
7E69
330
7E5E
100
AcDbEntity
  8
DEFPOINTS
 62
     0
100
AcDbPoint
 10
561.3084045092938
 20
156.4032907295345
 30
0.0
  0
ENDBLK
  5
7E60
330
7E5E
100
AcDbEntity
  8
0
100
AcDbBlockEnd
  0
BLOCK
  5
7E6B
330
7E6A
100
AcDbEntity
  8
0
100
AcDbBlockBegin
  2
*D36
 70
     1
 10
0.0
 20
0.0
 30
0.0
  3
*D36
  1
*D36
  0
LINE
  5
7E6D
330
7E6A
100
AcDbEntity
  8
WY
 62
     0
100
AcDbLine
 10
566.3084045092938
 20
162.1356194276206
 30
0.0
 11
566.3084045092938
 21
154.9032907295345
 31
0.0
  0
LINE
  5
7E6E
330
7E6A
100
AcDbEntity
  8
WY
 62
     0
100
AcDbLine
 10
571.3401519995728
 20
162.1356194276206
 30
0.0
 11
571.3401519995728
 21
154.9032907295345
 31
0.0
  0
LINE
  5
7E6F
330
7E6A
100
AcDbEntity
  8
WY
 62
     0
100
AcDbLine
 10
567.8084045092938
 20
156.4032907295345
 30
0.0
 11
569.8401519995728
 21
156.4032907295345
 31
0.0
  0
SOLID
  5
7E70
330
7E6A
100
AcDbEntity
  8
WY
 62
     0
100
AcDbTrace
 10
567.8084045092938
 20
156.6532907295345
 30
0.0
 11
567.8084045092938
 21
156.1532907295345
 31
0.0
 12
566.3084045092938
 22
156.4032907295345
 32
0.0
 13
566.3084045092938
 23
156.4032907295345
 33
0.0
  0
SOLID
  5
7E71
330
7E6A
100
AcDbEntity
  8
WY
 62
     0
100
AcDbTrace
 10
569.8401519995728
 20
156.1532907295345
 30
0.0
 11
569.8401519995728
 21
156.6532907295345
 31
0.0
 12
571.3401519995728
 22
156.4032907295345
 32
0.0
 13
571.3401519995728
 23
156.4032907295345
 33
0.0
  0
MTEXT
  5
7E72
330
7E6A
100
AcDbEntity
  8
WY
 62
     0
100
AcDbMText
 10
568.8242782544332
 20
157.4032907295345
 30
0.0
 40
1.0
 41
0.0
 71
     5
 72
     1
  1
\A1;5
  0
POINT
  5
7E73
330
7E6A
100
AcDbEntity
  8
DEFPOINTS
 62
     0
100
AcDbPoint
 10
566.3084045092938
 20
163.6356194276206
 30
0.0
  0
POINT
  5
7E74
330
7E6A
100
AcDbEntity
  8
DEFPOINTS
 62
     0
100
AcDbPoint
 10
571.3401519995728
 20
163.6356194276206
 30
0.0
  0
POINT
  5
7E75
330
7E6A
100
AcDbEntity
  8
DEFPOINTS
 62
     0
100
AcDbPoint
 10
571.3401519995728
 20
156.4032907295345
 30
0.0
  0
ENDBLK
  5
7E6C
330
7E6A
100
AcDbEntity
  8
0
100
AcDbBlockEnd
  0
BLOCK
  5
7E77
330
7E76
100
AcDbEntity
  8
0
100
AcDbBlockBegin
  2
*D37
 70
     1
 10
0.0
 20
0.0
 30
0.0
  3
*D37
  1
*D37
  0
LINE
  5
7E79
330
7E76
100
AcDbEntity
  8
WY
 62
     0
100
AcDbLine
 10
590.9084045092937
 20
172.5018722922004
 30
0.0
 11
597.0189240358827
 21
172.5018722922004
 31
0.0
  0
LINE
  5
7E7A
330
7E76
100
AcDbEntity
  8
WY
 62
     0
100
AcDbLine
 10
590.9084045092937
 20
165.0018722922004
 30
0.0
 11
597.0189240358827
 21
165.0018722922004
 31
0.0
  0
LINE
  5
7E7B
330
7E76
100
AcDbEntity
  8
WY
 62
     0
100
AcDbLine
 10
595.5189240358827
 20
171.0018722922004
 30
0.0
 11
595.5189240358827
 21
166.5018722922004
 31
0.0
  0
SOLID
  5
7E7C
330
7E76
100
AcDbEntity
  8
WY
 62
     0
100
AcDbTrace
 10
595.7689240358827
 20
171.0018722922004
 30
0.0
 11
595.2689240358827
 21
171.0018722922004
 31
0.0
 12
595.5189240358827
 22
172.5018722922004
 32
0.0
 13
595.5189240358827
 23
172.5018722922004
 33
0.0
  0
SOLID
  5
7E7D
330
7E76
100
AcDbEntity
  8
WY
 62
     0
100
AcDbTrace
 10
595.2689240358827
 20
166.5018722922004
 30
0.0
 11
595.7689240358827
 21
166.5018722922004
 31
0.0
 12
595.5189240358827
 22
165.0018722922004
 32
0.0
 13
595.5189240358827
 23
165.0018722922004
 33
0.0
  0
MTEXT
  5
7E7E
330
7E76
100
AcDbEntity
  8
WY
 62
     0
100
AcDbMText
 10
594.5189240358827
 20
168.7518722922004
 30
0.0
 40
1.0
 41
0.0
 71
     5
 72
     1
  1
\A1;7.5
 11
0.0
 21
1.0
 31
0.0
  0
POINT
  5
7E7F
330
7E76
100
AcDbEntity
  8
DEFPOINTS
 62
     0
100
AcDbPoint
 10
589.4084045092937
 20
172.5018722922004
 30
0.0
  0
POINT
  5
7E80
330
7E76
100
AcDbEntity
  8
DEFPOINTS
 62
     0
100
AcDbPoint
 10
589.4084045092937
 20
165.0018722922004
 30
0.0
  0
POINT
  5
7E81
330
7E76
100
AcDbEntity
  8
DEFPOINTS
 62
     0
100
AcDbPoint
 10
595.5189240358827
 20
165.0018722922004
 30
0.0
  0
ENDBLK
  5
7E78
330
7E76
100
AcDbEntity
  8
0
100
AcDbBlockEnd
  0
BLOCK
  5
7E83
330
7E82
100
AcDbEntity
  8
0
100
AcDbBlockBegin
  2
*D38
 70
     1
 10
0.0
 20
0.0
 30
0.0
  3
*D38
  1
*D38
  0
LINE
  5
7E85
330
7E82
100
AcDbEntity
  8
WY
 62
     0
100
AcDbLine
 10
561.3084045092938
 20
162.1356194276206
 30
0.0
 11
561.3084045092938
 21
154.9032907295345
 31
0.0
  0
LINE
  5
7E86
330
7E82
100
AcDbEntity
  8
WY
 62
     0
100
AcDbLine
 10
560.1084045092938
 20
161.0018722922004
 30
0.0
 11
560.1084045092938
 21
154.9032907295345
 31
0.0
  0
LINE
  5
7E87
330
7E82
100
AcDbEntity
  8
WY
 62
     0
100
AcDbLine
 10
560.1084045092938
 20
156.4032907295345
 30
0.0
 11
554.441737842627
 21
156.4032907295345
 31
0.0
  0
LINE
  5
7E88
330
7E82
100
AcDbEntity
  8
WY
 62
     0
100
AcDbLine
 10
561.3084045092938
 20
156.4032907295345
 30
0.0
 11
560.1084045092938
 21
156.4032907295345
 31
0.0
  0
LINE
  5
7E89
330
7E82
100
AcDbEntity
  8
WY
 62
     0
100
AcDbLine
 10
562.8084045092938
 20
156.4032907295345
 30
0.0
 11
564.3084045092938
 21
156.4032907295345
 31
0.0
  0
LINE
  5
7E8A
330
7E82
100
AcDbEntity
  8
WY
 62
     0
100
AcDbLine
 10
558.6084045092938
 20
156.4032907295345
 30
0.0
 11
557.1084045092938
 21
156.4032907295345
 31
0.0
  0
SOLID
  5
7E8B
330
7E82
100
AcDbEntity
  8
WY
 62
     0
100
AcDbTrace
 10
562.8084045092938
 20
156.6532907295345
 30
0.0
 11
562.8084045092938
 21
156.1532907295345
 31
0.0
 12
561.3084045092938
 22
156.4032907295345
 32
0.0
 13
561.3084045092938
 23
156.4032907295345
 33
0.0
  0
SOLID
  5
7E8C
330
7E82
100
AcDbEntity
  8
WY
 62
     0
100
AcDbTrace
 10
558.6084045092938
 20
156.1532907295345
 30
0.0
 11
558.6084045092938
 21
156.6532907295345
 31
0.0
 12
560.1084045092938
 22
156.4032907295345
 32
0.0
 13
560.1084045092938
 23
156.4032907295345
 33
0.0
  0
MTEXT
  5
7E8D
330
7E82
100
AcDbEntity
  8
WY
 62
     0
100
AcDbMText
 10
555.7750711759604
 20
157.4032907295345
 30
0.0
 40
1.0
 41
0.0
 71
     5
 72
     1
  1
\A1;1.2
  0
POINT
  5
7E8E
330
7E82
100
AcDbEntity
  8
DEFPOINTS
 62
     0
100
AcDbPoint
 10
561.3084045092938
 20
163.6356194276206
 30
0.0
  0
POINT
  5
7E8F
330
7E82
100
AcDbEntity
  8
DEFPOINTS
 62
     0
100
AcDbPoint
 10
560.1084045092938
 20
162.5018722922004
 30
0.0
  0
POINT
  5
7E90
330
7E82
100
AcDbEntity
  8
DEFPOINTS
 62
     0
100
AcDbPoint
 10
560.1084045092938
 20
156.4032907295345
 30
0.0
  0
ENDBLK
  5
7E84
330
7E82
100
AcDbEntity
  8
0
100
AcDbBlockEnd
  0
BLOCK
  5
7E92
330
7E91
100
AcDbEntity
  8
0
100
AcDbBlockBegin
  2
*D39
 70
     1
 10
0.0
 20
0.0
 30
0.0
  3
*D39
  1
*D39
  0
LINE
  5
7E94
330
7E91
100
AcDbEntity
  8
WY
 62
     0
100
AcDbLine
 10
558.7321249726346
 20
123.2997085275856
 30
0.0
 11
552.2490852962221
 21
123.2997085275856
 31
0.0
  0
LINE
  5
7E95
330
7E91
100
AcDbEntity
  8
WY
 62
     0
100
AcDbLine
 10
559.4321249726345
 20
148.8997085275857
 30
0.0
 11
552.2490852962221
 21
148.8997085275857
 31
0.0
  0
LINE
  5
7E96
330
7E91
100
AcDbEntity
  8
WY
 62
     0
100
AcDbLine
 10
553.7490852962221
 20
124.7997085275856
 30
0.0
 11
553.7490852962221
 21
147.3997085275857
 31
0.0
  0
SOLID
  5
7E97
330
7E91
100
AcDbEntity
  8
WY
 62
     0
100
AcDbTrace
 10
553.4990852962221
 20
124.7997085275856
 30
0.0
 11
553.9990852962221
 21
124.7997085275856
 31
0.0
 12
553.7490852962221
 22
123.2997085275856
 32
0.0
 13
553.7490852962221
 23
123.2997085275856
 33
0.0
  0
SOLID
  5
7E98
330
7E91
100
AcDbEntity
  8
WY
 62
     0
100
AcDbTrace
 10
553.9990852962221
 20
147.3997085275857
 30
0.0
 11
553.4990852962221
 21
147.3997085275857
 31
0.0
 12
553.7490852962221
 22
148.8997085275857
 32
0.0
 13
553.7490852962221
 23
148.8997085275857
 33
0.0
  0
MTEXT
  5
7E99
330
7E91
100
AcDbEntity
  8
WY
 62
     0
100
AcDbMText
 10
552.7490852962221
 20
136.0997085275857
 30
0.0
 40
1.0
 41
0.0
 71
     5
 72
     1
  1
\A1;25.6
 11
0.0
 21
1.0
 31
0.0
  0
POINT
  5
7E9A
330
7E91
100
AcDbEntity
  8
DEFPOINTS
 62
     0
100
AcDbPoint
 10
560.2321249726346
 20
123.2997085275856
 30
0.0
  0
POINT
  5
7E9B
330
7E91
100
AcDbEntity
  8
DEFPOINTS
 62
     0
100
AcDbPoint
 10
560.9321249726345
 20
148.8997085275857
 30
0.0
  0
POINT
  5
7E9C
330
7E91
100
AcDbEntity
  8
DEFPOINTS
 62
     0
100
AcDbPoint
 10
553.7490852962221
 20
148.8997085275857
 30
0.0
  0
ENDBLK
  5
7E93
330
7E91
100
AcDbEntity
  8
0
100
AcDbBlockEnd
  0
BLOCK
  5
7E9E
330
7E9D
100
AcDbEntity
  8
0
100
AcDbBlockBegin
  2
*D40
 70
     1
 10
0.0
 20
0.0
 30
0.0
  3
*D40
  1
*D40
  0
LINE
  5
7EA0
330
7E9D
100
AcDbEntity
  8
WY
 62
     0
100
AcDbLine
 10
558.7321249726346
 20
123.2997085275856
 30
0.0
 11
552.2490852962221
 21
123.2997085275856
 31
0.0
  0
LINE
  5
7EA1
330
7E9D
100
AcDbEntity
  8
WY
 62
     0
100
AcDbLine
 10
559.5887739267998
 20
119.6997085275856
 30
0.0
 11
552.2490852962221
 21
119.6997085275856
 31
0.0
  0
LINE
  5
7EA2
330
7E9D
100
AcDbEntity
  8
WY
 62
     0
100
AcDbLine
 10
553.7490852962221
 20
123.2997085275856
 30
0.0
 11
553.7490852962221
 21
119.6997085275856
 31
0.0
  0
LINE
  5
7EA3
330
7E9D
100
AcDbEntity
  8
WY
 62
     0
100
AcDbLine
 10
553.7490852962221
 20
124.7997085275856
 30
0.0
 11
553.7490852962221
 21
126.2997085275856
 31
0.0
  0
LINE
  5
7EA4
330
7E9D
100
AcDbEntity
  8
WY
 62
     0
100
AcDbLine
 10
553.7490852962221
 20
118.1997085275856
 30
0.0
 11
553.7490852962221
 21
116.6997085275856
 31
0.0
  0
SOLID
  5
7EA5
330
7E9D
100
AcDbEntity
  8
WY
 62
     0
100
AcDbTrace
 10
553.4990852962221
 20
124.7997085275856
 30
0.0
 11
553.9990852962221
 21
124.7997085275856
 31
0.0
 12
553.7490852962221
 22
123.2997085275856
 32
0.0
 13
553.7490852962221
 23
123.2997085275856
 33
0.0
  0
SOLID
  5
7EA6
330
7E9D
100
AcDbEntity
  8
WY
 62
     0
100
AcDbTrace
 10
553.9990852962221
 20
118.1997085275856
 30
0.0
 11
553.4990852962221
 21
118.1997085275856
 31
0.0
 12
553.7490852962221
 22
119.6997085275856
 32
0.0
 13
553.7490852962221
 23
119.6997085275856
 33
0.0
  0
MTEXT
  5
7EA7
330
7E9D
100
AcDbEntity
  8
WY
 62
     0
100
AcDbMText
 10
552.7490852962221
 20
121.4997085275856
 30
0.0
 40
1.0
 41
0.0
 71
     5
 72
     1
  1
\A1;3.6
 11
0.0
 21
1.0
 31
0.0
  0
POINT
  5
7EA8
330
7E9D
100
AcDbEntity
  8
DEFPOINTS
 62
     0
100
AcDbPoint
 10
560.2321249726346
 20
123.2997085275856
 30
0.0
  0
POINT
  5
7EA9
330
7E9D
100
AcDbEntity
  8
DEFPOINTS
 62
     0
100
AcDbPoint
 10
561.0887739267998
 20
119.6997085275856
 30
0.0
  0
POINT
  5
7EAA
330
7E9D
100
AcDbEntity
  8
DEFPOINTS
 62
     0
100
AcDbPoint
 10
553.7490852962221
 20
119.6997085275856
 30
0.0
  0
ENDBLK
  5
7E9F
330
7E9D
100
AcDbEntity
  8
0
100
AcDbBlockEnd
  0
BLOCK
  5
7EAC
330
7EAB
100
AcDbEntity
  8
0
100
AcDbBlockBegin
  2
*D41
 70
     1
 10
0.0
 20
0.0
 30
0.0
  3
*D41
  1
*D41
  0
LINE
  5
7EAE
330
7EAB
100
AcDbEntity
  8
WY
 62
     0
100
AcDbLine
 10
613.3915987978178
 20
121.7997085275856
 30
0.0
 11
613.3915987978178
 21
109.2164827482765
 31
0.0
  0
LINE
  5
7EAF
330
7EAB
100
AcDbEntity
  8
WY
 62
     0
100
AcDbLine
 10
625.8915987978178
 20
121.7997085275856
 30
0.0
 11
625.8915987978178
 21
109.2164827482765
 31
0.0
  0
LINE
  5
7EB0
330
7EAB
100
AcDbEntity
  8
WY
 62
     0
100
AcDbLine
 10
614.8915987978178
 20
110.7164827482765
 30
0.0
 11
624.3915987978178
 21
110.7164827482765
 31
0.0
  0
SOLID
  5
7EB1
330
7EAB
100
AcDbEntity
  8
WY
 62
     0
100
AcDbTrace
 10
614.8915987978178
 20
110.9664827482765
 30
0.0
 11
614.8915987978178
 21
110.4664827482765
 31
0.0
 12
613.3915987978178
 22
110.7164827482765
 32
0.0
 13
613.3915987978178
 23
110.7164827482765
 33
0.0
  0
SOLID
  5
7EB2
330
7EAB
100
AcDbEntity
  8
WY
 62
     0
100
AcDbTrace
 10
624.3915987978178
 20
110.4664827482765
 30
0.0
 11
624.3915987978178
 21
110.9664827482765
 31
0.0
 12
625.8915987978178
 22
110.7164827482765
 32
0.0
 13
625.8915987978178
 23
110.7164827482765
 33
0.0
  0
MTEXT
  5
7EB3
330
7EAB
100
AcDbEntity
  8
WY
 62
     0
100
AcDbMText
 10
619.6415987978178
 20
111.7164827482765
 30
0.0
 40
1.0
 41
0.0
 71
     5
 72
     1
  1
\A1;12.5
  0
POINT
  5
7EB4
330
7EAB
100
AcDbEntity
  8
DEFPOINTS
 62
     0
100
AcDbPoint
 10
613.3915987978178
 20
123.2997085275856
 30
0.0
  0
POINT
  5
7EB5
330
7EAB
100
AcDbEntity
  8
DEFPOINTS
 62
     0
100
AcDbPoint
 10
625.8915987978178
 20
123.2997085275856
 30
0.0
  0
POINT
  5
7EB6
330
7EAB
100
AcDbEntity
  8
DEFPOINTS
 62
     0
100
AcDbPoint
 10
625.8915987978178
 20
110.7164827482765
 30
0.0
  0
ENDBLK
  5
7EAD
330
7EAB
100
AcDbEntity
  8
0
100
AcDbBlockEnd
  0
BLOCK
  5
7EB8
330
7EB7
100
AcDbEntity
  8
0
100
AcDbBlockBegin
  2
*D42
 70
     1
 10
0.0
 20
0.0
 30
0.0
  3
*D42
  1
*D42
  0
LINE
  5
7EBA
330
7EB7
100
AcDbEntity
  8
WY
 62
     0
100
AcDbLine
 10
615.5765403200755
 20
118.1997085275856
 30
0.0
 11
615.5765403200755
 21
113.0743211542361
 31
0.0
  0
LINE
  5
7EBB
330
7EB7
100
AcDbEntity
  8
WY
 62
     0
100
AcDbLine
 10
616.6765403200754
 20
118.1997085275856
 30
0.0
 11
616.6765403200754
 21
113.0743211542361
 31
0.0
  0
LINE
  5
7EBC
330
7EB7
100
AcDbEntity
  8
WY
 62
     0
100
AcDbLine
 10
616.6765403200754
 20
114.5743211542361
 30
0.0
 11
622.0098736534087
 21
114.5743211542361
 31
0.0
  0
LINE
  5
7EBD
330
7EB7
100
AcDbEntity
  8
WY
 62
     0
100
AcDbLine
 10
615.5765403200755
 20
114.5743211542361
 30
0.0
 11
616.6765403200754
 21
114.5743211542361
 31
0.0
  0
LINE
  5
7EBE
330
7EB7
100
AcDbEntity
  8
WY
 62
     0
100
AcDbLine
 10
614.0765403200755
 20
114.5743211542361
 30
0.0
 11
612.5765403200755
 21
114.5743211542361
 31
0.0
  0
LINE
  5
7EBF
330
7EB7
100
AcDbEntity
  8
WY
 62
     0
100
AcDbLine
 10
618.1765403200754
 20
114.5743211542361
 30
0.0
 11
619.6765403200754
 21
114.5743211542361
 31
0.0
  0
SOLID
  5
7EC0
330
7EB7
100
AcDbEntity
  8
WY
 62
     0
100
AcDbTrace
 10
614.0765403200755
 20
114.3243211542361
 30
0.0
 11
614.0765403200755
 21
114.8243211542361
 31
0.0
 12
615.5765403200755
 22
114.5743211542361
 32
0.0
 13
615.5765403200755
 23
114.5743211542361
 33
0.0
  0
SOLID
  5
7EC1
330
7EB7
100
AcDbEntity
  8
WY
 62
     0
100
AcDbTrace
 10
618.1765403200754
 20
114.8243211542361
 30
0.0
 11
618.1765403200754
 21
114.3243211542361
 31
0.0
 12
616.6765403200754
 22
114.5743211542361
 32
0.0
 13
616.6765403200754
 23
114.5743211542361
 33
0.0
  0
MTEXT
  5
7EC2
330
7EB7
100
AcDbEntity
  8
WY
 62
     0
100
AcDbMText
 10
620.8432069867421
 20
115.5743211542361
 30
0.0
 40
1.0
 41
0.0
 71
     5
 72
     1
  1
\A1;1.1
  0
POINT
  5
7EC3
330
7EB7
100
AcDbEntity
  8
DEFPOINTS
 62
     0
100
AcDbPoint
 10
615.5765403200755
 20
119.6997085275856
 30
0.0
  0
POINT
  5
7EC4
330
7EB7
100
AcDbEntity
  8
DEFPOINTS
 62
     0
100
AcDbPoint
 10
616.6765403200754
 20
119.6997085275856
 30
0.0
  0
POINT
  5
7EC5
330
7EB7
100
AcDbEntity
  8
DEFPOINTS
 62
     0
100
AcDbPoint
 10
616.6765403200754
 20
114.5743211542361
 30
0.0
  0
ENDBLK
  5
7EB9
330
7EB7
100
AcDbEntity
  8
0
100
AcDbBlockEnd
  0
BLOCK
  5
7F37
330
7F36
100
AcDbEntity
  8
0
100
AcDbBlockBegin
  2
*D43
 70
     1
 10
0.0
 20
0.0
 30
0.0
  3
*D43
  1
*D43
  0
LINE
  5
7F39
330
7F36
100
AcDbEntity
  8
WY
 62
     0
100
AcDbLine
 10
560.1084045092938
 20
93.35806809945633
 30
0.0
 11
560.1084045092938
 21
97.35238082293849
 31
0.0
  0
LINE
  5
7F3A
330
7F36
100
AcDbEntity
  8
WY
 62
     0
100
AcDbLine
 10
589.2084045092938
 20
93.35806809945633
 30
0.0
 11
589.2084045092938
 21
97.35238082293849
 31
0.0
  0
LINE
  5
7F3B
330
7F36
100
AcDbEntity
  8
WY
 62
     0
100
AcDbLine
 10
561.6084045092938
 20
95.85238082293849
 30
0.0
 11
587.7084045092938
 21
95.85238082293849
 31
0.0
  0
SOLID
  5
7F3C
330
7F36
100
AcDbEntity
  8
WY
 62
     0
100
AcDbTrace
 10
561.6084045092938
 20
96.10238082293849
 30
0.0
 11
561.6084045092938
 21
95.60238082293849
 31
0.0
 12
560.1084045092938
 22
95.85238082293849
 32
0.0
 13
560.1084045092938
 23
95.85238082293849
 33
0.0
  0
SOLID
  5
7F3D
330
7F36
100
AcDbEntity
  8
WY
 62
     0
100
AcDbTrace
 10
587.7084045092938
 20
95.60238082293849
 30
0.0
 11
587.7084045092938
 21
96.10238082293849
 31
0.0
 12
589.2084045092938
 22
95.85238082293849
 32
0.0
 13
589.2084045092938
 23
95.85238082293849
 33
0.0
  0
MTEXT
  5
7F3E
330
7F36
100
AcDbEntity
  8
WY
 62
     0
100
AcDbMText
 10
574.6584045092939
 20
96.85238082293849
 30
0.0
 40
1.0
 41
0.0
 71
     5
 72
     1
  1
\A1;29.1
  0
POINT
  5
7F3F
330
7F36
100
AcDbEntity
  8
DEFPOINTS
 62
     0
100
AcDbPoint
 10
560.1084045092938
 20
91.85806809945633
 30
0.0
  0
POINT
  5
7F40
330
7F36
100
AcDbEntity
  8
DEFPOINTS
 62
     0
100
AcDbPoint
 10
589.2084045092938
 20
91.85806809945633
 30
0.0
  0
POINT
  5
7F41
330
7F36
100
AcDbEntity
  8
DEFPOINTS
 62
     0
100
AcDbPoint
 10
589.2084045092938
 20
95.85238082293849
 30
0.0
  0
ENDBLK
  5
7F38
330
7F36
100
AcDbEntity
  8
0
100
AcDbBlockEnd
  0
BLOCK
  5
7F43
330
7F42
100
AcDbEntity
  8
0
100
AcDbBlockBegin
  2
*D44
 70
     1
 10
0.0
 20
0.0
 30
0.0
  3
*D44
  1
*D44
  0
LINE
  5
7F45
330
7F42
100
AcDbEntity
  8
WY
 62
     0
100
AcDbLine
 10
586.3084045092938
 20
78.99181523487648
 30
0.0
 11
586.3084045092938
 21
71.75948653679048
 31
0.0
  0
LINE
  5
7F46
330
7F42
100
AcDbEntity
  8
WY
 62
     0
100
AcDbLine
 10
566.3084045092938
 20
78.99181523487648
 30
0.0
 11
566.3084045092938
 21
71.75948653679048
 31
0.0
  0
LINE
  5
7F47
330
7F42
100
AcDbEntity
  8
WY
 62
     0
100
AcDbLine
 10
584.8084045092938
 20
73.25948653679048
 30
0.0
 11
567.8084045092938
 21
73.25948653679048
 31
0.0
  0
SOLID
  5
7F48
330
7F42
100
AcDbEntity
  8
WY
 62
     0
100
AcDbTrace
 10
584.8084045092938
 20
73.00948653679048
 30
0.0
 11
584.8084045092938
 21
73.50948653679048
 31
0.0
 12
586.3084045092938
 22
73.25948653679048
 32
0.0
 13
586.3084045092938
 23
73.25948653679048
 33
0.0
  0
SOLID
  5
7F49
330
7F42
100
AcDbEntity
  8
WY
 62
     0
100
AcDbTrace
 10
567.8084045092938
 20
73.50948653679048
 30
0.0
 11
567.8084045092938
 21
73.00948653679048
 31
0.0
 12
566.3084045092938
 22
73.25948653679048
 32
0.0
 13
566.3084045092938
 23
73.25948653679048
 33
0.0
  0
MTEXT
  5
7F4A
330
7F42
100
AcDbEntity
  8
WY
 62
     0
100
AcDbMText
 10
576.3084045092938
 20
74.25948653679048
 30
0.0
 40
1.0
 41
0.0
 71
     5
 72
     1
  1
\A1;20
  0
POINT
  5
7F4B
330
7F42
100
AcDbEntity
  8
DEFPOINTS
 62
     0
100
AcDbPoint
 10
586.3084045092938
 20
80.49181523487648
 30
0.0
  0
POINT
  5
7F4C
330
7F42
100
AcDbEntity
  8
DEFPOINTS
 62
     0
100
AcDbPoint
 10
566.3084045092938
 20
80.49181523487648
 30
0.0
  0
POINT
  5
7F4D
330
7F42
100
AcDbEntity
  8
DEFPOINTS
 62
     0
100
AcDbPoint
 10
566.3084045092938
 20
73.25948653679048
 30
0.0
  0
ENDBLK
  5
7F44
330
7F42
100
AcDbEntity
  8
0
100
AcDbBlockEnd
  0
BLOCK
  5
7F4F
330
7F4E
100
AcDbEntity
  8
0
100
AcDbBlockBegin
  2
*D45
 70
     1
 10
0.0
 20
0.0
 30
0.0
  3
*D45
  1
*D45
  0
LINE
  5
7F51
330
7F4E
100
AcDbEntity
  8
WY
 62
     0
100
AcDbLine
 10
566.3084045092938
 20
78.99181523487648
 30
0.0
 11
566.3084045092938
 21
71.75948653679048
 31
0.0
  0
LINE
  5
7F52
330
7F4E
100
AcDbEntity
  8
WY
 62
     0
100
AcDbLine
 10
561.3084045092938
 20
78.99181523487648
 30
0.0
 11
561.3084045092938
 21
71.75948653679048
 31
0.0
  0
LINE
  5
7F53
330
7F4E
100
AcDbEntity
  8
WY
 62
     0
100
AcDbLine
 10
564.8084045092938
 20
73.25948653679048
 30
0.0
 11
562.8084045092938
 21
73.25948653679048
 31
0.0
  0
SOLID
  5
7F54
330
7F4E
100
AcDbEntity
  8
WY
 62
     0
100
AcDbTrace
 10
564.8084045092938
 20
73.00948653679048
 30
0.0
 11
564.8084045092938
 21
73.50948653679048
 31
0.0
 12
566.3084045092938
 22
73.25948653679048
 32
0.0
 13
566.3084045092938
 23
73.25948653679048
 33
0.0
  0
SOLID
  5
7F55
330
7F4E
100
AcDbEntity
  8
WY
 62
     0
100
AcDbTrace
 10
562.8084045092938
 20
73.50948653679048
 30
0.0
 11
562.8084045092938
 21
73.00948653679048
 31
0.0
 12
561.3084045092938
 22
73.25948653679048
 32
0.0
 13
561.3084045092938
 23
73.25948653679048
 33
0.0
  0
MTEXT
  5
7F56
330
7F4E
100
AcDbEntity
  8
WY
 62
     0
100
AcDbMText
 10
563.8084045092938
 20
74.25948653679048
 30
0.0
 40
1.0
 41
0.0
 71
     5
 72
     1
  1
\A1;5
  0
POINT
  5
7F57
330
7F4E
100
AcDbEntity
  8
DEFPOINTS
 62
     0
100
AcDbPoint
 10
566.3084045092938
 20
80.49181523487648
 30
0.0
  0
POINT
  5
7F58
330
7F4E
100
AcDbEntity
  8
DEFPOINTS
 62
     0
100
AcDbPoint
 10
561.3084045092938
 20
80.49181523487648
 30
0.0
  0
POINT
  5
7F59
330
7F4E
100
AcDbEntity
  8
DEFPOINTS
 62
     0
100
AcDbPoint
 10
561.3084045092938
 20
73.25948653679048
 30
0.0
  0
ENDBLK
  5
7F50
330
7F4E
100
AcDbEntity
  8
0
100
AcDbBlockEnd
  0
BLOCK
  5
7F5B
330
7F5A
100
AcDbEntity
  8
0
100
AcDbBlockBegin
  2
*D46
 70
     1
 10
0.0
 20
0.0
 30
0.0
  3
*D46
  1
*D46
  0
LINE
  5
7F5D
330
7F5A
100
AcDbEntity
  8
WY
 62
     0
100
AcDbLine
 10
590.9084045092937
 20
89.35806809945633
 30
0.0
 11
597.0189240358827
 21
89.35806809945633
 31
0.0
  0
LINE
  5
7F5E
330
7F5A
100
AcDbEntity
  8
WY
 62
     0
100
AcDbLine
 10
590.9084045092937
 20
81.85806809945633
 30
0.0
 11
597.0189240358827
 21
81.85806809945633
 31
0.0
  0
LINE
  5
7F5F
330
7F5A
100
AcDbEntity
  8
WY
 62
     0
100
AcDbLine
 10
595.5189240358827
 20
87.85806809945633
 30
0.0
 11
595.5189240358827
 21
83.35806809945633
 31
0.0
  0
SOLID
  5
7F60
330
7F5A
100
AcDbEntity
  8
WY
 62
     0
100
AcDbTrace
 10
595.7689240358827
 20
87.85806809945633
 30
0.0
 11
595.2689240358827
 21
87.85806809945633
 31
0.0
 12
595.5189240358827
 22
89.35806809945633
 32
0.0
 13
595.5189240358827
 23
89.35806809945633
 33
0.0
  0
SOLID
  5
7F61
330
7F5A
100
AcDbEntity
  8
WY
 62
     0
100
AcDbTrace
 10
595.2689240358827
 20
83.35806809945633
 30
0.0
 11
595.7689240358827
 21
83.35806809945633
 31
0.0
 12
595.5189240358827
 22
81.85806809945633
 32
0.0
 13
595.5189240358827
 23
81.85806809945633
 33
0.0
  0
MTEXT
  5
7F62
330
7F5A
100
AcDbEntity
  8
WY
 62
     0
100
AcDbMText
 10
594.5189240358827
 20
85.60806809945633
 30
0.0
 40
1.0
 41
0.0
 71
     5
 72
     1
  1
\A1;7.5
 11
0.0
 21
1.0
 31
0.0
  0
POINT
  5
7F63
330
7F5A
100
AcDbEntity
  8
DEFPOINTS
 62
     0
100
AcDbPoint
 10
589.4084045092937
 20
89.35806809945633
 30
0.0
  0
POINT
  5
7F64
330
7F5A
100
AcDbEntity
  8
DEFPOINTS
 62
     0
100
AcDbPoint
 10
589.4084045092937
 20
81.85806809945633
 30
0.0
  0
POINT
  5
7F65
330
7F5A
100
AcDbEntity
  8
DEFPOINTS
 62
     0
100
AcDbPoint
 10
595.5189240358827
 20
81.85806809945633
 30
0.0
  0
ENDBLK
  5
7F5C
330
7F5A
100
AcDbEntity
  8
0
100
AcDbBlockEnd
  0
BLOCK
  5
7F67
330
7F66
100
AcDbEntity
  8
0
100
AcDbBlockBegin
  2
*D47
 70
     1
 10
0.0
 20
0.0
 30
0.0
  3
*D47
  1
*D47
  0
LINE
  5
7F69
330
7F66
100
AcDbEntity
  8
WY
 62
     0
100
AcDbLine
 10
561.3084045092938
 20
78.99181523487648
 30
0.0
 11
561.3084045092938
 21
71.75948653679048
 31
0.0
  0
LINE
  5
7F6A
330
7F66
100
AcDbEntity
  8
WY
 62
     0
100
AcDbLine
 10
560.1084045092938
 20
77.85806809945633
 30
0.0
 11
560.1084045092938
 21
71.75948653679048
 31
0.0
  0
LINE
  5
7F6B
330
7F66
100
AcDbEntity
  8
WY
 62
     0
100
AcDbLine
 10
560.1084045092938
 20
73.25948653679048
 30
0.0
 11
554.441737842627
 21
73.25948653679048
 31
0.0
  0
LINE
  5
7F6C
330
7F66
100
AcDbEntity
  8
WY
 62
     0
100
AcDbLine
 10
561.3084045092938
 20
73.25948653679048
 30
0.0
 11
560.1084045092938
 21
73.25948653679048
 31
0.0
  0
LINE
  5
7F6D
330
7F66
100
AcDbEntity
  8
WY
 62
     0
100
AcDbLine
 10
562.8084045092938
 20
73.25948653679048
 30
0.0
 11
564.3084045092938
 21
73.25948653679048
 31
0.0
  0
LINE
  5
7F6E
330
7F66
100
AcDbEntity
  8
WY
 62
     0
100
AcDbLine
 10
558.6084045092938
 20
73.25948653679048
 30
0.0
 11
557.1084045092938
 21
73.25948653679048
 31
0.0
  0
SOLID
  5
7F6F
330
7F66
100
AcDbEntity
  8
WY
 62
     0
100
AcDbTrace
 10
562.8084045092938
 20
73.50948653679048
 30
0.0
 11
562.8084045092938
 21
73.00948653679048
 31
0.0
 12
561.3084045092938
 22
73.25948653679048
 32
0.0
 13
561.3084045092938
 23
73.25948653679048
 33
0.0
  0
SOLID
  5
7F70
330
7F66
100
AcDbEntity
  8
WY
 62
     0
100
AcDbTrace
 10
558.6084045092938
 20
73.00948653679048
 30
0.0
 11
558.6084045092938
 21
73.50948653679048
 31
0.0
 12
560.1084045092938
 22
73.25948653679048
 32
0.0
 13
560.1084045092938
 23
73.25948653679048
 33
0.0
  0
MTEXT
  5
7F71
330
7F66
100
AcDbEntity
  8
WY
 62
     0
100
AcDbMText
 10
555.7750711759604
 20
74.25948653679048
 30
0.0
 40
1.0
 41
0.0
 71
     5
 72
     1
  1
\A1;1.2
  0
POINT
  5
7F72
330
7F66
100
AcDbEntity
  8
DEFPOINTS
 62
     0
100
AcDbPoint
 10
561.3084045092938
 20
80.49181523487648
 30
0.0
  0
POINT
  5
7F73
330
7F66
100
AcDbEntity
  8
DEFPOINTS
 62
     0
100
AcDbPoint
 10
560.1084045092938
 20
79.35806809945633
 30
0.0
  0
POINT
  5
7F74
330
7F66
100
AcDbEntity
  8
DEFPOINTS
 62
     0
100
AcDbPoint
 10
560.1084045092938
 20
73.25948653679048
 30
0.0
  0
ENDBLK
  5
7F68
330
7F66
100
AcDbEntity
  8
0
100
AcDbBlockEnd
  0
BLOCK
  5
7F76
330
7F75
100
AcDbEntity
  8
0
100
AcDbBlockBegin
  2
*D48
 70
     1
 10
0.0
 20
0.0
 30
0.0
  3
*D48
  1
*D48
  0
LINE
  5
7F78
330
7F75
100
AcDbEntity
  8
WY
 62
     0
100
AcDbLine
 10
558.7321249726346
 20
40.15590433484157
 30
0.0
 11
552.2490852962221
 21
40.15590433484157
 31
0.0
  0
LINE
  5
7F79
330
7F75
100
AcDbEntity
  8
WY
 62
     0
100
AcDbLine
 10
559.4321249726345
 20
65.75590433484162
 30
0.0
 11
552.2490852962221
 21
65.75590433484162
 31
0.0
  0
LINE
  5
7F7A
330
7F75
100
AcDbEntity
  8
WY
 62
     0
100
AcDbLine
 10
553.7490852962221
 20
41.65590433484157
 30
0.0
 11
553.7490852962221
 21
64.25590433484162
 31
0.0
  0
SOLID
  5
7F7B
330
7F75
100
AcDbEntity
  8
WY
 62
     0
100
AcDbTrace
 10
553.4990852962221
 20
41.65590433484157
 30
0.0
 11
553.9990852962221
 21
41.65590433484157
 31
0.0
 12
553.7490852962221
 22
40.15590433484157
 32
0.0
 13
553.7490852962221
 23
40.15590433484157
 33
0.0
  0
SOLID
  5
7F7C
330
7F75
100
AcDbEntity
  8
WY
 62
     0
100
AcDbTrace
 10
553.9990852962221
 20
64.25590433484162
 30
0.0
 11
553.4990852962221
 21
64.25590433484162
 31
0.0
 12
553.7490852962221
 22
65.75590433484162
 32
0.0
 13
553.7490852962221
 23
65.75590433484162
 33
0.0
  0
MTEXT
  5
7F7D
330
7F75
100
AcDbEntity
  8
WY
 62
     0
100
AcDbMText
 10
552.7490852962221
 20
52.95590433484159
 30
0.0
 40
1.0
 41
0.0
 71
     5
 72
     1
  1
\A1;25.6
 11
0.0
 21
1.0
 31
0.0
  0
POINT
  5
7F7E
330
7F75
100
AcDbEntity
  8
DEFPOINTS
 62
     0
100
AcDbPoint
 10
560.2321249726346
 20
40.15590433484157
 30
0.0
  0
POINT
  5
7F7F
330
7F75
100
AcDbEntity
  8
DEFPOINTS
 62
     0
100
AcDbPoint
 10
560.9321249726345
 20
65.75590433484162
 30
0.0
  0
POINT
  5
7F80
330
7F75
100
AcDbEntity
  8
DEFPOINTS
 62
     0
100
AcDbPoint
 10
553.7490852962221
 20
65.75590433484162
 30
0.0
  0
ENDBLK
  5
7F77
330
7F75
100
AcDbEntity
  8
0
100
AcDbBlockEnd
  0
BLOCK
  5
7F82
330
7F81
100
AcDbEntity
  8
0
100
AcDbBlockBegin
  2
*D49
 70
     1
 10
0.0
 20
0.0
 30
0.0
  3
*D49
  1
*D49
  0
LINE
  5
7F84
330
7F81
100
AcDbEntity
  8
WY
 62
     0
100
AcDbLine
 10
558.7321249726346
 20
40.15590433484157
 30
0.0
 11
552.2490852962221
 21
40.15590433484157
 31
0.0
  0
LINE
  5
7F85
330
7F81
100
AcDbEntity
  8
WY
 62
     0
100
AcDbLine
 10
559.5887739267998
 20
36.55590433484151
 30
0.0
 11
552.2490852962221
 21
36.55590433484151
 31
0.0
  0
LINE
  5
7F86
330
7F81
100
AcDbEntity
  8
WY
 62
     0
100
AcDbLine
 10
553.7490852962221
 20
40.15590433484157
 30
0.0
 11
553.7490852962221
 21
36.55590433484151
 31
0.0
  0
LINE
  5
7F87
330
7F81
100
AcDbEntity
  8
WY
 62
     0
100
AcDbLine
 10
553.7490852962221
 20
41.65590433484157
 30
0.0
 11
553.7490852962221
 21
43.15590433484157
 31
0.0
  0
LINE
  5
7F88
330
7F81
100
AcDbEntity
  8
WY
 62
     0
100
AcDbLine
 10
553.7490852962221
 20
35.05590433484151
 30
0.0
 11
553.7490852962221
 21
33.55590433484151
 31
0.0
  0
SOLID
  5
7F89
330
7F81
100
AcDbEntity
  8
WY
 62
     0
100
AcDbTrace
 10
553.4990852962221
 20
41.65590433484157
 30
0.0
 11
553.9990852962221
 21
41.65590433484157
 31
0.0
 12
553.7490852962221
 22
40.15590433484157
 32
0.0
 13
553.7490852962221
 23
40.15590433484157
 33
0.0
  0
SOLID
  5
7F8A
330
7F81
100
AcDbEntity
  8
WY
 62
     0
100
AcDbTrace
 10
553.9990852962221
 20
35.05590433484151
 30
0.0
 11
553.4990852962221
 21
35.05590433484151
 31
0.0
 12
553.7490852962221
 22
36.55590433484151
 32
0.0
 13
553.7490852962221
 23
36.55590433484151
 33
0.0
  0
MTEXT
  5
7F8B
330
7F81
100
AcDbEntity
  8
WY
 62
     0
100
AcDbMText
 10
552.7490852962221
 20
38.35590433484154
 30
0.0
 40
1.0
 41
0.0
 71
     5
 72
     1
  1
\A1;3.6
 11
0.0
 21
1.0
 31
0.0
  0
POINT
  5
7F8C
330
7F81
100
AcDbEntity
  8
DEFPOINTS
 62
     0
100
AcDbPoint
 10
560.2321249726346
 20
40.15590433484157
 30
0.0
  0
POINT
  5
7F8D
330
7F81
100
AcDbEntity
  8
DEFPOINTS
 62
     0
100
AcDbPoint
 10
561.0887739267998
 20
36.55590433484151
 30
0.0
  0
POINT
  5
7F8E
330
7F81
100
AcDbEntity
  8
DEFPOINTS
 62
     0
100
AcDbPoint
 10
553.7490852962221
 20
36.55590433484151
 30
0.0
  0
ENDBLK
  5
7F83
330
7F81
100
AcDbEntity
  8
0
100
AcDbBlockEnd
  0
BLOCK
  5
7F90
330
7F8F
100
AcDbEntity
  8
0
100
AcDbBlockBegin
  2
*D50
 70
     1
 10
0.0
 20
0.0
 30
0.0
  3
*D50
  1
*D50
  0
LINE
  5
7F92
330
7F8F
100
AcDbEntity
  8
WY
 62
     0
100
AcDbLine
 10
613.3915987978178
 20
38.65590433484157
 30
0.0
 11
613.3915987978178
 21
26.07267855553245
 31
0.0
  0
LINE
  5
7F93
330
7F8F
100
AcDbEntity
  8
WY
 62
     0
100
AcDbLine
 10
625.8915987978178
 20
38.65590433484157
 30
0.0
 11
625.8915987978178
 21
26.07267855553245
 31
0.0
  0
LINE
  5
7F94
330
7F8F
100
AcDbEntity
  8
WY
 62
     0
100
AcDbLine
 10
614.8915987978178
 20
27.57267855553245
 30
0.0
 11
624.3915987978178
 21
27.57267855553245
 31
0.0
  0
SOLID
  5
7F95
330
7F8F
100
AcDbEntity
  8
WY
 62
     0
100
AcDbTrace
 10
614.8915987978178
 20
27.82267855553245
 30
0.0
 11
614.8915987978178
 21
27.32267855553245
 31
0.0
 12
613.3915987978178
 22
27.57267855553245
 32
0.0
 13
613.3915987978178
 23
27.57267855553245
 33
0.0
  0
SOLID
  5
7F96
330
7F8F
100
AcDbEntity
  8
WY
 62
     0
100
AcDbTrace
 10
624.3915987978178
 20
27.32267855553245
 30
0.0
 11
624.3915987978178
 21
27.82267855553245
 31
0.0
 12
625.8915987978178
 22
27.57267855553245
 32
0.0
 13
625.8915987978178
 23
27.57267855553245
 33
0.0
  0
MTEXT
  5
7F97
330
7F8F
100
AcDbEntity
  8
WY
 62
     0
100
AcDbMText
 10
619.6415987978178
 20
28.57267855553245
 30
0.0
 40
1.0
 41
0.0
 71
     5
 72
     1
  1
\A1;12.5
  0
POINT
  5
7F98
330
7F8F
100
AcDbEntity
  8
DEFPOINTS
 62
     0
100
AcDbPoint
 10
613.3915987978178
 20
40.15590433484157
 30
0.0
  0
POINT
  5
7F99
330
7F8F
100
AcDbEntity
  8
DEFPOINTS
 62
     0
100
AcDbPoint
 10
625.8915987978178
 20
40.15590433484157
 30
0.0
  0
POINT
  5
7F9A
330
7F8F
100
AcDbEntity
  8
DEFPOINTS
 62
     0
100
AcDbPoint
 10
625.8915987978178
 20
27.57267855553245
 30
0.0
  0
ENDBLK
  5
7F91
330
7F8F
100
AcDbEntity
  8
0
100
AcDbBlockEnd
  0
BLOCK
  5
7F9C
330
7F9B
100
AcDbEntity
  8
0
100
AcDbBlockBegin
  2
*D51
 70
     1
 10
0.0
 20
0.0
 30
0.0
  3
*D51
  1
*D51
  0
LINE
  5
7F9E
330
7F9B
100
AcDbEntity
  8
WY
 62
     0
100
AcDbLine
 10
615.5765403200755
 20
35.05590433484151
 30
0.0
 11
615.5765403200755
 21
29.93051696149202
 31
0.0
  0
LINE
  5
7F9F
330
7F9B
100
AcDbEntity
  8
WY
 62
     0
100
AcDbLine
 10
616.6765403200754
 20
35.05590433484151
 30
0.0
 11
616.6765403200754
 21
29.93051696149202
 31
0.0
  0
LINE
  5
7FA0
330
7F9B
100
AcDbEntity
  8
WY
 62
     0
100
AcDbLine
 10
616.6765403200754
 20
31.43051696149202
 30
0.0
 11
622.0098736534087
 21
31.43051696149202
 31
0.0
  0
LINE
  5
7FA1
330
7F9B
100
AcDbEntity
  8
WY
 62
     0
100
AcDbLine
 10
615.5765403200755
 20
31.43051696149202
 30
0.0
 11
616.6765403200754
 21
31.43051696149202
 31
0.0
  0
LINE
  5
7FA2
330
7F9B
100
AcDbEntity
  8
WY
 62
     0
100
AcDbLine
 10
614.0765403200755
 20
31.43051696149202
 30
0.0
 11
612.5765403200755
 21
31.43051696149202
 31
0.0
  0
LINE
  5
7FA3
330
7F9B
100
AcDbEntity
  8
WY
 62
     0
100
AcDbLine
 10
618.1765403200754
 20
31.43051696149202
 30
0.0
 11
619.6765403200754
 21
31.43051696149202
 31
0.0
  0
SOLID
  5
7FA4
330
7F9B
100
AcDbEntity
  8
WY
 62
     0
100
AcDbTrace
 10
614.0765403200755
 20
31.18051696149202
 30
0.0
 11
614.0765403200755
 21
31.68051696149202
 31
0.0
 12
615.5765403200755
 22
31.43051696149202
 32
0.0
 13
615.5765403200755
 23
31.43051696149202
 33
0.0
  0
SOLID
  5
7FA5
330
7F9B
100
AcDbEntity
  8
WY
 62
     0
100
AcDbTrace
 10
618.1765403200754
 20
31.68051696149202
 30
0.0
 11
618.1765403200754
 21
31.18051696149202
 31
0.0
 12
616.6765403200754
 22
31.43051696149202
 32
0.0
 13
616.6765403200754
 23
31.43051696149202
 33
0.0
  0
MTEXT
  5
7FA6
330
7F9B
100
AcDbEntity
  8
WY
 62
     0
100
AcDbMText
 10
620.8432069867421
 20
32.43051696149202
 30
0.0
 40
1.0
 41
0.0
 71
     5
 72
     1
  1
\A1;1.1
  0
POINT
  5
7FA7
330
7F9B
100
AcDbEntity
  8
DEFPOINTS
 62
     0
100
AcDbPoint
 10
615.5765403200755
 20
36.55590433484151
 30
0.0
  0
POINT
  5
7FA8
330
7F9B
100
AcDbEntity
  8
DEFPOINTS
 62
     0
100
AcDbPoint
 10
616.6765403200754
 20
36.55590433484151
 30
0.0
  0
POINT
  5
7FA9
330
7F9B
100
AcDbEntity
  8
DEFPOINTS
 62
     0
100
AcDbPoint
 10
616.6765403200754
 20
31.43051696149202
 30
0.0
  0
ENDBLK
  5
7F9D
330
7F9B
100
AcDbEntity
  8
0
100
AcDbBlockEnd
  0
BLOCK
  5
802B
330
802A
100
AcDbEntity
  8
0
100
AcDbBlockBegin
  2
*D52
 70
     1
 10
0.0
 20
0.0
 30
0.0
  3
*D52
  1
*D52
  0
LINE
  5
802D
330
802A
100
AcDbEntity
  8
WY
 62
     0
100
AcDbLine
 10
560.1084045092938
 20
94.2948879709125
 30
0.0
 11
560.1084045092938
 21
98.28920069439465
 31
0.0
  0
LINE
  5
802E
330
802A
100
AcDbEntity
  8
WY
 62
     0
100
AcDbLine
 10
589.2084045092938
 20
94.2948879709125
 30
0.0
 11
589.2084045092938
 21
98.28920069439465
 31
0.0
  0
LINE
  5
802F
330
802A
100
AcDbEntity
  8
WY
 62
     0
100
AcDbLine
 10
561.6084045092938
 20
96.78920069439465
 30
0.0
 11
587.7084045092938
 21
96.78920069439465
 31
0.0
  0
SOLID
  5
8030
330
802A
100
AcDbEntity
  8
WY
 62
     0
100
AcDbTrace
 10
561.6084045092938
 20
97.03920069439465
 30
0.0
 11
561.6084045092938
 21
96.53920069439465
 31
0.0
 12
560.1084045092938
 22
96.78920069439465
 32
0.0
 13
560.1084045092938
 23
96.78920069439465
 33
0.0
  0
SOLID
  5
8031
330
802A
100
AcDbEntity
  8
WY
 62
     0
100
AcDbTrace
 10
587.7084045092938
 20
96.53920069439465
 30
0.0
 11
587.7084045092938
 21
97.03920069439465
 31
0.0
 12
589.2084045092938
 22
96.78920069439465
 32
0.0
 13
589.2084045092938
 23
96.78920069439465
 33
0.0
  0
MTEXT
  5
8032
330
802A
100
AcDbEntity
  8
WY
 62
     0
100
AcDbMText
 10
574.6584045092939
 20
97.78920069439465
 30
0.0
 40
1.0
 41
0.0
 71
     5
 72
     1
  1
\A1;29.1
  0
POINT
  5
8033
330
802A
100
AcDbEntity
  8
DEFPOINTS
 62
     0
100
AcDbPoint
 10
560.1084045092938
 20
92.7948879709125
 30
0.0
  0
POINT
  5
8034
330
802A
100
AcDbEntity
  8
DEFPOINTS
 62
     0
100
AcDbPoint
 10
589.2084045092938
 20
92.7948879709125
 30
0.0
  0
POINT
  5
8035
330
802A
100
AcDbEntity
  8
DEFPOINTS
 62
     0
100
AcDbPoint
 10
589.2084045092938
 20
96.78920069439465
 30
0.0
  0
ENDBLK
  5
802C
330
802A
100
AcDbEntity
  8
0
100
AcDbBlockEnd
  0
BLOCK
  5
8037
330
8036
100
AcDbEntity
  8
0
100
AcDbBlockBegin
  2
*D53
 70
     1
 10
0.0
 20
0.0
 30
0.0
  3
*D53
  1
*D53
  0
LINE
  5
8039
330
8036
100
AcDbEntity
  8
WY
 62
     0
100
AcDbLine
 10
586.3084045092938
 20
79.92863510633268
 30
0.0
 11
586.3084045092938
 21
72.69630640824664
 31
0.0
  0
LINE
  5
803A
330
8036
100
AcDbEntity
  8
WY
 62
     0
100
AcDbLine
 10
571.3401519995728
 20
79.92863510633268
 30
0.0
 11
571.3401519995728
 21
72.69630640824664
 31
0.0
  0
LINE
  5
803B
330
8036
100
AcDbEntity
  8
WY
 62
     0
100
AcDbLine
 10
584.8084045092938
 20
74.19630640824664
 30
0.0
 11
572.8401519995728
 21
74.19630640824664
 31
0.0
  0
SOLID
  5
803C
330
8036
100
AcDbEntity
  8
WY
 62
     0
100
AcDbTrace
 10
584.8084045092938
 20
73.94630640824664
 30
0.0
 11
584.8084045092938
 21
74.44630640824664
 31
0.0
 12
586.3084045092938
 22
74.19630640824664
 32
0.0
 13
586.3084045092938
 23
74.19630640824664
 33
0.0
  0
SOLID
  5
803D
330
8036
100
AcDbEntity
  8
WY
 62
     0
100
AcDbTrace
 10
572.8401519995728
 20
74.44630640824664
 30
0.0
 11
572.8401519995728
 21
73.94630640824664
 31
0.0
 12
571.3401519995728
 22
74.19630640824664
 32
0.0
 13
571.3401519995728
 23
74.19630640824664
 33
0.0
  0
MTEXT
  5
803E
330
8036
100
AcDbEntity
  8
WY
 62
     0
100
AcDbMText
 10
578.8242782544332
 20
75.19630640824664
 30
0.0
 40
1.0
 41
0.0
 71
     5
 72
     1
  1
\A1;15
  0
POINT
  5
803F
330
8036
100
AcDbEntity
  8
DEFPOINTS
 62
     0
100
AcDbPoint
 10
586.3084045092938
 20
81.42863510633268
 30
0.0
  0
POINT
  5
8040
330
8036
100
AcDbEntity
  8
DEFPOINTS
 62
     0
100
AcDbPoint
 10
571.3401519995728
 20
81.42863510633268
 30
0.0
  0
POINT
  5
8041
330
8036
100
AcDbEntity
  8
DEFPOINTS
 62
     0
100
AcDbPoint
 10
571.3401519995728
 20
74.19630640824664
 30
0.0
  0
ENDBLK
  5
8038
330
8036
100
AcDbEntity
  8
0
100
AcDbBlockEnd
  0
BLOCK
  5
8043
330
8042
100
AcDbEntity
  8
0
100
AcDbBlockBegin
  2
*D54
 70
     1
 10
0.0
 20
0.0
 30
0.0
  3
*D54
  1
*D54
  0
LINE
  5
8045
330
8042
100
AcDbEntity
  8
WY
 62
     0
100
AcDbLine
 10
566.3084045092938
 20
79.92863510633268
 30
0.0
 11
566.3084045092938
 21
72.69630640824664
 31
0.0
  0
LINE
  5
8046
330
8042
100
AcDbEntity
  8
WY
 62
     0
100
AcDbLine
 10
561.3084045092938
 20
79.92863510633268
 30
0.0
 11
561.3084045092938
 21
72.69630640824664
 31
0.0
  0
LINE
  5
8047
330
8042
100
AcDbEntity
  8
WY
 62
     0
100
AcDbLine
 10
564.8084045092938
 20
74.19630640824664
 30
0.0
 11
562.8084045092938
 21
74.19630640824664
 31
0.0
  0
SOLID
  5
8048
330
8042
100
AcDbEntity
  8
WY
 62
     0
100
AcDbTrace
 10
564.8084045092938
 20
73.94630640824664
 30
0.0
 11
564.8084045092938
 21
74.44630640824664
 31
0.0
 12
566.3084045092938
 22
74.19630640824664
 32
0.0
 13
566.3084045092938
 23
74.19630640824664
 33
0.0
  0
SOLID
  5
8049
330
8042
100
AcDbEntity
  8
WY
 62
     0
100
AcDbTrace
 10
562.8084045092938
 20
74.44630640824664
 30
0.0
 11
562.8084045092938
 21
73.94630640824664
 31
0.0
 12
561.3084045092938
 22
74.19630640824664
 32
0.0
 13
561.3084045092938
 23
74.19630640824664
 33
0.0
  0
MTEXT
  5
804A
330
8042
100
AcDbEntity
  8
WY
 62
     0
100
AcDbMText
 10
563.8084045092938
 20
75.19630640824664
 30
0.0
 40
1.0
 41
0.0
 71
     5
 72
     1
  1
\A1;5
  0
POINT
  5
804B
330
8042
100
AcDbEntity
  8
DEFPOINTS
 62
     0
100
AcDbPoint
 10
566.3084045092938
 20
81.42863510633268
 30
0.0
  0
POINT
  5
804C
330
8042
100
AcDbEntity
  8
DEFPOINTS
 62
     0
100
AcDbPoint
 10
561.3084045092938
 20
81.42863510633268
 30
0.0
  0
POINT
  5
804D
330
8042
100
AcDbEntity
  8
DEFPOINTS
 62
     0
100
AcDbPoint
 10
561.3084045092938
 20
74.19630640824664
 30
0.0
  0
ENDBLK
  5
8044
330
8042
100
AcDbEntity
  8
0
100
AcDbBlockEnd
  0
BLOCK
  5
804F
330
804E
100
AcDbEntity
  8
0
100
AcDbBlockBegin
  2
*D55
 70
     1
 10
0.0
 20
0.0
 30
0.0
  3
*D55
  1
*D55
  0
LINE
  5
8051
330
804E
100
AcDbEntity
  8
WY
 62
     0
100
AcDbLine
 10
566.3084045092938
 20
79.92863510633268
 30
0.0
 11
566.3084045092938
 21
72.69630640824664
 31
0.0
  0
LINE
  5
8052
330
804E
100
AcDbEntity
  8
WY
 62
     0
100
AcDbLine
 10
571.3401519995728
 20
79.92863510633268
 30
0.0
 11
571.3401519995728
 21
72.69630640824664
 31
0.0
  0
LINE
  5
8053
330
804E
100
AcDbEntity
  8
WY
 62
     0
100
AcDbLine
 10
567.8084045092938
 20
74.19630640824664
 30
0.0
 11
569.8401519995728
 21
74.19630640824664
 31
0.0
  0
SOLID
  5
8054
330
804E
100
AcDbEntity
  8
WY
 62
     0
100
AcDbTrace
 10
567.8084045092938
 20
74.44630640824664
 30
0.0
 11
567.8084045092938
 21
73.94630640824664
 31
0.0
 12
566.3084045092938
 22
74.19630640824664
 32
0.0
 13
566.3084045092938
 23
74.19630640824664
 33
0.0
  0
SOLID
  5
8055
330
804E
100
AcDbEntity
  8
WY
 62
     0
100
AcDbTrace
 10
569.8401519995728
 20
73.94630640824664
 30
0.0
 11
569.8401519995728
 21
74.44630640824664
 31
0.0
 12
571.3401519995728
 22
74.19630640824664
 32
0.0
 13
571.3401519995728
 23
74.19630640824664
 33
0.0
  0
MTEXT
  5
8056
330
804E
100
AcDbEntity
  8
WY
 62
     0
100
AcDbMText
 10
568.8242782544332
 20
75.19630640824664
 30
0.0
 40
1.0
 41
0.0
 71
     5
 72
     1
  1
\A1;5
  0
POINT
  5
8057
330
804E
100
AcDbEntity
  8
DEFPOINTS
 62
     0
100
AcDbPoint
 10
566.3084045092938
 20
81.42863510633268
 30
0.0
  0
POINT
  5
8058
330
804E
100
AcDbEntity
  8
DEFPOINTS
 62
     0
100
AcDbPoint
 10
571.3401519995728
 20
81.42863510633268
 30
0.0
  0
POINT
  5
8059
330
804E
100
AcDbEntity
  8
DEFPOINTS
 62
     0
100
AcDbPoint
 10
571.3401519995728
 20
74.19630640824664
 30
0.0
  0
ENDBLK
  5
8050
330
804E
100
AcDbEntity
  8
0
100
AcDbBlockEnd
  0
BLOCK
  5
805B
330
805A
100
AcDbEntity
  8
0
100
AcDbBlockBegin
  2
*D56
 70
     1
 10
0.0
 20
0.0
 30
0.0
  3
*D56
  1
*D56
  0
LINE
  5
805D
330
805A
100
AcDbEntity
  8
WY
 62
     0
100
AcDbLine
 10
590.9084045092937
 20
90.2948879709125
 30
0.0
 11
597.0189240358827
 21
90.2948879709125
 31
0.0
  0
LINE
  5
805E
330
805A
100
AcDbEntity
  8
WY
 62
     0
100
AcDbLine
 10
590.9084045092937
 20
82.7948879709125
 30
0.0
 11
597.0189240358827
 21
82.7948879709125
 31
0.0
  0
LINE
  5
805F
330
805A
100
AcDbEntity
  8
WY
 62
     0
100
AcDbLine
 10
595.5189240358827
 20
88.7948879709125
 30
0.0
 11
595.5189240358827
 21
84.2948879709125
 31
0.0
  0
SOLID
  5
8060
330
805A
100
AcDbEntity
  8
WY
 62
     0
100
AcDbTrace
 10
595.7689240358827
 20
88.7948879709125
 30
0.0
 11
595.2689240358827
 21
88.7948879709125
 31
0.0
 12
595.5189240358827
 22
90.2948879709125
 32
0.0
 13
595.5189240358827
 23
90.2948879709125
 33
0.0
  0
SOLID
  5
8061
330
805A
100
AcDbEntity
  8
WY
 62
     0
100
AcDbTrace
 10
595.2689240358827
 20
84.2948879709125
 30
0.0
 11
595.7689240358827
 21
84.2948879709125
 31
0.0
 12
595.5189240358827
 22
82.7948879709125
 32
0.0
 13
595.5189240358827
 23
82.7948879709125
 33
0.0
  0
MTEXT
  5
8062
330
805A
100
AcDbEntity
  8
WY
 62
     0
100
AcDbMText
 10
594.5189240358827
 20
86.5448879709125
 30
0.0
 40
1.0
 41
0.0
 71
     5
 72
     1
  1
\A1;7.5
 11
0.0
 21
1.0
 31
0.0
  0
POINT
  5
8063
330
805A
100
AcDbEntity
  8
DEFPOINTS
 62
     0
100
AcDbPoint
 10
589.4084045092937
 20
90.2948879709125
 30
0.0
  0
POINT
  5
8064
330
805A
100
AcDbEntity
  8
DEFPOINTS
 62
     0
100
AcDbPoint
 10
589.4084045092937
 20
82.7948879709125
 30
0.0
  0
POINT
  5
8065
330
805A
100
AcDbEntity
  8
DEFPOINTS
 62
     0
100
AcDbPoint
 10
595.5189240358827
 20
82.7948879709125
 30
0.0
  0
ENDBLK
  5
805C
330
805A
100
AcDbEntity
  8
0
100
AcDbBlockEnd
  0
BLOCK
  5
8067
330
8066
100
AcDbEntity
  8
0
100
AcDbBlockBegin
  2
*D57
 70
     1
 10
0.0
 20
0.0
 30
0.0
  3
*D57
  1
*D57
  0
LINE
  5
8069
330
8066
100
AcDbEntity
  8
WY
 62
     0
100
AcDbLine
 10
566.3084045092938
 20
79.92863510633268
 30
0.0
 11
566.3084045092938
 21
72.69630640824664
 31
0.0
  0
LINE
  5
806A
330
8066
100
AcDbEntity
  8
WY
 62
     0
100
AcDbLine
 10
560.1084045092938
 20
78.7948879709125
 30
0.0
 11
560.1084045092938
 21
72.69630640824664
 31
0.0
  0
LINE
  5
806B
330
8066
100
AcDbEntity
  8
WY
 62
     0
100
AcDbLine
 10
560.1084045092938
 20
74.19630640824664
 30
0.0
 11
554.2750711759604
 21
74.19630640824664
 31
0.0
  0
LINE
  5
806C
330
8066
100
AcDbEntity
  8
WY
 62
     0
100
AcDbLine
 10
564.8084045092938
 20
74.19630640824664
 30
0.0
 11
561.6084045092938
 21
74.19630640824664
 31
0.0
  0
SOLID
  5
806D
330
8066
100
AcDbEntity
  8
WY
 62
     0
100
AcDbTrace
 10
564.8084045092938
 20
73.94630640824664
 30
0.0
 11
564.8084045092938
 21
74.44630640824664
 31
0.0
 12
566.3084045092938
 22
74.19630640824664
 32
0.0
 13
566.3084045092938
 23
74.19630640824664
 33
0.0
  0
SOLID
  5
806E
330
8066
100
AcDbEntity
  8
WY
 62
     0
100
AcDbTrace
 10
561.6084045092938
 20
74.44630640824664
 30
0.0
 11
561.6084045092938
 21
73.94630640824664
 31
0.0
 12
560.1084045092938
 22
74.19630640824664
 32
0.0
 13
560.1084045092938
 23
74.19630640824664
 33
0.0
  0
MTEXT
  5
806F
330
8066
100
AcDbEntity
  8
WY
 62
     0
100
AcDbMText
 10
555.7750711759604
 20
75.19630640824664
 30
0.0
 40
1.0
 41
0.0
 71
     5
 72
     1
  1
\A1;6.2
  0
POINT
  5
8070
330
8066
100
AcDbEntity
  8
DEFPOINTS
 62
     0
100
AcDbPoint
 10
566.3084045092938
 20
81.42863510633268
 30
0.0
  0
POINT
  5
8071
330
8066
100
AcDbEntity
  8
DEFPOINTS
 62
     0
100
AcDbPoint
 10
560.1084045092938
 20
80.2948879709125
 30
0.0
  0
POINT
  5
8072
330
8066
100
AcDbEntity
  8
DEFPOINTS
 62
     0
100
AcDbPoint
 10
560.1084045092938
 20
74.19630640824664
 30
0.0
  0
ENDBLK
  5
8068
330
8066
100
AcDbEntity
  8
0
100
AcDbBlockEnd
  0
BLOCK
  5
8076
330
8075
100
AcDbEntity
  8
0
100
AcDbBlockBegin
  2
*D58
 70
     1
 10
0.0
 20
0.0
 30
0.0
  3
*D58
  1
*D58
  0
LINE
  5
8078
330
8075
100
AcDbEntity
  8
WY
 62
     0
100
AcDbLine
 10
558.7321249726346
 20
41.01835956155389
 30
0.0
 11
552.2490852962221
 21
41.01835956155389
 31
0.0
  0
LINE
  5
8079
330
8075
100
AcDbEntity
  8
WY
 62
     0
100
AcDbLine
 10
559.4321249726345
 20
66.61835956155392
 30
0.0
 11
552.2490852962221
 21
66.61835956155392
 31
0.0
  0
LINE
  5
807A
330
8075
100
AcDbEntity
  8
WY
 62
     0
100
AcDbLine
 10
553.7490852962221
 20
42.51835956155389
 30
0.0
 11
553.7490852962221
 21
65.11835956155392
 31
0.0
  0
SOLID
  5
807B
330
8075
100
AcDbEntity
  8
WY
 62
     0
100
AcDbTrace
 10
553.4990852962221
 20
42.51835956155389
 30
0.0
 11
553.9990852962221
 21
42.51835956155389
 31
0.0
 12
553.7490852962221
 22
41.01835956155389
 32
0.0
 13
553.7490852962221
 23
41.01835956155389
 33
0.0
  0
SOLID
  5
807C
330
8075
100
AcDbEntity
  8
WY
 62
     0
100
AcDbTrace
 10
553.9990852962221
 20
65.11835956155392
 30
0.0
 11
553.4990852962221
 21
65.11835956155392
 31
0.0
 12
553.7490852962221
 22
66.61835956155392
 32
0.0
 13
553.7490852962221
 23
66.61835956155392
 33
0.0
  0
MTEXT
  5
807D
330
8075
100
AcDbEntity
  8
WY
 62
     0
100
AcDbMText
 10
552.7490852962221
 20
53.8183595615539
 30
0.0
 40
1.0
 41
0.0
 71
     5
 72
     1
  1
\A1;25.6
 11
0.0
 21
1.0
 31
0.0
  0
POINT
  5
807E
330
8075
100
AcDbEntity
  8
DEFPOINTS
 62
     0
100
AcDbPoint
 10
560.2321249726346
 20
41.01835956155389
 30
0.0
  0
POINT
  5
807F
330
8075
100
AcDbEntity
  8
DEFPOINTS
 62
     0
100
AcDbPoint
 10
560.9321249726345
 20
66.61835956155392
 30
0.0
  0
POINT
  5
8080
330
8075
100
AcDbEntity
  8
DEFPOINTS
 62
     0
100
AcDbPoint
 10
553.7490852962221
 20
66.61835956155392
 30
0.0
  0
ENDBLK
  5
8077
330
8075
100
AcDbEntity
  8
0
100
AcDbBlockEnd
  0
BLOCK
  5
8082
330
8081
100
AcDbEntity
  8
0
100
AcDbBlockBegin
  2
*D59
 70
     1
 10
0.0
 20
0.0
 30
0.0
  3
*D59
  1
*D59
  0
LINE
  5
8084
330
8081
100
AcDbEntity
  8
WY
 62
     0
100
AcDbLine
 10
558.7321249726346
 20
41.01835956155389
 30
0.0
 11
552.2490852962221
 21
41.01835956155389
 31
0.0
  0
LINE
  5
8085
330
8081
100
AcDbEntity
  8
WY
 62
     0
100
AcDbLine
 10
564.7641550950531
 20
37.41783546624244
 30
0.0
 11
552.2490852962221
 21
37.41783546624244
 31
0.0
  0
LINE
  5
8086
330
8081
100
AcDbEntity
  8
WY
 62
     0
100
AcDbLine
 10
553.7490852962221
 20
41.01835956155389
 30
0.0
 11
553.7490852962221
 21
37.41783546624244
 31
0.0
  0
LINE
  5
8087
330
8081
100
AcDbEntity
  8
WY
 62
     0
100
AcDbLine
 10
553.7490852962221
 20
42.51835956155389
 30
0.0
 11
553.7490852962221
 21
44.01835956155389
 31
0.0
  0
LINE
  5
8088
330
8081
100
AcDbEntity
  8
WY
 62
     0
100
AcDbLine
 10
553.7490852962221
 20
35.91783546624244
 30
0.0
 11
553.7490852962221
 21
34.41783546624244
 31
0.0
  0
SOLID
  5
8089
330
8081
100
AcDbEntity
  8
WY
 62
     0
100
AcDbTrace
 10
553.4990852962221
 20
42.51835956155389
 30
0.0
 11
553.9990852962221
 21
42.51835956155389
 31
0.0
 12
553.7490852962221
 22
41.01835956155389
 32
0.0
 13
553.7490852962221
 23
41.01835956155389
 33
0.0
  0
SOLID
  5
808A
330
8081
100
AcDbEntity
  8
WY
 62
     0
100
AcDbTrace
 10
553.9990852962221
 20
35.91783546624244
 30
0.0
 11
553.4990852962221
 21
35.91783546624244
 31
0.0
 12
553.7490852962221
 22
37.41783546624244
 32
0.0
 13
553.7490852962221
 23
37.41783546624244
 33
0.0
  0
MTEXT
  5
808B
330
8081
100
AcDbEntity
  8
WY
 62
     0
100
AcDbMText
 10
552.7490852962221
 20
39.21809751389817
 30
0.0
 40
1.0
 41
0.0
 71
     5
 72
     1
  1
\A1;3.6
 11
0.0
 21
1.0
 31
0.0
  0
POINT
  5
808C
330
8081
100
AcDbEntity
  8
DEFPOINTS
 62
     0
100
AcDbPoint
 10
560.2321249726346
 20
41.01835956155389
 30
0.0
  0
POINT
  5
808D
330
8081
100
AcDbEntity
  8
DEFPOINTS
 62
     0
100
AcDbPoint
 10
566.2641550950531
 20
37.41783546624244
 30
0.0
  0
POINT
  5
808E
330
8081
100
AcDbEntity
  8
DEFPOINTS
 62
     0
100
AcDbPoint
 10
553.7490852962221
 20
37.41783546624244
 30
0.0
  0
ENDBLK
  5
8083
330
8081
100
AcDbEntity
  8
0
100
AcDbBlockEnd
  0
BLOCK
  5
8090
330
808F
100
AcDbEntity
  8
0
100
AcDbBlockBegin
  2
*D60
 70
     1
 10
0.0
 20
0.0
 30
0.0
  3
*D60
  1
*D60
  0
LINE
  5
8092
330
808F
100
AcDbEntity
  8
WY
 62
     0
100
AcDbLine
 10
613.3915987978178
 20
39.51835956155389
 30
0.0
 11
613.3915987978178
 21
26.93513378224478
 31
0.0
  0
LINE
  5
8093
330
808F
100
AcDbEntity
  8
WY
 62
     0
100
AcDbLine
 10
625.8915987978178
 20
39.51835956155389
 30
0.0
 11
625.8915987978178
 21
26.93513378224478
 31
0.0
  0
LINE
  5
8094
330
808F
100
AcDbEntity
  8
WY
 62
     0
100
AcDbLine
 10
614.8915987978178
 20
28.43513378224478
 30
0.0
 11
624.3915987978178
 21
28.43513378224478
 31
0.0
  0
SOLID
  5
8095
330
808F
100
AcDbEntity
  8
WY
 62
     0
100
AcDbTrace
 10
614.8915987978178
 20
28.68513378224478
 30
0.0
 11
614.8915987978178
 21
28.18513378224478
 31
0.0
 12
613.3915987978178
 22
28.43513378224478
 32
0.0
 13
613.3915987978178
 23
28.43513378224478
 33
0.0
  0
SOLID
  5
8096
330
808F
100
AcDbEntity
  8
WY
 62
     0
100
AcDbTrace
 10
624.3915987978178
 20
28.18513378224478
 30
0.0
 11
624.3915987978178
 21
28.68513378224478
 31
0.0
 12
625.8915987978178
 22
28.43513378224478
 32
0.0
 13
625.8915987978178
 23
28.43513378224478
 33
0.0
  0
MTEXT
  5
8097
330
808F
100
AcDbEntity
  8
WY
 62
     0
100
AcDbMText
 10
619.6415987978178
 20
29.43513378224478
 30
0.0
 40
1.0
 41
0.0
 71
     5
 72
     1
  1
\A1;12.5
  0
POINT
  5
8098
330
808F
100
AcDbEntity
  8
DEFPOINTS
 62
     0
100
AcDbPoint
 10
613.3915987978178
 20
41.01835956155389
 30
0.0
  0
POINT
  5
8099
330
808F
100
AcDbEntity
  8
DEFPOINTS
 62
     0
100
AcDbPoint
 10
625.8915987978178
 20
41.01835956155389
 30
0.0
  0
POINT
  5
809A
330
808F
100
AcDbEntity
  8
DEFPOINTS
 62
     0
100
AcDbPoint
 10
625.8915987978178
 20
28.43513378224478
 30
0.0
  0
ENDBLK
  5
8091
330
808F
100
AcDbEntity
  8
0
100
AcDbBlockEnd
  0
BLOCK
  5
809C
330
809B
100
AcDbEntity
  8
0
100
AcDbBlockBegin
  2
*D61
 70
     1
 10
0.0
 20
0.0
 30
0.0
  3
*D61
  1
*D61
  0
LINE
  5
809E
330
809B
100
AcDbEntity
  8
WY
 62
     0
100
AcDbLine
 10
615.5765403200755
 20
35.91835956155384
 30
0.0
 11
615.5765403200755
 21
30.79297218820435
 31
0.0
  0
LINE
  5
809F
330
809B
100
AcDbEntity
  8
WY
 62
     0
100
AcDbLine
 10
616.6765403200754
 20
35.91835956155384
 30
0.0
 11
616.6765403200754
 21
30.79297218820435
 31
0.0
  0
LINE
  5
80A0
330
809B
100
AcDbEntity
  8
WY
 62
     0
100
AcDbLine
 10
616.6765403200754
 20
32.29297218820435
 30
0.0
 11
622.0098736534087
 21
32.29297218820435
 31
0.0
  0
LINE
  5
80A1
330
809B
100
AcDbEntity
  8
WY
 62
     0
100
AcDbLine
 10
615.5765403200755
 20
32.29297218820435
 30
0.0
 11
616.6765403200754
 21
32.29297218820435
 31
0.0
  0
LINE
  5
80A2
330
809B
100
AcDbEntity
  8
WY
 62
     0
100
AcDbLine
 10
614.0765403200755
 20
32.29297218820435
 30
0.0
 11
612.5765403200755
 21
32.29297218820435
 31
0.0
  0
LINE
  5
80A3
330
809B
100
AcDbEntity
  8
WY
 62
     0
100
AcDbLine
 10
618.1765403200754
 20
32.29297218820435
 30
0.0
 11
619.6765403200754
 21
32.29297218820435
 31
0.0
  0
SOLID
  5
80A4
330
809B
100
AcDbEntity
  8
WY
 62
     0
100
AcDbTrace
 10
614.0765403200755
 20
32.04297218820435
 30
0.0
 11
614.0765403200755
 21
32.54297218820435
 31
0.0
 12
615.5765403200755
 22
32.29297218820435
 32
0.0
 13
615.5765403200755
 23
32.29297218820435
 33
0.0
  0
SOLID
  5
80A5
330
809B
100
AcDbEntity
  8
WY
 62
     0
100
AcDbTrace
 10
618.1765403200754
 20
32.54297218820435
 30
0.0
 11
618.1765403200754
 21
32.04297218820435
 31
0.0
 12
616.6765403200754
 22
32.29297218820435
 32
0.0
 13
616.6765403200754
 23
32.29297218820435
 33
0.0
  0
MTEXT
  5
80A6
330
809B
100
AcDbEntity
  8
WY
 62
     0
100
AcDbMText
 10
620.8432069867421
 20
33.29297218820435
 30
0.0
 40
1.0
 41
0.0
 71
     5
 72
     1
  1
\A1;1.1
  0
POINT
  5
80A7
330
809B
100
AcDbEntity
  8
DEFPOINTS
 62
     0
100
AcDbPoint
 10
615.5765403200755
 20
37.41835956155384
 30
0.0
  0
POINT
  5
80A8
330
809B
100
AcDbEntity
  8
DEFPOINTS
 62
     0
100
AcDbPoint
 10
616.6765403200754
 20
37.41835956155384
 30
0.0
  0
POINT
  5
80A9
330
809B
100
AcDbEntity
  8
DEFPOINTS
 62
     0
100
AcDbPoint
 10
616.6765403200754
 20
32.29297218820435
 30
0.0
  0
ENDBLK
  5
809D
330
809B
100
AcDbEntity
  8
0
100
AcDbBlockEnd
  0
ENDSEC
  0
SECTION
  2
ENTITIES
  0
LINE
  5
2D2D
330
18
100
AcDbEntity
  8
WYMIARY
 62
     6
100
AcDbLine
 10
486.041244
 20
0.0
 30
0.0
 11
486.041244
 21
297.0
 31
0.0
  0
LINE
  5
2D2E
330
18
100
AcDbEntity
  8
WYMIARY
 62
     6
100
AcDbLine
 10
497.671651
 20
292.0
 30
0.0
 11
497.671651
 21
5.0
 31
0.0
  0
LINE
  5
2D34
330
18
100
AcDbEntity
  8
2
100
AcDbLine
 10
682.671651
 20
5.0
 30
0.0
 11
682.671651
 21
292.0
 31
0.0
  0
LINE
  5
2D35
330
18
100
AcDbEntity
  8
2
100
AcDbLine
 10
687.671651
 20
0.0
 30
0.0
 11
687.671651
 21
297.0
 31
0.0
  0
LINE
  5
2D36
330
18
100
AcDbEntity
  8
WY
  6
CONTINUOUS
 62
     3
100
AcDbLine
 10
682.671651
 20
19.689837
 30
0.0
 11
497.671651
 21
19.689837
 31
0.0
  0
LINE
  5
2D38
330
18
100
AcDbEntity
  8
2
100
AcDbLine
 10
497.671651
 20
5.0
 30
0.0
 11
682.671651
 21
5.0
 31
0.0
  0
LINE
  5
2D39
330
18
100
AcDbEntity
  8
2
 62
     6
100
AcDbLine
 10
497.671651
 20
0.0
 30
0.0
 11
687.671651
 21
0.0
 31
0.0
  0
LINE
  5
2D3A
330
18
100
AcDbEntity
  8
0
100
AcDbLine
 10
529.697667
 20
11.742481
 30
0.0
 11
528.795256
 21
11.742481
 31
0.0
  0
ELLIPSE
  5
2D3B
330
18
100
AcDbEntity
  8
0
100
AcDbEllipse
 10
529.697667
 20
11.742481
 30
0.0
 11
-1.203215696869327
 21
1.967000000000000E-13
 31
0.0
210
0.0
220
0.0
230
1.0
 40
0.958812
 41
-1.570796326794739
 42
0.0000000000001705
  0
TEXT
  5
2D3D
330
18
100
AcDbEntity
  8
1
100
AcDbText
 10
515.607578
 20
8.797457
 30
0.0
 40
5.0
  1
A4
 51
15.0
  7
ITALIC
100
AcDbText
  0
LINE
  5
2D40
330
18
100
AcDbEntity
  8
WYMIARY
 62
     6
100
AcDbLine
 10
497.671651
 20
0.0
 30
0.0
 11
486.041244
 21
0.0
 31
0.0
  0
TEXT
  5
2D42
330
18
100
AcDbEntity
  8
WY
100
AcDbText
 10
502.936765
 20
16.373844
 30
0.0
 40
2.0
  1
Skala
 51
15.0
  7
ITALIC
100
AcDbText
  0
TEXT
  5
2D43
330
18
100
AcDbEntity
  8
WY
100
AcDbText
 10
515.042219
 20
16.329369
 30
0.0
 40
2.0
  1
Format
 51
15.0
  7
ITALIC
100
AcDbText
  0
LINE
  5
2D44
330
18
100
AcDbEntity
  8
0
100
AcDbLine
 10
528.494452
 20
11.742481
 30
0.0
 11
528.795256
 21
11.742481
 31
0.0
  0
LINE
  5
2D45
330
18
100
AcDbEntity
  8
0
100
AcDbLine
 10
559.88722
 20
17.211264
 30
0.0
 11
559.88722
 21
9.015264
 31
0.0
  0
LINE
  5
2D46
330
18
100
AcDbEntity
  8
0
100
AcDbLine
 10
550.89322
 20
9.438264
 30
0.0
 11
550.89322
 21
7.416264
 31
0.0
  0
ARC
  5
2D47
330
18
100
AcDbEntity
  8
0
100
AcDbCircle
 10
551.5428
 20
9.724764
 30
0.0
 40
0.709955
100
AcDbArc
 50
203.80008
 51
272.051918
  0
LINE
  5
2D48
330
18
100
AcDbEntity
  8
0
100
AcDbLine
 10
549.34822
 20
7.416264
 30
0.0
 11
549.34822
 21
15.612264
 31
0.0
  0
ARC
  5
2D49
330
18
100
AcDbEntity
  8
0
100
AcDbCircle
 10
551.982126
 20
10.136416
 30
0.0
 40
1.128907
100
AcDbArc
 50
276.719576
 51
2.175194
  0
ARC
  5
2D4A
330
18
100
AcDbEntity
  8
0
100
AcDbCircle
 10
555.243059
 20
10.503572
 30
0.0
 40
1.488419
100
AcDbArc
 50
191.634268
 51
270.699113
  0
ARC
  5
2D4B
330
18
100
AcDbEntity
  8
0
100
AcDbCircle
 10
556.209381
 20
10.503572
 30
0.0
 40
1.488419
100
AcDbArc
 50
269.300887
 51
348.365732
  0
LINE
  5
2D4C
330
18
100
AcDbEntity
  8
0
100
AcDbLine
 10
558.34222
 20
9.015264
 30
0.0
 11
558.34222
 21
17.211264
 31
0.0
  0
ARC
  5
2D4D
330
18
100
AcDbEntity
  8
0
100
AcDbCircle
 10
545.056591
 20
10.472364
 30
0.0
 40
1.425319
100
AcDbArc
 50
269.703671
 51
350.465171
  0
ARC
  5
2D4E
330
18
100
AcDbEntity
  8
0
100
AcDbCircle
 10
544.201848
 20
10.472364
 30
0.0
 40
1.425319
100
AcDbArc
 50
189.534829
 51
270.2963290000001
  0
LINE
  5
2D4F
330
18
100
AcDbEntity
  8
0
100
AcDbLine
 10
547.14922
 20
9.015264
 30
0.0
 11
547.14922
 21
17.211264
 31
0.0
  0
LINE
  5
2D50
330
18
100
AcDbEntity
  8
0
100
AcDbLine
 10
548.69422
 20
17.211264
 30
0.0
 11
548.69422
 21
9.015264
 31
0.0
  0
LINE
  5
2D51
330
18
100
AcDbEntity
  8
0
100
AcDbLine
 10
539.892236
 20
14.361264
 30
0.0
 11
539.903809
 21
9.015264
 31
0.0
  0
LINE
  5
2D52
330
18
100
AcDbEntity
  8
0
100
AcDbLine
 10
538.361694
 20
9.015264
 30
0.0
 11
538.361694
 21
15.60367
 31
0.0
  0
LINE
  5
2D53
330
18
100
AcDbEntity
  8
0
100
AcDbLine
 10
529.697667
 20
9.895061
 30
0.0
 11
529.697667
 21
8.185369
 31
0.0
  0
LINE
  5
2D54
330
18
100
AcDbEntity
  8
0
100
AcDbLine
 10
535.613478
 20
8.185369
 30
0.0
 11
535.613478
 21
11.742481
 31
0.0
  0
LINE
  5
2D55
330
18
100
AcDbEntity
  8
1
100
AcDbLine
 10
563.469863
 20
5.0
 30
0.0
 11
563.469863
 21
19.689837
 31
0.0
  0
LINE
  5
2D56
330
18
100
AcDbEntity
  8
0
100
AcDbLine
 10
530.499811
 20
7.416263
 30
0.0
 11
534.811334
 21
7.416263
 31
0.0
  0
ELLIPSE
  5
2D57
330
18
100
AcDbEntity
  8
0
100
AcDbEllipse
 10
530.499811
 20
8.185369
 30
0.0
 11
-0.8021437979128705
 21
1.540000000000000E-14
 31
0.0
210
0.0
220
0.0
230
1.0
 40
0.958812
 41
0.00000000000002
 42
1.570796326794914
  0
ELLIPSE
  5
2D58
330
18
100
AcDbEntity
  8
0
100
AcDbEllipse
 10
534.811334
 20
8.185369
 30
0.0
 11
0.8021437979128704
 21
1.602000000000000E-13
 31
0.0
210
0.0
220
0.0
230
1.0
 40
0.958812
 41
4.712388980384497
 42
6.283185307179378
  0
LINE
  5
2D59
330
18
100
AcDbEntity
  8
0
100
AcDbLine
 10
539.892236
 20
9.015264
 30
0.0
 11
539.903809
 21
9.022759
 31
0.0
  0
LINE
  5
2D5A
330
18
100
AcDbEntity
  8
0
100
AcDbLine
 10
538.361694
 20
9.015264
 30
0.0
 11
539.903809
 21
9.015264
 31
0.0
  0
LINE
  5
2D5B
330
18
100
AcDbEntity
  8
0
100
AcDbLine
 10
544.194477
 20
9.047064
 30
0.0
 11
545.04922
 21
9.047064
 31
0.0
  0
LINE
  5
2D5C
330
18
100
AcDbEntity
  8
0
100
AcDbLine
 10
550.89322
 20
7.416264
 30
0.0
 11
549.34822
 21
7.416264
 31
0.0
  0
LINE
  5
2D5D
330
18
100
AcDbEntity
  8
0
100
AcDbLine
 10
548.69422
 20
9.015264
 30
0.0
 11
547.14922
 21
9.015264
 31
0.0
  0
LINE
  5
2D5E
330
18
100
AcDbEntity
  8
0
100
AcDbLine
 10
551.576266
 20
9.015264
 30
0.0
 11
552.11422
 21
9.015264
 31
0.0
  0
LINE
  5
2D5F
330
18
100
AcDbEntity
  8
0
100
AcDbLine
 10
555.26122
 20
9.015264
 30
0.0
 11
556.19122
 21
9.015264
 31
0.0
  0
LINE
  5
2D60
330
18
100
AcDbEntity
  8
0
100
AcDbLine
 10
559.88722
 20
9.015264
 30
0.0
 11
558.34222
 21
9.015264
 31
0.0
  0
ARC
  5
2D61
330
18
100
AcDbEntity
  8
0
100
AcDbCircle
 10
545.056591
 20
14.17837
 30
0.0
 40
1.425319
100
AcDbArc
 50
9.534829000000002
 51
90.296329
  0
LINE
  5
2D62
330
18
100
AcDbEntity
  8
0
100
AcDbLine
 10
546.46222
 20
11.81167
 30
0.0
 11
544.33822
 21
11.81167
 31
0.0
  0
LINE
  5
2D63
330
18
100
AcDbEntity
  8
0
100
AcDbLine
 10
545.01322
 20
11.13667
 30
0.0
 11
546.46222
 21
11.13667
 31
0.0
  0
LINE
  5
2D64
330
18
100
AcDbEntity
  8
0
100
AcDbLine
 10
529.697667
 20
13.461283
 30
0.0
 11
529.697667
 21
16.260974
 31
0.0
  0
ELLIPSE
  5
2D65
330
18
100
AcDbEntity
  8
0
100
AcDbEllipse
 10
532.630506
 20
15.17942
 30
0.0
 11
2.983077570132104
 21
2.996000000000000E-13
 31
0.0
210
0.0
220
0.0
230
1.0
 40
0.9588119999999999
 41
-1.562393163247347
 42
0.0084031635475457
  0
ELLIPSE
  5
2D66
330
18
100
AcDbEntity
  8
0
100
AcDbEllipse
 10
532.58733
 20
15.509539
 30
0.0
 11
-4.072692107280919
 21
9.250000000000000E-14
 31
0.0
210
0.0
220
0.0
230
1.0
 40
0.958812
 41
1.587553347046634
 42
2.408388587343224
  0
LINE
  5
2D67
330
18
100
AcDbEntity
  8
0
100
AcDbLine
 10
529.697667
 20
11.742481
 30
0.0
 11
529.697667
 21
11.034514
 31
0.0
  0
LINE
  5
2D68
330
18
100
AcDbEntity
  8
0
100
AcDbLine
 10
529.697667
 20
13.461283
 30
0.0
 11
529.697667
 21
12.896138
 31
0.0
  0
ELLIPSE
  5
2D69
330
18
100
AcDbEntity
  8
0
100
AcDbEllipse
 10
532.249598
 20
9.872487
 30
0.0
 11
2.960559210508897
 21
0.3570763225581005
 31
0.0
210
0.0
220
0.0
230
1.0
 40
0.820999
 41
1.335209029023201
 42
2.503032872947537
  0
ELLIPSE
  5
2D6A
330
18
100
AcDbEntity
  8
0
100
AcDbEllipse
 10
532.480104
 20
8.937306
 30
0.0
 11
3.015746449176212
 21
0.7746519372140013
 31
0.0
210
0.0
220
0.0
230
1.0
 40
0.846775
 41
1.29973646820557
 42
2.479974117225238
  0
LINE
  5
2D6B
330
18
100
AcDbEntity
  8
0
100
AcDbLine
 10
536.816694
 20
12.896138
 30
0.0
 11
536.51589
 21
12.896138
 31
0.0
  0
LINE
  5
2D6C
330
18
100
AcDbEntity
  8
0
100
AcDbLine
 10
535.613478
 20
12.896138
 30
0.0
 11
536.51589
 21
12.896138
 31
0.0
  0
ELLIPSE
  5
2D6D
330
18
100
AcDbEntity
  8
0
100
AcDbEllipse
 10
535.613478
 20
12.896138
 30
0.0
 11
1.203215696869352
 21
8.930000000000000E-14
 31
0.0
210
0.0
220
0.0
230
1.0
 40
0.9588119999999999
 41
4.712388980384611
 42
6.283185307179508
  0
LINE
  5
2D6E
330
18
100
AcDbEntity
  8
0
100
AcDbLine
 10
530.499811
 20
17.030079
 30
0.0
 11
534.811334
 21
17.030079
 31
0.0
  0
ELLIPSE
  5
2D6F
330
18
100
AcDbEntity
  8
0
100
AcDbEllipse
 10
530.499811
 20
16.260974
 30
0.0
 11
0.8021437979128704
 21
3.800000000000000E-14
 31
0.0
210
0.0
220
0.0
230
1.0
 40
0.958812
 41
1.570796326794851
 42
3.141592653589743
  0
LINE
  5
2D70
330
18
100
AcDbEntity
  8
0
100
AcDbLine
 10
535.613478
 20
15.155385
 30
0.0
 11
535.613478
 21
16.260974
 31
0.0
  0
ELLIPSE
  5
2D71
330
18
100
AcDbEntity
  8
0
100
AcDbEllipse
 10
534.811334
 20
16.260974
 30
0.0
 11
-0.8021437979128705
 21
3.800000000000000E-14
 31
0.0
210
0.0
220
0.0
230
1.0
 40
0.958812
 41
3.141592653589842
 42
4.712388980384734
  0
ARC
  5
2D72
330
18
100
AcDbEntity
  8
0
100
AcDbCircle
 10
540.798894
 20
14.34127
 30
0.0
 40
1.377457
100
AcDbArc
 50
16.265061
 51
130.527299
  0
ARC
  5
2D73
330
18
100
AcDbEntity
  8
0
100
AcDbCircle
 10
544.201848
 20
14.17837
 30
0.0
 40
1.425319
100
AcDbArc
 50
89.703671
 51
170.465171
  0
LINE
  5
2D74
330
18
100
AcDbEntity
  8
0
100
AcDbLine
 10
540.911147
 20
12.93607
 30
0.0
 11
542.12122
 21
12.93607
 31
0.0
  0
LINE
  5
2D75
330
18
100
AcDbEntity
  8
0
100
AcDbLine
 10
540.578809
 20
12.93607
 30
0.0
 11
542.12122
 21
12.93607
 31
0.0
  0
ARC
  5
2D76
330
18
100
AcDbEntity
  8
0
100
AcDbCircle
 10
540.229736
 20
14.361264
 30
0.0
 40
0.3375
100
AcDbArc
 50
360.0
 51
180.0
  0
LINE
  5
2D77
330
18
100
AcDbEntity
  8
0
100
AcDbLine
 10
540.567236
 20
14.361264
 30
0.0
 11
540.578809
 21
12.93607
 31
0.0
  0
ARC
  5
2D78
330
18
100
AcDbEntity
  8
0
100
AcDbCircle
 10
544.67572
 20
14.361264
 30
0.0
 40
0.3375
100
AcDbArc
 50
360.0
 51
180.0
  0
LINE
  5
2D79
330
18
100
AcDbEntity
  8
0
100
AcDbLine
 10
544.33822
 20
11.81167
 30
0.0
 11
544.33822
 21
10.236264
 31
0.0
  0
LINE
  5
2D7A
330
18
100
AcDbEntity
  8
0
100
AcDbLine
 10
544.33822
 20
12.71167
 30
0.0
 11
545.01322
 21
12.71167
 31
0.0
  0
LINE
  5
2D7B
330
18
100
AcDbEntity
  8
0
100
AcDbLine
 10
545.01322
 20
11.13667
 30
0.0
 11
545.01322
 21
10.252764
 31
0.0
  0
LINE
  5
2D7C
330
18
100
AcDbEntity
  8
0
100
AcDbLine
 10
544.33822
 20
11.81167
 30
0.0
 11
544.33822
 21
10.252764
 31
0.0
  0
ARC
  5
2D7D
330
18
100
AcDbEntity
  8
0
100
AcDbCircle
 10
544.67572
 20
10.252764
 30
0.0
 40
0.3375
100
AcDbArc
 50
180.0
 51
0.0
  0
LINE
  5
2D7E
330
18
100
AcDbEntity
  8
0
100
AcDbLine
 10
545.01322
 20
14.361264
 30
0.0
 11
545.01322
 21
12.71167
 31
0.0
  0
LINE
  5
2D7F
330
18
100
AcDbEntity
  8
0
100
AcDbLine
 10
544.33822
 20
14.361264
 30
0.0
 11
544.33822
 21
12.71167
 31
0.0
  0
LINE
  5
2D80
330
18
100
AcDbEntity
  8
0
100
AcDbLine
 10
542.12122
 20
12.93607
 30
0.0
 11
542.12122
 21
14.72707
 31
0.0
  0
LINE
  5
2D81
330
18
100
AcDbEntity
  8
0
100
AcDbLine
 10
542.79622
 20
10.236264
 30
0.0
 11
542.79622
 21
14.41447
 31
0.0
  0
LINE
  5
2D82
330
18
100
AcDbEntity
  8
0
100
AcDbLine
 10
539.903809
 20
15.60367
 30
0.0
 11
539.903809
 21
15.38827
 31
0.0
  0
LINE
  5
2D83
330
18
100
AcDbEntity
  8
0
100
AcDbLine
 10
538.361694
 20
15.60367
 30
0.0
 11
539.903809
 21
15.60367
 31
0.0
  0
LINE
  5
2D84
330
18
100
AcDbEntity
  8
0
100
AcDbLine
 10
544.194477
 20
15.60367
 30
0.0
 11
545.04922
 21
15.60367
 31
0.0
  0
ARC
  5
2D85
330
18
100
AcDbEntity
  8
0
100
AcDbCircle
 10
555.243059
 20
14.124104
 30
0.0
 40
1.488419
100
AcDbArc
 50
89.300887
 51
168.365732
  0
ARC
  5
2D86
330
18
100
AcDbEntity
  8
0
100
AcDbCircle
 10
551.752247
 20
14.207365
 30
0.0
 40
1.409039
100
AcDbArc
 50
15.47255
 51
127.56454
  0
LINE
  5
2D87
330
18
100
AcDbEntity
  8
0
100
AcDbLine
 10
546.46222
 20
11.13667
 30
0.0
 11
546.46222
 21
10.236264
 31
0.0
  0
LINE
  5
2D88
330
18
100
AcDbEntity
  8
0
100
AcDbLine
 10
546.46222
 20
11.81167
 30
0.0
 11
546.46222
 21
14.41447
 31
0.0
  0
LINE
  5
2D89
330
18
100
AcDbEntity
  8
0
100
AcDbLine
 10
553.11022
 20
14.583264
 30
0.0
 11
553.11022
 21
10.179264
 31
0.0
  0
LINE
  5
2D8A
330
18
100
AcDbEntity
  8
0
100
AcDbLine
 10
551.56822
 20
14.361264
 30
0.0
 11
551.56822
 21
10.252764
 31
0.0
  0
LINE
  5
2D8B
330
18
100
AcDbEntity
  8
0
100
AcDbLine
 10
550.89322
 20
14.361264
 30
0.0
 11
550.89322
 21
10.252764
 31
0.0
  0
ARC
  5
2D8C
330
18
100
AcDbEntity
  8
0
100
AcDbCircle
 10
551.23072
 20
10.252764
 30
0.0
 40
0.3375
100
AcDbArc
 50
180.0
 51
0.0
  0
ARC
  5
2D8D
330
18
100
AcDbEntity
  8
0
100
AcDbCircle
 10
551.23072
 20
14.361264
 30
0.0
 40
0.3375
100
AcDbArc
 50
360.0
 51
180.0
  0
LINE
  5
2D8E
330
18
100
AcDbEntity
  8
0
100
AcDbLine
 10
549.34822
 20
15.612264
 30
0.0
 11
550.89322
 21
15.612264
 31
0.0
  0
LINE
  5
2D8F
330
18
100
AcDbEntity
  8
0
100
AcDbLine
 10
547.14922
 20
17.211264
 30
0.0
 11
548.69422
 21
17.211264
 31
0.0
  0
LINE
  5
2D90
330
18
100
AcDbEntity
  8
0
100
AcDbLine
 10
550.89322
 20
15.612264
 30
0.0
 11
550.89322
 21
15.324264
 31
0.0
  0
ARC
  5
2D91
330
18
100
AcDbEntity
  8
0
100
AcDbCircle
 10
556.209381
 20
14.124104
 30
0.0
 40
1.488419
100
AcDbArc
 50
11.634268
 51
90.699113
  0
LINE
  5
2D92
330
18
100
AcDbEntity
  8
0
100
AcDbLine
 10
557.66722
 20
14.424264
 30
0.0
 11
557.66722
 21
10.203412
 31
0.0
  0
ARC
  5
2D93
330
18
100
AcDbEntity
  8
0
100
AcDbCircle
 10
555.72622
 20
14.361264
 30
0.0
 40
0.3375
100
AcDbArc
 50
360.0
 51
180.0
  0
ARC
  5
2D94
330
18
100
AcDbEntity
  8
0
100
AcDbCircle
 10
555.72622
 20
10.252764
 30
0.0
 40
0.3375
100
AcDbArc
 50
180.0
 51
0.0
  0
LINE
  5
2D95
330
18
100
AcDbEntity
  8
0
100
AcDbLine
 10
555.38872
 20
14.361264
 30
0.0
 11
555.38872
 21
10.252764
 31
0.0
  0
LINE
  5
2D96
330
18
100
AcDbEntity
  8
0
100
AcDbLine
 10
556.06372
 20
14.361264
 30
0.0
 11
556.06372
 21
10.252764
 31
0.0
  0
LINE
  5
2D97
330
18
100
AcDbEntity
  8
0
100
AcDbLine
 10
553.78522
 20
10.203412
 30
0.0
 11
553.78522
 21
14.424264
 31
0.0
  0
LINE
  5
2D98
330
18
100
AcDbEntity
  8
0
100
AcDbLine
 10
555.26122
 20
15.612412
 30
0.0
 11
556.19122
 21
15.612412
 31
0.0
  0
LINE
  5
2D99
330
18
100
AcDbEntity
  8
0
100
AcDbLine
 10
558.34222
 20
17.211264
 30
0.0
 11
559.88722
 21
17.211264
 31
0.0
  0
TEXT
  5
2D9A
330
18
100
AcDbEntity
  8
WY
100
AcDbText
 10
564.417407
 20
11.60401
 30
0.0
 40
2.0
  1
13-05-2016
 41
1.0
 51
15.0
  7
ITALIC
100
AcDbText
  0
TEXT
  5
2D9B
330
18
100
AcDbEntity
  8
WY
100
AcDbText
 10
568.848776
 20
16.149239
 30
0.0
 40
2.0
  1
Data
 51
15.0
  7
ITALIC
100
AcDbText
  0
TEXT
  5
2D9D
330
18
100
AcDbEntity
  8
1
100
AcDbText
 10
637.422754
 20
9.064009
 30
0.0
 40
5.0
  1
RM83
 41
0.8
 51
15.0
  7
ITALIC
100
AcDbText
  0
LINE
  5
2D9E
330
18
100
AcDbEntity
  8
1
100
AcDbLine
 10
627.394234
 20
5.0
 30
0.0
 11
627.394234
 21
19.689837
 31
0.0
  0
TEXT
  5
2D9F
330
18
100
AcDbEntity
  8
WY
100
AcDbText
 10
629.585432
 20
16.599248
 30
0.0
 40
2.0
  1
Product type
 51
15.0
  7
ITALIC
100
AcDbText
  0
LINE
  5
2DF2
330
18
100
AcDbEntity
  8
2
100
AcDbLine
 10
682.671651
 20
292.0
 30
0.0
 11
497.671651
 21
292.0
 31
0.0
  0
LINE
  5
2DF3
330
18
100
AcDbEntity
  8
2
100
AcDbLine
 10
687.671651
 20
297.0
 30
0.0
 11
497.671651
 21
297.0
 31
0.0
  0
LINE
  5
2E74
330
18
100
AcDbEntity
  8
WYMIARY
 62
     6
100
AcDbLine
 10
497.671651
 20
297.0
 30
0.0
 11
486.041244
 21
297.0
 31
0.0
  0
MTEXT
  5
31F2
330
18
100
AcDbEntity
  8
WYMIARY
100
AcDbMText
 10
780.543201
 20
224.476865
 30
0.0
 40
3.5
 41
15.6
 71
     1
 72
     5
  1

  7
ITALIC
  0
TEXT
  5
478E
330
18
100
AcDbEntity
  8
1
100
AcDbText
 10
500.301985
 20
8.797457
 30
0.0
 40
5.0
  1
1:1
 51
15.0
  7
ITALIC
100
AcDbText
  0
LINE
  5
482F
330
18
100
AcDbEntity
  8
WYMIARY
 62
     6
100
AcDbLine
 10
687.671651
 20
0.0
 30
0.0
 11
687.671651
 21
297.0
 31
0.0
  0
LINE
  5
4AD7
330
18
100
AcDbEntity
  8
WYMIARY
 62
     3
100
AcDbLine
 10
512.671651
 20
19.689837
 30
0.0
 11
512.671651
 21
5.0
 31
0.0
  0
LINE
  5
4AD9
330
18
100
AcDbEntity
  8
WYMIARY
 62
     3
100
AcDbLine
 10
527.671651
 20
19.689837
 30
0.0
 11
527.671651
 21
5.0
 31
0.0
  0
LINE
  5
4ADA
330
18
100
AcDbEntity
  8
WYMIARY
 62
     3
100
AcDbLine
 10
586.373187
 20
19.689837
 30
0.0
 11
586.373187
 21
5.0
 31
0.0
  0
TEXT
  5
4ADB
330
18
100
AcDbEntity
  8
WY
100
AcDbText
 10
587.562196
 20
16.599248
 30
0.0
 40
2.0
  1
Draw. No.
 51
15.0
  7
ITALIC
100
AcDbText
  0
TEXT
  5
4ADF
330
18
100
AcDbEntity
  8
1
100
AcDbText
 10
591.935141
 20
9.064009
 30
0.0
 40
4.0
  1
RM83-01A
 41
0.7
 51
15.0
  7
ITALIC
100
AcDbText
  0
LINE
  5
4AE9
330
18
100
AcDbEntity
  8
WYMIARY
 62
     6
100
AcDbLine
 10
687.671651
 20
0.0
 30
0.0
 11
687.671651
 21
297.0
 31
0.0
  0
LINE
  5
6488
330
18
100
AcDbEntity
  8
WYMIARY
 62
     6
100
AcDbLine
 10
687.671651
 20
0.0
 30
0.0
 11
687.671651
 21
297.0
 31
0.0
  0
LINE
  5
648E
330
18
100
AcDbEntity
  8
2
100
AcDbLine
 10
687.671651
 20
0.0
 30
0.0
 11
687.671651
 21
297.0
 31
0.0
  0
LINE
  5
6E58
330
18
100
AcDbEntity
  8
WYMIARY
 62
     6
100
AcDbLine
 10
687.671651
 20
0.0
 30
0.0
 11
687.671651
 21
297.0
 31
0.0
  0
LINE
  5
6E6D
330
18
100
AcDbEntity
  8
2
100
AcDbLine
 10
687.671651
 20
0.0
 30
0.0
 11
687.671651
 21
297.0
 31
0.0
  0
TEXT
  5
6FD0
330
18
100
AcDbEntity
  8
1
100
AcDbText
 10
581.7348772371911
 20
281.3694621524345
 30
0.0
 40
5.0
  1
RM83
 41
0.8
 51
15.0
  7
ITALIC
100
AcDbText
  0
TEXT
  5
6FD1
330
18
100
AcDbEntity
  8
1
100
AcDbText
 10
577.654386
 20
184.9712413681948
 30
0.0
 40
3.999999999999999
  1
RM83 1Z / 1 NO
 41
0.6000000000000002
 51
15.0
  7
ITALIC
100
AcDbText
  0
TEXT
  5
6FD6
330
18
100
AcDbEntity
  8
1
100
AcDbText
 10
575.8060978360176
 20
270.5124456606555
 30
0.0
 40
3.999999999999999
  1
RM83 1P / 1 CO
 41
0.6000000000000002
 51
15.0
  7
ITALIC
100
AcDbText
  0
TEXT
  5
6FD7
330
18
100
AcDbEntity
  8
1
100
AcDbText
 10
577.0157485944362
 20
103.6747676456808
 30
0.0
 40
3.999999999999999
  1
RM83 1R / 1 NC
 41
0.6000000000000002
 51
15.0
  7
ITALIC
100
AcDbText
  0
LINE
  5
7A1F
330
18
100
AcDbEntity
  8
1
100
AcDbLine
 10
585.2026246180315
 20
203.9641785190692
 30
0.0
 11
584.8026246180315
 21
203.9641785190692
 31
0.0
  0
LINE
  5
7A20
330
18
100
AcDbEntity
  8
1
100
AcDbLine
 10
584.8026246180315
 20
203.9641785190692
 30
0.0
 11
584.8026246180315
 21
207.5641785190692
 31
0.0
  0
LINE
  5
7A23
330
18
100
AcDbEntity
  8
1
100
AcDbLine
 10
585.2026246180315
 20
203.9641785190692
 30
0.0
 11
585.2026246180315
 21
207.5641785190692
 31
0.0
  0
LINE
  5
7A56
330
18
100
AcDbEntity
  8
1
100
AcDbLine
 10
585.2026246180315
 20
203.9641785190692
 30
0.0
 11
585.2026246180315
 21
207.5641785190692
 31
0.0
  0
LINE
  5
7A95
102
{ACAD_REACTORS
102
}
330
18
100
AcDbEntity
  8
1
100
AcDbLine
 10
560.9321249726345
 20
233.1641785190693
 30
0.0
 11
588.4321249726346
 21
233.1641785190692
 31
0.0
  0
LINE
  5
7A97
330
18
100
AcDbEntity
  8
1
100
AcDbLine
 10
589.2321249726346
 20
207.5641785190692
 30
0.0
 11
589.2321249726346
 21
232.3641785190692
 31
0.0
  0
LINE
  5
7A98
330
18
100
AcDbEntity
  8
1
100
AcDbLine
 10
560.1321249726345
 20
207.6641785190692
 30
0.0
 11
560.1321249726345
 21
232.3641785190692
 31
0.0
  0
ARC
  5
7A99
330
18
100
AcDbEntity
  8
1
100
AcDbCircle
 10
588.4321249726346
 20
232.3641785190692
 30
0.0
 40
0.8
100
AcDbArc
 50
0.0
 51
90.0
  0
ARC
  5
7A9A
330
18
100
AcDbEntity
  8
1
100
AcDbCircle
 10
560.9321249726346
 20
232.3641785190692
 30
0.0
 40
0.8
100
AcDbArc
 50
90.0
 51
180.0
  0
ARC
  5
7AA1
330
18
100
AcDbEntity
  8
1
100
AcDbCircle
 10
560.2321249726346
 20
207.6641785190692
 30
0.0
 40
0.1
100
AcDbArc
 50
180.0
 51
270.0
  0
LINE
  5
7AA5
102
{ACAD_REACTORS
102
}
330
18
100
AcDbEntity
  8
1
100
AcDbLine
 10
560.2321249726346
 20
207.5641785190692
 30
0.0
 11
589.2321249726346
 21
207.5641785190692
 31
0.0
  0
LINE
  5
7AB2
330
18
100
AcDbEntity
  8
1
100
AcDbLine
 10
560.1084045092938
 20
246.8407069284278
 30
0.0
 11
560.1084045092938
 21
259.3407069284278
 31
0.0
  0
LINE
  5
7AB3
330
18
100
AcDbEntity
  8
1
100
AcDbLine
 10
560.8084045092938
 20
247.5407069284278
 30
0.0
 11
560.8084045092938
 21
258.6407069284278
 31
0.0
  0
LINE
  5
7AB4
330
18
100
AcDbEntity
  8
1
100
AcDbLine
 10
588.5084045092938
 20
247.5407069284278
 30
0.0
 11
588.5084045092938
 21
258.6407069284278
 31
0.0
  0
LINE
  5
7AB5
102
{ACAD_REACTORS
102
}
330
18
100
AcDbEntity
  8
1
100
AcDbLine
 10
589.2084045092938
 20
246.8407069284278
 30
0.0
 11
589.2084045092938
 21
259.3407069284278
 31
0.0
  0
LINE
  5
7AB6
102
{ACAD_REACTORS
102
}
330
18
100
AcDbEntity
  8
1
100
AcDbLine
 10
560.1084045092938
 20
246.8407069284278
 30
0.0
 11
589.2084045092938
 21
246.8407069284278
 31
0.0
  0
LINE
  5
7AB7
102
{ACAD_REACTORS
102
}
330
18
100
AcDbEntity
  8
1
100
AcDbLine
 10
560.1084045092938
 20
259.3407069284278
 30
0.0
 11
589.2084045092938
 21
259.3407069284278
 31
0.0
  0
LINE
  5
7AB8
330
18
100
AcDbEntity
  8
1
100
AcDbLine
 10
560.8084045092938
 20
247.5407069284278
 30
0.0
 11
571.1584045092937
 21
247.5407069284278
 31
0.0
  0
LINE
  5
7AB9
330
18
100
AcDbEntity
  8
1
100
AcDbLine
 10
560.8084045092938
 20
258.6407069284278
 30
0.0
 11
571.1584045092937
 21
258.6407069284278
 31
0.0
  0
LINE
  5
7ABA
330
18
100
AcDbEntity
  8
OSIE
100
AcDbLine
 10
589.4084045092937
 20
253.0907069284278
 30
0.0
 11
559.9084045092937
 21
253.0907069284278
 31
0.0
  0
LINE
  5
7ABB
330
18
100
AcDbEntity
  8
OSIE
100
AcDbLine
 10
574.6584045092937
 20
246.6407069284278
 30
0.0
 11
574.6584045092937
 21
259.5407069284279
 31
0.0
  0
LINE
  5
7ABC
102
{ACAD_REACTORS
102
}
330
18
100
AcDbEntity
  8
OSIE
100
AcDbLine
 10
589.4084045092937
 20
256.8407069284278
 30
0.0
 11
559.9084045092937
 21
256.8407069284278
 31
0.0
  0
LINE
  5
7ABD
102
{ACAD_REACTORS
102
}
330
18
100
AcDbEntity
  8
OSIE
100
AcDbLine
 10
589.4084045092937
 20
249.3407069284278
 30
0.0
 11
559.9084045092937
 21
249.3407069284278
 31
0.0
  0
LINE
  5
7ABE
330
18
100
AcDbEntity
  8
1
100
AcDbLine
 10
586.5084045092938
 20
257.3907069284278
 30
0.0
 11
586.1084045092938
 21
257.3907069284278
 31
0.0
  0
LINE
  5
7ABF
330
18
100
AcDbEntity
  8
1
100
AcDbLine
 10
586.5084045092938
 20
256.2907069284278
 30
0.0
 11
586.1084045092938
 21
256.2907069284278
 31
0.0
  0
LINE
  5
7AC0
330
18
100
AcDbEntity
  8
1
100
AcDbLine
 10
586.5084045092938
 20
249.8907069284278
 30
0.0
 11
586.1084045092938
 21
249.8907069284278
 31
0.0
  0
LINE
  5
7AC1
330
18
100
AcDbEntity
  8
1
100
AcDbLine
 10
586.5084045092938
 20
248.7907069284279
 30
0.0
 11
586.1084045092938
 21
248.7907069284278
 31
0.0
  0
LINE
  5
7AC2
330
18
100
AcDbEntity
  8
1
100
AcDbLine
 10
561.1084045092938
 20
248.7907069284279
 30
0.0
 11
561.1084045092938
 21
249.8907069284278
 31
0.0
  0
LINE
  5
7AC3
330
18
100
AcDbEntity
  8
1
100
AcDbLine
 10
561.5084045092938
 20
248.7907069284279
 30
0.0
 11
561.5084045092938
 21
249.8907069284278
 31
0.0
  0
LINE
  5
7AC4
330
18
100
AcDbEntity
  8
1
100
AcDbLine
 10
586.1084045092938
 20
248.7907069284278
 30
0.0
 11
586.1084045092938
 21
249.8907069284278
 31
0.0
  0
LINE
  5
7AC5
330
18
100
AcDbEntity
  8
1
100
AcDbLine
 10
586.5084045092938
 20
248.7907069284278
 30
0.0
 11
586.5084045092938
 21
249.8907069284278
 31
0.0
  0
LINE
  5
7AC6
330
18
100
AcDbEntity
  8
1
100
AcDbLine
 10
566.2084045092938
 20
248.7907069284278
 30
0.0
 11
566.2084045092938
 21
249.8907069284278
 31
0.0
  0
LINE
  5
7AC7
330
18
100
AcDbEntity
  8
1
100
AcDbLine
 10
566.4084045092937
 20
248.7907069284278
 30
0.0
 11
566.4084045092937
 21
249.8907069284278
 31
0.0
  0
LINE
  5
7AC8
330
18
100
AcDbEntity
  8
1
100
AcDbLine
 10
586.1084045092938
 20
256.2907069284278
 30
0.0
 11
586.1084045092938
 21
257.3907069284278
 31
0.0
  0
LINE
  5
7AC9
330
18
100
AcDbEntity
  8
1
100
AcDbLine
 10
586.5084045092938
 20
256.2907069284278
 30
0.0
 11
586.5084045092938
 21
257.3907069284278
 31
0.0
  0
LINE
  5
7ACA
330
18
100
AcDbEntity
  8
1
100
AcDbLine
 10
566.4084045092937
 20
248.7907069284278
 30
0.0
 11
566.2084045092938
 21
248.7907069284278
 31
0.0
  0
LINE
  5
7ACB
330
18
100
AcDbEntity
  8
1
100
AcDbLine
 10
566.4084045092937
 20
249.8907069284278
 30
0.0
 11
566.2084045092938
 21
249.8907069284278
 31
0.0
  0
LINE
  5
7ACC
330
18
100
AcDbEntity
  8
1
100
AcDbLine
 10
566.4084045092937
 20
256.2907069284278
 30
0.0
 11
566.2084045092938
 21
256.2907069284278
 31
0.0
  0
LINE
  5
7ACD
330
18
100
AcDbEntity
  8
1
100
AcDbLine
 10
566.4084045092937
 20
257.3907069284278
 30
0.0
 11
566.2084045092938
 21
257.3907069284278
 31
0.0
  0
LINE
  5
7ACE
330
18
100
AcDbEntity
  8
1
100
AcDbLine
 10
561.5084045092938
 20
257.3907069284278
 30
0.0
 11
561.1084045092938
 21
257.3907069284278
 31
0.0
  0
LINE
  5
7ACF
330
18
100
AcDbEntity
  8
1
100
AcDbLine
 10
561.5084045092938
 20
256.2907069284278
 30
0.0
 11
561.1084045092938
 21
256.2907069284278
 31
0.0
  0
LINE
  5
7AD0
330
18
100
AcDbEntity
  8
1
100
AcDbLine
 10
566.2084045092938
 20
256.2907069284278
 30
0.0
 11
566.2084045092938
 21
257.3907069284278
 31
0.0
  0
LINE
  5
7AD1
330
18
100
AcDbEntity
  8
1
100
AcDbLine
 10
566.4084045092937
 20
256.2907069284278
 30
0.0
 11
566.4084045092937
 21
257.3907069284278
 31
0.0
  0
LINE
  5
7AD2
330
18
100
AcDbEntity
  8
1
100
AcDbLine
 10
561.5084045092938
 20
249.8907069284278
 30
0.0
 11
561.1084045092938
 21
249.8907069284278
 31
0.0
  0
LINE
  5
7AD3
330
18
100
AcDbEntity
  8
1
100
AcDbLine
 10
561.5084045092938
 20
248.7907069284278
 30
0.0
 11
561.1084045092938
 21
248.7907069284278
 31
0.0
  0
LINE
  5
7AD4
330
18
100
AcDbEntity
  8
1
100
AcDbLine
 10
561.1084045092938
 20
256.2907069284279
 30
0.0
 11
561.1084045092938
 21
257.3907069284278
 31
0.0
  0
LINE
  5
7AD5
330
18
100
AcDbEntity
  8
1
100
AcDbLine
 10
561.5084045092938
 20
256.2907069284279
 30
0.0
 11
561.5084045092938
 21
257.3907069284278
 31
0.0
  0
LINE
  5
7AF0
330
18
100
AcDbEntity
  8
1
100
AcDbLine
 10
571.1584045092937
 20
258.2407069284278
 30
0.0
 11
578.1584045092937
 21
258.2407069284278
 31
0.0
  0
LINE
  5
7AF1
330
18
100
AcDbEntity
  8
1
100
AcDbLine
 10
571.1584045092937
 20
258.2407069284278
 30
0.0
 11
571.1584045092937
 21
258.6407069284278
 31
0.0
  0
LINE
  5
7AF2
330
18
100
AcDbEntity
  8
1
100
AcDbLine
 10
578.1584045092937
 20
258.2407069284278
 30
0.0
 11
578.1584045092937
 21
258.6407069284278
 31
0.0
  0
LINE
  5
7AF3
330
18
100
AcDbEntity
  8
1
100
AcDbLine
 10
571.1584045092937
 20
247.9407069284278
 30
0.0
 11
578.1584045092937
 21
247.9407069284278
 31
0.0
  0
LINE
  5
7AF4
330
18
100
AcDbEntity
  8
1
100
AcDbLine
 10
578.1584045092937
 20
247.5407069284278
 30
0.0
 11
578.1584045092937
 21
247.9407069284278
 31
0.0
  0
LINE
  5
7AF5
330
18
100
AcDbEntity
  8
1
100
AcDbLine
 10
571.1584045092937
 20
247.5407069284278
 30
0.0
 11
571.1584045092937
 21
247.9407069284278
 31
0.0
  0
LINE
  5
7AF6
330
18
100
AcDbEntity
  8
1
100
AcDbLine
 10
578.1584045092937
 20
258.6407069284278
 30
0.0
 11
588.5084045092938
 21
258.6407069284278
 31
0.0
  0
LINE
  5
7AF7
330
18
100
AcDbEntity
  8
1
100
AcDbLine
 10
578.1584045092937
 20
247.5407069284278
 30
0.0
 11
588.5084045092938
 21
247.5407069284278
 31
0.0
  0
LINE
  5
7AFC
330
18
100
AcDbEntity
  8
1
100
AcDbLine
 10
561.4887739267998
 20
207.5641785190692
 30
0.0
 11
561.4887739267998
 21
203.9641785190692
 31
0.0
  0
LINE
  5
7AFD
330
18
100
AcDbEntity
  8
1
100
AcDbLine
 10
561.0887739267998
 20
207.5641785190692
 30
0.0
 11
561.0887739267998
 21
203.9641785190692
 31
0.0
  0
LINE
  5
7AFE
330
18
100
AcDbEntity
  8
1
100
AcDbLine
 10
566.4641523482752
 20
203.8905534505159
 30
0.0
 11
566.4448987871049
 21
207.5641785190692
 31
0.0
  0
LINE
  5
7AFF
330
18
100
AcDbEntity
  8
1
100
AcDbLine
 10
566.2448960402894
 20
207.5641785190692
 30
0.0
 11
566.2641550950531
 21
203.8895052598931
 31
0.0
  0
LINE
  5
7B00
102
{ACAD_REACTORS
102
}
330
18
100
AcDbEntity
  8
1
100
AcDbLine
 10
561.4887739267998
 20
203.9641785190692
 30
0.0
 11
561.0887739267998
 21
203.9641785190692
 31
0.0
  0
LINE
  5
7B01
330
18
100
AcDbEntity
  8
1
100
AcDbLine
 10
566.2641550950531
 20
203.8895052598931
 30
0.0
 11
566.4641523482752
 21
203.8905534505159
 31
0.0
  0
LINE
  5
7B7E
330
18
100
AcDbEntity
  8
1
100
AcDbLine
 10
571.2294647083364
 20
207.5641785190692
 30
0.0
 11
571.2294647083364
 21
203.9641785190692
 31
0.0
  0
LINE
  5
7B7F
330
18
100
AcDbEntity
  8
1
100
AcDbLine
 10
571.2294647083364
 20
203.9641785190692
 30
0.0
 11
571.6508392908089
 21
203.9641785190692
 31
0.0
  0
LINE
  5
7B80
330
18
100
AcDbEntity
  8
1
100
AcDbLine
 10
571.6508392908089
 20
207.5641785190692
 30
0.0
 11
571.6508392908089
 21
203.9641785190692
 31
0.0
  0
LINE
  5
7B8A
330
18
100
AcDbEntity
  8
1
100
AcDbLine
 10
571.5401519995727
 20
248.7907069284279
 30
0.0
 11
571.5401519995727
 21
249.8907069284278
 31
0.0
  0
LINE
  5
7B8B
330
18
100
AcDbEntity
  8
1
100
AcDbLine
 10
571.1401519995727
 20
248.7907069284279
 30
0.0
 11
571.1401519995727
 21
249.8907069284278
 31
0.0
  0
LINE
  5
7B8C
330
18
100
AcDbEntity
  8
1
100
AcDbLine
 10
571.5401519995727
 20
248.7907069284278
 30
0.0
 11
571.1401519995727
 21
248.7907069284278
 31
0.0
  0
LINE
  5
7B8D
330
18
100
AcDbEntity
  8
1
100
AcDbLine
 10
571.5401519995727
 20
249.8907069284278
 30
0.0
 11
571.1401519995727
 21
249.8907069284278
 31
0.0
  0
LINE
  5
7B8E
330
18
100
AcDbEntity
  8
1
100
AcDbLine
 10
571.5401519995727
 20
256.2907069284279
 30
0.0
 11
571.5401519995727
 21
257.3907069284278
 31
0.0
  0
LINE
  5
7B8F
330
18
100
AcDbEntity
  8
1
100
AcDbLine
 10
571.1401519995727
 20
256.2907069284279
 30
0.0
 11
571.1401519995727
 21
257.3907069284278
 31
0.0
  0
LINE
  5
7B90
330
18
100
AcDbEntity
  8
1
100
AcDbLine
 10
571.5401519995727
 20
256.2907069284278
 30
0.0
 11
571.1401519995727
 21
256.2907069284278
 31
0.0
  0
LINE
  5
7B91
330
18
100
AcDbEntity
  8
1
100
AcDbLine
 10
571.5401519995727
 20
257.3907069284278
 30
0.0
 11
571.1401519995727
 21
257.3907069284278
 31
0.0
  0
ARC
  5
7CB8
330
18
100
AcDbEntity
  8
1
100
AcDbCircle
 10
614.1915987978177
 20
232.3641785190692
 30
0.0
 40
0.8
100
AcDbArc
 50
90.0
 51
180.0
  0
ARC
  5
7CB9
330
18
100
AcDbEntity
  8
1
100
AcDbCircle
 10
625.0915987978178
 20
232.3641785190692
 30
0.0
 40
0.8
100
AcDbArc
 50
0.0
 51
90.0
  0
LINE
  5
7CBA
330
18
100
AcDbEntity
  8
1
100
AcDbLine
 10
613.3915987978178
 20
207.5641785190692
 30
0.0
 11
613.3915987978178
 21
232.3641785190692
 31
0.0
  0
LINE
  5
7CBB
330
18
100
AcDbEntity
  8
1
100
AcDbLine
 10
625.8915987978178
 20
207.5641785190692
 30
0.0
 11
625.8915987978178
 21
232.3641785190692
 31
0.0
  0
LINE
  5
7CBF
330
18
100
AcDbEntity
  8
1
100
AcDbLine
 10
614.1915987978177
 20
233.1641785190693
 30
0.0
 11
625.0915987978178
 21
233.1641785190692
 31
0.0
  0
LINE
  5
7CC0
102
{ACAD_REACTORS
102
}
330
18
100
AcDbEntity
  8
1
100
AcDbLine
 10
613.3915987978178
 20
207.5641785190692
 30
0.0
 11
614.3915987978178
 21
207.5641785190692
 31
0.0
  0
LINE
  5
7CCC
102
{ACAD_REACTORS
102
}
330
18
100
AcDbEntity
  8
1
100
AcDbLine
 10
625.8915987978178
 20
207.5641785190692
 30
0.0
 11
624.8915987978178
 21
207.5641785190692
 31
0.0
  0
LINE
  5
7CCD
330
18
100
AcDbEntity
  8
1
100
AcDbLine
 10
624.8915987978178
 20
207.5641785190692
 30
0.0
 11
614.3915987978178
 21
207.5641785190692
 31
0.0
  0
LINE
  5
7CD3
330
18
100
AcDbEntity
  8
1
100
AcDbLine
 10
615.5765403200755
 20
207.5641785190692
 30
0.0
 11
615.5765403200755
 21
203.9641785190692
 31
0.0
  0
LINE
  5
7CD4
330
18
100
AcDbEntity
  8
1
100
AcDbLine
 10
616.6765403200754
 20
207.5641785190692
 30
0.0
 11
616.6765403200754
 21
203.9641785190692
 31
0.0
  0
LINE
  5
7CD5
330
18
100
AcDbEntity
  8
1
100
AcDbLine
 10
623.0765403200755
 20
207.5641785190692
 30
0.0
 11
623.0765403200755
 21
203.9641785190692
 31
0.0
  0
LINE
  5
7CD6
330
18
100
AcDbEntity
  8
1
100
AcDbLine
 10
624.1765403200754
 20
207.5641785190692
 30
0.0
 11
624.1765403200754
 21
203.9641785190692
 31
0.0
  0
LINE
  5
7CD8
330
18
100
AcDbEntity
  8
1
100
AcDbLine
 10
624.1765403200754
 20
207.5641785190692
 30
0.0
 11
623.0765403200755
 21
207.5641785190692
 31
0.0
  0
LINE
  5
7CDF
102
{ACAD_REACTORS
102
}
330
18
100
AcDbEntity
  8
1
 62
     3
100
AcDbLine
 10
615.5765403200755
 20
203.9641785190692
 30
0.0
 11
616.6765403200754
 21
203.9641785190692
 31
0.0
  0
LINE
  5
7CE0
330
18
100
AcDbEntity
  8
1
 62
     3
100
AcDbLine
 10
623.0765403200755
 20
203.9641785190692
 30
0.0
 11
624.1765403200754
 21
203.9641785190692
 31
0.0
  0
LINE
  5
7CE2
330
18
100
AcDbEntity
  8
OSIE
100
AcDbLine
 10
561.2887739267998
 20
202.86107540065
 30
0.0
 11
561.2887739267998
 21
208.4138682540768
 31
0.0
  0
LINE
  5
7CE3
330
18
100
AcDbEntity
  8
OSIE
100
AcDbLine
 10
566.3641537216641
 20
202.7869262367853
 30
0.0
 11
566.3641537216641
 21
208.3397190902121
 31
0.0
  0
LINE
  5
7CE4
330
18
100
AcDbEntity
  8
OSIE
100
AcDbLine
 10
571.4401519995727
 20
202.86107540065
 30
0.0
 11
571.4401519995727
 21
208.4138682540768
 31
0.0
  0
LINE
  5
7CE5
330
18
100
AcDbEntity
  8
OSIE
100
AcDbLine
 10
585.0026246180315
 20
202.86107540065
 30
0.0
 11
585.0026246180315
 21
208.4138682540768
 31
0.0
  0
LINE
  5
7CE6
330
18
100
AcDbEntity
  8
OSIE
100
AcDbLine
 10
616.1265403200755
 20
202.86107540065
 30
0.0
 11
616.1265403200755
 21
208.4138682540768
 31
0.0
  0
LINE
  5
7CE7
330
18
100
AcDbEntity
  8
OSIE
100
AcDbLine
 10
623.6265403200755
 20
202.86107540065
 30
0.0
 11
623.6265403200755
 21
208.4138682540768
 31
0.0
  0
LINE
  5
7CE8
330
18
100
AcDbEntity
  8
OSIE
100
AcDbLine
 10
619.6415987978178
 20
237.47466861396
 30
0.0
 11
619.6415987978178
 21
201.343531809195
 31
0.0
  0
DIMENSION
  5
7CFD
102
{ACAD_REACTORS
102
}
102
{ACAD_XDICTIONARY
360
7CFE
102
}
330
18
100
AcDbEntity
  8
WY
100
AcDbDimension
  2
*D21
 10
589.2084045092938
 20
263.33501965191
 30
0.0
 11
574.6584045092939
 21
264.33501965191
 31
0.0
 70
    32
  3
STANDARD
100
AcDbAlignedDimension
 13
560.1084045092938
 23
259.3407069284278
 33
0.0
 14
589.2084045092938
 24
259.3407069284278
 34
0.0
100
AcDbRotatedDimension
1001
ACAD
1000
DSTYLE
1002
{
1070
    78
1070
     8
1070
    41
1040
1.5
1070
   271
1070
     1
1070
   147
1040
0.5
1070
   174
1070
     1
1070
    74
1070
     1
1070
   140
1040
1.0
1002
}
  0
LINE
  5
7D0D
102
{ACAD_REACTORS
102
}
330
18
100
AcDbEntity
  8
OSIE
100
AcDbLine
 10
586.3084045092938
 20
258.2509769488358
 30
0.0
 11
586.3084045092938
 21
247.974454063848
 31
0.0
  0
LINE
  5
7D0E
102
{ACAD_REACTORS
102
}
330
18
100
AcDbEntity
  8
OSIE
100
AcDbLine
 10
571.3401519995728
 20
258.2509769488358
 30
0.0
 11
571.3401519995728
 21
247.974454063848
 31
0.0
  0
LINE
  5
7D0F
102
{ACAD_REACTORS
102
}
330
18
100
AcDbEntity
  8
OSIE
100
AcDbLine
 10
566.3084045092938
 20
258.2509769488358
 30
0.0
 11
566.3084045092938
 21
247.974454063848
 31
0.0
  0
LINE
  5
7D10
102
{ACAD_REACTORS
102
}
330
18
100
AcDbEntity
  8
OSIE
100
AcDbLine
 10
561.3084045092938
 20
258.2509769488358
 30
0.0
 11
561.3084045092938
 21
247.974454063848
 31
0.0
  0
DIMENSION
  5
7D22
102
{ACAD_REACTORS
102
}
102
{ACAD_XDICTIONARY
360
7D23
102
}
330
18
100
AcDbEntity
  8
WY
100
AcDbDimension
  2
*D23
 10
571.3401519995728
 20
240.742125365762
 30
0.0
 11
578.8242782544332
 21
241.742125365762
 31
0.0
 70
    32
  3
STANDARD
100
AcDbAlignedDimension
 13
586.3084045092938
 23
247.974454063848
 33
0.0
 14
571.3401519995728
 24
247.974454063848
 34
0.0
100
AcDbRotatedDimension
1001
ACAD
1000
DSTYLE
1002
{
1070
    78
1070
     8
1070
    41
1040
1.5
1070
   271
1070
     1
1070
   147
1040
0.5
1070
   174
1070
     1
1070
    74
1070
     1
1070
   140
1040
1.0
1002
}
  0
DIMENSION
  5
7D40
102
{ACAD_REACTORS
102
}
102
{ACAD_XDICTIONARY
360
7D41
102
}
330
18
100
AcDbEntity
  8
WY
100
AcDbDimension
  2
*D25
 10
561.3084045092938
 20
240.742125365762
 30
0.0
 11
563.8084045092938
 21
241.742125365762
 31
0.0
 70
    32
  3
STANDARD
100
AcDbAlignedDimension
 13
566.3084045092938
 23
247.974454063848
 33
0.0
 14
561.3084045092938
 24
247.974454063848
 34
0.0
100
AcDbRotatedDimension
1001
ACAD
1000
DSTYLE
1002
{
1070
    78
1070
     8
1070
    41
1040
1.5
1070
   271
1070
     1
1070
   147
1040
0.5
1070
   174
1070
     1
1070
    74
1070
     1
1070
   140
1040
1.0
1002
}
  0
DIMENSION
  5
7D4F
102
{ACAD_REACTORS
102
}
102
{ACAD_XDICTIONARY
360
7D50
102
}
330
18
100
AcDbEntity
  8
WY
100
AcDbDimension
  2
*D26
 10
571.3401519995728
 20
240.742125365762
 30
0.0
 11
568.8242782544332
 21
241.742125365762
 31
0.0
 70
    32
  3
STANDARD
100
AcDbAlignedDimension
 13
566.3084045092938
 23
247.974454063848
 33
0.0
 14
571.3401519995728
 24
247.974454063848
 34
0.0
100
AcDbRotatedDimension
1001
ACAD
1000
DSTYLE
1002
{
1070
    78
1070
     8
1070
    41
1040
1.5
1070
   271
1070
     1
1070
   147
1040
0.5
1070
   174
1070
     1
1070
    74
1070
     1
1070
   140
1040
1.0
1002
}
  0
DIMENSION
  5
7D5E
102
{ACAD_REACTORS
102
}
102
{ACAD_XDICTIONARY
360
7D5F
102
}
330
18
100
AcDbEntity
  8
WY
100
AcDbDimension
  2
*D27
 10
595.5189240358827
 20
249.3407069284278
 30
0.0
 11
594.5189240358827
 21
253.0907069284278
 31
0.0
 70
    32
  3
STANDARD
100
AcDbAlignedDimension
 13
589.4084045092937
 23
256.8407069284278
 33
0.0
 14
589.4084045092937
 24
249.3407069284278
 34
0.0
 50
90.0
100
AcDbRotatedDimension
1001
ACAD
1000
DSTYLE
1002
{
1070
    78
1070
     8
1070
    41
1040
1.5
1070
   271
1070
     1
1070
   147
1040
0.5
1070
   174
1070
     1
1070
    74
1070
     1
1070
   140
1040
1.0
1002
}
  0
DIMENSION
  5
7D6D
102
{ACAD_REACTORS
102
}
102
{ACAD_XDICTIONARY
360
7D6E
102
}
330
18
100
AcDbEntity
  8
WY
100
AcDbDimension
  2
*D28
 10
560.1084045092938
 20
240.742125365762
 30
0.0
 11
555.7750711759604
 21
240.742125365762
 31
0.0
 70
   160
  3
STANDARD
100
AcDbAlignedDimension
 13
561.3084045092938
 23
247.974454063848
 33
0.0
 14
560.1084045092938
 24
246.8407069284278
 34
0.0
100
AcDbRotatedDimension
1001
ACAD
1000
DSTYLE
1002
{
1070
    78
1070
     8
1070
   172
1070
     1
1070
    41
1040
1.5
1070
   271
1070
     1
1070
   147
1040
0.5
1070
   174
1070
     1
1070
    74
1070
     1
1070
   140
1040
1.0
1002
}
  0
DIMENSION
  5
7D83
102
{ACAD_REACTORS
102
}
102
{ACAD_XDICTIONARY
360
7D84
102
}
330
18
100
AcDbEntity
  8
WY
100
AcDbDimension
  2
*D29
 10
553.7490852962221
 20
233.1641785190693
 30
0.0
 11
552.7490852962221
 21
220.3641785190692
 31
0.0
 70
    32
  3
STANDARD
100
AcDbAlignedDimension
 13
560.2321249726346
 23
207.5641785190692
 33
0.0
 14
560.9321249726345
 24
233.1641785190693
 34
0.0
 50
90.0
100
AcDbRotatedDimension
1001
ACAD
1000
DSTYLE
1002
{
1070
    41
1040
1.5
1070
   271
1070
     1
1070
   147
1040
0.5
1070
   174
1070
     1
1070
    74
1070
     1
1070
   140
1040
1.0
1070
   284
1070
     8
1070
    78
1070
     8
1002
}
  0
DIMENSION
  5
7D92
102
{ACAD_REACTORS
102
}
102
{ACAD_XDICTIONARY
360
7D93
102
}
330
18
100
AcDbEntity
  8
WY
100
AcDbDimension
  2
*D30
 10
553.7490852962221
 20
203.9641785190692
 30
0.0
 11
552.7490852962221
 21
205.7641785190692
 31
0.0
 70
    32
  3
STANDARD
100
AcDbAlignedDimension
 13
560.2321249726346
 23
207.5641785190692
 33
0.0
 14
561.0887739267998
 24
203.9641785190692
 34
0.0
 50
90.0
100
AcDbRotatedDimension
1001
ACAD
1000
DSTYLE
1002
{
1070
   172
1070
     1
1070
    41
1040
1.5
1070
   271
1070
     1
1070
   147
1040
0.5
1070
   174
1070
     1
1070
    74
1070
     1
1070
   140
1040
1.0
1070
   284
1070
     8
1070
    78
1070
     8
1002
}
  0
DIMENSION
  5
7DA3
102
{ACAD_REACTORS
102
}
102
{ACAD_XDICTIONARY
360
7DA4
102
}
330
18
100
AcDbEntity
  8
WY
100
AcDbDimension
  2
*D31
 10
625.8915987978178
 20
194.9809527397601
 30
0.0
 11
619.6415987978178
 21
195.9809527397601
 31
0.0
 70
    32
  3
STANDARD
100
AcDbAlignedDimension
 13
613.3915987978178
 23
207.5641785190692
 33
0.0
 14
625.8915987978178
 24
207.5641785190692
 34
0.0
100
AcDbRotatedDimension
1001
ACAD
1000
DSTYLE
1002
{
1070
    41
1040
1.5
1070
   271
1070
     1
1070
   147
1040
0.5
1070
   174
1070
     1
1070
    74
1070
     1
1070
   140
1040
1.0
1070
   284
1070
     8
1070
    78
1070
     8
1002
}
  0
DIMENSION
  5
7DB2
102
{ACAD_REACTORS
102
}
102
{ACAD_XDICTIONARY
360
7DB3
102
}
330
18
100
AcDbEntity
  8
WY
100
AcDbDimension
  2
*D32
 10
616.6765403200754
 20
198.8387911457197
 30
0.0
 11
620.8432069867421
 21
198.8387911457197
 31
0.0
 70
   160
  3
STANDARD
100
AcDbAlignedDimension
 13
615.5765403200755
 23
203.9641785190692
 33
0.0
 14
616.6765403200754
 24
203.9641785190692
 34
0.0
100
AcDbRotatedDimension
1001
ACAD
1000
DSTYLE
1002
{
1070
   172
1070
     1
1070
    41
1040
1.5
1070
   271
1070
     1
1070
   147
1040
0.5
1070
   174
1070
     1
1070
    74
1070
     1
1070
   140
1040
1.0
1070
   284
1070
     8
1070
    78
1070
     8
1002
}
  0
LINE
  5
7DC6
330
18
100
AcDbEntity
  8
1
100
AcDbLine
 10
585.2026246180315
 20
119.6997085275856
 30
0.0
 11
584.8026246180315
 21
119.6997085275856
 31
0.0
  0
LINE
  5
7DC7
102
{ACAD_REACTORS
102
}
330
18
100
AcDbEntity
  8
1
100
AcDbLine
 10
560.9321249726345
 20
148.8997085275857
 30
0.0
 11
588.4321249726346
 21
148.8997085275856
 31
0.0
  0
LINE
  5
7DC8
330
18
100
AcDbEntity
  8
1
100
AcDbLine
 10
589.2321249726346
 20
123.2997085275856
 30
0.0
 11
589.2321249726346
 21
148.0997085275856
 31
0.0
  0
LINE
  5
7DC9
330
18
100
AcDbEntity
  8
1
100
AcDbLine
 10
560.1321249726345
 20
123.3997085275856
 30
0.0
 11
560.1321249726345
 21
148.0997085275857
 31
0.0
  0
ARC
  5
7DCA
330
18
100
AcDbEntity
  8
1
100
AcDbCircle
 10
588.4321249726346
 20
148.0997085275856
 30
0.0
 40
0.8
100
AcDbArc
 50
0.0
 51
90.0
  0
ARC
  5
7DCB
330
18
100
AcDbEntity
  8
1
100
AcDbCircle
 10
560.9321249726346
 20
148.0997085275857
 30
0.0
 40
0.8
100
AcDbArc
 50
90.0
 51
180.0
  0
ARC
  5
7DCC
330
18
100
AcDbEntity
  8
1
100
AcDbCircle
 10
560.2321249726346
 20
123.3997085275856
 30
0.0
 40
0.1
100
AcDbArc
 50
180.0
 51
270.0
  0
LINE
  5
7DCD
102
{ACAD_REACTORS
102
}
330
18
100
AcDbEntity
  8
1
100
AcDbLine
 10
560.2321249726346
 20
123.2997085275856
 30
0.0
 11
589.2321249726346
 21
123.2997085275856
 31
0.0
  0
LINE
  5
7DCE
330
18
100
AcDbEntity
  8
1
100
AcDbLine
 10
560.1084045092938
 20
162.5018722922004
 30
0.0
 11
560.1084045092938
 21
175.0018722922004
 31
0.0
  0
LINE
  5
7DCF
330
18
100
AcDbEntity
  8
1
100
AcDbLine
 10
560.8084045092938
 20
163.2018722922004
 30
0.0
 11
560.8084045092938
 21
174.3018722922004
 31
0.0
  0
LINE
  5
7DD0
330
18
100
AcDbEntity
  8
1
100
AcDbLine
 10
588.5084045092938
 20
163.2018722922004
 30
0.0
 11
588.5084045092938
 21
174.3018722922004
 31
0.0
  0
LINE
  5
7DD1
102
{ACAD_REACTORS
102
}
330
18
100
AcDbEntity
  8
1
100
AcDbLine
 10
589.2084045092938
 20
162.5018722922004
 30
0.0
 11
589.2084045092938
 21
175.0018722922004
 31
0.0
  0
LINE
  5
7DD2
102
{ACAD_REACTORS
102
}
330
18
100
AcDbEntity
  8
1
100
AcDbLine
 10
560.1084045092938
 20
162.5018722922004
 30
0.0
 11
589.2084045092938
 21
162.5018722922004
 31
0.0
  0
LINE
  5
7DD3
102
{ACAD_REACTORS
102
}
330
18
100
AcDbEntity
  8
1
100
AcDbLine
 10
560.1084045092938
 20
175.0018722922004
 30
0.0
 11
589.2084045092938
 21
175.0018722922004
 31
0.0
  0
LINE
  5
7DD4
330
18
100
AcDbEntity
  8
1
100
AcDbLine
 10
560.8084045092938
 20
163.2018722922004
 30
0.0
 11
571.1584045092937
 21
163.2018722922004
 31
0.0
  0
LINE
  5
7DD5
330
18
100
AcDbEntity
  8
1
100
AcDbLine
 10
560.8084045092938
 20
174.3018722922004
 30
0.0
 11
571.1584045092937
 21
174.3018722922004
 31
0.0
  0
LINE
  5
7DD6
330
18
100
AcDbEntity
  8
OSIE
100
AcDbLine
 10
589.4084045092937
 20
168.7518722922004
 30
0.0
 11
559.9084045092937
 21
168.7518722922004
 31
0.0
  0
LINE
  5
7DD7
330
18
100
AcDbEntity
  8
OSIE
100
AcDbLine
 10
574.6584045092937
 20
162.3018722922004
 30
0.0
 11
574.6584045092937
 21
175.2018722922004
 31
0.0
  0
LINE
  5
7DD8
102
{ACAD_REACTORS
102
}
330
18
100
AcDbEntity
  8
OSIE
100
AcDbLine
 10
589.4084045092937
 20
172.5018722922004
 30
0.0
 11
559.9084045092937
 21
172.5018722922004
 31
0.0
  0
LINE
  5
7DD9
102
{ACAD_REACTORS
102
}
330
18
100
AcDbEntity
  8
OSIE
100
AcDbLine
 10
589.4084045092937
 20
165.0018722922004
 30
0.0
 11
559.9084045092937
 21
165.0018722922004
 31
0.0
  0
LINE
  5
7DDA
330
18
100
AcDbEntity
  8
1
100
AcDbLine
 10
586.5084045092938
 20
173.0518722922004
 30
0.0
 11
586.1084045092938
 21
173.0518722922004
 31
0.0
  0
LINE
  5
7DDB
330
18
100
AcDbEntity
  8
1
100
AcDbLine
 10
586.5084045092938
 20
171.9518722922003
 30
0.0
 11
586.1084045092938
 21
171.9518722922003
 31
0.0
  0
LINE
  5
7DDC
330
18
100
AcDbEntity
  8
1
100
AcDbLine
 10
586.5084045092938
 20
165.5518722922004
 30
0.0
 11
586.1084045092938
 21
165.5518722922004
 31
0.0
  0
LINE
  5
7DDD
330
18
100
AcDbEntity
  8
1
100
AcDbLine
 10
586.5084045092938
 20
164.4518722922004
 30
0.0
 11
586.1084045092938
 21
164.4518722922004
 31
0.0
  0
LINE
  5
7DDE
330
18
100
AcDbEntity
  8
1
100
AcDbLine
 10
561.1084045092938
 20
164.4518722922004
 30
0.0
 11
561.1084045092938
 21
165.5518722922004
 31
0.0
  0
LINE
  5
7DDF
330
18
100
AcDbEntity
  8
1
100
AcDbLine
 10
561.5084045092938
 20
164.4518722922004
 30
0.0
 11
561.5084045092938
 21
165.5518722922004
 31
0.0
  0
LINE
  5
7DE0
330
18
100
AcDbEntity
  8
1
100
AcDbLine
 10
586.1084045092938
 20
164.4518722922004
 30
0.0
 11
586.1084045092938
 21
165.5518722922004
 31
0.0
  0
LINE
  5
7DE1
330
18
100
AcDbEntity
  8
1
100
AcDbLine
 10
586.5084045092938
 20
164.4518722922004
 30
0.0
 11
586.5084045092938
 21
165.5518722922004
 31
0.0
  0
LINE
  5
7DE2
330
18
100
AcDbEntity
  8
1
100
AcDbLine
 10
566.2084045092938
 20
164.4518722922004
 30
0.0
 11
566.2084045092938
 21
165.5518722922004
 31
0.0
  0
LINE
  5
7DE3
330
18
100
AcDbEntity
  8
1
100
AcDbLine
 10
566.4084045092937
 20
164.4518722922004
 30
0.0
 11
566.4084045092937
 21
165.5518722922004
 31
0.0
  0
LINE
  5
7DE4
330
18
100
AcDbEntity
  8
1
100
AcDbLine
 10
586.1084045092938
 20
171.9518722922003
 30
0.0
 11
586.1084045092938
 21
173.0518722922004
 31
0.0
  0
LINE
  5
7DE5
330
18
100
AcDbEntity
  8
1
100
AcDbLine
 10
586.5084045092938
 20
171.9518722922003
 30
0.0
 11
586.5084045092938
 21
173.0518722922004
 31
0.0
  0
LINE
  5
7DE6
330
18
100
AcDbEntity
  8
1
100
AcDbLine
 10
566.4084045092937
 20
164.4518722922004
 30
0.0
 11
566.2084045092938
 21
164.4518722922004
 31
0.0
  0
LINE
  5
7DE7
330
18
100
AcDbEntity
  8
1
100
AcDbLine
 10
566.4084045092937
 20
165.5518722922004
 30
0.0
 11
566.2084045092938
 21
165.5518722922004
 31
0.0
  0
LINE
  5
7DE8
330
18
100
AcDbEntity
  8
1
100
AcDbLine
 10
566.4084045092937
 20
171.9518722922003
 30
0.0
 11
566.2084045092938
 21
171.9518722922003
 31
0.0
  0
LINE
  5
7DE9
330
18
100
AcDbEntity
  8
1
100
AcDbLine
 10
566.4084045092937
 20
173.0518722922004
 30
0.0
 11
566.2084045092938
 21
173.0518722922004
 31
0.0
  0
LINE
  5
7DEA
330
18
100
AcDbEntity
  8
1
100
AcDbLine
 10
561.5084045092938
 20
173.0518722922004
 30
0.0
 11
561.1084045092938
 21
173.0518722922004
 31
0.0
  0
LINE
  5
7DEB
330
18
100
AcDbEntity
  8
1
100
AcDbLine
 10
561.5084045092938
 20
171.9518722922003
 30
0.0
 11
561.1084045092938
 21
171.9518722922003
 31
0.0
  0
LINE
  5
7DEC
330
18
100
AcDbEntity
  8
1
100
AcDbLine
 10
566.2084045092938
 20
171.9518722922003
 30
0.0
 11
566.2084045092938
 21
173.0518722922004
 31
0.0
  0
LINE
  5
7DED
330
18
100
AcDbEntity
  8
1
100
AcDbLine
 10
566.4084045092937
 20
171.9518722922003
 30
0.0
 11
566.4084045092937
 21
173.0518722922004
 31
0.0
  0
LINE
  5
7DEE
330
18
100
AcDbEntity
  8
1
100
AcDbLine
 10
561.5084045092938
 20
165.5518722922004
 30
0.0
 11
561.1084045092938
 21
165.5518722922004
 31
0.0
  0
LINE
  5
7DEF
330
18
100
AcDbEntity
  8
1
100
AcDbLine
 10
561.5084045092938
 20
164.4518722922004
 30
0.0
 11
561.1084045092938
 21
164.4518722922004
 31
0.0
  0
LINE
  5
7DF0
330
18
100
AcDbEntity
  8
1
100
AcDbLine
 10
561.1084045092938
 20
171.9518722922004
 30
0.0
 11
561.1084045092938
 21
173.0518722922004
 31
0.0
  0
LINE
  5
7DF1
330
18
100
AcDbEntity
  8
1
100
AcDbLine
 10
561.5084045092938
 20
171.9518722922004
 30
0.0
 11
561.5084045092938
 21
173.0518722922004
 31
0.0
  0
LINE
  5
7DF2
330
18
100
AcDbEntity
  8
1
100
AcDbLine
 10
571.1584045092937
 20
173.9018722922004
 30
0.0
 11
578.1584045092937
 21
173.9018722922004
 31
0.0
  0
LINE
  5
7DF3
330
18
100
AcDbEntity
  8
1
100
AcDbLine
 10
571.1584045092937
 20
173.9018722922004
 30
0.0
 11
571.1584045092937
 21
174.3018722922004
 31
0.0
  0
LINE
  5
7DF4
330
18
100
AcDbEntity
  8
1
100
AcDbLine
 10
578.1584045092937
 20
173.9018722922004
 30
0.0
 11
578.1584045092937
 21
174.3018722922004
 31
0.0
  0
LINE
  5
7DF5
330
18
100
AcDbEntity
  8
1
100
AcDbLine
 10
571.1584045092937
 20
163.6018722922004
 30
0.0
 11
578.1584045092937
 21
163.6018722922004
 31
0.0
  0
LINE
  5
7DF6
330
18
100
AcDbEntity
  8
1
100
AcDbLine
 10
578.1584045092937
 20
163.2018722922004
 30
0.0
 11
578.1584045092937
 21
163.6018722922004
 31
0.0
  0
LINE
  5
7DF7
330
18
100
AcDbEntity
  8
1
100
AcDbLine
 10
571.1584045092937
 20
163.2018722922004
 30
0.0
 11
571.1584045092937
 21
163.6018722922004
 31
0.0
  0
LINE
  5
7DF8
330
18
100
AcDbEntity
  8
1
100
AcDbLine
 10
578.1584045092937
 20
174.3018722922004
 30
0.0
 11
588.5084045092938
 21
174.3018722922004
 31
0.0
  0
LINE
  5
7DF9
330
18
100
AcDbEntity
  8
1
100
AcDbLine
 10
578.1584045092937
 20
163.2018722922004
 30
0.0
 11
588.5084045092938
 21
163.2018722922004
 31
0.0
  0
LINE
  5
7DFA
102
{ACAD_REACTORS
102
}
330
18
100
AcDbEntity
  8
1
100
AcDbLine
 10
561.4887739267998
 20
119.6997085275856
 30
0.0
 11
561.0887739267998
 21
119.6997085275856
 31
0.0
  0
LINE
  5
7DFB
330
18
100
AcDbEntity
  8
1
100
AcDbLine
 10
566.2641550950531
 20
119.6250352684095
 30
0.0
 11
566.4641523482752
 21
119.6260834590323
 31
0.0
  0
ARC
  5
7E05
330
18
100
AcDbEntity
  8
1
100
AcDbCircle
 10
614.1915987978177
 20
148.0997085275857
 30
0.0
 40
0.8
100
AcDbArc
 50
90.0
 51
180.0
  0
ARC
  5
7E06
330
18
100
AcDbEntity
  8
1
100
AcDbCircle
 10
625.0915987978178
 20
148.0997085275856
 30
0.0
 40
0.8
100
AcDbArc
 50
0.0
 51
90.0
  0
LINE
  5
7E07
330
18
100
AcDbEntity
  8
1
100
AcDbLine
 10
613.3915987978178
 20
123.2997085275856
 30
0.0
 11
613.3915987978178
 21
148.0997085275857
 31
0.0
  0
LINE
  5
7E08
330
18
100
AcDbEntity
  8
1
100
AcDbLine
 10
625.8915987978178
 20
123.2997085275856
 30
0.0
 11
625.8915987978178
 21
148.0997085275856
 31
0.0
  0
LINE
  5
7E09
330
18
100
AcDbEntity
  8
1
100
AcDbLine
 10
614.1915987978177
 20
148.8997085275857
 30
0.0
 11
625.0915987978178
 21
148.8997085275856
 31
0.0
  0
LINE
  5
7E0A
102
{ACAD_REACTORS
102
}
330
18
100
AcDbEntity
  8
1
100
AcDbLine
 10
613.3915987978178
 20
123.2997085275856
 30
0.0
 11
614.3915987978178
 21
123.2997085275856
 31
0.0
  0
LINE
  5
7E0B
102
{ACAD_REACTORS
102
}
330
18
100
AcDbEntity
  8
1
100
AcDbLine
 10
625.8915987978178
 20
123.2997085275856
 30
0.0
 11
624.8915987978178
 21
123.2997085275856
 31
0.0
  0
LINE
  5
7E0C
330
18
100
AcDbEntity
  8
1
100
AcDbLine
 10
624.8915987978178
 20
123.2997085275856
 30
0.0
 11
614.3915987978178
 21
123.2997085275856
 31
0.0
  0
LINE
  5
7E0D
330
18
100
AcDbEntity
  8
1
100
AcDbLine
 10
566.2448960402894
 20
123.2997085275856
 30
0.0
 11
566.2641550950531
 21
119.6250352684095
 31
0.0
  0
LINE
  5
7E0E
330
18
100
AcDbEntity
  8
1
100
AcDbLine
 10
566.4641523482752
 20
119.6260834590323
 30
0.0
 11
566.4448987871049
 21
123.2997085275856
 31
0.0
  0
LINE
  5
7E0F
330
18
100
AcDbEntity
  8
1
100
AcDbLine
 10
561.0887739267998
 20
123.2997085275856
 30
0.0
 11
561.0887739267998
 21
119.6997085275856
 31
0.0
  0
LINE
  5
7E10
330
18
100
AcDbEntity
  8
1
100
AcDbLine
 10
561.4887739267998
 20
123.2997085275856
 30
0.0
 11
561.4887739267998
 21
119.6997085275856
 31
0.0
  0
LINE
  5
7E11
330
18
100
AcDbEntity
  8
1
100
AcDbLine
 10
585.2026246180315
 20
119.6997085275856
 30
0.0
 11
585.2026246180315
 21
123.2997085275856
 31
0.0
  0
LINE
  5
7E12
330
18
100
AcDbEntity
  8
1
100
AcDbLine
 10
585.2026246180315
 20
119.6997085275856
 30
0.0
 11
585.2026246180315
 21
123.2997085275856
 31
0.0
  0
LINE
  5
7E13
330
18
100
AcDbEntity
  8
1
100
AcDbLine
 10
584.8026246180315
 20
119.6997085275856
 30
0.0
 11
584.8026246180315
 21
123.2997085275856
 31
0.0
  0
LINE
  5
7E16
330
18
100
AcDbEntity
  8
1
100
AcDbLine
 10
615.5765403200755
 20
123.2997085275856
 30
0.0
 11
615.5765403200755
 21
119.6997085275856
 31
0.0
  0
LINE
  5
7E17
330
18
100
AcDbEntity
  8
1
100
AcDbLine
 10
616.6765403200754
 20
123.2997085275856
 30
0.0
 11
616.6765403200754
 21
119.6997085275856
 31
0.0
  0
LINE
  5
7E18
330
18
100
AcDbEntity
  8
1
100
AcDbLine
 10
623.0765403200755
 20
123.2997085275856
 30
0.0
 11
623.0765403200755
 21
119.6997085275856
 31
0.0
  0
LINE
  5
7E19
330
18
100
AcDbEntity
  8
1
100
AcDbLine
 10
624.1765403200754
 20
123.2997085275856
 30
0.0
 11
624.1765403200754
 21
119.6997085275856
 31
0.0
  0
LINE
  5
7E1A
330
18
100
AcDbEntity
  8
1
100
AcDbLine
 10
624.1765403200754
 20
123.2997085275856
 30
0.0
 11
623.0765403200755
 21
123.2997085275856
 31
0.0
  0
LINE
  5
7E1B
102
{ACAD_REACTORS
102
}
330
18
100
AcDbEntity
  8
1
 62
     3
100
AcDbLine
 10
615.5765403200755
 20
119.6997085275856
 30
0.0
 11
616.6765403200754
 21
119.6997085275856
 31
0.0
  0
LINE
  5
7E1C
330
18
100
AcDbEntity
  8
1
 62
     3
100
AcDbLine
 10
623.0765403200755
 20
119.6997085275856
 30
0.0
 11
624.1765403200754
 21
119.6997085275856
 31
0.0
  0
LINE
  5
7E1D
330
18
100
AcDbEntity
  8
OSIE
100
AcDbLine
 10
561.2887739267998
 20
118.5966054091664
 30
0.0
 11
561.2887739267998
 21
124.1493982625932
 31
0.0
  0
LINE
  5
7E1E
330
18
100
AcDbEntity
  8
OSIE
100
AcDbLine
 10
566.3641537216641
 20
118.5224562453017
 30
0.0
 11
566.3641537216641
 21
124.0752490987285
 31
0.0
  0
LINE
  5
7E20
330
18
100
AcDbEntity
  8
OSIE
100
AcDbLine
 10
585.0026246180315
 20
118.5966054091664
 30
0.0
 11
585.0026246180315
 21
124.1493982625932
 31
0.0
  0
LINE
  5
7E21
330
18
100
AcDbEntity
  8
OSIE
100
AcDbLine
 10
616.1265403200755
 20
118.5966054091664
 30
0.0
 11
616.1265403200755
 21
124.1493982625932
 31
0.0
  0
LINE
  5
7E22
330
18
100
AcDbEntity
  8
OSIE
100
AcDbLine
 10
623.6265403200755
 20
118.5966054091664
 30
0.0
 11
623.6265403200755
 21
124.1493982625932
 31
0.0
  0
LINE
  5
7E23
330
18
100
AcDbEntity
  8
OSIE
100
AcDbLine
 10
619.6415987978178
 20
153.2101986224765
 30
0.0
 11
619.6415987978178
 21
117.0790618177114
 31
0.0
  0
DIMENSION
  5
7E24
102
{ACAD_REACTORS
102
}
102
{ACAD_XDICTIONARY
360
7E25
102
}
330
18
100
AcDbEntity
  8
WY
100
AcDbDimension
  2
*D33
 10
589.2084045092938
 20
178.9961850156826
 30
0.0
 11
574.6584045092939
 21
179.9961850156826
 31
0.0
 70
    32
  3
STANDARD
100
AcDbAlignedDimension
 13
560.1084045092938
 23
175.0018722922004
 33
0.0
 14
589.2084045092938
 24
175.0018722922004
 34
0.0
100
AcDbRotatedDimension
1001
ACAD
1000
DSTYLE
1002
{
1070
    78
1070
     8
1070
    41
1040
1.5
1070
   271
1070
     1
1070
   147
1040
0.5
1070
   174
1070
     1
1070
    74
1070
     1
1070
   140
1040
1.0
1002
}
  0
LINE
  5
7E27
102
{ACAD_REACTORS
102
}
330
18
100
AcDbEntity
  8
OSIE
100
AcDbLine
 10
586.3084045092938
 20
173.9121423126084
 30
0.0
 11
586.3084045092938
 21
163.6356194276206
 31
0.0
  0
LINE
  5
7E29
102
{ACAD_REACTORS
102
}
330
18
100
AcDbEntity
  8
OSIE
100
AcDbLine
 10
566.3084045092938
 20
173.9121423126084
 30
0.0
 11
566.3084045092938
 21
163.6356194276206
 31
0.0
  0
LINE
  5
7E2A
102
{ACAD_REACTORS
102
}
330
18
100
AcDbEntity
  8
OSIE
100
AcDbLine
 10
561.3084045092938
 20
173.9121423126084
 30
0.0
 11
561.3084045092938
 21
163.6356194276206
 31
0.0
  0
DIMENSION
  5
7E2B
102
{ACAD_REACTORS
102
}
102
{ACAD_XDICTIONARY
360
7E2C
102
}
330
18
100
AcDbEntity
  8
WY
100
AcDbDimension
  2
*D34
 10
566.3084045092938
 20
156.4032907295345
 30
0.0
 11
576.3084045092938
 21
157.4032907295345
 31
0.0
 70
    32
  3
STANDARD
100
AcDbAlignedDimension
 13
586.3084045092938
 23
163.6356194276206
 33
0.0
 14
566.3084045092938
 24
163.6356194276206
 34
0.0
100
AcDbRotatedDimension
1001
ACAD
1000
DSTYLE
1002
{
1070
    78
1070
     8
1070
    41
1040
1.5
1070
   271
1070
     1
1070
   147
1040
0.5
1070
   174
1070
     1
1070
    74
1070
     1
1070
   140
1040
1.0
1002
}
  0
DIMENSION
  5
7E2E
102
{ACAD_REACTORS
102
}
102
{ACAD_XDICTIONARY
360
7E2F
102
}
330
18
100
AcDbEntity
  8
WY
100
AcDbDimension
  2
*D35
 10
561.3084045092938
 20
156.4032907295345
 30
0.0
 11
563.8084045092938
 21
157.4032907295345
 31
0.0
 70
    32
  3
STANDARD
100
AcDbAlignedDimension
 13
566.3084045092938
 23
163.6356194276206
 33
0.0
 14
561.3084045092938
 24
163.6356194276206
 34
0.0
100
AcDbRotatedDimension
1001
ACAD
1000
DSTYLE
1002
{
1070
    78
1070
     8
1070
    41
1040
1.5
1070
   271
1070
     1
1070
   147
1040
0.5
1070
   174
1070
     1
1070
    74
1070
     1
1070
   140
1040
1.0
1002
}
  0
DIMENSION
  5
7E34
102
{ACAD_REACTORS
102
}
102
{ACAD_XDICTIONARY
360
7E35
102
}
330
18
100
AcDbEntity
  8
WY
100
AcDbDimension
  2
*D37
 10
595.5189240358827
 20
165.0018722922004
 30
0.0
 11
594.5189240358827
 21
168.7518722922004
 31
0.0
 70
    32
  3
STANDARD
100
AcDbAlignedDimension
 13
589.4084045092937
 23
172.5018722922004
 33
0.0
 14
589.4084045092937
 24
165.0018722922004
 34
0.0
 50
90.0
100
AcDbRotatedDimension
1001
ACAD
1000
DSTYLE
1002
{
1070
    78
1070
     8
1070
    41
1040
1.5
1070
   271
1070
     1
1070
   147
1040
0.5
1070
   174
1070
     1
1070
    74
1070
     1
1070
   140
1040
1.0
1002
}
  0
DIMENSION
  5
7E37
102
{ACAD_REACTORS
102
}
102
{ACAD_XDICTIONARY
360
7E38
102
}
330
18
100
AcDbEntity
  8
WY
100
AcDbDimension
  2
*D38
 10
560.1084045092938
 20
156.4032907295345
 30
0.0
 11
555.7750711759604
 21
156.4032907295345
 31
0.0
 70
   160
  3
STANDARD
100
AcDbAlignedDimension
 13
561.3084045092938
 23
163.6356194276206
 33
0.0
 14
560.1084045092938
 24
162.5018722922004
 34
0.0
100
AcDbRotatedDimension
1001
ACAD
1000
DSTYLE
1002
{
1070
    78
1070
     8
1070
   172
1070
     1
1070
    41
1040
1.5
1070
   271
1070
     1
1070
   147
1040
0.5
1070
   174
1070
     1
1070
    74
1070
     1
1070
   140
1040
1.0
1002
}
  0
DIMENSION
  5
7E3A
102
{ACAD_REACTORS
102
}
102
{ACAD_XDICTIONARY
360
7E3B
102
}
330
18
100
AcDbEntity
  8
WY
100
AcDbDimension
  2
*D39
 10
553.7490852962221
 20
148.8997085275857
 30
0.0
 11
552.7490852962221
 21
136.0997085275857
 31
0.0
 70
    32
  3
STANDARD
100
AcDbAlignedDimension
 13
560.2321249726346
 23
123.2997085275856
 33
0.0
 14
560.9321249726345
 24
148.8997085275857
 34
0.0
 50
90.0
100
AcDbRotatedDimension
1001
ACAD
1000
DSTYLE
1002
{
1070
    41
1040
1.5
1070
   271
1070
     1
1070
   147
1040
0.5
1070
   174
1070
     1
1070
    74
1070
     1
1070
   140
1040
1.0
1070
   284
1070
     8
1070
    78
1070
     8
1002
}
  0
DIMENSION
  5
7E3D
102
{ACAD_REACTORS
102
}
102
{ACAD_XDICTIONARY
360
7E3E
102
}
330
18
100
AcDbEntity
  8
WY
100
AcDbDimension
  2
*D40
 10
553.7490852962221
 20
119.6997085275856
 30
0.0
 11
552.7490852962221
 21
121.4997085275856
 31
0.0
 70
    32
  3
STANDARD
100
AcDbAlignedDimension
 13
560.2321249726346
 23
123.2997085275856
 33
0.0
 14
561.0887739267998
 24
119.6997085275856
 34
0.0
 50
90.0
100
AcDbRotatedDimension
1001
ACAD
1000
DSTYLE
1002
{
1070
   172
1070
     1
1070
    41
1040
1.5
1070
   271
1070
     1
1070
   147
1040
0.5
1070
   174
1070
     1
1070
    74
1070
     1
1070
   140
1040
1.0
1070
   284
1070
     8
1070
    78
1070
     8
1002
}
  0
DIMENSION
  5
7E40
102
{ACAD_REACTORS
102
}
102
{ACAD_XDICTIONARY
360
7E41
102
}
330
18
100
AcDbEntity
  8
WY
100
AcDbDimension
  2
*D41
 10
625.8915987978178
 20
110.7164827482765
 30
0.0
 11
619.6415987978178
 21
111.7164827482765
 31
0.0
 70
    32
  3
STANDARD
100
AcDbAlignedDimension
 13
613.3915987978178
 23
123.2997085275856
 33
0.0
 14
625.8915987978178
 24
123.2997085275856
 34
0.0
100
AcDbRotatedDimension
1001
ACAD
1000
DSTYLE
1002
{
1070
    41
1040
1.5
1070
   271
1070
     1
1070
   147
1040
0.5
1070
   174
1070
     1
1070
    74
1070
     1
1070
   140
1040
1.0
1070
   284
1070
     8
1070
    78
1070
     8
1002
}
  0
DIMENSION
  5
7E43
102
{ACAD_REACTORS
102
}
102
{ACAD_XDICTIONARY
360
7E44
102
}
330
18
100
AcDbEntity
  8
WY
100
AcDbDimension
  2
*D42
 10
616.6765403200754
 20
114.5743211542361
 30
0.0
 11
620.8432069867421
 21
114.5743211542361
 31
0.0
 70
   160
  3
STANDARD
100
AcDbAlignedDimension
 13
615.5765403200755
 23
119.6997085275856
 33
0.0
 14
616.6765403200754
 24
119.6997085275856
 34
0.0
100
AcDbRotatedDimension
1001
ACAD
1000
DSTYLE
1002
{
1070
   172
1070
     1
1070
    41
1040
1.5
1070
   271
1070
     1
1070
   147
1040
0.5
1070
   174
1070
     1
1070
    74
1070
     1
1070
   140
1040
1.0
1070
   284
1070
     8
1070
    78
1070
     8
1002
}
  0
LINE
  5
7FAA
330
18
100
AcDbEntity
  8
1
100
AcDbLine
 10
585.2026246180315
 20
37.41835956155384
 30
0.0
 11
584.8026246180315
 21
37.41835956155384
 31
0.0
  0
LINE
  5
7FAB
102
{ACAD_REACTORS
102
}
330
18
100
AcDbEntity
  8
1
100
AcDbLine
 10
560.9321249726345
 20
66.61835956155392
 30
0.0
 11
588.4321249726346
 21
66.61835956155386
 31
0.0
  0
LINE
  5
7FAC
330
18
100
AcDbEntity
  8
1
100
AcDbLine
 10
589.2321249726346
 20
41.01835956155389
 30
0.0
 11
589.2321249726346
 21
65.81835956155385
 31
0.0
  0
LINE
  5
7FAD
330
18
100
AcDbEntity
  8
1
100
AcDbLine
 10
560.1321249726345
 20
41.11835956155389
 30
0.0
 11
560.1321249726345
 21
65.8183595615539
 31
0.0
  0
ARC
  5
7FAE
330
18
100
AcDbEntity
  8
1
100
AcDbCircle
 10
588.4321249726346
 20
65.81835956155385
 30
0.0
 40
0.8
100
AcDbArc
 50
0.0
 51
90.0
  0
ARC
  5
7FAF
330
18
100
AcDbEntity
  8
1
100
AcDbCircle
 10
560.9321249726346
 20
65.8183595615539
 30
0.0
 40
0.8
100
AcDbArc
 50
90.0
 51
180.0
  0
ARC
  5
7FB0
330
18
100
AcDbEntity
  8
1
100
AcDbCircle
 10
560.2321249726346
 20
41.11835956155389
 30
0.0
 40
0.1
100
AcDbArc
 50
180.0
 51
270.0
  0
LINE
  5
7FB1
102
{ACAD_REACTORS
102
}
330
18
100
AcDbEntity
  8
1
100
AcDbLine
 10
560.2321249726346
 20
41.01835956155389
 30
0.0
 11
589.2321249726346
 21
41.01835956155389
 31
0.0
  0
LINE
  5
7FB2
330
18
100
AcDbEntity
  8
1
100
AcDbLine
 10
560.1084045092938
 20
80.2948879709125
 30
0.0
 11
560.1084045092938
 21
92.7948879709125
 31
0.0
  0
LINE
  5
7FB3
330
18
100
AcDbEntity
  8
1
100
AcDbLine
 10
560.8084045092938
 20
80.99488797091249
 30
0.0
 11
560.8084045092938
 21
92.09488797091245
 31
0.0
  0
LINE
  5
7FB4
330
18
100
AcDbEntity
  8
1
100
AcDbLine
 10
588.5084045092938
 20
80.99488797091249
 30
0.0
 11
588.5084045092938
 21
92.09488797091245
 31
0.0
  0
LINE
  5
7FB5
102
{ACAD_REACTORS
102
}
330
18
100
AcDbEntity
  8
1
100
AcDbLine
 10
589.2084045092938
 20
80.2948879709125
 30
0.0
 11
589.2084045092938
 21
92.7948879709125
 31
0.0
  0
LINE
  5
7FB6
102
{ACAD_REACTORS
102
}
330
18
100
AcDbEntity
  8
1
100
AcDbLine
 10
560.1084045092938
 20
80.2948879709125
 30
0.0
 11
589.2084045092938
 21
80.2948879709125
 31
0.0
  0
LINE
  5
7FB7
102
{ACAD_REACTORS
102
}
330
18
100
AcDbEntity
  8
1
100
AcDbLine
 10
560.1084045092938
 20
92.7948879709125
 30
0.0
 11
589.2084045092938
 21
92.7948879709125
 31
0.0
  0
LINE
  5
7FB8
330
18
100
AcDbEntity
  8
1
100
AcDbLine
 10
560.8084045092938
 20
80.99488797091249
 30
0.0
 11
571.1584045092937
 21
80.99488797091249
 31
0.0
  0
LINE
  5
7FB9
330
18
100
AcDbEntity
  8
1
100
AcDbLine
 10
560.8084045092938
 20
92.09488797091245
 30
0.0
 11
571.1584045092937
 21
92.09488797091245
 31
0.0
  0
LINE
  5
7FBA
330
18
100
AcDbEntity
  8
OSIE
100
AcDbLine
 10
589.4084045092937
 20
86.5448879709125
 30
0.0
 11
559.9084045092937
 21
86.5448879709125
 31
0.0
  0
LINE
  5
7FBB
330
18
100
AcDbEntity
  8
OSIE
100
AcDbLine
 10
574.6584045092937
 20
80.09488797091251
 30
0.0
 11
574.6584045092937
 21
92.99488797091254
 31
0.0
  0
LINE
  5
7FBC
102
{ACAD_REACTORS
102
}
330
18
100
AcDbEntity
  8
OSIE
100
AcDbLine
 10
589.4084045092937
 20
90.2948879709125
 30
0.0
 11
559.9084045092937
 21
90.2948879709125
 31
0.0
  0
LINE
  5
7FBD
102
{ACAD_REACTORS
102
}
330
18
100
AcDbEntity
  8
OSIE
100
AcDbLine
 10
589.4084045092937
 20
82.7948879709125
 30
0.0
 11
559.9084045092937
 21
82.7948879709125
 31
0.0
  0
LINE
  5
7FBE
330
18
100
AcDbEntity
  8
1
100
AcDbLine
 10
586.5084045092938
 20
90.84488797091245
 30
0.0
 11
586.1084045092938
 21
90.84488797091245
 31
0.0
  0
LINE
  5
7FBF
330
18
100
AcDbEntity
  8
1
100
AcDbLine
 10
586.5084045092938
 20
89.74488797091243
 30
0.0
 11
586.1084045092938
 21
89.74488797091243
 31
0.0
  0
LINE
  5
7FC0
330
18
100
AcDbEntity
  8
1
100
AcDbLine
 10
586.5084045092938
 20
83.34488797091251
 30
0.0
 11
586.1084045092938
 21
83.34488797091251
 31
0.0
  0
LINE
  5
7FC1
330
18
100
AcDbEntity
  8
1
100
AcDbLine
 10
586.5084045092938
 20
82.24488797091252
 30
0.0
 11
586.1084045092938
 21
82.24488797091249
 31
0.0
  0
LINE
  5
7FC4
330
18
100
AcDbEntity
  8
1
100
AcDbLine
 10
586.1084045092938
 20
82.24488797091249
 30
0.0
 11
586.1084045092938
 21
83.34488797091251
 31
0.0
  0
LINE
  5
7FC5
330
18
100
AcDbEntity
  8
1
100
AcDbLine
 10
586.5084045092938
 20
82.24488797091249
 30
0.0
 11
586.5084045092938
 21
83.34488797091251
 31
0.0
  0
LINE
  5
7FC6
330
18
100
AcDbEntity
  8
1
100
AcDbLine
 10
566.2084045092938
 20
82.24488797091249
 30
0.0
 11
566.2084045092938
 21
83.34488797091251
 31
0.0
  0
LINE
  5
7FC7
330
18
100
AcDbEntity
  8
1
100
AcDbLine
 10
566.4084045092937
 20
82.24488797091249
 30
0.0
 11
566.4084045092937
 21
83.34488797091251
 31
0.0
  0
LINE
  5
7FC8
330
18
100
AcDbEntity
  8
1
100
AcDbLine
 10
586.1084045092938
 20
89.74488797091243
 30
0.0
 11
586.1084045092938
 21
90.84488797091245
 31
0.0
  0
LINE
  5
7FC9
330
18
100
AcDbEntity
  8
1
100
AcDbLine
 10
586.5084045092938
 20
89.74488797091243
 30
0.0
 11
586.5084045092938
 21
90.84488797091245
 31
0.0
  0
LINE
  5
7FCA
330
18
100
AcDbEntity
  8
1
100
AcDbLine
 10
566.4084045092937
 20
82.24488797091249
 30
0.0
 11
566.2084045092938
 21
82.24488797091249
 31
0.0
  0
LINE
  5
7FCB
330
18
100
AcDbEntity
  8
1
100
AcDbLine
 10
566.4084045092937
 20
83.34488797091251
 30
0.0
 11
566.2084045092938
 21
83.34488797091251
 31
0.0
  0
LINE
  5
7FCC
330
18
100
AcDbEntity
  8
1
100
AcDbLine
 10
566.4084045092937
 20
89.74488797091243
 30
0.0
 11
566.2084045092938
 21
89.74488797091243
 31
0.0
  0
LINE
  5
7FCD
330
18
100
AcDbEntity
  8
1
100
AcDbLine
 10
566.4084045092937
 20
90.84488797091245
 30
0.0
 11
566.2084045092938
 21
90.84488797091245
 31
0.0
  0
LINE
  5
7FD0
330
18
100
AcDbEntity
  8
1
100
AcDbLine
 10
566.2084045092938
 20
89.74488797091243
 30
0.0
 11
566.2084045092938
 21
90.84488797091245
 31
0.0
  0
LINE
  5
7FD1
330
18
100
AcDbEntity
  8
1
100
AcDbLine
 10
566.4084045092937
 20
89.74488797091243
 30
0.0
 11
566.4084045092937
 21
90.84488797091245
 31
0.0
  0
LINE
  5
7FD6
330
18
100
AcDbEntity
  8
1
100
AcDbLine
 10
571.1584045092937
 20
91.69488797091248
 30
0.0
 11
578.1584045092937
 21
91.69488797091248
 31
0.0
  0
LINE
  5
7FD7
330
18
100
AcDbEntity
  8
1
100
AcDbLine
 10
571.1584045092937
 20
91.69488797091248
 30
0.0
 11
571.1584045092937
 21
92.09488797091245
 31
0.0
  0
LINE
  5
7FD8
330
18
100
AcDbEntity
  8
1
100
AcDbLine
 10
578.1584045092937
 20
91.69488797091248
 30
0.0
 11
578.1584045092937
 21
92.09488797091245
 31
0.0
  0
LINE
  5
7FD9
330
18
100
AcDbEntity
  8
1
100
AcDbLine
 10
571.1584045092937
 20
81.39488797091249
 30
0.0
 11
578.1584045092937
 21
81.39488797091249
 31
0.0
  0
LINE
  5
7FDA
330
18
100
AcDbEntity
  8
1
100
AcDbLine
 10
578.1584045092937
 20
80.99488797091249
 30
0.0
 11
578.1584045092937
 21
81.39488797091249
 31
0.0
  0
LINE
  5
7FDB
330
18
100
AcDbEntity
  8
1
100
AcDbLine
 10
571.1584045092937
 20
80.99488797091249
 30
0.0
 11
571.1584045092937
 21
81.39488797091249
 31
0.0
  0
LINE
  5
7FDC
330
18
100
AcDbEntity
  8
1
100
AcDbLine
 10
578.1584045092937
 20
92.09488797091245
 30
0.0
 11
588.5084045092938
 21
92.09488797091245
 31
0.0
  0
LINE
  5
7FDD
330
18
100
AcDbEntity
  8
1
100
AcDbLine
 10
578.1584045092937
 20
80.99488797091249
 30
0.0
 11
588.5084045092938
 21
80.99488797091249
 31
0.0
  0
LINE
  5
7FDF
330
18
100
AcDbEntity
  8
1
100
AcDbLine
 10
566.2641550950531
 20
37.41783546624244
 30
0.0
 11
566.4641523482752
 21
37.4188836568653
 31
0.0
  0
LINE
  5
7FE0
330
18
100
AcDbEntity
  8
1
100
AcDbLine
 10
571.2294647083364
 20
37.41835956155387
 30
0.0
 11
571.6508392908089
 21
37.41835956155387
 31
0.0
  0
LINE
  5
7FE1
330
18
100
AcDbEntity
  8
1
100
AcDbLine
 10
571.5401519995727
 20
82.24488797091252
 30
0.0
 11
571.5401519995727
 21
83.34488797091251
 31
0.0
  0
LINE
  5
7FE2
330
18
100
AcDbEntity
  8
1
100
AcDbLine
 10
571.1401519995727
 20
82.24488797091252
 30
0.0
 11
571.1401519995727
 21
83.34488797091251
 31
0.0
  0
LINE
  5
7FE3
330
18
100
AcDbEntity
  8
1
100
AcDbLine
 10
571.5401519995727
 20
82.24488797091249
 30
0.0
 11
571.1401519995727
 21
82.24488797091249
 31
0.0
  0
LINE
  5
7FE4
330
18
100
AcDbEntity
  8
1
100
AcDbLine
 10
571.5401519995727
 20
83.34488797091251
 30
0.0
 11
571.1401519995727
 21
83.34488797091251
 31
0.0
  0
LINE
  5
7FE5
330
18
100
AcDbEntity
  8
1
100
AcDbLine
 10
571.5401519995727
 20
89.74488797091254
 30
0.0
 11
571.5401519995727
 21
90.84488797091245
 31
0.0
  0
LINE
  5
7FE6
330
18
100
AcDbEntity
  8
1
100
AcDbLine
 10
571.1401519995727
 20
89.74488797091254
 30
0.0
 11
571.1401519995727
 21
90.84488797091245
 31
0.0
  0
LINE
  5
7FE7
330
18
100
AcDbEntity
  8
1
100
AcDbLine
 10
571.5401519995727
 20
89.74488797091243
 30
0.0
 11
571.1401519995727
 21
89.74488797091243
 31
0.0
  0
LINE
  5
7FE8
330
18
100
AcDbEntity
  8
1
100
AcDbLine
 10
571.5401519995727
 20
90.84488797091245
 30
0.0
 11
571.1401519995727
 21
90.84488797091245
 31
0.0
  0
ARC
  5
7FE9
330
18
100
AcDbEntity
  8
1
100
AcDbCircle
 10
614.1915987978177
 20
65.8183595615539
 30
0.0
 40
0.8
100
AcDbArc
 50
90.0
 51
180.0
  0
ARC
  5
7FEA
330
18
100
AcDbEntity
  8
1
100
AcDbCircle
 10
625.0915987978178
 20
65.81835956155385
 30
0.0
 40
0.8
100
AcDbArc
 50
0.0
 51
90.0
  0
LINE
  5
7FEB
330
18
100
AcDbEntity
  8
1
100
AcDbLine
 10
613.3915987978178
 20
41.01835956155389
 30
0.0
 11
613.3915987978178
 21
65.8183595615539
 31
0.0
  0
LINE
  5
7FEC
330
18
100
AcDbEntity
  8
1
100
AcDbLine
 10
625.8915987978178
 20
41.01835956155389
 30
0.0
 11
625.8915987978178
 21
65.81835956155385
 31
0.0
  0
LINE
  5
7FED
330
18
100
AcDbEntity
  8
1
100
AcDbLine
 10
614.1915987978177
 20
66.61835956155392
 30
0.0
 11
625.0915987978178
 21
66.61835956155386
 31
0.0
  0
LINE
  5
7FEE
102
{ACAD_REACTORS
102
}
330
18
100
AcDbEntity
  8
1
100
AcDbLine
 10
613.3915987978178
 20
41.01835956155389
 30
0.0
 11
614.3915987978178
 21
41.01835956155389
 31
0.0
  0
LINE
  5
7FEF
102
{ACAD_REACTORS
102
}
330
18
100
AcDbEntity
  8
1
100
AcDbLine
 10
625.8915987978178
 20
41.01835956155389
 30
0.0
 11
624.8915987978178
 21
41.01835956155389
 31
0.0
  0
LINE
  5
7FF0
330
18
100
AcDbEntity
  8
1
100
AcDbLine
 10
624.8915987978178
 20
41.01835956155389
 30
0.0
 11
614.3915987978178
 21
41.01835956155389
 31
0.0
  0
LINE
  5
7FF1
330
18
100
AcDbEntity
  8
1
100
AcDbLine
 10
566.2448960402894
 20
41.01835956155389
 30
0.0
 11
566.2641550950531
 21
37.41783546624244
 31
0.0
  0
LINE
  5
7FF2
330
18
100
AcDbEntity
  8
1
100
AcDbLine
 10
566.4641523482752
 20
37.4188836568653
 30
0.0
 11
566.4448987871049
 21
41.01835956155389
 31
0.0
  0
LINE
  5
7FF5
330
18
100
AcDbEntity
  8
1
100
AcDbLine
 10
585.2026246180315
 20
37.41835956155384
 30
0.0
 11
585.2026246180315
 21
41.01835956155389
 31
0.0
  0
LINE
  5
7FF6
330
18
100
AcDbEntity
  8
1
100
AcDbLine
 10
585.2026246180315
 20
37.41835956155384
 30
0.0
 11
585.2026246180315
 21
41.01835956155389
 31
0.0
  0
LINE
  5
7FF7
330
18
100
AcDbEntity
  8
1
100
AcDbLine
 10
584.8026246180315
 20
37.41835956155384
 30
0.0
 11
584.8026246180315
 21
41.01835956155389
 31
0.0
  0
LINE
  5
7FF8
330
18
100
AcDbEntity
  8
1
100
AcDbLine
 10
571.2294647083364
 20
41.01835956155389
 30
0.0
 11
571.2294647083364
 21
37.41835956155387
 31
0.0
  0
LINE
  5
7FF9
330
18
100
AcDbEntity
  8
1
100
AcDbLine
 10
571.6508392908089
 20
41.01835956155389
 30
0.0
 11
571.6508392908089
 21
37.41835956155387
 31
0.0
  0
LINE
  5
7FFA
330
18
100
AcDbEntity
  8
1
100
AcDbLine
 10
615.5765403200755
 20
41.01835956155389
 30
0.0
 11
615.5765403200755
 21
37.41835956155384
 31
0.0
  0
LINE
  5
7FFB
330
18
100
AcDbEntity
  8
1
100
AcDbLine
 10
616.6765403200754
 20
41.01835956155389
 30
0.0
 11
616.6765403200754
 21
37.41835956155384
 31
0.0
  0
LINE
  5
7FFC
330
18
100
AcDbEntity
  8
1
100
AcDbLine
 10
623.0765403200755
 20
41.01835956155389
 30
0.0
 11
623.0765403200755
 21
37.41835956155384
 31
0.0
  0
LINE
  5
7FFD
330
18
100
AcDbEntity
  8
1
100
AcDbLine
 10
624.1765403200754
 20
41.01835956155389
 30
0.0
 11
624.1765403200754
 21
37.41835956155384
 31
0.0
  0
LINE
  5
7FFE
330
18
100
AcDbEntity
  8
1
100
AcDbLine
 10
624.1765403200754
 20
41.01835956155389
 30
0.0
 11
623.0765403200755
 21
41.01835956155389
 31
0.0
  0
LINE
  5
7FFF
102
{ACAD_REACTORS
102
}
330
18
100
AcDbEntity
  8
1
 62
     3
100
AcDbLine
 10
615.5765403200755
 20
37.41835956155384
 30
0.0
 11
616.6765403200754
 21
37.41835956155384
 31
0.0
  0
LINE
  5
8000
330
18
100
AcDbEntity
  8
1
 62
     3
100
AcDbLine
 10
623.0765403200755
 20
37.41835956155384
 30
0.0
 11
624.1765403200754
 21
37.41835956155384
 31
0.0
  0
LINE
  5
8002
330
18
100
AcDbEntity
  8
OSIE
100
AcDbLine
 10
566.3641537216641
 20
36.24110727926995
 30
0.0
 11
566.3641537216641
 21
41.79390013269676
 31
0.0
  0
LINE
  5
8003
330
18
100
AcDbEntity
  8
OSIE
100
AcDbLine
 10
571.4401519995727
 20
36.31525644313464
 30
0.0
 11
571.4401519995727
 21
41.86804929656145
 31
0.0
  0
LINE
  5
8004
330
18
100
AcDbEntity
  8
OSIE
100
AcDbLine
 10
585.0026246180315
 20
36.31525644313461
 30
0.0
 11
585.0026246180315
 21
41.86804929656142
 31
0.0
  0
LINE
  5
8005
330
18
100
AcDbEntity
  8
OSIE
100
AcDbLine
 10
616.1265403200755
 20
36.31525644313461
 30
0.0
 11
616.1265403200755
 21
41.86804929656142
 31
0.0
  0
LINE
  5
8006
330
18
100
AcDbEntity
  8
OSIE
100
AcDbLine
 10
623.6265403200755
 20
36.31525644313461
 30
0.0
 11
623.6265403200755
 21
41.86804929656142
 31
0.0
  0
LINE
  5
8007
330
18
100
AcDbEntity
  8
OSIE
100
AcDbLine
 10
619.6415987978178
 20
70.9288496564447
 30
0.0
 11
619.6415987978178
 21
34.79771285167968
 31
0.0
  0
DIMENSION
  5
8008
102
{ACAD_REACTORS
102
}
102
{ACAD_XDICTIONARY
360
8009
102
}
330
18
100
AcDbEntity
  8
WY
100
AcDbDimension
  2
*D52
 10
589.2084045092938
 20
96.78920069439465
 30
0.0
 11
574.6584045092939
 21
97.78920069439465
 31
0.0
 70
    32
  3
STANDARD
100
AcDbAlignedDimension
 13
560.1084045092938
 23
92.7948879709125
 33
0.0
 14
589.2084045092938
 24
92.7948879709125
 34
0.0
100
AcDbRotatedDimension
1001
ACAD
1000
DSTYLE
1002
{
1070
    78
1070
     8
1070
    41
1040
1.5
1070
   271
1070
     1
1070
   147
1040
0.5
1070
   174
1070
     1
1070
    74
1070
     1
1070
   140
1040
1.0
1002
}
  0
LINE
  5
800B
102
{ACAD_REACTORS
102
}
330
18
100
AcDbEntity
  8
OSIE
100
AcDbLine
 10
586.3084045092938
 20
91.7051579913205
 30
0.0
 11
586.3084045092938
 21
81.42863510633268
 31
0.0
  0
LINE
  5
800C
102
{ACAD_REACTORS
102
}
330
18
100
AcDbEntity
  8
OSIE
100
AcDbLine
 10
571.3401519995728
 20
91.7051579913205
 30
0.0
 11
571.3401519995728
 21
81.42863510633268
 31
0.0
  0
LINE
  5
800D
102
{ACAD_REACTORS
330
8014
102
}
330
18
100
AcDbEntity
  8
OSIE
100
AcDbLine
 10
566.3084045092938
 20
91.7051579913205
 30
0.0
 11
566.3084045092938
 21
81.42863510633268
 31
0.0
  0
DIMENSION
  5
800F
102
{ACAD_REACTORS
102
}
102
{ACAD_XDICTIONARY
360
8010
102
}
330
18
100
AcDbEntity
  8
WY
100
AcDbDimension
  2
*D53
 10
571.3401519995728
 20
74.19630640824664
 30
0.0
 11
578.8242782544332
 21
75.19630640824664
 31
0.0
 70
    32
  3
STANDARD
100
AcDbAlignedDimension
 13
586.3084045092938
 23
81.42863510633268
 33
0.0
 14
571.3401519995728
 24
81.42863510633268
 34
0.0
100
AcDbRotatedDimension
1001
ACAD
1000
DSTYLE
1002
{
1070
    78
1070
     8
1070
    41
1040
1.5
1070
   271
1070
     1
1070
   147
1040
0.5
1070
   174
1070
     1
1070
    74
1070
     1
1070
   140
1040
1.0
1002
}
  0
DIMENSION
  5
8015
102
{ACAD_REACTORS
102
}
102
{ACAD_XDICTIONARY
360
8016
102
}
330
18
100
AcDbEntity
  8
WY
100
AcDbDimension
  2
*D55
 10
571.3401519995728
 20
74.19630640824664
 30
0.0
 11
568.8242782544332
 21
75.19630640824664
 31
0.0
 70
    32
  3
STANDARD
100
AcDbAlignedDimension
 13
566.3084045092938
 23
81.42863510633268
 33
0.0
 14
571.3401519995728
 24
81.42863510633268
 34
0.0
100
AcDbRotatedDimension
1001
ACAD
1000
DSTYLE
1002
{
1070
    78
1070
     8
1070
    41
1040
1.5
1070
   271
1070
     1
1070
   147
1040
0.5
1070
   174
1070
     1
1070
    74
1070
     1
1070
   140
1040
1.0
1002
}
  0
DIMENSION
  5
8018
102
{ACAD_REACTORS
102
}
102
{ACAD_XDICTIONARY
360
8019
102
}
330
18
100
AcDbEntity
  8
WY
100
AcDbDimension
  2
*D56
 10
595.5189240358827
 20
82.7948879709125
 30
0.0
 11
594.5189240358827
 21
86.5448879709125
 31
0.0
 70
    32
  3
STANDARD
100
AcDbAlignedDimension
 13
589.4084045092937
 23
90.2948879709125
 33
0.0
 14
589.4084045092937
 24
82.7948879709125
 34
0.0
 50
90.0
100
AcDbRotatedDimension
1001
ACAD
1000
DSTYLE
1002
{
1070
    78
1070
     8
1070
    41
1040
1.5
1070
   271
1070
     1
1070
   147
1040
0.5
1070
   174
1070
     1
1070
    74
1070
     1
1070
   140
1040
1.0
1002
}
  0
DIMENSION
  5
801B
102
{ACAD_REACTORS
102
}
102
{ACAD_XDICTIONARY
360
801C
102
}
330
18
100
AcDbEntity
  8
WY
100
AcDbDimension
  2
*D57
 10
560.1084045092938
 20
74.19630640824664
 30
0.0
 11
555.7750711759604
 21
74.19630640824664
 31
0.0
 70
   160
  3
STANDARD
100
AcDbAlignedDimension
 13
566.3084045092938
 23
81.42863510633268
 33
0.0
 14
560.1084045092938
 24
80.2948879709125
 34
0.0
100
AcDbRotatedDimension
1001
ACAD
1000
DSTYLE
1002
{
1070
    78
1070
     8
1070
   172
1070
     1
1070
    41
1040
1.5
1070
   271
1070
     1
1070
   147
1040
0.5
1070
   174
1070
     1
1070
    74
1070
     1
1070
   140
1040
1.0
1002
}
  0
DIMENSION
  5
801E
102
{ACAD_REACTORS
102
}
102
{ACAD_XDICTIONARY
360
801F
102
}
330
18
100
AcDbEntity
  8
WY
100
AcDbDimension
  2
*D58
 10
553.7490852962221
 20
66.61835956155392
 30
0.0
 11
552.7490852962221
 21
53.8183595615539
 31
0.0
 70
    32
  3
STANDARD
100
AcDbAlignedDimension
 13
560.2321249726346
 23
41.01835956155389
 33
0.0
 14
560.9321249726345
 24
66.61835956155392
 34
0.0
 50
90.0
100
AcDbRotatedDimension
1001
ACAD
1000
DSTYLE
1002
{
1070
    41
1040
1.5
1070
   271
1070
     1
1070
   147
1040
0.5
1070
   174
1070
     1
1070
    74
1070
     1
1070
   140
1040
1.0
1070
   284
1070
     8
1070
    78
1070
     8
1002
}
  0
DIMENSION
  5
8021
102
{ACAD_REACTORS
102
}
102
{ACAD_XDICTIONARY
360
8022
102
}
330
18
100
AcDbEntity
  8
WY
100
AcDbDimension
  2
*D59
 10
553.7490852962221
 20
37.41783546624244
 30
0.0
 11
552.7490852962221
 21
39.21809751389817
 31
0.0
 70
    32
  3
STANDARD
100
AcDbAlignedDimension
 13
560.2321249726346
 23
41.01835956155389
 33
0.0
 14
566.2641550950531
 24
37.41783546624244
 34
0.0
 50
90.0
100
AcDbRotatedDimension
1001
ACAD
1000
DSTYLE
1002
{
1070
   172
1070
     1
1070
    41
1040
1.5
1070
   271
1070
     1
1070
   147
1040
0.5
1070
   174
1070
     1
1070
    74
1070
     1
1070
   140
1040
1.0
1070
   284
1070
     8
1070
    78
1070
     8
1002
}
  0
DIMENSION
  5
8024
102
{ACAD_REACTORS
102
}
102
{ACAD_XDICTIONARY
360
8025
102
}
330
18
100
AcDbEntity
  8
WY
100
AcDbDimension
  2
*D60
 10
625.8915987978178
 20
28.43513378224478
 30
0.0
 11
619.6415987978178
 21
29.43513378224478
 31
0.0
 70
    32
  3
STANDARD
100
AcDbAlignedDimension
 13
613.3915987978178
 23
41.01835956155389
 33
0.0
 14
625.8915987978178
 24
41.01835956155389
 34
0.0
100
AcDbRotatedDimension
1001
ACAD
1000
DSTYLE
1002
{
1070
    41
1040
1.5
1070
   271
1070
     1
1070
   147
1040
0.5
1070
   174
1070
     1
1070
    74
1070
     1
1070
   140
1040
1.0
1070
   284
1070
     8
1070
    78
1070
     8
1002
}
  0
DIMENSION
  5
8027
102
{ACAD_REACTORS
102
}
102
{ACAD_XDICTIONARY
360
8028
102
}
330
18
100
AcDbEntity
  8
WY
100
AcDbDimension
  2
*D61
 10
616.6765403200754
 20
32.29297218820435
 30
0.0
 11
620.8432069867421
 21
32.29297218820435
 31
0.0
 70
   160
  3
STANDARD
100
AcDbAlignedDimension
 13
615.5765403200755
 23
37.41835956155384
 33
0.0
 14
616.6765403200754
 24
37.41835956155384
 34
0.0
100
AcDbRotatedDimension
1001
ACAD
1000
DSTYLE
1002
{
1070
   172
1070
     1
1070
    41
1040
1.5
1070
   271
1070
     1
1070
   147
1040
0.5
1070
   174
1070
     1
1070
    74
1070
     1
1070
   140
1040
1.0
1070
   284
1070
     8
1070
    78
1070
     8
1002
}
  0
ENDSEC
  0
SECTION
  2
OBJECTS
  0
DICTIONARY
  5
C
330
0
100
AcDbDictionary
  3
ACAD_DETAILVIEWSTYLE
350
7CED
  3
ACAD_GROUP
350
D
  3
ACAD_IMAGE_VARS
350
77CF
  3
ACAD_MLINESTYLE
350
E
  3
ACAD_SCALELIST
350
7787
  3
ACAD_SECTIONVIEWSTYLE
350
7CEE
  3
ACDBVARIABLEDICTIONARY
350
C1B
  3
APPDATA
350
77CD
  3
DIMOFFSETDICTIONARY
350
7CF4
  3
DWGPROPS
350
80AC
  0
DICTIONARY
  5
7CDC
330
2
100
AcDbDictionary
280
     1
  3
ACAD_LAYERSTATES
360
7CDD
  0
DICTIONARY
  5
7CFE
330
7CFD
100
AcDbDictionary
280
     1
  0
DICTIONARY
  5
7D23
330
7D22
100
AcDbDictionary
280
     1
  0
DICTIONARY
  5
7D41
330
7D40
100
AcDbDictionary
280
     1
  0
DICTIONARY
  5
7D50
330
7D4F
100
AcDbDictionary
280
     1
  0
DICTIONARY
  5
7D5F
330
7D5E
100
AcDbDictionary
280
     1
  0
DICTIONARY
  5
7D6E
330
7D6D
100
AcDbDictionary
280
     1
  0
DICTIONARY
  5
7D84
330
7D83
100
AcDbDictionary
280
     1
  0
DICTIONARY
  5
7D93
330
7D92
100
AcDbDictionary
280
     1
  0
DICTIONARY
  5
7DA4
330
7DA3
100
AcDbDictionary
280
     1
  0
DICTIONARY
  5
7DB3
330
7DB2
100
AcDbDictionary
280
     1
  0
DICTIONARY
  5
7E25
330
7E24
100
AcDbDictionary
280
     1
  0
DICTIONARY
  5
7E2C
330
7E2B
100
AcDbDictionary
280
     1
  0
DICTIONARY
  5
7E2F
330
7E2E
100
AcDbDictionary
280
     1
  0
DICTIONARY
  5
7E35
330
7E34
100
AcDbDictionary
280
     1
  0
DICTIONARY
  5
7E38
330
7E37
100
AcDbDictionary
280
     1
  0
DICTIONARY
  5
7E3B
330
7E3A
100
AcDbDictionary
280
     1
  0
DICTIONARY
  5
7E3E
330
7E3D
100
AcDbDictionary
280
     1
  0
DICTIONARY
  5
7E41
330
7E40
100
AcDbDictionary
280
     1
  0
DICTIONARY
  5
7E44
330
7E43
100
AcDbDictionary
280
     1
  0
DICTIONARY
  5
8009
330
8008
100
AcDbDictionary
280
     1
  0
DICTIONARY
  5
8010
330
800F
100
AcDbDictionary
280
     1
  0
DICTIONARY
  5
8016
330
8015
100
AcDbDictionary
280
     1
  0
DICTIONARY
  5
8019
330
8018
100
AcDbDictionary
280
     1
  0
DICTIONARY
  5
801C
330
801B
100
AcDbDictionary
280
     1
  0
DICTIONARY
  5
801F
330
801E
100
AcDbDictionary
280
     1
  0
DICTIONARY
  5
8022
330
8021
100
AcDbDictionary
280
     1
  0
DICTIONARY
  5
8025
330
8024
100
AcDbDictionary
280
     1
  0
DICTIONARY
  5
8028
330
8027
100
AcDbDictionary
280
     1
  0
DICTIONARY
  5
7CED
102
{ACAD_REACTORS
330
C
102
}
330
C
100
AcDbDictionary
  0
DICTIONARY
  5
D
102
{ACAD_REACTORS
330
C
102
}
330
C
100
AcDbDictionary
  0
RASTERVARIABLES
  5
77CF
102
{ACAD_REACTORS
330
C
102
}
330
C
100
AcDbRasterVariables
 90
        0
 70
     1
 71
     1
 72
     0
  0
DICTIONARY
  5
E
102
{ACAD_REACTORS
330
C
102
}
330
C
100
AcDbDictionary
  3
STANDARD
350
1B
  0
DICTIONARY
  5
7787
102
{ACAD_REACTORS
330
C
102
}
330
C
100
AcDbDictionary
  0
DICTIONARY
  5
7CEE
102
{ACAD_REACTORS
330
C
102
}
330
C
100
AcDbDictionary
  0
DICTIONARY
  5
C1B
102
{ACAD_REACTORS
330
C
102
}
330
C
100
AcDbDictionary
  3
HPTRANSPARENCY
350
7CF3
  3
SORTENTS
350
C1C
  0
DICTIONARY
  5
77CD
102
{ACAD_REACTORS
330
C
102
}
330
C
100
AcDbDictionary
  0
DICTIONARY
  5
7CF4
102
{ACAD_REACTORS
330
C
102
}
330
C
100
AcDbDictionary
  3
DIMRAILANGLE
350
7D81
  3
DIMRAILFIRSTOFFSET
350
7D7F
  3
DIMRAILOFFSET
350
7D80
  3
DIMRAILSENABLED
350
7D82
  0
XRECORD
  5
80AC
102
{ACAD_REACTORS
330
C
102
}
330
C
100
AcDbXrecord
  1
DWGPROPS COOKIE
  2

  3

  4

  6

  7

  8
pikusl
  9

300
=
301
=
302
=
303
=
304
=
305
=
306
=
307
=
308
=
309
=
 40
0.0
 41
2448721.315803356
 42
2457522.276488889
  1

 90
        0
  0
DICTIONARY
  5
7CDD
102
{ACAD_REACTORS
330
7CDC
102
}
330
7CDC
100
AcDbDictionary
  0
MLINESTYLE
  5
1B
102
{ACAD_REACTORS
330
E
102
}
330
E
100
AcDbMlineStyle
  2
STANDARD
 70
     0
  3

 62
     0
 51
90.0
 52
90.0
 71
     2
 49
0.5
 62
   256
  6
BYLAYER
 49
-0.5
 62
   256
  6
BYLAYER
  0
DICTIONARYVAR
  5
7CF3
102
{ACAD_REACTORS
330
C1B
102
}
330
C1B
100
DictionaryVariables
280
     0
  1
ByLayer
  0
DICTIONARYVAR
  5
C1C
102
{ACAD_REACTORS
330
C1B
102
}
330
C1B
100
DictionaryVariables
280
     0
  1
96
  0
DICTIONARYVAR
  5
7D81
102
{ACAD_REACTORS
330
7CF4
102
}
330
7CF4
100
DictionaryVariables
280
     0
  1
0.261799
  0
DICTIONARYVAR
  5
7D7F
102
{ACAD_REACTORS
330
7CF4
102
}
330
7CF4
100
DictionaryVariables
280
     0
  1
0.400000
  0
DICTIONARYVAR
  5
7D80
102
{ACAD_REACTORS
330
7CF4
102
}
330
7CF4
100
DictionaryVariables
280
     0
  1
0.250000
  0
DICTIONARYVAR
  5
7D82
102
{ACAD_REACTORS
330
7CF4
102
}
330
7CF4
100
DictionaryVariables
280
     0
  1
1
  0
ENDSEC
  0
EOF
