  0
SECTION
  2
HEADER
  9
$ACADVER
  1
AC1014
  9
$ACADMAINTVER
 70
     9
  9
$DWGCODEPAGE
  3
ANSI_1250
  9
$INSBASE
 10
0.0
 20
0.0
 30
0.0
  9
$EXTMIN
 10
486.041244
 20
0.0
 30
0.0
  9
$EXTMAX
 10
687.671651
 20
297.0
 30
0.0
  9
$LIMMIN
 10
0.0
 20
0.0
  9
$LIMMAX
 10
420.0
 20
297.0
  9
$ORTHOMODE
 70
     0
  9
$REGENMODE
 70
     1
  9
$FILLMODE
 70
     1
  9
$QTEXTMODE
 70
     0
  9
$MIRRTEXT
 70
     1
  9
$DRAGMODE
 70
     2
  9
$LTSCALE
 40
6.0
  9
$OSMODE
 70
 13247
  9
$ATTMODE
 70
     1
  9
$TEXTSIZE
 40
3.5
  9
$TRACEWID
 40
0.05
  9
$TEXTSTYLE
  7
ITALIC
  9
$CLAYER
  8
WYMIARY
  9
$CELTYPE
  6
BYLAYER
  9
$CECOLOR
 62
     3
  9
$CELTSCALE
 40
1.0
  9
$DELOBJ
 70
     1
  9
$DISPSILH
 70
     0
  9
$DIMSCALE
 40
1.0
  9
$DIMASZ
 40
2.0
  9
$DIMEXO
 40
1.5
  9
$DIMDLI
 40
7.0
  9
$DIMRND
 40
0.0
  9
$DIMDLE
 40
0.0
  9
$DIMEXE
 40
1.5
  9
$DIMTP
 40
0.1
  9
$DIMTM
 40
0.0
  9
$DIMTXT
 40
1.0
  9
$DIMCEN
 40
-1.0
  9
$DIMTSZ
 40
0.0
  9
$DIMTOL
 70
     0
  9
$DIMLIM
 70
     0
  9
$DIMTIH
 70
     0
  9
$DIMTOH
 70
     0
  9
$DIMSE1
 70
     0
  9
$DIMSE2
 70
     0
  9
$DIMTAD
 70
     1
  9
$DIMZIN
 70
     0
  9
$DIMBLK
  1

  9
$DIMASO
 70
     1
  9
$DIMSHO
 70
     0
  9
$DIMPOST
  1

  9
$DIMAPOST
  1

  9
$DIMALT
 70
     0
  9
$DIMALTD
 70
     2
  9
$DIMALTF
 40
25.4
  9
$DIMLFAC
 40
1.0
  9
$DIMTOFL
 70
     0
  9
$DIMTVP
 40
0.0
  9
$DIMTIX
 70
     0
  9
$DIMSOXD
 70
     0
  9
$DIMSAH
 70
     0
  9
$DIMBLK1
  1

  9
$DIMBLK2
  1

  9
$DIMSTYLE
  2
STANDARD
  9
$DIMCLRD
 70
     0
  9
$DIMCLRE
 70
     0
  9
$DIMCLRT
 70
     0
  9
$DIMTFAC
 40
1.0
  9
$DIMGAP
 40
0.5
  9
$DIMJUST
 70
     0
  9
$DIMSD1
 70
     0
  9
$DIMSD2
 70
     0
  9
$DIMTOLJ
 70
     1
  9
$DIMTZIN
 70
     0
  9
$DIMALTZ
 70
     0
  9
$DIMALTTZ
 70
     0
  9
$DIMFIT
 70
     5
  9
$DIMUPT
 70
     0
  9
$DIMUNIT
 70
     2
  9
$DIMDEC
 70
     2
  9
$DIMTDEC
 70
     4
  9
$DIMALTU
 70
     2
  9
$DIMALTTD
 70
     2
  9
$DIMTXSTY
  7
STANDARD
  9
$DIMAUNIT
 70
     0
  9
$LUNITS
 70
     2
  9
$LUPREC
 70
     2
  9
$SKETCHINC
 40
0.1
  9
$FILLETRAD
 40
0.1
  9
$AUNITS
 70
     0
  9
$AUPREC
 70
     2
  9
$MENU
  1
ACAD
  9
$ELEVATION
 40
0.0
  9
$PELEVATION
 40
0.0
  9
$THICKNESS
 40
0.0
  9
$LIMCHECK
 70
     0
  9
$CHAMFERA
 40
0.0
  9
$CHAMFERB
 40
0.0
  9
$CHAMFERC
 40
0.0
  9
$CHAMFERD
 40
0.0
  9
$SKPOLY
 70
     0
  9
$TDCREATE
 40
2448721.39913669
  9
$TDUPDATE
 40
2457553.620213426
  9
$TDINDWG
 40
1.5618651968
  9
$TDUSRTIMER
 40
2457553.535419676
  9
$USRTIMER
 70
     1
  9
$ANGBASE
 50
0.0
  9
$ANGDIR
 70
     0
  9
$PDMODE
 70
     0
  9
$PDSIZE
 40
0.0
  9
$PLINEWID
 40
0.5
  9
$COORDS
 70
     1
  9
$SPLFRAME
 70
     0
  9
$SPLINETYPE
 70
     6
  9
$SPLINESEGS
 70
     8
  9
$ATTDIA
 70
     0
  9
$ATTREQ
 70
     1
  9
$HANDLING
 70
     1
  9
$HANDSEED
  5
8202
  9
$SURFTAB1
 70
     6
  9
$SURFTAB2
 70
     6
  9
$SURFTYPE
 70
     6
  9
$SURFU
 70
     6
  9
$SURFV
 70
     6
  9
$UCSNAME
  2

  9
$UCSORG
 10
0.0
 20
0.0
 30
0.0
  9
$UCSXDIR
 10
1.0
 20
0.0
 30
0.0
  9
$UCSYDIR
 10
0.0
 20
1.0
 30
0.0
  9
$PUCSNAME
  2

  9
$PUCSORG
 10
0.0
 20
0.0
 30
0.0
  9
$PUCSXDIR
 10
1.0
 20
0.0
 30
0.0
  9
$PUCSYDIR
 10
0.0
 20
1.0
 30
0.0
  9
$USERI1
 70
     0
  9
$USERI2
 70
     0
  9
$USERI3
 70
     0
  9
$USERI4
 70
     0
  9
$USERI5
 70
     0
  9
$USERR1
 40
0.0
  9
$USERR2
 40
0.0
  9
$USERR3
 40
0.0
  9
$USERR4
 40
0.0
  9
$USERR5
 40
0.0
  9
$WORLDVIEW
 70
     1
  9
$SHADEDGE
 70
     3
  9
$SHADEDIF
 70
    70
  9
$TILEMODE
 70
     1
  9
$MAXACTVP
 70
    16
  9
$PINSBASE
 10
0.0
 20
0.0
 30
0.0
  9
$PLIMCHECK
 70
     0
  9
$PEXTMIN
 10
1.000000000000000E+20
 20
1.000000000000000E+20
 30
1.000000000000000E+20
  9
$PEXTMAX
 10
-1.000000000000000E+20
 20
-1.000000000000000E+20
 30
-1.000000000000000E+20
  9
$PLIMMIN
 10
0.0
 20
0.0
  9
$PLIMMAX
 10
0.0
 20
0.0
  9
$UNITMODE
 70
     0
  9
$VISRETAIN
 70
     0
  9
$PLINEGEN
 70
     0
  9
$PSLTSCALE
 70
     0
  9
$TREEDEPTH
 70
  3020
  9
$PICKSTYLE
 70
     1
  9
$CMLSTYLE
  2
STANDARD
  9
$CMLJUST
 70
     0
  9
$CMLSCALE
 40
1.0
  9
$PROXYGRAPHICS
 70
     1
  9
$MEASUREMENT
 70
     0
  0
ENDSEC
  0
SECTION
  2
CLASSES
  0
CLASS
  1
HATCH
  2
AcDbHatch
  3
ObjectDBX Classes
 90
        0
280
     0
281
     1
  0
CLASS
  1
LWPOLYLINE
  2
AcDbPolyline
  3
ObjectDBX Classes
 90
        0
280
     0
281
     1
  0
CLASS
  1
DICTIONARYVAR
  2
AcDbDictionaryVar
  3
ObjectDBX Classes
 90
        0
280
     0
281
     0
  0
CLASS
  1
SCALE
  2
AcDbScale
  3
ObjectDBX Classes
 90
     1153
280
     0
281
     0
  0
CLASS
  1
VISUALSTYLE
  2
AcDbVisualStyle
  3
ObjectDBX Classes
 90
     4095
280
     0
281
     0
  0
CLASS
  1
MATERIAL
  2
AcDbMaterial
  3
ObjectDBX Classes
 90
     1153
280
     0
281
     0
  0
CLASS
  1
TABLESTYLE
  2
AcDbTableStyle
  3
ObjectDBX Classes
 90
     4095
280
     0
281
     0
  0
CLASS
  1
MLEADERSTYLE
  2
AcDbMLeaderStyle
  3
ACDB_MLEADERSTYLE_CLASS
 90
     4095
280
     0
281
     0
  0
CLASS
  1
SUN
  2
AcDbSun
  3
SCENEOE
 90
     1153
280
     0
281
     0
  0
CLASS
  1
RASTERVARIABLES
  2
AcDbRasterVariables
  3
ISM
 90
        0
280
     0
281
     0
  0
CLASS
  1
XRECORD
  2
AcDbXrecord
  3
ObjectDBX Classes
 90
        0
280
     0
281
     0
  0
ENDSEC
  0
SECTION
  2
TABLES
  0
TABLE
  2
VPORT
  5
8
330
0
100
AcDbSymbolTable
 70
     1
  0
VPORT
  5
816D
330
8
100
AcDbSymbolTableRecord
100
AcDbViewportTableRecord
  2
*ACTIVE
 70
     0
 10
0.0
 20
0.0
 11
1.0
 21
1.0
 12
586.8564475000001
 22
148.5
 13
0.0
 23
0.0
 14
1.0
 24
1.0
 15
5.0
 25
5.0
 16
0.0
 26
0.0
 36
1.0
 17
0.0
 27
0.0
 37
0.0
 40
302.94
 41
2.811127379209371
 42
50.0
 43
0.0
 44
0.0
 50
0.0
 51
0.0
 71
    16
 72
   100
 73
     1
 74
     0
 75
     0
 76
     0
 77
     0
 78
     0
  0
ENDTAB
  0
TABLE
  2
LTYPE
  5
5
330
0
100
AcDbSymbolTable
 70
     3
  0
LTYPE
  5
12
330
5
100
AcDbSymbolTableRecord
100
AcDbLinetypeTableRecord
  2
BYBLOCK
 70
     0
  3

 72
    65
 73
     0
 40
0.0
  0
LTYPE
  5
13
330
5
100
AcDbSymbolTableRecord
100
AcDbLinetypeTableRecord
  2
BYLAYER
 70
     0
  3

 72
    65
 73
     0
 40
0.0
  0
LTYPE
  5
14
330
5
100
AcDbSymbolTableRecord
100
AcDbLinetypeTableRecord
  2
CONTINUOUS
 70
     0
  3
Solid line
 72
    65
 73
     0
 40
0.0
  0
LTYPE
  5
1D
330
5
100
AcDbSymbolTableRecord
100
AcDbLinetypeTableRecord
  2
CENTER
 70
     0
  3
____ _ ____ _ ____ _ ____ _ ____ _ ____ _ ____
 72
    65
 73
     4
 40
2.0
 49
1.25
 74
     0
 49
-0.25
 74
     0
 49
0.25
 74
     0
 49
-0.25
 74
     0
  0
LTYPE
  5
1E
330
5
100
AcDbSymbolTableRecord
100
AcDbLinetypeTableRecord
  2
HIDDEN
 70
     0
  3
_ _ _ _ _ _ _ _ _ _ _ _ _ _ _ _ _ _ _ _ _ _ _
 72
    65
 73
     2
 40
0.375
 49
0.25
 74
     0
 49
-0.125
 74
     0
  0
ENDTAB
  0
TABLE
  2
LAYER
  5
2
330
0
100
AcDbSymbolTable
 70
     9
  0
LAYER
  5
F
330
2
100
AcDbSymbolTableRecord
100
AcDbLayerTableRecord
  2
0
 70
     0
 62
     7
  6
CONTINUOUS
  0
LAYER
  5
21
330
2
100
AcDbSymbolTableRecord
100
AcDbLayerTableRecord
  2
1
 70
     0
 62
     3
  6
CONTINUOUS
  0
LAYER
  5
22
330
2
100
AcDbSymbolTableRecord
100
AcDbLayerTableRecord
  2
2
 70
     0
 62
     6
  6
CONTINUOUS
  0
LAYER
  5
23
330
2
100
AcDbSymbolTableRecord
100
AcDbLayerTableRecord
  2
3
 70
     0
 62
     4
  6
HIDDEN
  0
LAYER
  5
24
330
2
100
AcDbSymbolTableRecord
100
AcDbLayerTableRecord
  2
OSIE
 70
     0
 62
     2
  6
CENTER
  0
LAYER
  5
25
330
2
100
AcDbSymbolTableRecord
100
AcDbLayerTableRecord
  2
WY
 70
     0
 62
     1
  6
CONTINUOUS
  0
LAYER
  5
26
330
2
100
AcDbSymbolTableRecord
100
AcDbLayerTableRecord
  2
DEFPOINTS
 70
     0
 62
     7
  6
CONTINUOUS
  0
LAYER
  5
464
330
2
100
AcDbSymbolTableRecord
100
AcDbLayerTableRecord
  2
WYMIARY
 70
     0
 62
     1
  6
CONTINUOUS
  0
LAYER
  5
80BF
330
2
100
AcDbSymbolTableRecord
100
AcDbLayerTableRecord
  2
WYMSKALA1
 70
     0
 62
     1
  6
CONTINUOUS
  0
ENDTAB
  0
TABLE
  2
STYLE
  5
3
330
0
100
AcDbSymbolTable
 70
     2
  0
STYLE
  5
10
330
3
100
AcDbSymbolTableRecord
100
AcDbTextStyleTableRecord
  2
STANDARD
 70
     0
 40
0.0
 41
1.0
 50
0.0
 71
     0
 42
6.0
  3
txt
  4

  0
STYLE
  5
1C
330
3
100
AcDbSymbolTableRecord
100
AcDbTextStyleTableRecord
  2
ITALIC
 70
     0
 40
0.0
 41
1.0
 50
15.0
 71
     0
 42
3.5
  3
simplex
  4

  0
ENDTAB
  0
TABLE
  2
VIEW
  5
6
330
0
100
AcDbSymbolTable
 70
     0
  0
ENDTAB
  0
TABLE
  2
UCS
  5
7
330
0
100
AcDbSymbolTable
 70
     0
  0
ENDTAB
  0
TABLE
  2
APPID
  5
9
330
0
100
AcDbSymbolTable
 70
     1
  0
APPID
  5
11
330
9
100
AcDbSymbolTableRecord
100
AcDbRegAppTableRecord
  2
ACAD
 70
     0
  0
ENDTAB
  0
TABLE
  2
DIMSTYLE
  5
A
330
0
100
AcDbSymbolTable
 70
     1
  0
DIMSTYLE
105
3B
102
{ACAD_REACTORS
330
75F5
330
75F6
330
7C0E
330
7C0C
330
7C05
330
7C29
330
7C22
330
7C0A
330
7C28
330
7C0B
102
}
330
A
100
AcDbSymbolTableRecord
100
AcDbDimStyleTableRecord
  2
STANDARD
 70
     0
  3

  4

  5

  6

  7

 40
1.0
 41
3.5
 42
1.5
 43
7.0
 44
1.5
 45
0.0
 46
0.0
 47
0.1
 48
0.0
140
3.6
141
-1.0
142
0.0
143
25.4
144
1.0
145
0.0
146
1.0
147
1.5
 71
     0
 72
     0
 73
     0
 74
     0
 75
     0
 76
     0
 77
     1
 78
     0
170
     0
171
     2
172
     0
173
     0
174
     0
175
     0
176
     0
177
     0
178
     0
270
     2
271
     2
272
     4
273
     2
274
     2
340
10
275
     0
280
     0
281
     0
282
     0
283
     1
284
     0
285
     0
286
     0
287
     3
288
     0
  0
ENDTAB
  0
TABLE
  2
BLOCK_RECORD
  5
1
330
0
100
AcDbSymbolTable
 70
    16
  0
BLOCK_RECORD
  5
18
330
1
100
AcDbSymbolTableRecord
100
AcDbBlockTableRecord
  2
*MODEL_SPACE
  0
BLOCK_RECORD
  5
15
330
1
100
AcDbSymbolTableRecord
100
AcDbBlockTableRecord
  2
*PAPER_SPACE
  0
BLOCK_RECORD
  5
70E6
330
1
100
AcDbSymbolTableRecord
100
AcDbBlockTableRecord
  2
A$C6B744012
  0
BLOCK_RECORD
  5
70EB
330
1
100
AcDbSymbolTableRecord
100
AcDbBlockTableRecord
  2
A$C5743204A
  0
BLOCK_RECORD
  5
77F9
330
1
100
AcDbSymbolTableRecord
100
AcDbBlockTableRecord
  2
*D2
  0
BLOCK_RECORD
  5
7806
330
1
100
AcDbSymbolTableRecord
100
AcDbBlockTableRecord
  2
*D3
  0
BLOCK_RECORD
  5
7C40
330
1
100
AcDbSymbolTableRecord
100
AcDbBlockTableRecord
  2
*D4
  0
BLOCK_RECORD
  5
7C4C
330
1
100
AcDbSymbolTableRecord
100
AcDbBlockTableRecord
  2
*D5
  0
BLOCK_RECORD
  5
7C59
330
1
100
AcDbSymbolTableRecord
100
AcDbBlockTableRecord
  2
*D6
  0
BLOCK_RECORD
  5
7C65
330
1
100
AcDbSymbolTableRecord
100
AcDbBlockTableRecord
  2
*D7
  0
BLOCK_RECORD
  5
7C72
330
1
100
AcDbSymbolTableRecord
100
AcDbBlockTableRecord
  2
*D8
  0
BLOCK_RECORD
  5
7C7F
330
1
100
AcDbSymbolTableRecord
100
AcDbBlockTableRecord
  2
*D9
  0
BLOCK_RECORD
  5
7C8B
330
1
100
AcDbSymbolTableRecord
100
AcDbBlockTableRecord
  2
*D10
  0
BLOCK_RECORD
  5
7C97
330
1
100
AcDbSymbolTableRecord
100
AcDbBlockTableRecord
  2
*D11
  0
BLOCK_RECORD
  5
7D02
330
1
100
AcDbSymbolTableRecord
100
AcDbBlockTableRecord
  2
A$C3BDF677E
  0
BLOCK_RECORD
  5
80A6
330
1
100
AcDbSymbolTableRecord
100
AcDbBlockTableRecord
  2
*D13
  0
BLOCK_RECORD
  5
80B3
330
1
100
AcDbSymbolTableRecord
100
AcDbBlockTableRecord
  2
*D14
  0
BLOCK_RECORD
  5
80C0
330
1
100
AcDbSymbolTableRecord
100
AcDbBlockTableRecord
  2
A$C5F53476B
  0
ENDTAB
  0
ENDSEC
  0
SECTION
  2
BLOCKS
  0
BLOCK
  5
29
330
18
100
AcDbEntity
  8
0
100
AcDbBlockBegin
  2
*MODEL_SPACE
 70
     0
 10
0.0
 20
0.0
 30
0.0
  3
*MODEL_SPACE
  1

  0
ENDBLK
  5
2A
330
18
100
AcDbEntity
  8
0
100
AcDbBlockEnd
  0
BLOCK
  5
27
330
15
100
AcDbEntity
 67
     1
  8
0
100
AcDbBlockBegin
  2
*PAPER_SPACE
 70
     0
 10
0.0
 20
0.0
 30
0.0
  3
*PAPER_SPACE
  1

  0
ENDBLK
  5
28
330
15
100
AcDbEntity
 67
     1
  8
0
100
AcDbBlockEnd
  0
BLOCK
  5
70E9
330
70E6
100
AcDbEntity
  8
0
 62
     3
100
AcDbBlockBegin
  2
A$C6B744012
 70
     0
 10
0.0
 20
0.0
 30
0.0
  3
A$C6B744012
  1
A$C6B744012
  0
MTEXT
  5
70E7
330
70E6
100
AcDbEntity
  8
WYMIARY
 62
     3
100
AcDbMText
 10
1.656471
 20
5.020184
 30
0.0
 40
3.5
 41
103.71
 71
     1
 72
     5
  1
\fTahoma|b0|i0|c238|p32;pin side view
  7
ITALIC
  0
MTEXT
  5
70E8
330
70E6
100
AcDbEntity
  8
WYMIARY
 62
     3
100
AcDbMText
 10
1.656471
 20
15.014034
 30
0.0
 40
3.5
 41
103.714367
 71
     1
 72
     5
  1
\fTahoma|b0|i0|c238|p32;widok od strony wyprowadzeń
  7
ITALIC
  0
ENDBLK
  5
70EA
330
70E6
100
AcDbEntity
  8
0
 62
     3
100
AcDbBlockEnd
  0
BLOCK
  5
70ED
330
70EB
100
AcDbEntity
  8
0
 62
     3
100
AcDbBlockBegin
  2
A$C5743204A
 70
     0
 10
0.0
 20
0.0
 30
0.0
  3
A$C5743204A
  1
A$C5743204A
  0
INSERT
  5
70EC
330
70EB
100
AcDbEntity
  8
WYMIARY
 62
     3
100
AcDbBlockReference
  2
A$C6B744012
 10
0.0
 20
0.0
 30
0.0
  0
ENDBLK
  5
70EE
330
70EB
100
AcDbEntity
  8
0
 62
     3
100
AcDbBlockEnd
  0
BLOCK
  5
7B17
330
77F9
100
AcDbEntity
  8
0
100
AcDbBlockBegin
  2
*D2
 70
     1
 10
0.0
 20
0.0
 30
0.0
  3
*D2
  1
*D2
  0
LINE
  5
7B18
330
77F9
100
AcDbEntity
  8
0
  6
BYBLOCK
 62
     0
100
AcDbLine
 10
531.089079
 20
250.775124
 30
0.0
 11
526.314168
 21
250.775124
 31
0.0
  0
LINE
  5
7B19
330
77F9
100
AcDbEntity
  8
0
  6
BYBLOCK
 62
     0
100
AcDbLine
 10
531.089079
 20
245.775124
 30
0.0
 11
526.314168
 21
245.775124
 31
0.0
  0
LINE
  5
7B1A
330
77F9
100
AcDbEntity
  8
0
  6
BYBLOCK
 62
     0
100
AcDbLine
 10
527.814168
 20
252.775124
 30
0.0
 11
527.814168
 21
254.775124
 31
0.0
  0
LINE
  5
7B1B
330
77F9
100
AcDbEntity
  8
0
  6
BYBLOCK
 62
     0
100
AcDbLine
 10
527.814168
 20
243.775124
 30
0.0
 11
527.814168
 21
241.775124
 31
0.0
  0
SOLID
  5
7B1C
330
77F9
100
AcDbEntity
  8
0
  6
BYBLOCK
 62
     0
100
AcDbTrace
 10
527.480834
 20
252.775124
 30
0.0
 11
528.147501
 21
252.775124
 31
0.0
 12
527.814168
 22
250.775124
 32
0.0
 13
527.814168
 23
250.775124
 33
0.0
  0
SOLID
  5
7B1D
330
77F9
100
AcDbEntity
  8
0
  6
BYBLOCK
 62
     0
100
AcDbTrace
 10
527.480834
 20
243.775124
 30
0.0
 11
528.147501
 21
243.775124
 31
0.0
 12
527.814168
 22
245.775124
 32
0.0
 13
527.814168
 23
245.775124
 33
0.0
  0
MTEXT
  5
7B1E
330
77F9
100
AcDbEntity
  8
0
  6
BYBLOCK
 62
     0
100
AcDbMText
 10
526.814168
 20
248.275124
 30
0.0
 40
1.0
 41
0.0
 71
     5
 72
     1
  1
\A1;5.00
 11
0.0
 21
1.0
 31
0.0
  0
POINT
  5
7B1F
330
77F9
100
AcDbEntity
  8
DEFPOINTS
  6
BYBLOCK
 62
     0
100
AcDbPoint
 10
532.589079
 20
250.775124
 30
0.0
  0
POINT
  5
7B20
330
77F9
100
AcDbEntity
  8
DEFPOINTS
  6
BYBLOCK
 62
     0
100
AcDbPoint
 10
532.589079
 20
245.775124
 30
0.0
  0
POINT
  5
7B21
330
77F9
100
AcDbEntity
  8
DEFPOINTS
  6
BYBLOCK
 62
     0
100
AcDbPoint
 10
527.814168
 20
245.775124
 30
0.0
  0
ENDBLK
  5
7B22
330
77F9
100
AcDbEntity
  8
0
100
AcDbBlockEnd
  0
BLOCK
  5
7B0C
330
7806
100
AcDbEntity
  8
0
100
AcDbBlockBegin
  2
*D3
 70
     1
 10
0.0
 20
0.0
 30
0.0
  3
*D3
  1
*D3
  0
LINE
  5
7B0D
330
7806
100
AcDbEntity
  8
0
  6
BYBLOCK
 62
     0
100
AcDbLine
 10
532.589079
 20
252.275124
 30
0.0
 11
532.589079
 21
254.869484
 31
0.0
  0
LINE
  5
7B0E
330
7806
100
AcDbEntity
  8
0
  6
BYBLOCK
 62
     0
100
AcDbLine
 10
560.589079
 20
252.275124
 30
0.0
 11
560.589079
 21
254.869484
 31
0.0
  0
LINE
  5
7B0F
330
7806
100
AcDbEntity
  8
0
  6
BYBLOCK
 62
     0
100
AcDbLine
 10
534.589079
 20
253.369484
 30
0.0
 11
558.589079
 21
253.369484
 31
0.0
  0
SOLID
  5
7B10
330
7806
100
AcDbEntity
  8
0
  6
BYBLOCK
 62
     0
100
AcDbTrace
 10
534.589079
 20
253.702818
 30
0.0
 11
534.589079
 21
253.036151
 31
0.0
 12
532.589079
 22
253.369484
 32
0.0
 13
532.589079
 23
253.369484
 33
0.0
  0
SOLID
  5
7B11
330
7806
100
AcDbEntity
  8
0
  6
BYBLOCK
 62
     0
100
AcDbTrace
 10
558.589079
 20
253.702818
 30
0.0
 11
558.589079
 21
253.036151
 31
0.0
 12
560.589079
 22
253.369484
 32
0.0
 13
560.589079
 23
253.369484
 33
0.0
  0
MTEXT
  5
7B12
330
7806
100
AcDbEntity
  8
0
  6
BYBLOCK
 62
     0
100
AcDbMText
 10
546.589079
 20
254.369484
 30
0.0
 40
1.0
 41
0.0
 71
     5
 72
     1
  1
\A1;28.00
  0
POINT
  5
7B13
330
7806
100
AcDbEntity
  8
DEFPOINTS
  6
BYBLOCK
 62
     0
100
AcDbPoint
 10
532.589079
 20
250.775124
 30
0.0
  0
POINT
  5
7B14
330
7806
100
AcDbEntity
  8
DEFPOINTS
  6
BYBLOCK
 62
     0
100
AcDbPoint
 10
560.589079
 20
250.775124
 30
0.0
  0
POINT
  5
7B15
330
7806
100
AcDbEntity
  8
DEFPOINTS
  6
BYBLOCK
 62
     0
100
AcDbPoint
 10
560.589079
 20
253.369484
 30
0.0
  0
ENDBLK
  5
7B16
330
7806
100
AcDbEntity
  8
0
100
AcDbBlockEnd
  0
BLOCK
  5
7CA3
330
7C40
100
AcDbEntity
  8
0
100
AcDbBlockBegin
  2
*D4
 70
     1
 10
0.0
 20
0.0
 30
0.0
  3
*D4
  1
*D4
  0
LINE
  5
7CA4
330
7C40
100
AcDbEntity
  8
0
  6
BYBLOCK
 62
     0
100
AcDbLine
 10
374.211368
 20
179.915423
 30
0.0
 11
385.464996
 21
179.915423
 31
0.0
  0
LINE
  5
7CA5
330
7C40
100
AcDbEntity
  8
0
  6
BYBLOCK
 62
     0
100
AcDbLine
 10
373.411368
 20
164.915423
 30
0.0
 11
385.464996
 21
164.915423
 31
0.0
  0
LINE
  5
7CA6
330
7C40
100
AcDbEntity
  8
0
  6
BYBLOCK
 62
     0
100
AcDbLine
 10
383.964996
 20
177.915423
 30
0.0
 11
383.964996
 21
166.915423
 31
0.0
  0
SOLID
  5
7CA7
330
7C40
100
AcDbEntity
  8
0
  6
BYBLOCK
 62
     0
100
AcDbTrace
 10
383.631663
 20
177.915423
 30
0.0
 11
384.29833
 21
177.915423
 31
0.0
 12
383.964996
 22
179.915423
 32
0.0
 13
383.964996
 23
179.915423
 33
0.0
  0
SOLID
  5
7CA8
330
7C40
100
AcDbEntity
  8
0
  6
BYBLOCK
 62
     0
100
AcDbTrace
 10
383.631663
 20
166.915423
 30
0.0
 11
384.29833
 21
166.915423
 31
0.0
 12
383.964996
 22
164.915423
 32
0.0
 13
383.964996
 23
164.915423
 33
0.0
  0
MTEXT
  5
7CA9
330
7C40
100
AcDbEntity
  8
0
  6
BYBLOCK
 62
     0
100
AcDbMText
 10
382.964996
 20
172.415423
 30
0.0
 40
1.0
 41
0.0
 71
     5
 72
     1
  1
\A1;15.00
 11
0.0
 21
1.0
 31
0.0
  0
POINT
  5
7CAA
330
7C40
100
AcDbEntity
  8
DEFPOINTS
  6
BYBLOCK
 62
     0
100
AcDbPoint
 10
372.711368
 20
179.915423
 30
0.0
  0
POINT
  5
7CAB
330
7C40
100
AcDbEntity
  8
DEFPOINTS
  6
BYBLOCK
 62
     0
100
AcDbPoint
 10
371.911368
 20
164.915423
 30
0.0
  0
POINT
  5
7CAC
330
7C40
100
AcDbEntity
  8
DEFPOINTS
  6
BYBLOCK
 62
     0
100
AcDbPoint
 10
383.964996
 20
164.915423
 30
0.0
  0
ENDBLK
  5
7CAD
330
7C40
100
AcDbEntity
  8
0
100
AcDbBlockEnd
  0
BLOCK
  5
7CAE
330
7C4C
100
AcDbEntity
  8
0
100
AcDbBlockBegin
  2
*D5
 70
     1
 10
0.0
 20
0.0
 30
0.0
  3
*D5
  1
*D5
  0
LINE
  5
7CAF
330
7C4C
100
AcDbEntity
  8
0
  6
BYBLOCK
 62
     0
100
AcDbLine
 10
373.211368
 20
163.915423
 30
0.0
 11
373.211368
 21
146.655593
 31
0.0
  0
LINE
  5
7CB0
330
7C4C
100
AcDbEntity
  8
0
  6
BYBLOCK
 62
     0
100
AcDbLine
 10
371.311368
 20
163.915423
 30
0.0
 11
371.311368
 21
146.655593
 31
0.0
  0
LINE
  5
7CB1
330
7C4C
100
AcDbEntity
  8
0
  6
BYBLOCK
 62
     0
100
AcDbLine
 10
369.311368
 20
148.155593
 30
0.0
 11
367.311368
 21
148.155593
 31
0.0
  0
LINE
  5
7CB2
330
7C4C
100
AcDbEntity
  8
0
  6
BYBLOCK
 62
     0
100
AcDbLine
 10
375.211368
 20
148.155593
 30
0.0
 11
384.961368
 21
148.155593
 31
0.0
  0
SOLID
  5
7CB3
330
7C4C
100
AcDbEntity
  8
0
  6
BYBLOCK
 62
     0
100
AcDbTrace
 10
369.311368
 20
148.488927
 30
0.0
 11
369.311368
 21
147.82226
 31
0.0
 12
371.311368
 22
148.155593
 32
0.0
 13
371.311368
 23
148.155593
 33
0.0
  0
SOLID
  5
7CB4
330
7C4C
100
AcDbEntity
  8
0
  6
BYBLOCK
 62
     0
100
AcDbTrace
 10
375.211368
 20
148.488927
 30
0.0
 11
375.211368
 21
147.82226
 31
0.0
 12
373.211368
 22
148.155593
 32
0.0
 13
373.211368
 23
148.155593
 33
0.0
  0
MTEXT
  5
7CB5
330
7C4C
100
AcDbEntity
  8
0
  6
BYBLOCK
 62
     0
100
AcDbMText
 10
383.211368
 20
149.155593
 30
0.0
 40
1.0
 41
0.0
 71
     5
 72
     1
  1
\A1;1.90
  0
POINT
  5
7CB6
330
7C4C
100
AcDbEntity
  8
DEFPOINTS
  6
BYBLOCK
 62
     0
100
AcDbPoint
 10
373.211368
 20
165.415423
 30
0.0
  0
POINT
  5
7CB7
330
7C4C
100
AcDbEntity
  8
DEFPOINTS
  6
BYBLOCK
 62
     0
100
AcDbPoint
 10
371.311368
 20
165.415423
 30
0.0
  0
POINT
  5
7CB8
330
7C4C
100
AcDbEntity
  8
DEFPOINTS
  6
BYBLOCK
 62
     0
100
AcDbPoint
 10
371.311368
 20
148.155593
 30
0.0
  0
ENDBLK
  5
7CB9
330
7C4C
100
AcDbEntity
  8
0
100
AcDbBlockEnd
  0
BLOCK
  5
7CBA
330
7C59
100
AcDbEntity
  8
0
100
AcDbBlockBegin
  2
*D6
 70
     1
 10
0.0
 20
0.0
 30
0.0
  3
*D6
  1
*D6
  0
LINE
  5
7CBB
330
7C59
100
AcDbEntity
  8
0
  6
BYBLOCK
 62
     0
100
AcDbLine
 10
373.211368
 20
181.415423
 30
0.0
 11
373.211368
 21
185.221977
 31
0.0
  0
LINE
  5
7CBC
330
7C59
100
AcDbEntity
  8
0
  6
BYBLOCK
 62
     0
100
AcDbLine
 10
345.211368
 20
181.415423
 30
0.0
 11
345.211368
 21
185.221977
 31
0.0
  0
LINE
  5
7CBD
330
7C59
100
AcDbEntity
  8
0
  6
BYBLOCK
 62
     0
100
AcDbLine
 10
371.211368
 20
183.721977
 30
0.0
 11
347.211368
 21
183.721977
 31
0.0
  0
SOLID
  5
7CBE
330
7C59
100
AcDbEntity
  8
0
  6
BYBLOCK
 62
     0
100
AcDbTrace
 10
371.211368
 20
184.055311
 30
0.0
 11
371.211368
 21
183.388644
 31
0.0
 12
373.211368
 22
183.721977
 32
0.0
 13
373.211368
 23
183.721977
 33
0.0
  0
SOLID
  5
7CBF
330
7C59
100
AcDbEntity
  8
0
  6
BYBLOCK
 62
     0
100
AcDbTrace
 10
347.211368
 20
184.055311
 30
0.0
 11
347.211368
 21
183.388644
 31
0.0
 12
345.211368
 22
183.721977
 32
0.0
 13
345.211368
 23
183.721977
 33
0.0
  0
MTEXT
  5
7CC0
330
7C59
100
AcDbEntity
  8
0
  6
BYBLOCK
 62
     0
100
AcDbMText
 10
359.211368
 20
184.721977
 30
0.0
 40
1.0
 41
0.0
 71
     5
 72
     1
  1
\A1;28.00
  0
POINT
  5
7CC1
330
7C59
100
AcDbEntity
  8
DEFPOINTS
  6
BYBLOCK
 62
     0
100
AcDbPoint
 10
373.211368
 20
179.915423
 30
0.0
  0
POINT
  5
7CC2
330
7C59
100
AcDbEntity
  8
DEFPOINTS
  6
BYBLOCK
 62
     0
100
AcDbPoint
 10
345.211368
 20
179.915423
 30
0.0
  0
POINT
  5
7CC3
330
7C59
100
AcDbEntity
  8
DEFPOINTS
  6
BYBLOCK
 62
     0
100
AcDbPoint
 10
345.211368
 20
183.721977
 30
0.0
  0
ENDBLK
  5
7CC4
330
7C59
100
AcDbEntity
  8
0
100
AcDbBlockEnd
  0
BLOCK
  5
7CC5
330
7C65
100
AcDbEntity
  8
0
100
AcDbBlockBegin
  2
*D7
 70
     1
 10
0.0
 20
0.0
 30
0.0
  3
*D7
  1
*D7
  0
LINE
  5
7CC6
330
7C65
100
AcDbEntity
  8
0
  6
BYBLOCK
 62
     0
100
AcDbLine
 10
349.891368
 20
163.915423
 30
0.0
 11
349.891368
 21
156.478939
 31
0.0
  0
LINE
  5
7CC7
330
7C65
100
AcDbEntity
  8
0
  6
BYBLOCK
 62
     0
100
AcDbLine
 10
346.081368
 20
163.915423
 30
0.0
 11
346.081368
 21
156.478939
 31
0.0
  0
LINE
  5
7CC8
330
7C65
100
AcDbEntity
  8
0
  6
BYBLOCK
 62
     0
100
AcDbLine
 10
351.891368
 20
157.978939
 30
0.0
 11
353.891368
 21
157.978939
 31
0.0
  0
LINE
  5
7CC9
330
7C65
100
AcDbEntity
  8
0
  6
BYBLOCK
 62
     0
100
AcDbLine
 10
344.081368
 20
157.978939
 30
0.0
 11
342.081368
 21
157.978939
 31
0.0
  0
SOLID
  5
7CCA
330
7C65
100
AcDbEntity
  8
0
  6
BYBLOCK
 62
     0
100
AcDbTrace
 10
351.891368
 20
158.312272
 30
0.0
 11
351.891368
 21
157.645605
 31
0.0
 12
349.891368
 22
157.978939
 32
0.0
 13
349.891368
 23
157.978939
 33
0.0
  0
SOLID
  5
7CCB
330
7C65
100
AcDbEntity
  8
0
  6
BYBLOCK
 62
     0
100
AcDbTrace
 10
344.081368
 20
158.312272
 30
0.0
 11
344.081368
 21
157.645605
 31
0.0
 12
346.081368
 22
157.978939
 32
0.0
 13
346.081368
 23
157.978939
 33
0.0
  0
MTEXT
  5
7CCC
330
7C65
100
AcDbEntity
  8
0
  6
BYBLOCK
 62
     0
100
AcDbMText
 10
347.986368
 20
158.978939
 30
0.0
 40
1.0
 41
0.0
 71
     5
 72
     1
  1
\A1;3.81
  0
POINT
  5
7CCD
330
7C65
100
AcDbEntity
  8
DEFPOINTS
  6
BYBLOCK
 62
     0
100
AcDbPoint
 10
349.891368
 20
165.415423
 30
0.0
  0
POINT
  5
7CCE
330
7C65
100
AcDbEntity
  8
DEFPOINTS
  6
BYBLOCK
 62
     0
100
AcDbPoint
 10
346.081368
 20
165.415423
 30
0.0
  0
POINT
  5
7CCF
330
7C65
100
AcDbEntity
  8
DEFPOINTS
  6
BYBLOCK
 62
     0
100
AcDbPoint
 10
346.081368
 20
157.978939
 30
0.0
  0
ENDBLK
  5
7CD0
330
7C65
100
AcDbEntity
  8
0
100
AcDbBlockEnd
  0
BLOCK
  5
7CD1
330
7C72
100
AcDbEntity
  8
0
100
AcDbBlockBegin
  2
*D8
 70
     1
 10
0.0
 20
0.0
 30
0.0
  3
*D8
  1
*D8
  0
LINE
  5
7CD2
330
7C72
100
AcDbEntity
  8
0
  6
BYBLOCK
 62
     0
100
AcDbLine
 10
346.081368
 20
163.915423
 30
0.0
 11
346.081368
 21
144.431927
 31
0.0
  0
LINE
  5
7CD3
330
7C72
100
AcDbEntity
  8
0
  6
BYBLOCK
 62
     0
100
AcDbLine
 10
345.211368
 20
163.915423
 30
0.0
 11
345.211368
 21
144.431927
 31
0.0
  0
LINE
  5
7CD4
330
7C72
100
AcDbEntity
  8
0
  6
BYBLOCK
 62
     0
100
AcDbLine
 10
348.081368
 20
145.931927
 30
0.0
 11
350.081368
 21
145.931927
 31
0.0
  0
LINE
  5
7CD5
330
7C72
100
AcDbEntity
  8
0
  6
BYBLOCK
 62
     0
100
AcDbLine
 10
343.211368
 20
145.931927
 30
0.0
 11
337.378035
 21
145.931927
 31
0.0
  0
SOLID
  5
7CD6
330
7C72
100
AcDbEntity
  8
0
  6
BYBLOCK
 62
     0
100
AcDbTrace
 10
348.081368
 20
146.26526
 30
0.0
 11
348.081368
 21
145.598593
 31
0.0
 12
346.081368
 22
145.931927
 32
0.0
 13
346.081368
 23
145.931927
 33
0.0
  0
SOLID
  5
7CD7
330
7C72
100
AcDbEntity
  8
0
  6
BYBLOCK
 62
     0
100
AcDbTrace
 10
343.211368
 20
146.26526
 30
0.0
 11
343.211368
 21
145.598593
 31
0.0
 12
345.211368
 22
145.931927
 32
0.0
 13
345.211368
 23
145.931927
 33
0.0
  0
MTEXT
  5
7CD8
330
7C72
100
AcDbEntity
  8
0
  6
BYBLOCK
 62
     0
100
AcDbMText
 10
339.294701
 20
146.931927
 30
0.0
 40
1.0
 41
0.0
 71
     5
 72
     1
  1
\A1;0.87
  0
POINT
  5
7CD9
330
7C72
100
AcDbEntity
  8
DEFPOINTS
  6
BYBLOCK
 62
     0
100
AcDbPoint
 10
346.081368
 20
165.415423
 30
0.0
  0
POINT
  5
7CDA
330
7C72
100
AcDbEntity
  8
DEFPOINTS
  6
BYBLOCK
 62
     0
100
AcDbPoint
 10
345.211368
 20
165.415423
 30
0.0
  0
POINT
  5
7CDB
330
7C72
100
AcDbEntity
  8
DEFPOINTS
  6
BYBLOCK
 62
     0
100
AcDbPoint
 10
345.211368
 20
145.931927
 30
0.0
  0
ENDBLK
  5
7CDC
330
7C72
100
AcDbEntity
  8
0
100
AcDbBlockEnd
  0
BLOCK
  5
7CDD
330
7C7F
100
AcDbEntity
  8
0
100
AcDbBlockBegin
  2
*D9
 70
     1
 10
0.0
 20
0.0
 30
0.0
  3
*D9
  1
*D9
  0
LINE
  5
7CDE
330
7C7F
100
AcDbEntity
  8
0
  6
BYBLOCK
 62
     0
100
AcDbLine
 10
366.271368
 20
163.915423
 30
0.0
 11
366.271368
 21
148.232472
 31
0.0
  0
LINE
  5
7CDF
330
7C7F
100
AcDbEntity
  8
0
  6
BYBLOCK
 62
     0
100
AcDbLine
 10
361.231368
 20
163.915423
 30
0.0
 11
361.231368
 21
148.232472
 31
0.0
  0
LINE
  5
7CE0
330
7C7F
100
AcDbEntity
  8
0
  6
BYBLOCK
 62
     0
100
AcDbLine
 10
364.271368
 20
149.732472
 30
0.0
 11
363.231368
 21
149.732472
 31
0.0
  0
SOLID
  5
7CE1
330
7C7F
100
AcDbEntity
  8
0
  6
BYBLOCK
 62
     0
100
AcDbTrace
 10
364.271368
 20
150.065805
 30
0.0
 11
364.271368
 21
149.399139
 31
0.0
 12
366.271368
 22
149.732472
 32
0.0
 13
366.271368
 23
149.732472
 33
0.0
  0
SOLID
  5
7CE2
330
7C7F
100
AcDbEntity
  8
0
  6
BYBLOCK
 62
     0
100
AcDbTrace
 10
363.231368
 20
150.065805
 30
0.0
 11
363.231368
 21
149.399139
 31
0.0
 12
361.231368
 22
149.732472
 32
0.0
 13
361.231368
 23
149.732472
 33
0.0
  0
MTEXT
  5
7CE3
330
7C7F
100
AcDbEntity
  8
0
  6
BYBLOCK
 62
     0
100
AcDbMText
 10
363.751368
 20
150.732472
 30
0.0
 40
1.0
 41
0.0
 71
     5
 72
     1
  1
\A1;5.04
  0
POINT
  5
7CE4
330
7C7F
100
AcDbEntity
  8
DEFPOINTS
  6
BYBLOCK
 62
     0
100
AcDbPoint
 10
366.271368
 20
165.415423
 30
0.0
  0
POINT
  5
7CE5
330
7C7F
100
AcDbEntity
  8
DEFPOINTS
  6
BYBLOCK
 62
     0
100
AcDbPoint
 10
361.231368
 20
165.415423
 30
0.0
  0
POINT
  5
7CE6
330
7C7F
100
AcDbEntity
  8
DEFPOINTS
  6
BYBLOCK
 62
     0
100
AcDbPoint
 10
361.231368
 20
149.732472
 30
0.0
  0
ENDBLK
  5
7CE7
330
7C7F
100
AcDbEntity
  8
0
100
AcDbBlockEnd
  0
BLOCK
  5
7CE8
330
7C8B
100
AcDbEntity
  8
0
100
AcDbBlockBegin
  2
*D10
 70
     1
 10
0.0
 20
0.0
 30
0.0
  3
*D10
  1
*D10
  0
LINE
  5
7CE9
330
7C8B
100
AcDbEntity
  8
0
  6
BYBLOCK
 62
     0
100
AcDbLine
 10
361.231368
 20
163.915423
 30
0.0
 11
361.231368
 21
153.808357
 31
0.0
  0
LINE
  5
7CEA
330
7C8B
100
AcDbEntity
  8
0
  6
BYBLOCK
 62
     0
100
AcDbLine
 10
349.891368
 20
163.915423
 30
0.0
 11
349.891368
 21
153.808357
 31
0.0
  0
LINE
  5
7CEB
330
7C8B
100
AcDbEntity
  8
0
  6
BYBLOCK
 62
     0
100
AcDbLine
 10
359.231368
 20
155.308357
 30
0.0
 11
351.891368
 21
155.308357
 31
0.0
  0
SOLID
  5
7CEC
330
7C8B
100
AcDbEntity
  8
0
  6
BYBLOCK
 62
     0
100
AcDbTrace
 10
359.231368
 20
155.64169
 30
0.0
 11
359.231368
 21
154.975024
 31
0.0
 12
361.231368
 22
155.308357
 32
0.0
 13
361.231368
 23
155.308357
 33
0.0
  0
SOLID
  5
7CED
330
7C8B
100
AcDbEntity
  8
0
  6
BYBLOCK
 62
     0
100
AcDbTrace
 10
351.891368
 20
155.64169
 30
0.0
 11
351.891368
 21
154.975024
 31
0.0
 12
349.891368
 22
155.308357
 32
0.0
 13
349.891368
 23
155.308357
 33
0.0
  0
MTEXT
  5
7CEE
330
7C8B
100
AcDbEntity
  8
0
  6
BYBLOCK
 62
     0
100
AcDbMText
 10
355.561368
 20
156.308357
 30
0.0
 40
1.0
 41
0.0
 71
     5
 72
     1
  1
\A1;11.34
  0
POINT
  5
7CEF
330
7C8B
100
AcDbEntity
  8
DEFPOINTS
  6
BYBLOCK
 62
     0
100
AcDbPoint
 10
361.231368
 20
165.415423
 30
0.0
  0
POINT
  5
7CF0
330
7C8B
100
AcDbEntity
  8
DEFPOINTS
  6
BYBLOCK
 62
     0
100
AcDbPoint
 10
349.891368
 20
165.415423
 30
0.0
  0
POINT
  5
7CF1
330
7C8B
100
AcDbEntity
  8
DEFPOINTS
  6
BYBLOCK
 62
     0
100
AcDbPoint
 10
349.891368
 20
155.308357
 30
0.0
  0
ENDBLK
  5
7CF2
330
7C8B
100
AcDbEntity
  8
0
100
AcDbBlockEnd
  0
BLOCK
  5
7CF3
330
7C97
100
AcDbEntity
  8
0
100
AcDbBlockBegin
  2
*D11
 70
     1
 10
0.0
 20
0.0
 30
0.0
  3
*D11
  1
*D11
  0
LINE
  5
7CF4
330
7C97
100
AcDbEntity
  8
0
  6
BYBLOCK
 62
     0
100
AcDbLine
 10
371.311368
 20
163.915423
 30
0.0
 11
371.311368
 21
142.4958
 31
0.0
  0
LINE
  5
7CF5
330
7C97
100
AcDbEntity
  8
0
  6
BYBLOCK
 62
     0
100
AcDbLine
 10
366.271368
 20
163.915423
 30
0.0
 11
366.271368
 21
142.4958
 31
0.0
  0
LINE
  5
7CF6
330
7C97
100
AcDbEntity
  8
0
  6
BYBLOCK
 62
     0
100
AcDbLine
 10
369.311368
 20
143.9958
 30
0.0
 11
368.271368
 21
143.9958
 31
0.0
  0
SOLID
  5
7CF7
330
7C97
100
AcDbEntity
  8
0
  6
BYBLOCK
 62
     0
100
AcDbTrace
 10
369.311368
 20
144.329133
 30
0.0
 11
369.311368
 21
143.662466
 31
0.0
 12
371.311368
 22
143.9958
 32
0.0
 13
371.311368
 23
143.9958
 33
0.0
  0
SOLID
  5
7CF8
330
7C97
100
AcDbEntity
  8
0
  6
BYBLOCK
 62
     0
100
AcDbTrace
 10
368.271368
 20
144.329133
 30
0.0
 11
368.271368
 21
143.662466
 31
0.0
 12
366.271368
 22
143.9958
 32
0.0
 13
366.271368
 23
143.9958
 33
0.0
  0
MTEXT
  5
7CF9
330
7C97
100
AcDbEntity
  8
0
  6
BYBLOCK
 62
     0
100
AcDbMText
 10
368.791368
 20
144.9958
 30
0.0
 40
1.0
 41
0.0
 71
     5
 72
     1
  1
\A1;5.04
  0
POINT
  5
7CFA
330
7C97
100
AcDbEntity
  8
DEFPOINTS
  6
BYBLOCK
 62
     0
100
AcDbPoint
 10
371.311368
 20
165.415423
 30
0.0
  0
POINT
  5
7CFB
330
7C97
100
AcDbEntity
  8
DEFPOINTS
  6
BYBLOCK
 62
     0
100
AcDbPoint
 10
366.271368
 20
165.415423
 30
0.0
  0
POINT
  5
7CFC
330
7C97
100
AcDbEntity
  8
DEFPOINTS
  6
BYBLOCK
 62
     0
100
AcDbPoint
 10
366.271368
 20
143.9958
 30
0.0
  0
ENDBLK
  5
7CFD
330
7C97
100
AcDbEntity
  8
0
100
AcDbBlockEnd
  0
BLOCK
  5
7D04
330
7D02
100
AcDbEntity
  8
0
 62
     3
100
AcDbBlockBegin
  2
A$C3BDF677E
 70
     0
 10
0.0
 20
0.0
 30
0.0
  3
A$C3BDF677E
  1
A$C3BDF677E
  0
TEXT
  5
7D03
330
7D02
100
AcDbEntity
  8
1
100
AcDbText
 10
-0.153114
 20
1.333334
 30
0.0
 40
4.0
  1
Schematy połączeń / Connections diagrams
 41
0.7
 51
15.0
  7
ITALIC
100
AcDbText
  0
ENDBLK
  5
7D05
330
7D02
100
AcDbEntity
  8
0
 62
     3
100
AcDbBlockEnd
  0
BLOCK
  5
80B1
330
80A6
100
AcDbEntity
  8
0
100
AcDbBlockBegin
  2
*D13
 70
     1
 10
0.0
 20
0.0
 30
0.0
  3
*D13
  1
*D13
  0
LINE
  5
80A7
330
80A6
100
AcDbEntity
  8
0
  6
BYBLOCK
 62
     0
100
AcDbLine
 10
634.423797
 20
210.219134
 30
0.0
 11
647.514883
 21
210.219134
 31
0.0
  0
LINE
  5
80A8
330
80A6
100
AcDbEntity
  8
0
  6
BYBLOCK
 62
     0
100
AcDbLine
 10
634.723797
 20
204.019134
 30
0.0
 11
647.514883
 21
204.019134
 31
0.0
  0
LINE
  5
80A9
330
80A6
100
AcDbEntity
  8
0
  6
BYBLOCK
 62
     0
100
AcDbLine
 10
646.014883
 20
213.719134
 30
0.0
 11
646.014883
 21
217.219134
 31
0.0
  0
LINE
  5
80AA
330
80A6
100
AcDbEntity
  8
0
  6
BYBLOCK
 62
     0
100
AcDbLine
 10
646.014883
 20
200.519134
 30
0.0
 11
646.014883
 21
183.679631
 31
0.0
  0
SOLID
  5
80AB
330
80A6
100
AcDbEntity
  8
0
  6
BYBLOCK
 62
     0
100
AcDbTrace
 10
645.431549
 20
213.719134
 30
0.0
 11
646.598216
 21
213.719134
 31
0.0
 12
646.014883
 22
210.219134
 32
0.0
 13
646.014883
 23
210.219134
 33
0.0
  0
SOLID
  5
80AC
330
80A6
100
AcDbEntity
  8
0
  6
BYBLOCK
 62
     0
100
AcDbTrace
 10
645.431549
 20
200.519134
 30
0.0
 11
646.598216
 21
200.519134
 31
0.0
 12
646.014883
 22
204.019134
 32
0.0
 13
646.014883
 23
204.019134
 33
0.0
  0
MTEXT
  5
80AD
330
80A6
100
AcDbEntity
  8
0
  6
BYBLOCK
 62
     0
100
AcDbMText
 10
642.714883
 20
190.279631
 30
0.0
 40
3.6
 41
0.0
 71
     5
 72
     1
  1
\A1;6.20
 11
0.0
 21
1.0
 31
0.0
  0
POINT
  5
80AE
330
80A6
100
AcDbEntity
  8
DEFPOINTS
  6
BYBLOCK
 62
     0
100
AcDbPoint
 10
632.923797
 20
210.219134
 30
0.0
  0
POINT
  5
80AF
330
80A6
100
AcDbEntity
  8
DEFPOINTS
  6
BYBLOCK
 62
     0
100
AcDbPoint
 10
633.223797
 20
204.019134
 30
0.0
  0
POINT
  5
80B0
330
80A6
100
AcDbEntity
  8
DEFPOINTS
  6
BYBLOCK
 62
     0
100
AcDbPoint
 10
646.014883
 20
204.019134
 30
0.0
  0
ENDBLK
  5
80B2
330
80A6
100
AcDbEntity
  8
0
100
AcDbBlockEnd
  0
BLOCK
  5
80BD
330
80B3
100
AcDbEntity
  8
0
100
AcDbBlockBegin
  2
*D14
 70
     1
 10
0.0
 20
0.0
 30
0.0
  3
*D14
  1
*D14
  0
LINE
  5
80B4
330
80B3
100
AcDbEntity
  8
0
  6
BYBLOCK
 62
     0
100
AcDbLine
 10
633.223797
 20
202.519134
 30
0.0
 11
633.223797
 21
186.590955
 31
0.0
  0
LINE
  5
80B5
330
80B3
100
AcDbEntity
  8
0
  6
BYBLOCK
 62
     0
100
AcDbLine
 10
534.723797
 20
202.519134
 30
0.0
 11
534.723797
 21
186.590955
 31
0.0
  0
LINE
  5
80B6
330
80B3
100
AcDbEntity
  8
0
  6
BYBLOCK
 62
     0
100
AcDbLine
 10
629.723797
 20
188.090955
 30
0.0
 11
538.223797
 21
188.090955
 31
0.0
  0
SOLID
  5
80B7
330
80B3
100
AcDbEntity
  8
0
  6
BYBLOCK
 62
     0
100
AcDbTrace
 10
629.723797
 20
188.674288
 30
0.0
 11
629.723797
 21
187.507621
 31
0.0
 12
633.223797
 22
188.090955
 32
0.0
 13
633.223797
 23
188.090955
 33
0.0
  0
SOLID
  5
80B8
330
80B3
100
AcDbEntity
  8
0
  6
BYBLOCK
 62
     0
100
AcDbTrace
 10
538.223797
 20
188.674288
 30
0.0
 11
538.223797
 21
187.507621
 31
0.0
 12
534.723797
 22
188.090955
 32
0.0
 13
534.723797
 23
188.090955
 33
0.0
  0
MTEXT
  5
80B9
330
80B3
100
AcDbEntity
  8
0
  6
BYBLOCK
 62
     0
100
AcDbMText
 10
583.973797
 20
191.390955
 30
0.0
 40
3.6
 41
0.0
 71
     5
 72
     1
  1
\A1;98.50
  0
POINT
  5
80BA
330
80B3
100
AcDbEntity
  8
DEFPOINTS
  6
BYBLOCK
 62
     0
100
AcDbPoint
 10
633.223797
 20
204.019134
 30
0.0
  0
POINT
  5
80BB
330
80B3
100
AcDbEntity
  8
DEFPOINTS
  6
BYBLOCK
 62
     0
100
AcDbPoint
 10
534.723797
 20
204.019134
 30
0.0
  0
POINT
  5
80BC
330
80B3
100
AcDbEntity
  8
DEFPOINTS
  6
BYBLOCK
 62
     0
100
AcDbPoint
 10
534.723797
 20
188.090955
 30
0.0
  0
ENDBLK
  5
80BE
330
80B3
100
AcDbEntity
  8
0
100
AcDbBlockEnd
  0
BLOCK
  5
8144
330
80C0
100
AcDbEntity
  8
0
 62
     3
100
AcDbBlockBegin
  2
A$C5F53476B
 70
     0
 10
0.0
 20
0.0
 30
0.0
  3
A$C5F53476B
  1
A$C5F53476B
  0
DIMENSION
  5
80C1
330
80C0
100
AcDbEntity
  8
WY
100
AcDbDimension
  2
*D14
 10
0.0
 20
4.411324
 30
0.0
 11
49.25
 21
4.411324
 31
0.0
 12
-534.723797
 22
-183.67963
 32
0.0
 70
   128
  3
STANDARD
100
AcDbAlignedDimension
 13
98.5
 23
20.339504
 33
0.0
 14
0.0
 24
20.339504
 34
0.0
100
AcDbRotatedDimension
  0
LINE
  5
80C2
330
80C0
100
AcDbEntity
  8
WYMSKALA1
100
AcDbLine
 10
22.80289
 20
23.439504
 30
0.0
 11
24.80289
 21
23.439504
 31
0.0
  0
CIRCLE
  5
80C3
330
80C0
100
AcDbEntity
  8
1
  6
CONTINUOUS
 62
     3
100
AcDbCircle
 10
23.80289
 20
23.439504
 30
0.0
 40
1.5
  0
LINE
  5
80C4
330
80C0
100
AcDbEntity
  8
1
  6
CONTINUOUS
 62
     3
100
AcDbLine
 10
0.536017
 20
26.539504
 30
0.0
 11
28.80289
 21
26.539504
 31
0.0
  0
LINE
  5
80C5
330
80C0
100
AcDbEntity
  8
1
  6
CONTINUOUS
 62
     3
100
AcDbLine
 10
0.0
 20
20.339504
 30
0.0
 11
98.5
 21
20.339504
 31
0.0
  0
LINE
  5
80C6
330
80C0
100
AcDbEntity
  8
1
  6
CONTINUOUS
 62
     3
100
AcDbLine
 10
20.20289
 20
26.539504
 30
0.0
 11
20.20289
 21
20.339504
 31
0.0
  0
LINE
  5
80C7
330
80C0
100
AcDbEntity
  8
1
  6
CONTINUOUS
 62
     3
100
AcDbLine
 10
10.203751
 20
26.539504
 30
0.0
 11
10.203751
 21
20.339504
 31
0.0
  0
LINE
  5
80C8
330
80C0
100
AcDbEntity
  8
1
  6
CONTINUOUS
 62
     3
100
AcDbLine
 10
0.236017
 20
26.239504
 30
0.0
 11
0.236017
 21
20.339504
 31
0.0
  0
LINE
  5
80C9
330
80C0
100
AcDbEntity
  8
1
  6
CONTINUOUS
 62
     3
100
AcDbLine
 10
10.203751
 20
21.339504
 30
0.0
 11
13.50289
 21
21.339504
 31
0.0
  0
LINE
  5
80CA
330
80C0
100
AcDbEntity
  8
1
  6
CONTINUOUS
 62
     3
100
AcDbLine
 10
3.475156
 20
23.439504
 30
0.0
 11
4.975156
 21
23.439504
 31
0.0
  0
LINE
  5
80CB
330
80C0
100
AcDbEntity
  8
WYMIARY
 62
     3
100
AcDbLine
 10
0.0
 20
20.339504
 30
0.0
 11
0.0
 21
25.539504
 31
0.0
  0
TEXT
  5
80CC
330
80C0
100
AcDbEntity
  8
WY
  6
CONTINUOUS
 62
     3
100
AcDbText
 10
1.460413
 20
24.911221
 30
0.0
 40
1.4
  1
A2
 50
270.0
  7
ITALIC
100
AcDbText
  0
LINE
  5
80CD
330
80C0
100
AcDbEntity
  8
1
  6
CONTINUOUS
 62
     3
100
AcDbLine
 10
0.0
 20
25.539504
 30
0.0
 11
0.236017
 21
25.539504
 31
0.0
  0
LINE
  5
80CE
330
80C0
100
AcDbEntity
  8
1
  6
CONTINUOUS
 62
     3
100
AcDbLine
 10
0.236017
 20
21.339504
 30
0.0
 11
3.475156
 21
21.339504
 31
0.0
  0
LINE
  5
80CF
330
80C0
100
AcDbEntity
  8
1
  6
CONTINUOUS
 62
     3
100
AcDbLine
 10
3.475156
 20
21.339504
 30
0.0
 11
3.475156
 21
23.439504
 31
0.0
  0
LINE
  5
80D0
330
80C0
100
AcDbEntity
  8
1
  6
CONTINUOUS
 62
     3
100
AcDbLine
 10
8.875156
 20
23.439504
 30
0.0
 11
10.203751
 21
23.439504
 31
0.0
  0
LINE
  5
80D1
330
80C0
100
AcDbEntity
  8
WYMSKALA1
100
AcDbLine
 10
6.925156
 20
22.439504
 30
0.0
 11
6.925156
 21
24.439504
 31
0.0
  0
LINE
  5
80D2
330
80C0
100
AcDbEntity
  8
1
  6
CONTINUOUS
 62
     3
100
AcDbLine
 10
5.774846
 20
25.014078
 30
0.0
 11
8.499731
 21
22.289193
 31
0.0
  0
LINE
  5
80D3
330
80C0
100
AcDbEntity
  8
1
  6
CONTINUOUS
 62
     3
100
AcDbLine
 10
5.350582
 20
24.589814
 30
0.0
 11
8.075467
 21
21.864929
 31
0.0
  0
ARC
  5
80D4
330
80C0
100
AcDbEntity
  8
1
  6
CONTINUOUS
 62
     3
100
AcDbCircle
 10
6.925156
 20
23.439504
 30
0.0
 40
1.95
100
AcDbArc
 50
180.0
 51
0.0
  0
ARC
  5
80D5
330
80C0
100
AcDbEntity
  8
1
  6
CONTINUOUS
 62
     3
100
AcDbCircle
 10
6.925156
 20
23.439504
 30
0.0
 40
1.95
100
AcDbArc
 50
0.0
 51
180.0
  0
LINE
  5
80D6
330
80C0
100
AcDbEntity
  8
WYMSKALA1
100
AcDbLine
 10
5.925156
 20
23.439504
 30
0.0
 11
7.925156
 21
23.439504
 31
0.0
  0
LINE
  5
80D7
330
80C0
100
AcDbEntity
  8
WYMSKALA1
100
AcDbLine
 10
15.95289
 20
23.439504
 30
0.0
 11
17.95289
 21
23.439504
 31
0.0
  0
ARC
  5
80D8
330
80C0
100
AcDbEntity
  8
1
  6
CONTINUOUS
 62
     3
100
AcDbCircle
 10
16.95289
 20
23.439504
 30
0.0
 40
1.95
100
AcDbArc
 50
0.0
 51
180.0
  0
LINE
  5
80D9
330
80C0
100
AcDbEntity
  8
1
  6
CONTINUOUS
 62
     3
100
AcDbLine
 10
15.802579
 20
25.014078
 30
0.0
 11
18.527464
 21
22.289193
 31
0.0
  0
LINE
  5
80DA
330
80C0
100
AcDbEntity
  8
1
  6
CONTINUOUS
 62
     3
100
AcDbLine
 10
15.378315
 20
24.589814
 30
0.0
 11
18.1032
 21
21.864929
 31
0.0
  0
ARC
  5
80DB
330
80C0
100
AcDbEntity
  8
1
  6
CONTINUOUS
 62
     3
100
AcDbCircle
 10
16.95289
 20
23.439504
 30
0.0
 40
1.95
100
AcDbArc
 50
180.0
 51
0.0
  0
TEXT
  5
80DC
330
80C0
100
AcDbEntity
  8
WY
  6
CONTINUOUS
 62
     3
100
AcDbText
 10
11.384106
 20
24.736527
 30
0.0
 40
1.4
  1
A1
 50
270.0
  7
ITALIC
100
AcDbText
  0
LINE
  5
80DD
330
80C0
100
AcDbEntity
  8
1
  6
CONTINUOUS
 62
     3
100
AcDbLine
 10
13.50289
 20
23.439504
 30
0.0
 11
15.00289
 21
23.439504
 31
0.0
  0
LINE
  5
80DE
330
80C0
100
AcDbEntity
  8
1
  6
CONTINUOUS
 62
     3
100
AcDbLine
 10
13.50289
 20
21.339504
 30
0.0
 11
13.50289
 21
23.439504
 31
0.0
  0
LINE
  5
80DF
330
80C0
100
AcDbEntity
  8
WYMSKALA1
100
AcDbLine
 10
16.95289
 20
22.439504
 30
0.0
 11
16.95289
 21
24.439504
 31
0.0
  0
LINE
  5
80E0
330
80C0
100
AcDbEntity
  8
1
  6
CONTINUOUS
 62
     3
100
AcDbLine
 10
18.90289
 20
23.439504
 30
0.0
 11
20.20289
 21
23.439504
 31
0.0
  0
LINE
  5
80E1
330
80C0
100
AcDbEntity
  8
WYMSKALA1
100
AcDbLine
 10
23.80289
 20
22.439504
 30
0.0
 11
23.80289
 21
24.439504
 31
0.0
  0
POINT
  5
80E2
330
80C0
100
AcDbEntity
  8
DEFPOINTS
  6
BYBLOCK
 62
     0
100
AcDbPoint
 10
0.536017
 20
26.539504
 30
0.0
  0
ARC
  5
80E3
330
80C0
100
AcDbEntity
  8
1
  6
CONTINUOUS
 62
     3
100
AcDbCircle
 10
0.536017
 20
26.239504
 30
0.0
 40
0.3
100
AcDbArc
 50
90.0
 51
180.0
  0
LINE
  5
80E4
330
80C0
100
AcDbEntity
  8
1
  6
CONTINUOUS
 62
     3
100
AcDbLine
 10
78.622361
 20
23.439504
 30
0.0
 11
76.622361
 21
23.439504
 31
0.0
  0
LINE
  5
80E5
330
80C0
100
AcDbEntity
  8
1
  6
CONTINUOUS
 62
     3
100
AcDbLine
 10
54.914499
 20
26.539504
 30
0.0
 11
98.2
 21
26.539504
 31
0.0
  0
LINE
  5
80E6
330
80C0
100
AcDbEntity
  8
WYMIARY
 62
     3
100
AcDbLine
 10
27.934812
 20
20.939504
 30
0.0
 11
55.946424
 21
20.939504
 31
0.0
  0
LINE
  5
80E7
330
80C0
100
AcDbEntity
  8
WYMIARY
 62
     3
100
AcDbLine
 10
55.946424
 20
25.939504
 30
0.0
 11
27.934812
 21
25.939504
 31
0.0
  0
LINE
  5
80E8
330
80C0
100
AcDbEntity
  8
1
  6
CONTINUOUS
 62
     3
100
AcDbLine
 10
42.309729
 20
20.557665
 30
0.0
 11
53.291559
 21
20.557665
 31
0.0
  0
LINE
  5
80E9
330
80C0
100
AcDbEntity
  8
1
  6
CONTINUOUS
 62
     3
100
AcDbLine
 10
28.80289
 20
26.539504
 30
0.0
 11
54.914499
 21
26.539504
 31
0.0
  0
LINE
  5
80EA
330
80C0
100
AcDbEntity
  8
WYMIARY
 62
     3
100
AcDbLine
 10
27.934812
 20
25.939504
 30
0.0
 11
27.934812
 21
20.939504
 31
0.0
  0
LINE
  5
80EB
330
80C0
100
AcDbEntity
  8
1
  6
CONTINUOUS
 62
     3
100
AcDbLine
 10
27.70289
 20
25.939504
 30
0.0
 11
27.70289
 21
20.939504
 31
0.0
  0
LINE
  5
80EC
330
80C0
100
AcDbEntity
  8
1
  6
CONTINUOUS
 62
     3
100
AcDbLine
 10
27.702385
 20
24.38113
 30
0.0
 11
27.934812
 21
24.38113
 31
0.0
  0
LINE
  5
80ED
330
80C0
100
AcDbEntity
  8
1
  6
CONTINUOUS
 62
     3
100
AcDbLine
 10
27.702385
 20
25.091187
 30
0.0
 11
27.934812
 21
25.091187
 31
0.0
  0
LINE
  5
80EE
330
80C0
100
AcDbEntity
  8
1
  6
CONTINUOUS
 62
     3
100
AcDbLine
 10
27.702385
 20
24.072194
 30
0.0
 11
27.934812
 21
24.072194
 31
0.0
  0
LINE
  5
80EF
330
80C0
100
AcDbEntity
  8
1
  6
CONTINUOUS
 62
     3
100
AcDbLine
 10
27.702385
 20
25.400123
 30
0.0
 11
27.934812
 21
25.400123
 31
0.0
  0
LINE
  5
80F0
330
80C0
100
AcDbEntity
  8
1
  6
CONTINUOUS
 62
     3
100
AcDbLine
 10
27.702385
 20
24.736158
 30
0.0
 11
27.702385
 21
24.072194
 31
0.0
  0
LINE
  5
80F1
330
80C0
100
AcDbEntity
  8
1
  6
CONTINUOUS
 62
     3
100
AcDbLine
 10
27.702385
 20
24.736158
 30
0.0
 11
27.702385
 21
25.400123
 31
0.0
  0
ARC
  5
80F2
330
80C0
100
AcDbEntity
  8
1
  6
CONTINUOUS
 62
     3
100
AcDbCircle
 10
28.80289
 20
20.539504
 30
0.0
 40
0.2
100
AcDbArc
 50
270.0
 51
0.0
  0
LINE
  5
80F3
330
80C0
100
AcDbEntity
  8
1
  6
CONTINUOUS
 62
     3
100
AcDbLine
 10
29.00289
 20
20.939504
 30
0.0
 11
27.70289
 21
20.939504
 31
0.0
  0
POINT
  5
80F4
330
80C0
100
AcDbEntity
  8
DEFPOINTS
  6
BYBLOCK
 62
     0
100
AcDbPoint
 10
27.70289
 20
20.939504
 30
0.0
  0
LINE
  5
80F5
330
80C0
100
AcDbEntity
  8
1
  6
CONTINUOUS
 62
     3
100
AcDbLine
 10
29.00289
 20
20.539504
 30
0.0
 11
29.00289
 21
20.939504
 31
0.0
  0
LINE
  5
80F6
330
80C0
100
AcDbEntity
  8
1
  6
CONTINUOUS
 62
     3
100
AcDbLine
 10
42.309729
 20
20.339504
 30
0.0
 11
42.309729
 21
20.939504
 31
0.0
  0
LINE
  5
80F7
330
80C0
100
AcDbEntity
  8
1
  6
CONTINUOUS
 62
     3
100
AcDbLine
 10
44.988286
 20
20.939504
 30
0.0
 11
44.988286
 21
20.557665
 31
0.0
  0
LINE
  5
80F8
330
80C0
100
AcDbEntity
  8
1
  6
CONTINUOUS
 62
     3
100
AcDbLine
 10
29.00289
 20
26.339504
 30
0.0
 11
29.00289
 21
25.939504
 31
0.0
  0
LINE
  5
80F9
330
80C0
100
AcDbEntity
  8
1
  6
CONTINUOUS
 62
     3
100
AcDbLine
 10
29.00289
 20
25.939504
 30
0.0
 11
27.70289
 21
25.939504
 31
0.0
  0
POINT
  5
80FA
330
80C0
100
AcDbEntity
  8
DEFPOINTS
  6
BYBLOCK
 62
     0
100
AcDbPoint
 10
27.70289
 20
25.939504
 30
0.0
  0
POINT
  5
80FB
330
80C0
100
AcDbEntity
  8
DEFPOINTS
  6
BYBLOCK
 62
     0
100
AcDbPoint
 10
28.547946
 20
26.539504
 30
0.0
  0
ARC
  5
80FC
330
80C0
100
AcDbEntity
  8
1
  6
CONTINUOUS
 62
     3
100
AcDbCircle
 10
28.80289
 20
26.339504
 30
0.0
 40
0.2
100
AcDbArc
 50
0.0
 51
90.0
  0
POINT
  5
80FD
330
80C0
100
AcDbEntity
  8
DEFPOINTS
  6
BYBLOCK
 62
     0
100
AcDbPoint
 10
32.327946
 20
26.539504
 30
0.0
  0
POINT
  5
80FE
330
80C0
100
AcDbEntity
  8
DEFPOINTS
  6
BYBLOCK
 62
     0
100
AcDbPoint
 10
43.670218
 20
26.539504
 30
0.0
  0
POINT
  5
80FF
330
80C0
100
AcDbEntity
  8
DEFPOINTS
  6
BYBLOCK
 62
     0
100
AcDbPoint
 10
37.827091
 20
25.939504
 30
0.0
  0
POINT
  5
8100
330
80C0
100
AcDbEntity
  8
DEFPOINTS
  6
BYBLOCK
 62
     0
100
AcDbPoint
 10
48.69589
 20
26.439504
 30
0.0
  0
POINT
  5
8101
330
80C0
100
AcDbEntity
  8
DEFPOINTS
  6
BYBLOCK
 62
     0
100
AcDbPoint
 10
48.69589
 20
26.539504
 30
0.0
  0
LINE
  5
8102
330
80C0
100
AcDbEntity
  8
WYMIARY
 62
     3
100
AcDbLine
 10
55.946424
 20
25.939504
 30
0.0
 11
55.946424
 21
20.939504
 31
0.0
  0
LINE
  5
8103
330
80C0
100
AcDbEntity
  8
1
  6
CONTINUOUS
 62
     3
100
AcDbLine
 10
64.927697
 20
26.439504
 30
0.0
 11
64.927697
 21
20.439504
 31
0.0
  0
LINE
  5
8104
330
80C0
100
AcDbEntity
  8
1
  6
CONTINUOUS
 62
     3
100
AcDbLine
 10
63.591525
 20
26.439504
 30
0.0
 11
63.591525
 21
20.439504
 31
0.0
  0
LINE
  5
8105
330
80C0
100
AcDbEntity
  8
1
  6
CONTINUOUS
 62
     3
100
AcDbLine
 10
63.254547
 20
26.439504
 30
0.0
 11
63.254547
 21
20.439504
 31
0.0
  0
LINE
  5
8106
330
80C0
100
AcDbEntity
  8
1
  6
CONTINUOUS
 62
     3
100
AcDbLine
 10
75.142999
 20
26.539504
 30
0.0
 11
75.142999
 21
21.339504
 31
0.0
  0
LINE
  5
8107
330
80C0
100
AcDbEntity
  8
1
  6
CONTINUOUS
 62
     3
100
AcDbLine
 10
56.769381
 20
26.439504
 30
0.0
 11
56.769381
 21
20.439504
 31
0.0
  0
LINE
  5
8108
330
80C0
100
AcDbEntity
  8
3
100
AcDbLine
 10
56.205575
 20
25.939504
 30
0.0
 11
56.205575
 21
20.939504
 31
0.0
  0
LINE
  5
8109
330
80C0
100
AcDbEntity
  8
1
  6
CONTINUOUS
 62
     3
100
AcDbLine
 10
57.071362
 20
26.439504
 30
0.0
 11
57.071362
 21
20.439504
 31
0.0
  0
LINE
  5
810A
330
80C0
100
AcDbEntity
  8
1
  6
CONTINUOUS
 62
     3
100
AcDbLine
 10
53.291559
 20
20.439504
 30
0.0
 11
64.927697
 21
20.439504
 31
0.0
  0
LINE
  5
810B
330
80C0
100
AcDbEntity
  8
1
  6
CONTINUOUS
 62
     3
100
AcDbLine
 10
53.291559
 20
20.939504
 30
0.0
 11
53.291559
 21
20.439504
 31
0.0
  0
LINE
  5
810C
330
80C0
100
AcDbEntity
  8
1
  6
CONTINUOUS
 62
     3
100
AcDbLine
 10
53.606731
 20
20.939504
 30
0.0
 11
53.606731
 21
20.439504
 31
0.0
  0
LINE
  5
810D
330
80C0
100
AcDbEntity
  8
1
  6
CONTINUOUS
 62
     3
100
AcDbLine
 10
55.322531
 20
20.939504
 30
0.0
 11
55.322531
 21
20.439504
 31
0.0
  0
LINE
  5
810E
330
80C0
100
AcDbEntity
  8
1
  6
CONTINUOUS
 62
     3
100
AcDbLine
 10
55.415802
 20
20.939504
 30
0.0
 11
55.415802
 21
20.439504
 31
0.0
  0
LINE
  5
810F
330
80C0
100
AcDbEntity
  8
1
  6
CONTINUOUS
 62
     3
100
AcDbLine
 10
55.71816
 20
20.939504
 30
0.0
 11
55.71816
 21
20.439504
 31
0.0
  0
ARC
  5
8110
330
80C0
100
AcDbEntity
  8
3
100
AcDbCircle
 10
55.105575
 20
20.539504
 30
0.0
 40
0.2
100
AcDbArc
 50
180.0
 51
270.0
  0
LINE
  5
8111
330
80C0
100
AcDbEntity
  8
3
100
AcDbLine
 10
54.905575
 20
20.939504
 30
0.0
 11
56.205575
 21
20.939504
 31
0.0
  0
LINE
  5
8112
330
80C0
100
AcDbEntity
  8
3
100
AcDbLine
 10
54.905575
 20
20.539504
 30
0.0
 11
54.905575
 21
20.939504
 31
0.0
  0
LINE
  5
8113
330
80C0
100
AcDbEntity
  8
1
  6
CONTINUOUS
 62
     3
100
AcDbLine
 10
69.843861
 20
23.439504
 30
0.0
 11
71.843861
 21
23.439504
 31
0.0
  0
LINE
  5
8114
330
80C0
100
AcDbEntity
  8
WYMSKALA1
100
AcDbLine
 10
67.393861
 20
23.439504
 30
0.0
 11
69.393861
 21
23.439504
 31
0.0
  0
LINE
  5
8115
330
80C0
100
AcDbEntity
  8
1
  6
CONTINUOUS
 62
     3
100
AcDbLine
 10
66.943861
 20
23.439504
 30
0.0
 11
64.954499
 21
23.439504
 31
0.0
  0
ARC
  5
8116
330
80C0
100
AcDbEntity
  8
1
  6
CONTINUOUS
 62
     3
100
AcDbCircle
 10
68.393861
 20
23.439504
 30
0.0
 40
1.95
100
AcDbArc
 50
0.0
 51
180.0
  0
ARC
  5
8117
330
80C0
100
AcDbEntity
  8
1
  6
CONTINUOUS
 62
     3
100
AcDbCircle
 10
68.393861
 20
23.439504
 30
0.0
 40
1.95
100
AcDbArc
 50
180.0
 51
0.0
  0
LINE
  5
8118
330
80C0
100
AcDbEntity
  8
1
  6
CONTINUOUS
 62
     3
100
AcDbLine
 10
66.819286
 20
24.589814
 30
0.0
 11
69.544171
 21
21.864929
 31
0.0
  0
LINE
  5
8119
330
80C0
100
AcDbEntity
  8
1
  6
CONTINUOUS
 62
     3
100
AcDbLine
 10
67.24355
 20
25.014078
 30
0.0
 11
69.968435
 21
22.289193
 31
0.0
  0
LINE
  5
811A
330
80C0
100
AcDbEntity
  8
WYMSKALA1
100
AcDbLine
 10
68.393861
 20
22.439504
 30
0.0
 11
68.393861
 21
24.439504
 31
0.0
  0
LINE
  5
811B
330
80C0
100
AcDbEntity
  8
1
  6
CONTINUOUS
 62
     3
100
AcDbLine
 10
76.622361
 20
23.439504
 30
0.0
 11
76.622361
 21
21.339504
 31
0.0
  0
TEXT
  5
811C
330
80C0
100
AcDbEntity
  8
WY
  6
CONTINUOUS
 62
     3
100
AcDbText
 10
72.962851
 20
24.550498
 30
0.0
 40
1.4
  1
11
 50
270.0
  7
ITALIC
100
AcDbText
  0
LINE
  5
811D
330
80C0
100
AcDbEntity
  8
1
  6
CONTINUOUS
 62
     3
100
AcDbLine
 10
71.843861
 20
23.439504
 30
0.0
 11
71.843861
 21
21.339504
 31
0.0
  0
LINE
  5
811E
330
80C0
100
AcDbEntity
  8
1
  6
CONTINUOUS
 62
     3
100
AcDbLine
 10
71.843861
 20
21.339504
 30
0.0
 11
76.622361
 21
21.339504
 31
0.0
  0
LINE
  5
811F
330
80C0
100
AcDbEntity
  8
1
  6
CONTINUOUS
 62
     3
100
AcDbLine
 10
53.291559
 20
26.439504
 30
0.0
 11
64.927697
 21
26.439504
 31
0.0
  0
LINE
  5
8120
330
80C0
100
AcDbEntity
  8
3
100
AcDbLine
 10
54.905575
 20
26.339504
 30
0.0
 11
54.905575
 21
25.939504
 31
0.0
  0
LINE
  5
8121
330
80C0
100
AcDbEntity
  8
3
100
AcDbLine
 10
54.905575
 20
25.939504
 30
0.0
 11
56.205575
 21
25.939504
 31
0.0
  0
ARC
  5
8122
330
80C0
100
AcDbEntity
  8
3
100
AcDbCircle
 10
55.105575
 20
26.339504
 30
0.0
 40
0.2
100
AcDbArc
 50
90.0
 51
180.0
  0
POINT
  5
8123
330
80C0
100
AcDbEntity
  8
DEFPOINTS
  6
BYBLOCK
 62
     0
100
AcDbPoint
 10
53.770816
 20
26.439504
 30
0.0
  0
LINE
  5
8124
330
80C0
100
AcDbEntity
  8
1
  6
CONTINUOUS
 62
     3
100
AcDbLine
 10
55.322531
 20
26.439504
 30
0.0
 11
55.322531
 21
25.939504
 31
0.0
  0
LINE
  5
8125
330
80C0
100
AcDbEntity
  8
1
  6
CONTINUOUS
 62
     3
100
AcDbLine
 10
55.71816
 20
26.439504
 30
0.0
 11
55.71816
 21
25.939504
 31
0.0
  0
LINE
  5
8126
330
80C0
100
AcDbEntity
  8
1
  6
CONTINUOUS
 62
     3
100
AcDbLine
 10
55.415802
 20
26.439504
 30
0.0
 11
55.415802
 21
25.939504
 31
0.0
  0
LINE
  5
8127
330
80C0
100
AcDbEntity
  8
1
  6
CONTINUOUS
 62
     3
100
AcDbLine
 10
53.606731
 20
26.439504
 30
0.0
 11
53.606731
 21
25.939504
 31
0.0
  0
LINE
  5
8128
330
80C0
100
AcDbEntity
  8
1
  6
CONTINUOUS
 62
     3
100
AcDbLine
 10
53.291559
 20
26.439504
 30
0.0
 11
53.291559
 21
25.939504
 31
0.0
  0
DIMENSION
  5
8129
330
80C0
100
AcDbEntity
  8
WY
100
AcDbDimension
  2
*D13
 10
111.291086
 20
20.339504
 30
0.0
 11
111.291086
 21
6.6
 31
0.0
 12
-534.723797
 22
-183.67963
 32
0.0
 70
   128
  3
STANDARD
100
AcDbAlignedDimension
 13
98.2
 23
26.539504
 33
0.0
 14
98.5
 24
20.339504
 34
0.0
 50
90.0
100
AcDbRotatedDimension
  0
LINE
  5
812A
330
80C0
100
AcDbEntity
  8
1
  6
CONTINUOUS
 62
     3
100
AcDbLine
 10
98.5
 20
26.239504
 30
0.0
 11
98.5
 21
20.339504
 31
0.0
  0
LINE
  5
812B
330
80C0
100
AcDbEntity
  8
1
  6
CONTINUOUS
 62
     3
100
AcDbLine
 10
86.8215
 20
26.539504
 30
0.0
 11
86.8215
 21
21.339504
 31
0.0
  0
LINE
  5
812C
330
80C0
100
AcDbEntity
  8
WYMSKALA1
100
AcDbLine
 10
90.750861
 20
23.439504
 30
0.0
 11
92.750861
 21
23.439504
 31
0.0
  0
LINE
  5
812D
330
80C0
100
AcDbEntity
  8
1
  6
CONTINUOUS
 62
     3
100
AcDbLine
 10
90.176286
 20
24.589814
 30
0.0
 11
92.901172
 21
21.864929
 31
0.0
  0
LINE
  5
812E
330
80C0
100
AcDbEntity
  8
1
  6
CONTINUOUS
 62
     3
100
AcDbLine
 10
90.60055
 20
25.014078
 30
0.0
 11
93.325436
 21
22.289193
 31
0.0
  0
ARC
  5
812F
330
80C0
100
AcDbEntity
  8
1
  6
CONTINUOUS
 62
     3
100
AcDbCircle
 10
91.750861
 20
23.439504
 30
0.0
 40
1.95
100
AcDbArc
 50
180.0
 51
0.0
  0
ARC
  5
8130
330
80C0
100
AcDbEntity
  8
1
  6
CONTINUOUS
 62
     3
100
AcDbCircle
 10
91.750861
 20
23.439504
 30
0.0
 40
1.95
100
AcDbArc
 50
0.0
 51
180.0
  0
LINE
  5
8131
330
80C0
100
AcDbEntity
  8
1
  6
CONTINUOUS
 62
     3
100
AcDbLine
 10
83.522361
 20
21.339504
 30
0.0
 11
88.300861
 21
21.339504
 31
0.0
  0
LINE
  5
8132
330
80C0
100
AcDbEntity
  8
1
  6
CONTINUOUS
 62
     3
100
AcDbLine
 10
81.522361
 20
23.439504
 30
0.0
 11
83.522361
 21
23.439504
 31
0.0
  0
ARC
  5
8133
330
80C0
100
AcDbEntity
  8
1
  6
CONTINUOUS
 62
     3
100
AcDbCircle
 10
80.072361
 20
23.439504
 30
0.0
 40
1.95
100
AcDbArc
 50
0.0
 51
180.0
  0
LINE
  5
8134
330
80C0
100
AcDbEntity
  8
WYMSKALA1
100
AcDbLine
 10
79.072361
 20
23.439504
 30
0.0
 11
81.072361
 21
23.439504
 31
0.0
  0
ARC
  5
8135
330
80C0
100
AcDbEntity
  8
1
  6
CONTINUOUS
 62
     3
100
AcDbCircle
 10
80.072361
 20
23.439504
 30
0.0
 40
1.95
100
AcDbArc
 50
180.0
 51
0.0
  0
LINE
  5
8136
330
80C0
100
AcDbEntity
  8
WYMSKALA1
100
AcDbLine
 10
80.072361
 20
22.439504
 30
0.0
 11
80.072361
 21
24.439504
 31
0.0
  0
LINE
  5
8137
330
80C0
100
AcDbEntity
  8
1
  6
CONTINUOUS
 62
     3
100
AcDbLine
 10
78.497786
 20
24.589814
 30
0.0
 11
81.222671
 21
21.864929
 31
0.0
  0
LINE
  5
8138
330
80C0
100
AcDbEntity
  8
1
  6
CONTINUOUS
 62
     3
100
AcDbLine
 10
78.92205
 20
25.014078
 30
0.0
 11
81.646935
 21
22.289193
 31
0.0
  0
LINE
  5
8139
330
80C0
100
AcDbEntity
  8
1
  6
CONTINUOUS
 62
     3
100
AcDbLine
 10
83.522361
 20
23.439504
 30
0.0
 11
83.522361
 21
21.339504
 31
0.0
  0
LINE
  5
813A
330
80C0
100
AcDbEntity
  8
1
  6
CONTINUOUS
 62
     3
100
AcDbLine
 10
90.300861
 20
23.439504
 30
0.0
 11
88.300861
 21
23.439504
 31
0.0
  0
TEXT
  5
813B
330
80C0
100
AcDbEntity
  8
WY
  6
CONTINUOUS
 62
     3
100
AcDbText
 10
84.559114
 20
24.450223
 30
0.0
 40
1.4
  1
14
 50
270.0
  7
ITALIC
100
AcDbText
  0
LINE
  5
813C
330
80C0
100
AcDbEntity
  8
1
  6
CONTINUOUS
 62
     3
100
AcDbLine
 10
88.300861
 20
23.439504
 30
0.0
 11
88.300861
 21
21.339504
 31
0.0
  0
LINE
  5
813D
330
80C0
100
AcDbEntity
  8
1
  6
CONTINUOUS
 62
     3
100
AcDbLine
 10
95.200861
 20
21.339504
 30
0.0
 11
98.5
 21
21.339504
 31
0.0
  0
TEXT
  5
813E
330
80C0
100
AcDbEntity
  8
WY
  6
CONTINUOUS
 62
     3
100
AcDbText
 10
96.221638
 20
24.599061
 30
0.0
 40
1.4
  1
12
 50
270.0
  7
ITALIC
100
AcDbText
  0
LINE
  5
813F
330
80C0
100
AcDbEntity
  8
1
  6
CONTINUOUS
 62
     3
100
AcDbLine
 10
95.200861
 20
23.439504
 30
0.0
 11
95.200861
 21
21.339504
 31
0.0
  0
LINE
  5
8140
330
80C0
100
AcDbEntity
  8
WY
100
AcDbLine
 10
91.750861
 20
23.439504
 30
0.0
 11
91.750861
 21
21.489504
 31
0.0
  0
LINE
  5
8141
330
80C0
100
AcDbEntity
  8
WYMSKALA1
100
AcDbLine
 10
91.750861
 20
22.439504
 30
0.0
 11
91.750861
 21
25.389504
 31
0.0
  0
LINE
  5
8142
330
80C0
100
AcDbEntity
  8
1
  6
CONTINUOUS
 62
     3
100
AcDbLine
 10
93.200861
 20
23.439504
 30
0.0
 11
95.200861
 21
23.439504
 31
0.0
  0
ARC
  5
8143
330
80C0
100
AcDbEntity
  8
1
  6
CONTINUOUS
 62
     3
100
AcDbCircle
 10
98.2
 20
26.239504
 30
0.0
 40
0.3
100
AcDbArc
 50
0.0
 51
90.0
  0
ENDBLK
  5
8145
330
80C0
100
AcDbEntity
  8
0
 62
     3
100
AcDbBlockEnd
  0
ENDSEC
  0
SECTION
  2
ENTITIES
  0
LINE
  5
2D2D
330
18
100
AcDbEntity
  8
WYMIARY
 62
     6
100
AcDbLine
 10
486.041244
 20
0.0
 30
0.0
 11
486.041244
 21
297.0
 31
0.0
  0
LINE
  5
2D2E
330
18
100
AcDbEntity
  8
WYMIARY
 62
     6
100
AcDbLine
 10
497.671651
 20
292.0
 30
0.0
 11
497.671651
 21
5.0
 31
0.0
  0
LINE
  5
2D34
330
18
100
AcDbEntity
  8
2
100
AcDbLine
 10
682.671651
 20
5.0
 30
0.0
 11
682.671651
 21
292.0
 31
0.0
  0
LINE
  5
2D35
330
18
100
AcDbEntity
  8
2
100
AcDbLine
 10
687.671651
 20
0.0
 30
0.0
 11
687.671651
 21
297.0
 31
0.0
  0
LINE
  5
2D36
330
18
100
AcDbEntity
  8
WY
  6
CONTINUOUS
 62
     3
100
AcDbLine
 10
682.671651
 20
19.689837
 30
0.0
 11
497.671651
 21
19.689837
 31
0.0
  0
LINE
  5
2D38
330
18
100
AcDbEntity
  8
2
100
AcDbLine
 10
497.671651
 20
5.0
 30
0.0
 11
682.671651
 21
5.0
 31
0.0
  0
LINE
  5
2D39
330
18
100
AcDbEntity
  8
2
 62
     6
100
AcDbLine
 10
497.671651
 20
0.0
 30
0.0
 11
687.671651
 21
0.0
 31
0.0
  0
LINE
  5
2D3A
330
18
100
AcDbEntity
  8
0
100
AcDbLine
 10
529.697667
 20
11.742481
 30
0.0
 11
528.795256
 21
11.742481
 31
0.0
  0
ELLIPSE
  5
2D3B
330
18
100
AcDbEntity
  8
0
100
AcDbEllipse
 10
529.697667
 20
11.742481
 30
0.0
 11
-1.203215696869327
 21
1.967000000000000E-13
 31
0.0
210
0.0
220
0.0
230
1.0
 40
0.958812
 41
-1.570796326794739
 42
0.0000000000001705
  0
TEXT
  5
2D3D
330
18
100
AcDbEntity
  8
1
100
AcDbText
 10
515.607578
 20
8.797457
 30
0.0
 40
5.0
  1
A4
 51
15.0
  7
ITALIC
100
AcDbText
  0
LINE
  5
2D40
330
18
100
AcDbEntity
  8
WYMIARY
 62
     6
100
AcDbLine
 10
497.671651
 20
0.0
 30
0.0
 11
486.041244
 21
0.0
 31
0.0
  0
TEXT
  5
2D42
330
18
100
AcDbEntity
  8
WY
100
AcDbText
 10
502.936765
 20
16.373844
 30
0.0
 40
2.0
  1
Skala
 51
15.0
  7
ITALIC
100
AcDbText
  0
TEXT
  5
2D43
330
18
100
AcDbEntity
  8
WY
100
AcDbText
 10
515.042219
 20
16.329369
 30
0.0
 40
2.0
  1
Format
 51
15.0
  7
ITALIC
100
AcDbText
  0
LINE
  5
2D44
330
18
100
AcDbEntity
  8
0
100
AcDbLine
 10
528.494452
 20
11.742481
 30
0.0
 11
528.795256
 21
11.742481
 31
0.0
  0
LINE
  5
2D45
330
18
100
AcDbEntity
  8
0
100
AcDbLine
 10
559.88722
 20
17.211264
 30
0.0
 11
559.88722
 21
9.015264
 31
0.0
  0
LINE
  5
2D46
330
18
100
AcDbEntity
  8
0
100
AcDbLine
 10
550.89322
 20
9.438264
 30
0.0
 11
550.89322
 21
7.416264
 31
0.0
  0
ARC
  5
2D47
330
18
100
AcDbEntity
  8
0
100
AcDbCircle
 10
551.5428
 20
9.724764
 30
0.0
 40
0.709955
100
AcDbArc
 50
203.80008
 51
272.051918
  0
LINE
  5
2D48
330
18
100
AcDbEntity
  8
0
100
AcDbLine
 10
549.34822
 20
7.416264
 30
0.0
 11
549.34822
 21
15.612264
 31
0.0
  0
ARC
  5
2D49
330
18
100
AcDbEntity
  8
0
100
AcDbCircle
 10
551.982126
 20
10.136416
 30
0.0
 40
1.128907
100
AcDbArc
 50
276.719576
 51
2.175194
  0
ARC
  5
2D4A
330
18
100
AcDbEntity
  8
0
100
AcDbCircle
 10
555.243059
 20
10.503572
 30
0.0
 40
1.488419
100
AcDbArc
 50
191.634268
 51
270.699113
  0
ARC
  5
2D4B
330
18
100
AcDbEntity
  8
0
100
AcDbCircle
 10
556.209381
 20
10.503572
 30
0.0
 40
1.488419
100
AcDbArc
 50
269.300887
 51
348.365732
  0
LINE
  5
2D4C
330
18
100
AcDbEntity
  8
0
100
AcDbLine
 10
558.34222
 20
9.015264
 30
0.0
 11
558.34222
 21
17.211264
 31
0.0
  0
ARC
  5
2D4D
330
18
100
AcDbEntity
  8
0
100
AcDbCircle
 10
545.056591
 20
10.472364
 30
0.0
 40
1.425319
100
AcDbArc
 50
269.703671
 51
350.465171
  0
ARC
  5
2D4E
330
18
100
AcDbEntity
  8
0
100
AcDbCircle
 10
544.201848
 20
10.472364
 30
0.0
 40
1.425319
100
AcDbArc
 50
189.534829
 51
270.2963290000001
  0
LINE
  5
2D4F
330
18
100
AcDbEntity
  8
0
100
AcDbLine
 10
547.14922
 20
9.015264
 30
0.0
 11
547.14922
 21
17.211264
 31
0.0
  0
LINE
  5
2D50
330
18
100
AcDbEntity
  8
0
100
AcDbLine
 10
548.69422
 20
17.211264
 30
0.0
 11
548.69422
 21
9.015264
 31
0.0
  0
LINE
  5
2D51
330
18
100
AcDbEntity
  8
0
100
AcDbLine
 10
539.892236
 20
14.361264
 30
0.0
 11
539.903809
 21
9.015264
 31
0.0
  0
LINE
  5
2D52
330
18
100
AcDbEntity
  8
0
100
AcDbLine
 10
538.361694
 20
9.015264
 30
0.0
 11
538.361694
 21
15.60367
 31
0.0
  0
LINE
  5
2D53
330
18
100
AcDbEntity
  8
0
100
AcDbLine
 10
529.697667
 20
9.895061
 30
0.0
 11
529.697667
 21
8.185369
 31
0.0
  0
LINE
  5
2D54
330
18
100
AcDbEntity
  8
0
100
AcDbLine
 10
535.613478
 20
8.185369
 30
0.0
 11
535.613478
 21
11.742481
 31
0.0
  0
LINE
  5
2D55
330
18
100
AcDbEntity
  8
1
100
AcDbLine
 10
563.469863
 20
5.0
 30
0.0
 11
563.469863
 21
19.689837
 31
0.0
  0
LINE
  5
2D56
330
18
100
AcDbEntity
  8
0
100
AcDbLine
 10
530.499811
 20
7.416263
 30
0.0
 11
534.811334
 21
7.416263
 31
0.0
  0
ELLIPSE
  5
2D57
330
18
100
AcDbEntity
  8
0
100
AcDbEllipse
 10
530.499811
 20
8.185369
 30
0.0
 11
-0.8021437979128705
 21
1.540000000000000E-14
 31
0.0
210
0.0
220
0.0
230
1.0
 40
0.958812
 41
0.00000000000002
 42
1.570796326794914
  0
ELLIPSE
  5
2D58
330
18
100
AcDbEntity
  8
0
100
AcDbEllipse
 10
534.811334
 20
8.185369
 30
0.0
 11
0.8021437979128704
 21
1.602000000000000E-13
 31
0.0
210
0.0
220
0.0
230
1.0
 40
0.958812
 41
4.712388980384497
 42
6.283185307179378
  0
LINE
  5
2D59
330
18
100
AcDbEntity
  8
0
100
AcDbLine
 10
539.892236
 20
9.015264
 30
0.0
 11
539.903809
 21
9.022759
 31
0.0
  0
LINE
  5
2D5A
330
18
100
AcDbEntity
  8
0
100
AcDbLine
 10
538.361694
 20
9.015264
 30
0.0
 11
539.903809
 21
9.015264
 31
0.0
  0
LINE
  5
2D5B
330
18
100
AcDbEntity
  8
0
100
AcDbLine
 10
544.194477
 20
9.047064
 30
0.0
 11
545.04922
 21
9.047064
 31
0.0
  0
LINE
  5
2D5C
330
18
100
AcDbEntity
  8
0
100
AcDbLine
 10
550.89322
 20
7.416264
 30
0.0
 11
549.34822
 21
7.416264
 31
0.0
  0
LINE
  5
2D5D
330
18
100
AcDbEntity
  8
0
100
AcDbLine
 10
548.69422
 20
9.015264
 30
0.0
 11
547.14922
 21
9.015264
 31
0.0
  0
LINE
  5
2D5E
330
18
100
AcDbEntity
  8
0
100
AcDbLine
 10
551.576266
 20
9.015264
 30
0.0
 11
552.11422
 21
9.015264
 31
0.0
  0
LINE
  5
2D5F
330
18
100
AcDbEntity
  8
0
100
AcDbLine
 10
555.26122
 20
9.015264
 30
0.0
 11
556.19122
 21
9.015264
 31
0.0
  0
LINE
  5
2D60
330
18
100
AcDbEntity
  8
0
100
AcDbLine
 10
559.88722
 20
9.015264
 30
0.0
 11
558.34222
 21
9.015264
 31
0.0
  0
ARC
  5
2D61
330
18
100
AcDbEntity
  8
0
100
AcDbCircle
 10
545.056591
 20
14.17837
 30
0.0
 40
1.425319
100
AcDbArc
 50
9.534829000000002
 51
90.296329
  0
LINE
  5
2D62
330
18
100
AcDbEntity
  8
0
100
AcDbLine
 10
546.46222
 20
11.81167
 30
0.0
 11
544.33822
 21
11.81167
 31
0.0
  0
LINE
  5
2D63
330
18
100
AcDbEntity
  8
0
100
AcDbLine
 10
545.01322
 20
11.13667
 30
0.0
 11
546.46222
 21
11.13667
 31
0.0
  0
LINE
  5
2D64
330
18
100
AcDbEntity
  8
0
100
AcDbLine
 10
529.697667
 20
13.461283
 30
0.0
 11
529.697667
 21
16.260974
 31
0.0
  0
ELLIPSE
  5
2D65
330
18
100
AcDbEntity
  8
0
100
AcDbEllipse
 10
532.630506
 20
15.17942
 30
0.0
 11
2.983077570132104
 21
2.996000000000000E-13
 31
0.0
210
0.0
220
0.0
230
1.0
 40
0.9588119999999999
 41
-1.562393163247347
 42
0.0084031635475457
  0
ELLIPSE
  5
2D66
330
18
100
AcDbEntity
  8
0
100
AcDbEllipse
 10
532.58733
 20
15.509539
 30
0.0
 11
-4.072692107280919
 21
9.250000000000000E-14
 31
0.0
210
0.0
220
0.0
230
1.0
 40
0.958812
 41
1.587553347046634
 42
2.408388587343224
  0
LINE
  5
2D67
330
18
100
AcDbEntity
  8
0
100
AcDbLine
 10
529.697667
 20
11.742481
 30
0.0
 11
529.697667
 21
11.034514
 31
0.0
  0
LINE
  5
2D68
330
18
100
AcDbEntity
  8
0
100
AcDbLine
 10
529.697667
 20
13.461283
 30
0.0
 11
529.697667
 21
12.896138
 31
0.0
  0
ELLIPSE
  5
2D69
330
18
100
AcDbEntity
  8
0
100
AcDbEllipse
 10
532.249598
 20
9.872487
 30
0.0
 11
2.960559210508897
 21
0.3570763225581005
 31
0.0
210
0.0
220
0.0
230
1.0
 40
0.820999
 41
1.335209029023201
 42
2.503032872947537
  0
ELLIPSE
  5
2D6A
330
18
100
AcDbEntity
  8
0
100
AcDbEllipse
 10
532.480104
 20
8.937306
 30
0.0
 11
3.015746449176213
 21
0.7746519372140014
 31
0.0
210
0.0
220
0.0
230
1.0
 40
0.846775
 41
1.29973646820557
 42
2.479974117225238
  0
LINE
  5
2D6B
330
18
100
AcDbEntity
  8
0
100
AcDbLine
 10
536.816694
 20
12.896138
 30
0.0
 11
536.51589
 21
12.896138
 31
0.0
  0
LINE
  5
2D6C
330
18
100
AcDbEntity
  8
0
100
AcDbLine
 10
535.613478
 20
12.896138
 30
0.0
 11
536.51589
 21
12.896138
 31
0.0
  0
ELLIPSE
  5
2D6D
330
18
100
AcDbEntity
  8
0
100
AcDbEllipse
 10
535.613478
 20
12.896138
 30
0.0
 11
1.203215696869352
 21
8.930000000000000E-14
 31
0.0
210
0.0
220
0.0
230
1.0
 40
0.9588119999999999
 41
4.712388980384611
 42
6.283185307179508
  0
LINE
  5
2D6E
330
18
100
AcDbEntity
  8
0
100
AcDbLine
 10
530.499811
 20
17.030079
 30
0.0
 11
534.811334
 21
17.030079
 31
0.0
  0
ELLIPSE
  5
2D6F
330
18
100
AcDbEntity
  8
0
100
AcDbEllipse
 10
530.499811
 20
16.260974
 30
0.0
 11
0.8021437979128704
 21
3.800000000000000E-14
 31
0.0
210
0.0
220
0.0
230
1.0
 40
0.958812
 41
1.570796326794851
 42
3.141592653589743
  0
LINE
  5
2D70
330
18
100
AcDbEntity
  8
0
100
AcDbLine
 10
535.613478
 20
15.155385
 30
0.0
 11
535.613478
 21
16.260974
 31
0.0
  0
ELLIPSE
  5
2D71
330
18
100
AcDbEntity
  8
0
100
AcDbEllipse
 10
534.811334
 20
16.260974
 30
0.0
 11
-0.8021437979128705
 21
3.800000000000000E-14
 31
0.0
210
0.0
220
0.0
230
1.0
 40
0.958812
 41
3.141592653589842
 42
4.712388980384734
  0
ARC
  5
2D72
330
18
100
AcDbEntity
  8
0
100
AcDbCircle
 10
540.798894
 20
14.34127
 30
0.0
 40
1.377457
100
AcDbArc
 50
16.265061
 51
130.527299
  0
ARC
  5
2D73
330
18
100
AcDbEntity
  8
0
100
AcDbCircle
 10
544.201848
 20
14.17837
 30
0.0
 40
1.425319
100
AcDbArc
 50
89.703671
 51
170.465171
  0
LINE
  5
2D74
330
18
100
AcDbEntity
  8
0
100
AcDbLine
 10
540.911147
 20
12.93607
 30
0.0
 11
542.12122
 21
12.93607
 31
0.0
  0
LINE
  5
2D75
330
18
100
AcDbEntity
  8
0
100
AcDbLine
 10
540.578809
 20
12.93607
 30
0.0
 11
542.12122
 21
12.93607
 31
0.0
  0
ARC
  5
2D76
330
18
100
AcDbEntity
  8
0
100
AcDbCircle
 10
540.229736
 20
14.361264
 30
0.0
 40
0.3375
100
AcDbArc
 50
360.0
 51
180.0
  0
LINE
  5
2D77
330
18
100
AcDbEntity
  8
0
100
AcDbLine
 10
540.567236
 20
14.361264
 30
0.0
 11
540.578809
 21
12.93607
 31
0.0
  0
ARC
  5
2D78
330
18
100
AcDbEntity
  8
0
100
AcDbCircle
 10
544.67572
 20
14.361264
 30
0.0
 40
0.3375
100
AcDbArc
 50
360.0
 51
180.0
  0
LINE
  5
2D79
330
18
100
AcDbEntity
  8
0
100
AcDbLine
 10
544.33822
 20
11.81167
 30
0.0
 11
544.33822
 21
10.236264
 31
0.0
  0
LINE
  5
2D7A
330
18
100
AcDbEntity
  8
0
100
AcDbLine
 10
544.33822
 20
12.71167
 30
0.0
 11
545.01322
 21
12.71167
 31
0.0
  0
LINE
  5
2D7B
330
18
100
AcDbEntity
  8
0
100
AcDbLine
 10
545.01322
 20
11.13667
 30
0.0
 11
545.01322
 21
10.252764
 31
0.0
  0
LINE
  5
2D7C
330
18
100
AcDbEntity
  8
0
100
AcDbLine
 10
544.33822
 20
11.81167
 30
0.0
 11
544.33822
 21
10.252764
 31
0.0
  0
ARC
  5
2D7D
330
18
100
AcDbEntity
  8
0
100
AcDbCircle
 10
544.67572
 20
10.252764
 30
0.0
 40
0.3375
100
AcDbArc
 50
180.0
 51
0.0
  0
LINE
  5
2D7E
330
18
100
AcDbEntity
  8
0
100
AcDbLine
 10
545.01322
 20
14.361264
 30
0.0
 11
545.01322
 21
12.71167
 31
0.0
  0
LINE
  5
2D7F
330
18
100
AcDbEntity
  8
0
100
AcDbLine
 10
544.33822
 20
14.361264
 30
0.0
 11
544.33822
 21
12.71167
 31
0.0
  0
LINE
  5
2D80
330
18
100
AcDbEntity
  8
0
100
AcDbLine
 10
542.12122
 20
12.93607
 30
0.0
 11
542.12122
 21
14.72707
 31
0.0
  0
LINE
  5
2D81
330
18
100
AcDbEntity
  8
0
100
AcDbLine
 10
542.79622
 20
10.236264
 30
0.0
 11
542.79622
 21
14.41447
 31
0.0
  0
LINE
  5
2D82
330
18
100
AcDbEntity
  8
0
100
AcDbLine
 10
539.903809
 20
15.60367
 30
0.0
 11
539.903809
 21
15.38827
 31
0.0
  0
LINE
  5
2D83
330
18
100
AcDbEntity
  8
0
100
AcDbLine
 10
538.361694
 20
15.60367
 30
0.0
 11
539.903809
 21
15.60367
 31
0.0
  0
LINE
  5
2D84
330
18
100
AcDbEntity
  8
0
100
AcDbLine
 10
544.194477
 20
15.60367
 30
0.0
 11
545.04922
 21
15.60367
 31
0.0
  0
ARC
  5
2D85
330
18
100
AcDbEntity
  8
0
100
AcDbCircle
 10
555.243059
 20
14.124104
 30
0.0
 40
1.488419
100
AcDbArc
 50
89.300887
 51
168.365732
  0
ARC
  5
2D86
330
18
100
AcDbEntity
  8
0
100
AcDbCircle
 10
551.752247
 20
14.207365
 30
0.0
 40
1.409039
100
AcDbArc
 50
15.47255
 51
127.56454
  0
LINE
  5
2D87
330
18
100
AcDbEntity
  8
0
100
AcDbLine
 10
546.46222
 20
11.13667
 30
0.0
 11
546.46222
 21
10.236264
 31
0.0
  0
LINE
  5
2D88
330
18
100
AcDbEntity
  8
0
100
AcDbLine
 10
546.46222
 20
11.81167
 30
0.0
 11
546.46222
 21
14.41447
 31
0.0
  0
LINE
  5
2D89
330
18
100
AcDbEntity
  8
0
100
AcDbLine
 10
553.11022
 20
14.583264
 30
0.0
 11
553.11022
 21
10.179264
 31
0.0
  0
LINE
  5
2D8A
330
18
100
AcDbEntity
  8
0
100
AcDbLine
 10
551.56822
 20
14.361264
 30
0.0
 11
551.56822
 21
10.252764
 31
0.0
  0
LINE
  5
2D8B
330
18
100
AcDbEntity
  8
0
100
AcDbLine
 10
550.89322
 20
14.361264
 30
0.0
 11
550.89322
 21
10.252764
 31
0.0
  0
ARC
  5
2D8C
330
18
100
AcDbEntity
  8
0
100
AcDbCircle
 10
551.23072
 20
10.252764
 30
0.0
 40
0.3375
100
AcDbArc
 50
180.0
 51
0.0
  0
ARC
  5
2D8D
330
18
100
AcDbEntity
  8
0
100
AcDbCircle
 10
551.23072
 20
14.361264
 30
0.0
 40
0.3375
100
AcDbArc
 50
360.0
 51
180.0
  0
LINE
  5
2D8E
330
18
100
AcDbEntity
  8
0
100
AcDbLine
 10
549.34822
 20
15.612264
 30
0.0
 11
550.89322
 21
15.612264
 31
0.0
  0
LINE
  5
2D8F
330
18
100
AcDbEntity
  8
0
100
AcDbLine
 10
547.14922
 20
17.211264
 30
0.0
 11
548.69422
 21
17.211264
 31
0.0
  0
LINE
  5
2D90
330
18
100
AcDbEntity
  8
0
100
AcDbLine
 10
550.89322
 20
15.612264
 30
0.0
 11
550.89322
 21
15.324264
 31
0.0
  0
ARC
  5
2D91
330
18
100
AcDbEntity
  8
0
100
AcDbCircle
 10
556.209381
 20
14.124104
 30
0.0
 40
1.488419
100
AcDbArc
 50
11.634268
 51
90.699113
  0
LINE
  5
2D92
330
18
100
AcDbEntity
  8
0
100
AcDbLine
 10
557.66722
 20
14.424264
 30
0.0
 11
557.66722
 21
10.203412
 31
0.0
  0
ARC
  5
2D93
330
18
100
AcDbEntity
  8
0
100
AcDbCircle
 10
555.72622
 20
14.361264
 30
0.0
 40
0.3375
100
AcDbArc
 50
360.0
 51
180.0
  0
ARC
  5
2D94
330
18
100
AcDbEntity
  8
0
100
AcDbCircle
 10
555.72622
 20
10.252764
 30
0.0
 40
0.3375
100
AcDbArc
 50
180.0
 51
0.0
  0
LINE
  5
2D95
330
18
100
AcDbEntity
  8
0
100
AcDbLine
 10
555.38872
 20
14.361264
 30
0.0
 11
555.38872
 21
10.252764
 31
0.0
  0
LINE
  5
2D96
330
18
100
AcDbEntity
  8
0
100
AcDbLine
 10
556.06372
 20
14.361264
 30
0.0
 11
556.06372
 21
10.252764
 31
0.0
  0
LINE
  5
2D97
330
18
100
AcDbEntity
  8
0
100
AcDbLine
 10
553.78522
 20
10.203412
 30
0.0
 11
553.78522
 21
14.424264
 31
0.0
  0
LINE
  5
2D98
330
18
100
AcDbEntity
  8
0
100
AcDbLine
 10
555.26122
 20
15.612412
 30
0.0
 11
556.19122
 21
15.612412
 31
0.0
  0
LINE
  5
2D99
330
18
100
AcDbEntity
  8
0
100
AcDbLine
 10
558.34222
 20
17.211264
 30
0.0
 11
559.88722
 21
17.211264
 31
0.0
  0
TEXT
  5
2D9A
330
18
100
AcDbEntity
  8
WY
100
AcDbText
 10
564.417407
 20
11.60401
 30
0.0
 40
2.0
  1
13-05-2016
 41
1.0
 51
15.0
  7
ITALIC
100
AcDbText
  0
TEXT
  5
2D9B
330
18
100
AcDbEntity
  8
WY
100
AcDbText
 10
568.848776
 20
16.149239
 30
0.0
 40
2.0
  1
Data
 51
15.0
  7
ITALIC
100
AcDbText
  0
TEXT
  5
2D9D
330
18
100
AcDbEntity
  8
1
100
AcDbText
 10
637.422754
 20
9.064009
 30
0.0
 40
5.0
  1
RM699B
 41
0.8
 51
15.0
  7
ITALIC
100
AcDbText
  0
LINE
  5
2D9E
330
18
100
AcDbEntity
  8
1
100
AcDbLine
 10
627.394234
 20
5.0
 30
0.0
 11
627.394234
 21
19.689837
 31
0.0
  0
TEXT
  5
2D9F
330
18
100
AcDbEntity
  8
WY
100
AcDbText
 10
629.585432
 20
16.599248
 30
0.0
 40
2.0
  1
Product type
 51
15.0
  7
ITALIC
100
AcDbText
  0
LINE
  5
2DF2
330
18
100
AcDbEntity
  8
2
100
AcDbLine
 10
682.671651
 20
292.0
 30
0.0
 11
497.671651
 21
292.0
 31
0.0
  0
LINE
  5
2DF3
330
18
100
AcDbEntity
  8
2
100
AcDbLine
 10
687.671651
 20
297.0
 30
0.0
 11
497.671651
 21
297.0
 31
0.0
  0
LINE
  5
2E74
330
18
100
AcDbEntity
  8
WYMIARY
 62
     6
100
AcDbLine
 10
497.671651
 20
297.0
 30
0.0
 11
486.041244
 21
297.0
 31
0.0
  0
MTEXT
  5
31F2
330
18
100
AcDbEntity
  8
WYMIARY
100
AcDbMText
 10
780.543201
 20
224.476865
 30
0.0
 40
3.5
 41
15.6
 71
     1
 72
     5
  1

  7
ITALIC
  0
TEXT
  5
478E
330
18
100
AcDbEntity
  8
1
100
AcDbText
 10
500.301985
 20
8.797457
 30
0.0
 40
5.0
  1
1:1
 51
15.0
  7
ITALIC
100
AcDbText
  0
LINE
  5
482F
330
18
100
AcDbEntity
  8
WYMIARY
 62
     6
100
AcDbLine
 10
687.671651
 20
0.0
 30
0.0
 11
687.671651
 21
297.0
 31
0.0
  0
LINE
  5
4AD7
330
18
100
AcDbEntity
  8
WYMIARY
 62
     3
100
AcDbLine
 10
512.671651
 20
19.689837
 30
0.0
 11
512.671651
 21
5.0
 31
0.0
  0
LINE
  5
4AD9
330
18
100
AcDbEntity
  8
WYMIARY
 62
     3
100
AcDbLine
 10
527.671651
 20
19.689837
 30
0.0
 11
527.671651
 21
5.0
 31
0.0
  0
LINE
  5
4ADA
330
18
100
AcDbEntity
  8
WYMIARY
 62
     3
100
AcDbLine
 10
586.373187
 20
19.689837
 30
0.0
 11
586.373187
 21
5.0
 31
0.0
  0
TEXT
  5
4ADB
330
18
100
AcDbEntity
  8
WY
100
AcDbText
 10
587.562196
 20
16.599248
 30
0.0
 40
2.0
  1
Draw. No.
 51
15.0
  7
ITALIC
100
AcDbText
  0
TEXT
  5
4ADF
330
18
100
AcDbEntity
  8
1
100
AcDbText
 10
591.935141
 20
9.064009
 30
0.0
 40
4.0
  1
RM699B-01A
 41
0.7000000000000001
 51
15.0
  7
ITALIC
100
AcDbText
  0
LINE
  5
4AE9
330
18
100
AcDbEntity
  8
WYMIARY
 62
     6
100
AcDbLine
 10
687.671651
 20
0.0
 30
0.0
 11
687.671651
 21
297.0
 31
0.0
  0
LINE
  5
6488
330
18
100
AcDbEntity
  8
WYMIARY
 62
     6
100
AcDbLine
 10
687.671651
 20
0.0
 30
0.0
 11
687.671651
 21
297.0
 31
0.0
  0
LINE
  5
648E
330
18
100
AcDbEntity
  8
2
100
AcDbLine
 10
687.671651
 20
0.0
 30
0.0
 11
687.671651
 21
297.0
 31
0.0
  0
LINE
  5
6CB6
330
18
100
AcDbEntity
  8
WYMIARY
 62
     6
100
AcDbLine
 10
687.671651
 20
0.0
 30
0.0
 11
687.671651
 21
297.0
 31
0.0
  0
LINE
  5
6CB8
330
18
100
AcDbEntity
  8
2
100
AcDbLine
 10
687.671651
 20
0.0
 30
0.0
 11
687.671651
 21
297.0
 31
0.0
  0
DIMENSION
  5
75F5
330
18
100
AcDbEntity
  8
WYMIARY
 62
     1
100
AcDbDimension
  2
*D2
 10
527.814168
 20
245.775124
 30
0.0
 11
526.814168
 21
248.275124
 31
0.0
 70
    32
  3
STANDARD
100
AcDbAlignedDimension
 13
532.589079
 23
250.775124
 33
0.0
 14
532.589079
 24
245.775124
 34
0.0
 50
90.0
100
AcDbRotatedDimension
1001
ACAD
1000
DSTYLE
1002
{
1070
   140
1040
1.0
1070
   147
1040
0.5
1070
    41
1040
2.0
1002
}
  0
DIMENSION
  5
75F6
330
18
100
AcDbEntity
  8
WYMIARY
 62
     1
100
AcDbDimension
  2
*D3
 10
560.589079
 20
253.369484
 30
0.0
 11
546.589079
 21
254.369484
 31
0.0
 70
    32
  3
STANDARD
100
AcDbAlignedDimension
 13
532.589079
 23
250.775124
 33
0.0
 14
560.589079
 24
250.775124
 34
0.0
100
AcDbRotatedDimension
1001
ACAD
1000
DSTYLE
1002
{
1070
   140
1040
1.0
1070
   147
1040
0.5
1070
    41
1040
2.0
1002
}
  0
LINE
  5
75F7
330
18
100
AcDbEntity
  8
WYMIARY
 62
     3
100
AcDbLine
 10
532.589079
 20
245.775124
 30
0.0
 11
560.589079
 21
245.775124
 31
0.0
  0
LINE
  5
75F8
330
18
100
AcDbEntity
  8
WYMIARY
 62
     3
100
AcDbLine
 10
560.589079
 20
250.775124
 30
0.0
 11
532.589079
 21
250.775124
 31
0.0
  0
LINE
  5
75F9
330
18
100
AcDbEntity
  8
WYMIARY
 62
     3
100
AcDbLine
 10
532.589079
 20
250.775124
 30
0.0
 11
532.589079
 21
245.775124
 31
0.0
  0
LINE
  5
75FA
330
18
100
AcDbEntity
  8
WYMIARY
 62
     3
100
AcDbLine
 10
560.589079
 20
245.775124
 30
0.0
 11
560.589079
 21
250.775124
 31
0.0
  0
TEXT
  5
79F8
330
18
100
AcDbEntity
  8
1
100
AcDbText
 10
576.823108
 20
277.724633
 30
0.0
 40
5.0
  1
RM699B
 41
0.8
 51
15.0
  7
ITALIC
100
AcDbText
  0
DIMENSION
  5
7C05
330
18
100
AcDbEntity
  8
WYMIARY
 62
     1
100
AcDbDimension
  2
*D6
 10
532.672585
 20
174.925223
 30
0.0
 11
546.672585
 21
174.925223
 31
0.0
 12
187.461217
 22
-8.796755
 32
0.0
 70
   160
  3
STANDARD
100
AcDbAlignedDimension
 13
560.672585
 23
171.118668
 33
0.0
 14
532.672585
 24
171.118668
 34
0.0
100
AcDbRotatedDimension
1001
ACAD
1000
DSTYLE
1002
{
1070
   140
1040
1.0
1070
   147
1040
0.5
1070
    41
1040
2.0
1002
}
  0
LINE
  5
7C06
330
18
100
AcDbEntity
  8
WYMIARY
 62
     3
100
AcDbLine
 10
560.172585
 20
171.118668
 30
0.0
 11
533.172585
 21
171.118668
 31
0.0
  0
LINE
  5
7C07
330
18
100
AcDbEntity
  8
WYMIARY
 62
     3
100
AcDbLine
 10
560.672585
 20
156.618668
 30
0.0
 11
532.672585
 21
156.618668
 31
0.0
  0
LINE
  5
7C08
330
18
100
AcDbEntity
  8
WYMIARY
 62
     3
100
AcDbLine
 10
553.372585
 20
156.618668
 30
0.0
 11
547.972585
 21
156.618668
 31
0.0
  0
LINE
  5
7C09
330
18
100
AcDbEntity
  8
WYMIARY
 62
     3
100
AcDbLine
 10
553.732585
 20
156.618668
 30
0.0
 11
548.692585
 21
156.618668
 31
0.0
  0
DIMENSION
  5
7C0A
330
18
100
AcDbEntity
  8
WYMIARY
 62
     1
100
AcDbDimension
  2
*D9
 10
548.692585
 20
140.935717
 30
0.0
 11
551.212585
 21
141.935717
 31
0.0
 12
187.461217
 22
-8.796755
 32
0.0
 70
    32
  3
STANDARD
100
AcDbAlignedDimension
 13
553.732585
 23
156.618668
 33
0.0
 14
548.692585
 24
156.618668
 34
0.0
100
AcDbRotatedDimension
1001
ACAD
1000
DSTYLE
1002
{
1070
   140
1040
1.0
1070
   147
1040
0.5
1070
    41
1040
2.0
1002
}
  0
DIMENSION
  5
7C0B
330
18
100
AcDbEntity
  8
WYMIARY
 62
     1
100
AcDbDimension
  2
*D11
 10
553.732585
 20
135.199045
 30
0.0
 11
556.252585
 21
136.199045
 31
0.0
 12
187.461217
 22
-8.796755
 32
0.0
 70
    32
  3
STANDARD
100
AcDbAlignedDimension
 13
558.772585
 23
156.618668
 33
0.0
 14
553.732585
 24
156.618668
 34
0.0
100
AcDbRotatedDimension
1001
ACAD
1000
DSTYLE
1002
{
1070
   140
1040
1.0
1070
   147
1040
0.5
1070
    41
1040
2.0
1002
}
  0
DIMENSION
  5
7C0C
330
18
100
AcDbEntity
  8
WYMIARY
 62
     1
100
AcDbDimension
  2
*D5
 10
558.772585
 20
139.358839
 30
0.0
 11
570.672585
 21
139.358839
 31
0.0
 12
187.461217
 22
-8.796755
 32
0.0
 70
   160
  3
STANDARD
100
AcDbAlignedDimension
 13
560.672585
 23
156.618668
 33
0.0
 14
558.772585
 24
156.618668
 34
0.0
100
AcDbRotatedDimension
1001
ACAD
1000
DSTYLE
1002
{
1070
   140
1040
1.0
1070
   147
1040
0.5
1070
    41
1040
2.0
1002
}
  0
LINE
  5
7C0D
330
18
100
AcDbEntity
  8
WYMIARY
 62
     3
100
AcDbLine
 10
560.672585
 20
170.618668
 30
0.0
 11
560.672585
 21
156.118668
 31
0.0
  0
DIMENSION
  5
7C0E
330
18
100
AcDbEntity
  8
WYMIARY
 62
     1
100
AcDbDimension
  2
*D4
 10
571.426213
 20
156.118668
 30
0.0
 11
570.426213
 21
163.618668
 31
0.0
 12
187.461217
 22
-8.796755
 32
0.0
 70
    32
  3
STANDARD
100
AcDbAlignedDimension
 13
560.172585
 23
171.118668
 33
0.0
 14
559.372585
 24
156.118668
 34
0.0
 50
270.0
100
AcDbRotatedDimension
1001
ACAD
1000
DSTYLE
1002
{
1070
   140
1040
1.0
1070
   147
1040
0.5
1070
    41
1040
2.0
1002
}
  0
LINE
  5
7C0F
330
18
100
AcDbEntity
  8
WYMIARY
 62
     1
100
AcDbLine
 10
558.772585
 20
156.618668
 30
0.0
 11
558.772585
 21
147.626111
 31
0.0
  0
LINE
  5
7C10
330
18
100
AcDbEntity
  8
WYMIARY
 62
     1
100
AcDbLine
 10
553.732585
 20
156.618668
 30
0.0
 11
553.732585
 21
147.26757
 31
0.0
  0
LINE
  5
7C11
330
18
100
AcDbEntity
  8
WYMIARY
 62
     3
100
AcDbLine
 10
560.672585
 20
156.618668
 30
0.0
 11
558.772585
 21
156.618668
 31
0.0
  0
LINE
  5
7C12
330
18
100
AcDbEntity
  8
WYMIARY
 62
     3
100
AcDbLine
 10
560.672585
 20
156.618668
 30
0.0
 11
558.772585
 21
156.618668
 31
0.0
  0
LINE
  5
7C13
330
18
100
AcDbEntity
  8
WYMIARY
 62
     3
100
AcDbLine
 10
553.732585
 20
156.618668
 30
0.0
 11
554.332585
 21
156.618668
 31
0.0
  0
LINE
  5
7C14
330
18
100
AcDbEntity
  8
WYMIARY
 62
     3
100
AcDbLine
 10
558.172585
 20
156.618668
 30
0.0
 11
558.172585
 21
155.618668
 31
0.0
  0
LINE
  5
7C15
330
18
100
AcDbEntity
  8
WYMIARY
 62
     3
100
AcDbLine
 10
554.332585
 20
156.618668
 30
0.0
 11
554.332585
 21
155.618668
 31
0.0
  0
LINE
  5
7C16
330
18
100
AcDbEntity
  8
WYMIARY
 62
     3
100
AcDbLine
 10
553.732585
 20
156.618668
 30
0.0
 11
553.132585
 21
156.618668
 31
0.0
  0
LINE
  5
7C17
330
18
100
AcDbEntity
  8
WYMIARY
 62
     3
100
AcDbLine
 10
553.132585
 20
156.618668
 30
0.0
 11
553.132585
 21
155.618668
 31
0.0
  0
LINE
  5
7C18
330
18
100
AcDbEntity
  8
WYMIARY
 62
     3
100
AcDbLine
 10
554.332585
 20
155.618668
 30
0.0
 11
553.132585
 21
155.618668
 31
0.0
  0
LINE
  5
7C19
330
18
100
AcDbEntity
  8
WYMIARY
 62
     3
100
AcDbLine
 10
559.372585
 20
156.618668
 30
0.0
 11
559.372585
 21
156.118668
 31
0.0
  0
LINE
  5
7C1A
330
18
100
AcDbEntity
  8
WYMIARY
 62
     3
100
AcDbLine
 10
558.772585
 20
156.618668
 30
0.0
 11
559.372585
 21
156.618668
 31
0.0
  0
LINE
  5
7C1B
330
18
100
AcDbEntity
  8
WYMIARY
 62
     3
100
AcDbLine
 10
559.372585
 20
156.118668
 30
0.0
 11
559.372585
 21
155.618668
 31
0.0
  0
LINE
  5
7C1C
330
18
100
AcDbEntity
  8
WYMIARY
 62
     3
100
AcDbLine
 10
558.772585
 20
156.618668
 30
0.0
 11
553.372585
 21
156.618668
 31
0.0
  0
LINE
  5
7C1D
330
18
100
AcDbEntity
  8
WYMIARY
 62
     3
100
AcDbLine
 10
558.772585
 20
156.618668
 30
0.0
 11
553.372585
 21
156.618668
 31
0.0
  0
LINE
  5
7C1E
330
18
100
AcDbEntity
  8
WYMIARY
 62
     3
100
AcDbLine
 10
558.772585
 20
156.618668
 30
0.0
 11
553.732585
 21
156.618668
 31
0.0
  0
LINE
  5
7C1F
330
18
100
AcDbEntity
  8
WYMIARY
 62
     3
100
AcDbLine
 10
558.772585
 20
156.618668
 30
0.0
 11
558.172585
 21
156.618668
 31
0.0
  0
LINE
  5
7C20
330
18
100
AcDbEntity
  8
WYMIARY
 62
     3
100
AcDbLine
 10
559.372585
 20
155.618668
 30
0.0
 11
558.172585
 21
155.618668
 31
0.0
  0
ARC
  5
7C21
330
18
100
AcDbEntity
  8
WYMIARY
 62
     3
100
AcDbCircle
 10
560.172585
 20
170.618668
 30
0.0
 40
0.5
100
AcDbArc
 50
0.0
 51
90.0
  0
DIMENSION
  5
7C22
330
18
100
AcDbEntity
  8
WYMIARY
 62
     1
100
AcDbDimension
  2
*D8
 10
532.672585
 20
137.135172
 30
0.0
 11
526.755918
 21
138.135172
 31
0.0
 12
187.461217
 22
-8.796755
 32
0.0
 70
    32
  3
STANDARD
100
AcDbAlignedDimension
 13
533.542585
 23
156.618668
 33
0.0
 14
532.672585
 24
156.618668
 34
0.0
100
AcDbRotatedDimension
1001
ACAD
1000
DSTYLE
1002
{
1070
   140
1040
1.0
1070
   147
1040
0.5
1070
    41
1040
2.0
1002
}
  0
LINE
  5
7C23
330
18
100
AcDbEntity
  8
WYMIARY
 62
     3
100
AcDbLine
 10
532.672585
 20
156.118668
 30
0.0
 11
532.672585
 21
170.618668
 31
0.0
  0
LINE
  5
7C24
330
18
100
AcDbEntity
  8
WYMIARY
 62
     1
100
AcDbLine
 10
532.672585
 20
156.118668
 30
0.0
 11
532.672585
 21
149.369428
 31
0.0
  0
LINE
  5
7C25
330
18
100
AcDbEntity
  8
WYMIARY
 62
     1
100
AcDbLine
 10
533.542585
 20
156.618668
 30
0.0
 11
533.542585
 21
149.06028
 31
0.0
  0
LINE
  5
7C26
330
18
100
AcDbEntity
  8
WYMIARY
 62
     1
100
AcDbLine
 10
537.352585
 20
156.618668
 30
0.0
 11
537.352585
 21
146.550485
 31
0.0
  0
LINE
  5
7C27
330
18
100
AcDbEntity
  8
WYMIARY
 62
     1
100
AcDbLine
 10
548.692585
 20
156.618668
 30
0.0
 11
548.692585
 21
144.829483
 31
0.0
  0
DIMENSION
  5
7C28
330
18
100
AcDbEntity
  8
WYMIARY
 62
     1
100
AcDbDimension
  2
*D10
 10
537.352585
 20
146.511602
 30
0.0
 11
543.022585
 21
146.511602
 31
0.0
 12
187.461217
 22
-8.796755
 32
0.0
 70
   160
  3
STANDARD
100
AcDbAlignedDimension
 13
548.692585
 23
156.618668
 33
0.0
 14
537.352585
 24
156.618668
 34
0.0
100
AcDbRotatedDimension
1001
ACAD
1000
DSTYLE
1002
{
1070
   140
1040
1.0
1070
   147
1040
0.5
1070
    41
1040
2.0
1002
}
  0
DIMENSION
  5
7C29
330
18
100
AcDbEntity
  8
WYMIARY
 62
     1
100
AcDbDimension
  2
*D7
 10
533.542585
 20
149.182184
 30
0.0
 11
535.447585
 21
150.182184
 31
0.0
 12
187.461217
 22
-8.796755
 32
0.0
 70
    32
  3
STANDARD
100
AcDbAlignedDimension
 13
537.352585
 23
156.618668
 33
0.0
 14
533.542585
 24
156.618668
 34
0.0
100
AcDbRotatedDimension
1001
ACAD
1000
DSTYLE
1002
{
1070
   140
1040
1.0
1070
   147
1040
0.5
1070
    41
1040
2.0
1002
}
  0
LINE
  5
7C2A
330
18
100
AcDbEntity
  8
WYMIARY
 62
     3
100
AcDbLine
 10
537.352585
 20
156.618668
 30
0.0
 11
533.542585
 21
156.618668
 31
0.0
  0
LINE
  5
7C2B
330
18
100
AcDbEntity
  8
WYMIARY
 62
     3
100
AcDbLine
 10
533.542585
 20
156.618668
 30
0.0
 11
534.042585
 21
156.618668
 31
0.0
  0
LINE
  5
7C2C
330
18
100
AcDbEntity
  8
WYMIARY
 62
     3
100
AcDbLine
 10
534.042585
 20
155.618668
 30
0.0
 11
533.042585
 21
155.618668
 31
0.0
  0
LINE
  5
7C2D
330
18
100
AcDbEntity
  8
WYMIARY
 62
     3
100
AcDbLine
 10
547.972585
 20
156.618668
 30
0.0
 11
532.672585
 21
156.618668
 31
0.0
  0
LINE
  5
7C2E
330
18
100
AcDbEntity
  8
WYMIARY
 62
     3
100
AcDbLine
 10
548.692585
 20
156.618668
 30
0.0
 11
537.352585
 21
156.618668
 31
0.0
  0
LINE
  5
7C2F
330
18
100
AcDbEntity
  8
WYMIARY
 62
     3
100
AcDbLine
 10
548.692585
 20
156.618668
 30
0.0
 11
549.292585
 21
156.618668
 31
0.0
  0
LINE
  5
7C30
330
18
100
AcDbEntity
  8
WYMIARY
 62
     3
100
AcDbLine
 10
548.692585
 20
156.618668
 30
0.0
 11
548.092585
 21
156.618668
 31
0.0
  0
LINE
  5
7C31
330
18
100
AcDbEntity
  8
WYMIARY
 62
     3
100
AcDbLine
 10
549.292585
 20
156.618668
 30
0.0
 11
549.292585
 21
155.618668
 31
0.0
  0
LINE
  5
7C32
330
18
100
AcDbEntity
  8
WYMIARY
 62
     3
100
AcDbLine
 10
548.092585
 20
156.618668
 30
0.0
 11
548.092585
 21
155.618668
 31
0.0
  0
LINE
  5
7C33
330
18
100
AcDbEntity
  8
WYMIARY
 62
     3
100
AcDbLine
 10
549.292585
 20
155.618668
 30
0.0
 11
548.092585
 21
155.618668
 31
0.0
  0
LINE
  5
7C34
330
18
100
AcDbEntity
  8
WYMIARY
 62
     3
100
AcDbLine
 10
537.352585
 20
156.618668
 30
0.0
 11
536.852585
 21
156.618668
 31
0.0
  0
LINE
  5
7C35
330
18
100
AcDbEntity
  8
WYMIARY
 62
     3
100
AcDbLine
 10
537.352585
 20
156.618668
 30
0.0
 11
537.852585
 21
156.618668
 31
0.0
  0
LINE
  5
7C36
330
18
100
AcDbEntity
  8
WYMIARY
 62
     3
100
AcDbLine
 10
537.852585
 20
156.618668
 30
0.0
 11
537.852585
 21
155.618668
 31
0.0
  0
LINE
  5
7C37
330
18
100
AcDbEntity
  8
WYMIARY
 62
     3
100
AcDbLine
 10
537.352585
 20
152.618668
 30
0.0
 11
537.352585
 21
152.618668
 31
0.0
  0
LINE
  5
7C38
330
18
100
AcDbEntity
  8
WYMIARY
 62
     3
100
AcDbLine
 10
536.852585
 20
156.618668
 30
0.0
 11
536.852585
 21
155.618668
 31
0.0
  0
LINE
  5
7C39
330
18
100
AcDbEntity
  8
WYMIARY
 62
     3
100
AcDbLine
 10
534.042585
 20
156.618668
 30
0.0
 11
534.042585
 21
155.618668
 31
0.0
  0
LINE
  5
7C3A
330
18
100
AcDbEntity
  8
WYMIARY
 62
     3
100
AcDbLine
 10
537.852585
 20
155.618668
 30
0.0
 11
536.852585
 21
155.618668
 31
0.0
  0
LINE
  5
7C3B
330
18
100
AcDbEntity
  8
WYMIARY
 62
     3
100
AcDbLine
 10
533.542585
 20
156.618668
 30
0.0
 11
533.042585
 21
156.618668
 31
0.0
  0
LINE
  5
7C3C
330
18
100
AcDbEntity
  8
WYMIARY
 62
     3
100
AcDbLine
 10
533.542585
 20
156.618668
 30
0.0
 11
533.042585
 21
156.618668
 31
0.0
  0
LINE
  5
7C3D
330
18
100
AcDbEntity
  8
WYMIARY
 62
     3
100
AcDbLine
 10
533.542585
 20
152.618668
 30
0.0
 11
533.542585
 21
152.618668
 31
0.0
  0
LINE
  5
7C3E
330
18
100
AcDbEntity
  8
WYMIARY
 62
     3
100
AcDbLine
 10
533.042585
 20
156.618668
 30
0.0
 11
533.042585
 21
155.618668
 31
0.0
  0
ARC
  5
7C3F
330
18
100
AcDbEntity
  8
WYMIARY
 62
     3
100
AcDbCircle
 10
533.172585
 20
170.618668
 30
0.0
 40
0.5
100
AcDbArc
 50
90.0
 51
180.0
  0
TEXT
  5
809F
330
18
100
AcDbEntity
  8
WYMIARY
 62
     3
100
AcDbText
 10
573.970883
 20
266.982019
 30
0.0
 40
1.75
  1
RM699BV - wersja pionowa (V)
 41
1.0
 51
15.0
  7
ITALIC
100
AcDbText
  0
TEXT
  5
80A0
330
18
100
AcDbEntity
  8
WYMIARY
 62
     3
100
AcDbText
 10
573.846303
 20
193.599302
 30
0.0
 40
1.75
  1
RM699BH - horizontal version (H)
 41
1.0
 51
15.0
  7
ITALIC
100
AcDbText
  0
TEXT
  5
80A1
330
18
100
AcDbEntity
  8
WYMIARY
 62
     3
100
AcDbText
 10
573.970883
 20
198.568971
 30
0.0
 40
1.75
  1
RM699BH - wersja pozioma (H)
 41
1.0
 51
15.0
  7
ITALIC
100
AcDbText
  0
TEXT
  5
80A3
330
18
100
AcDbEntity
  8
WYMIARY
 62
     3
100
AcDbText
 10
573.846303
 20
261.098229
 30
0.0
 40
1.75
  1
RM699BV - vertical version (V)
 41
1.0
 51
15.0
  7
ITALIC
100
AcDbText
  0
INSERT
  5
8146
330
18
100
AcDbEntity
  8
WYMIARY
 62
     3
100
AcDbBlockReference
  2
A$C5F53476B
 10
537.850437
 20
49.293171
 30
0.0
  0
TEXT
  5
8148
330
18
100
AcDbEntity
  8
WYMIARY
 62
     3
100
AcDbText
 10
571.9777703111223
 20
105.236229
 30
0.0
 40
1.749999999999999
  1
RM699BV    PI6W-1P
 41
1.0
 51
15.0
  7
ITALIC
100
AcDbText
  0
TEXT
  5
8168
330
18
100
AcDbEntity
  8
WYMIARY
 62
     3
100
AcDbText
 10
585.762555
 20
106.377789
 30
0.0
 40
0.8
  1
z
 51
15.0
  7
ITALIC
100
AcDbText
  0
LINE
  5
8169
330
18
100
AcDbEntity
  8
WYMIARY
 62
     3
100
AcDbLine
 10
585.618234
 20
105.168044
 30
0.0
 11
588.059681
 21
107.036052
 31
0.0
  0
TEXT
  5
816A
330
18
100
AcDbEntity
  8
WYMIARY
 62
     3
100
AcDbText
 10
586.90536
 20
105.236229
 30
0.0
 40
0.8
  1
with
 51
15.0
  7
ITALIC
100
AcDbText
  0
ENDSEC
  0
SECTION
  2
OBJECTS
  0
DICTIONARY
  5
C
330
0
100
AcDbDictionary
  3
ACAD_GROUP
350
D
  3
ACAD_IMAGE_VARS
350
81B6
  3
ACAD_MLINESTYLE
350
E
  3
ACAD_SCALELIST
350
81D2
  3
ACDBVARIABLEDICTIONARY
350
C1B
  3
APPDATA
350
81B4
  3
DWGPROPS
350
8201
  0
DICTIONARY
  5
D
102
{ACAD_REACTORS
330
C
102
}
330
C
100
AcDbDictionary
  0
RASTERVARIABLES
  5
81B6
102
{ACAD_REACTORS
330
C
102
}
330
C
100
AcDbRasterVariables
 90
        0
 70
     1
 71
     1
 72
     0
  0
DICTIONARY
  5
E
102
{ACAD_REACTORS
330
C
102
}
330
C
100
AcDbDictionary
  3
STANDARD
350
1B
  0
DICTIONARY
  5
81D2
102
{ACAD_REACTORS
330
C
102
}
330
C
100
AcDbDictionary
  0
DICTIONARY
  5
C1B
102
{ACAD_REACTORS
330
C
102
}
330
C
100
AcDbDictionary
  3
SORTENTS
350
C1C
  0
DICTIONARY
  5
81B4
102
{ACAD_REACTORS
330
C
102
}
330
C
100
AcDbDictionary
  0
XRECORD
  5
8201
102
{ACAD_REACTORS
330
C
102
}
330
C
100
AcDbXrecord
  1
DWGPROPS COOKIE
  2

  3

  4

  6

  7

  8
pikusl
  9

300
=
301
=
302
=
303
=
304
=
305
=
306
=
307
=
308
=
309
=
 40
0.0
 41
2448721.315803356
 42
2457553.536880093
  1

 90
        0
  0
MLINESTYLE
  5
1B
102
{ACAD_REACTORS
330
E
102
}
330
E
100
AcDbMlineStyle
  2
STANDARD
 70
     0
  3

 62
     0
 51
90.0
 52
90.0
 71
     2
 49
0.5
 62
   256
  6
BYLAYER
 49
-0.5
 62
   256
  6
BYLAYER
  0
DICTIONARYVAR
  5
C1C
102
{ACAD_REACTORS
330
C1B
102
}
330
C1B
100
DictionaryVariables
280
     0
  1
96
  0
ENDSEC
  0
EOF
