  0
SECTION
  2
HEADER
  9
$ACADVER
  1
AC1014
  9
$ACADMAINTVER
 70
     0
  9
$DWGCODEPAGE
  3
ANSI_1250
  9
$INSBASE
 10
0.0
 20
0.0
 30
0.0
  9
$EXTMIN
 10
284.39633
 20
552.619736
 30
0.0
  9
$EXTMAX
 10
687.701236
 20
849.654625
 30
0.0
  9
$LIMMIN
 10
0.0
 20
0.0
  9
$LIMMAX
 10
420.0
 20
297.0
  9
$ORTHOMODE
 70
     1
  9
$REGENMODE
 70
     1
  9
$FILLMODE
 70
     1
  9
$QTEXTMODE
 70
     0
  9
$MIRRTEXT
 70
     1
  9
$DRAGMODE
 70
     2
  9
$LTSCALE
 40
6.0
  9
$OSMODE
 70
   549
  9
$ATTMODE
 70
     1
  9
$TEXTSIZE
 40
3.5
  9
$TRACEWID
 40
0.05
  9
$TEXTSTYLE
  7
ITALIC
  9
$CLAYER
  8
WYMIARY
  9
$CELTYPE
  6
BYLAYER
  9
$CECOLOR
 62
     3
  9
$CELTSCALE
 40
1.0
  9
$DELOBJ
 70
     1
  9
$DISPSILH
 70
     0
  9
$DIMSCALE
 40
1.0
  9
$DIMASZ
 40
3.5
  9
$DIMEXO
 40
1.5
  9
$DIMDLI
 40
7.0
  9
$DIMRND
 40
0.0
  9
$DIMDLE
 40
0.0
  9
$DIMEXE
 40
1.5
  9
$DIMTP
 40
0.1
  9
$DIMTM
 40
0.0
  9
$DIMTXT
 40
1.8
  9
$DIMCEN
 40
-1.0
  9
$DIMTSZ
 40
0.0
  9
$DIMTOL
 70
     0
  9
$DIMLIM
 70
     0
  9
$DIMTIH
 70
     0
  9
$DIMTOH
 70
     0
  9
$DIMSE1
 70
     0
  9
$DIMSE2
 70
     0
  9
$DIMTAD
 70
     1
  9
$DIMZIN
 70
     0
  9
$DIMBLK
  1

  9
$DIMASO
 70
     1
  9
$DIMSHO
 70
     0
  9
$DIMPOST
  1

  9
$DIMAPOST
  1

  9
$DIMALT
 70
     0
  9
$DIMALTD
 70
     2
  9
$DIMALTF
 40
25.4
  9
$DIMLFAC
 40
1.0
  9
$DIMTOFL
 70
     0
  9
$DIMTVP
 40
0.0
  9
$DIMTIX
 70
     0
  9
$DIMSOXD
 70
     0
  9
$DIMSAH
 70
     0
  9
$DIMBLK1
  1

  9
$DIMBLK2
  1

  9
$DIMSTYLE
  2
STANDARD
  9
$DIMCLRD
 70
     0
  9
$DIMCLRE
 70
     0
  9
$DIMCLRT
 70
     0
  9
$DIMTFAC
 40
1.0
  9
$DIMGAP
 40
0.75
  9
$DIMJUST
 70
     0
  9
$DIMSD1
 70
     0
  9
$DIMSD2
 70
     0
  9
$DIMTOLJ
 70
     1
  9
$DIMTZIN
 70
     0
  9
$DIMALTZ
 70
     0
  9
$DIMALTTZ
 70
     0
  9
$DIMFIT
 70
     3
  9
$DIMUPT
 70
     0
  9
$DIMUNIT
 70
     2
  9
$DIMDEC
 70
     2
  9
$DIMTDEC
 70
     4
  9
$DIMALTU
 70
     2
  9
$DIMALTTD
 70
     2
  9
$DIMTXSTY
  7
STANDARD
  9
$DIMAUNIT
 70
     0
  9
$LUNITS
 70
     2
  9
$LUPREC
 70
     2
  9
$SKETCHINC
 40
0.1
  9
$FILLETRAD
 40
0.1
  9
$AUNITS
 70
     0
  9
$AUPREC
 70
     2
  9
$MENU
  1
ACAD
  9
$ELEVATION
 40
0.0
  9
$PELEVATION
 40
0.0
  9
$THICKNESS
 40
0.0
  9
$LIMCHECK
 70
     0
  9
$BLIPMODE
 70
     0
  9
$CHAMFERA
 40
0.0
  9
$CHAMFERB
 40
0.0
  9
$CHAMFERC
 40
0.0
  9
$CHAMFERD
 40
0.0
  9
$SKPOLY
 70
     0
  9
$TDCREATE
 40
2448721.399136690
  9
$TDUPDATE
 40
2454652.574473298
  9
$TDINDWG
 40
1.9301694792
  9
$TDUSRTIMER
 40
1.9301694792
  9
$USRTIMER
 70
     1
  9
$ANGBASE
 50
0.0
  9
$ANGDIR
 70
     0
  9
$PDMODE
 70
     0
  9
$PDSIZE
 40
0.0
  9
$PLINEWID
 40
0.5
  9
$COORDS
 70
     2
  9
$SPLFRAME
 70
     0
  9
$SPLINETYPE
 70
     6
  9
$SPLINESEGS
 70
     8
  9
$ATTDIA
 70
     0
  9
$ATTREQ
 70
     1
  9
$HANDLING
 70
     1
  9
$HANDSEED
  5
CD0E
  9
$SURFTAB1
 70
     6
  9
$SURFTAB2
 70
     6
  9
$SURFTYPE
 70
     6
  9
$SURFU
 70
     6
  9
$SURFV
 70
     6
  9
$UCSNAME
  2

  9
$UCSORG
 10
0.0
 20
0.0
 30
0.0
  9
$UCSXDIR
 10
1.0
 20
0.0
 30
0.0
  9
$UCSYDIR
 10
0.0
 20
1.0
 30
0.0
  9
$PUCSNAME
  2

  9
$PUCSORG
 10
0.0
 20
0.0
 30
0.0
  9
$PUCSXDIR
 10
1.0
 20
0.0
 30
0.0
  9
$PUCSYDIR
 10
0.0
 20
1.0
 30
0.0
  9
$USERI1
 70
     0
  9
$USERI2
 70
     0
  9
$USERI3
 70
     0
  9
$USERI4
 70
     0
  9
$USERI5
 70
     0
  9
$USERR1
 40
0.0
  9
$USERR2
 40
0.0
  9
$USERR3
 40
0.0
  9
$USERR4
 40
0.0
  9
$USERR5
 40
0.0
  9
$WORLDVIEW
 70
     1
  9
$SHADEDGE
 70
     3
  9
$SHADEDIF
 70
    70
  9
$TILEMODE
 70
     1
  9
$MAXACTVP
 70
    16
  9
$PINSBASE
 10
0.0
 20
0.0
 30
0.0
  9
$PLIMCHECK
 70
     0
  9
$PEXTMIN
 10
1.000000E+20
 20
1.000000E+20
 30
1.000000E+20
  9
$PEXTMAX
 10
-1.000000E+20
 20
-1.000000E+20
 30
-1.000000E+20
  9
$PLIMMIN
 10
0.0
 20
0.0
  9
$PLIMMAX
 10
12.0
 20
9.0
  9
$UNITMODE
 70
     0
  9
$VISRETAIN
 70
     0
  9
$PLINEGEN
 70
     0
  9
$PSLTSCALE
 70
     0
  9
$TREEDEPTH
 70
  3020
  9
$PICKSTYLE
 70
     0
  9
$CMLSTYLE
  2
STANDARD
  9
$CMLJUST
 70
     0
  9
$CMLSCALE
 40
1.0
  9
$PROXYGRAPHICS
 70
     1
  9
$MEASUREMENT
 70
     0
  0
ENDSEC
  0
SECTION
  2
CLASSES
  0
CLASS
  1
HATCH
  2
AcDbHatch
  3
"ACAD_SEDONA"
 90
        0
280
     0
281
     1
  0
CLASS
  1
LWPOLYLINE
  2
AcDbPolyline
  3
"AutoCAD"
 90
        0
280
     0
281
     1
  0
CLASS
  1
DICTIONARYVAR
  2
AcDbDictionaryVar
  3
"AutoCAD"
 90
        0
280
     0
281
     0
  0
ENDSEC
  0
SECTION
  2
TABLES
  0
TABLE
  2
VPORT
  5
8
100
AcDbSymbolTable
 70
     4
  0
VPORT
  5
CD0D
100
AcDbSymbolTableRecord
100
AcDbViewportTableRecord
  2
*ACTIVE
 70
     0
 10
0.0
 20
0.0
 11
1.0
 21
1.0
 12
486.048783
 22
701.13718
 13
0.0
 23
0.0
 14
1.0
 24
1.0
 15
5.0
 25
5.0
 16
0.0
 26
0.0
 36
1.0
 17
0.0
 27
0.0
 37
0.0
 40
300.900853
 41
2.008696
 42
50.0
 43
0.0
 44
0.0
 50
0.0
 51
0.0
 71
     0
 72
   100
 73
     1
 74
     0
 75
     0
 76
     0
 77
     0
 78
     0
  0
ENDTAB
  0
TABLE
  2
LTYPE
  5
5
100
AcDbSymbolTable
 70
     4
  0
LTYPE
  5
12
100
AcDbSymbolTableRecord
100
AcDbLinetypeTableRecord
  2
BYBLOCK
 70
     0
  3

 72
    65
 73
     0
 40
0.0
  0
LTYPE
  5
13
100
AcDbSymbolTableRecord
100
AcDbLinetypeTableRecord
  2
BYLAYER
 70
     0
  3

 72
    65
 73
     0
 40
0.0
  0
LTYPE
  5
14
100
AcDbSymbolTableRecord
100
AcDbLinetypeTableRecord
  2
CONTINUOUS
 70
     0
  3
Solid line
 72
    65
 73
     0
 40
0.0
  0
LTYPE
  5
1D
100
AcDbSymbolTableRecord
100
AcDbLinetypeTableRecord
  2
CENTER
 70
     0
  3
____ _ ____ _ ____ _ ____ _ ____ _ ____ _ ____
 72
    65
 73
     4
 40
2.0
 49
1.25
 74
     0
 49
-0.25
 74
     0
 49
0.25
 74
     0
 49
-0.25
 74
     0
  0
LTYPE
  5
1E
100
AcDbSymbolTableRecord
100
AcDbLinetypeTableRecord
  2
HIDDEN
 70
     0
  3
_ _ _ _ _ _ _ _ _ _ _ _ _ _ _ _ _ _ _ _ _ _ _
 72
    65
 73
     2
 40
0.375
 49
0.25
 74
     0
 49
-0.125
 74
     0
  0
LTYPE
  5
8093
100
AcDbSymbolTableRecord
100
AcDbLinetypeTableRecord
  2
PHANTOM
 70
     0
  3
Phantom ______  __  __  ______  __  __  ______
 72
    65
 73
     6
 40
12.7
 49
6.35
 74
     0
 49
-1.27
 74
     0
 49
1.27
 74
     0
 49
-1.27
 74
     0
 49
1.27
 74
     0
 49
-1.27
 74
     0
  0
ENDTAB
  0
TABLE
  2
LAYER
  5
2
100
AcDbSymbolTable
 70
     8
  0
LAYER
  5
F
100
AcDbSymbolTableRecord
100
AcDbLayerTableRecord
  2
0
 70
     0
 62
     7
  6
CONTINUOUS
  0
LAYER
  5
21
100
AcDbSymbolTableRecord
100
AcDbLayerTableRecord
  2
1
 70
     0
 62
     3
  6
CONTINUOUS
  0
LAYER
  5
22
100
AcDbSymbolTableRecord
100
AcDbLayerTableRecord
  2
2
 70
     0
 62
     6
  6
CONTINUOUS
  0
LAYER
  5
23
100
AcDbSymbolTableRecord
100
AcDbLayerTableRecord
  2
3
 70
     0
 62
     4
  6
HIDDEN
  0
LAYER
  5
24
100
AcDbSymbolTableRecord
100
AcDbLayerTableRecord
  2
OSIE
 70
     0
 62
     2
  6
CENTER
  0
LAYER
  5
25
100
AcDbSymbolTableRecord
100
AcDbLayerTableRecord
  2
WY
 70
     0
 62
     1
  6
CONTINUOUS
  0
LAYER
  5
26
100
AcDbSymbolTableRecord
100
AcDbLayerTableRecord
  2
DEFPOINTS
 70
     0
 62
     7
  6
CONTINUOUS
  0
LAYER
  5
464
100
AcDbSymbolTableRecord
100
AcDbLayerTableRecord
  2
WYMIARY
 70
     0
 62
     1
  6
CONTINUOUS
  0
ENDTAB
  0
TABLE
  2
STYLE
  5
3
100
AcDbSymbolTable
 70
     2
  0
STYLE
  5
10
100
AcDbSymbolTableRecord
100
AcDbTextStyleTableRecord
  2
STANDARD
 70
     0
 40
0.0
 41
1.0
 50
0.0
 71
     0
 42
6.0
  3
txt
  4

  0
STYLE
  5
1C
100
AcDbSymbolTableRecord
100
AcDbTextStyleTableRecord
  2
ITALIC
 70
     0
 40
0.0
 41
1.0
 50
15.0
 71
     0
 42
3.5
  3
simplex
  4

  0
ENDTAB
  0
TABLE
  2
VIEW
  5
6
100
AcDbSymbolTable
 70
     0
  0
ENDTAB
  0
TABLE
  2
UCS
  5
7
100
AcDbSymbolTable
 70
     0
  0
ENDTAB
  0
TABLE
  2
APPID
  5
9
100
AcDbSymbolTable
 70
     1
  0
APPID
  5
11
100
AcDbSymbolTableRecord
100
AcDbRegAppTableRecord
  2
ACAD
 70
     0
  0
ENDTAB
  0
TABLE
  2
DIMSTYLE
  5
A
100
AcDbSymbolTable
 70
     1
  0
DIMSTYLE
105
3B
102
{ACAD_REACTORS
330
C69B
330
C6A8
330
C6B5
102
}
100
AcDbSymbolTableRecord
100
AcDbDimStyleTableRecord
  2
STANDARD
 70
     0
  3

  4

  5

  6

  7

 40
1.0
 41
3.5
 42
1.5
 43
7.0
 44
1.5
 45
0.0
 46
0.0
 47
0.1
 48
0.0
140
3.6
141
-1.0
142
0.0
143
25.4
144
1.0
145
0.0
146
1.0
147
1.5
 71
     0
 72
     0
 73
     0
 74
     0
 75
     0
 76
     0
 77
     1
 78
     0
170
     0
171
     2
172
     0
173
     0
174
     0
175
     0
176
     0
177
     0
178
     0
270
     2
271
     2
272
     4
273
     2
274
     2
340
10
275
     0
280
     0
281
     0
282
     0
283
     1
284
     0
285
     0
286
     0
287
     3
288
     0
  0
ENDTAB
  0
TABLE
  2
BLOCK_RECORD
  5
1
100
AcDbSymbolTable
 70
   212
  0
BLOCK_RECORD
  5
18
100
AcDbSymbolTableRecord
100
AcDbBlockTableRecord
  2
*MODEL_SPACE
  0
BLOCK_RECORD
  5
15
100
AcDbSymbolTableRecord
100
AcDbBlockTableRecord
  2
*PAPER_SPACE
  0
BLOCK_RECORD
  5
7EA0
100
AcDbSymbolTableRecord
100
AcDbBlockTableRecord
  2
A$C312173AA
  0
BLOCK_RECORD
  5
7F70
100
AcDbSymbolTableRecord
100
AcDbBlockTableRecord
  2
A$C54971FCD
  0
BLOCK_RECORD
  5
7FC9
100
AcDbSymbolTableRecord
100
AcDbBlockTableRecord
  2
A$C369D6037
  0
BLOCK_RECORD
  5
8081
100
AcDbSymbolTableRecord
100
AcDbBlockTableRecord
  2
A$C3D1C28BF
  0
BLOCK_RECORD
  5
C68F
100
AcDbSymbolTableRecord
100
AcDbBlockTableRecord
  2
*D208
  0
BLOCK_RECORD
  5
C69C
100
AcDbSymbolTableRecord
100
AcDbBlockTableRecord
  2
*D209
  0
BLOCK_RECORD
  5
C6A9
100
AcDbSymbolTableRecord
100
AcDbBlockTableRecord
  2
*D210
  0
BLOCK_RECORD
  5
C6E5
100
AcDbSymbolTableRecord
100
AcDbBlockTableRecord
  2
A$C69C843E8
  0
ENDTAB
  0
ENDSEC
  0
SECTION
  2
BLOCKS
  0
BLOCK
  5
29
100
AcDbEntity
  8
0
100
AcDbBlockBegin
  2
*MODEL_SPACE
 70
     0
 10
0.0
 20
0.0
 30
0.0
  3
*MODEL_SPACE
  1

  0
ENDBLK
  5
2A
100
AcDbEntity
  8
0
100
AcDbBlockEnd
  0
BLOCK
  5
27
100
AcDbEntity
 67
     1
  8
0
100
AcDbBlockBegin
  2
*PAPER_SPACE
 70
     0
 10
0.0
 20
0.0
 30
0.0
  3
*PAPER_SPACE
  1

  0
ENDBLK
  5
28
100
AcDbEntity
 67
     1
  8
0
100
AcDbBlockEnd
  0
BLOCK
  5
7EAF
100
AcDbEntity
  8
0
100
AcDbBlockBegin
  2
A$C312173AA
 70
     0
 10
0.0
 20
0.0
 30
0.0
  3
A$C312173AA
  1

  0
HATCH
  5
7EA1
100
AcDbEntity
  8
1
100
AcDbHatch
 10
0.0
 20
0.0
 30
0.0
210
0.0
220
0.0
230
1.0
  2
SOLID
 70
     1
 71
     1
 91
        1
 92
        7
 72
     0
 73
     1
 93
        4
 10
2.724690422176706
 20
5.013136352600668
 10
5.058157912552363
 20
1.095673373491763
 10
5.076413282682712
 20
1.095673373491763
 10
7.382430158279476
 20
5.013136352600668
 97
        4
330
7EA6
330
7EAA
330
7EA5
330
7EA8
 75
     0
 76
     1
 47
0.057765
 98
        1
 10
5.461965
 20
4.283681
  0
HATCH
  5
7EA2
100
AcDbEntity
  8
1
100
AcDbHatch
 10
0.0
 20
0.0
 30
0.0
210
0.0
220
0.0
230
1.0
  2
SOLID
 70
     1
 71
     1
 91
        1
 92
        7
 72
     0
 73
     1
 93
        4
 10
2.724690422176706
 20
5.013136352600668
 10
5.058157912552363
 20
1.095673373491763
 10
5.076413282682712
 20
1.095673373491763
 10
7.382430158279476
 20
5.013136352600668
 97
        4
330
7EA4
330
7EA9
330
7EA3
330
7EA7
 75
     0
 76
     1
 47
0.057765
 98
        1
 10
5.461965
 20
4.283681
  0
LINE
  5
7EA3
102
{ACAD_REACTORS
330
7EA2
102
}
100
AcDbEntity
  8
1
100
AcDbLine
 10
7.376974
 20
1.095673
 30
0.0
 11
2.719445
 21
1.095673
 31
0.0
  0
LINE
  5
7EA4
102
{ACAD_REACTORS
330
7EA2
102
}
100
AcDbEntity
  8
1
100
AcDbLine
 10
2.716507
 20
5.013136
 30
0.0
 11
7.38243
 21
5.013136
 31
0.0
  0
LINE
  5
7EA5
102
{ACAD_REACTORS
330
7EA1
102
}
100
AcDbEntity
  8
1
100
AcDbLine
 10
7.376974
 20
1.095673
 30
0.0
 11
2.719445
 21
1.095673
 31
0.0
  0
LINE
  5
7EA6
102
{ACAD_REACTORS
330
7EA1
102
}
100
AcDbEntity
  8
1
100
AcDbLine
 10
2.716507
 20
5.013136
 30
0.0
 11
7.38243
 21
5.013136
 31
0.0
  0
LINE
  5
7EA7
102
{ACAD_REACTORS
330
7EA2
102
}
100
AcDbEntity
  8
1
100
AcDbLine
 10
7.38243
 20
5.013136
 30
0.0
 11
5.049469
 21
1.0499
 31
0.0
  0
LINE
  5
7EA8
102
{ACAD_REACTORS
330
7EA1
102
}
100
AcDbEntity
  8
1
100
AcDbLine
 10
7.38243
 20
5.013136
 30
0.0
 11
5.049469
 21
1.0499
 31
0.0
  0
LINE
  5
7EA9
102
{ACAD_REACTORS
330
7EA2
102
}
100
AcDbEntity
  8
1
100
AcDbLine
 10
5.048209
 20
1.112376
 30
0.0
 11
2.719445
 21
5.021942
 31
0.0
  0
LINE
  5
7EAA
102
{ACAD_REACTORS
330
7EA1
102
}
100
AcDbEntity
  8
1
100
AcDbLine
 10
5.048209
 20
1.112376
 30
0.0
 11
2.719445
 21
5.021942
 31
0.0
  0
LINE
  5
7EAB
100
AcDbEntity
  8
1
100
AcDbLine
 10
3.176777
 20
2.240563
 30
0.0
 11
1.859991
 21
0.714974
 31
0.0
  0
LINE
  5
7EAC
100
AcDbEntity
  8
1
100
AcDbLine
 10
1.935572
 20
2.29404
 30
0.0
 11
0.618786
 21
0.768452
 31
0.0
  0
HATCH
  5
7EAD
100
AcDbEntity
  8
1
100
AcDbHatch
 10
0.0
 20
0.0
 30
0.0
210
0.0
220
0.0
230
1.0
  2
SOLID
 70
     1
 71
     0
 91
        1
 92
        7
 72
     0
 73
     1
 93
        3
 10
2.13435432304297
 20
0.5079866047149438
 10
1.594971700028992
 20
0.9149117569309055
 10
1.241204476589189
 20
0.0000001052034975
 97
        0
 75
     0
 76
     1
 47
0.009825
 98
        1
 10
1.617082
 20
0.370646
  0
HATCH
  5
7EAE
100
AcDbEntity
  8
1
100
AcDbHatch
 10
0.0
 20
0.0
 30
0.0
210
0.0
220
0.0
230
1.0
  2
SOLID
 70
     1
 71
     0
 91
        1
 92
        7
 72
     0
 73
     1
 93
        3
 10
0.8931496793437361
 20
0.5614642425206
 10
0.3537670563297865
 20
0.9683893947365334
 10
-0.0000001671100733
 20
0.0534777430091538
 97
        0
 75
     0
 76
     1
 47
0.009825
 98
        1
 10
0.375878
 20
0.424123
  0
ENDBLK
  5
7EB0
100
AcDbEntity
  8
0
100
AcDbBlockEnd
  0
BLOCK
  5
7FC7
100
AcDbEntity
  8
0
100
AcDbBlockBegin
  2
A$C54971FCD
 70
     0
 10
0.0
 20
0.0
 30
0.0
  3
A$C54971FCD
  1

  0
LINE
  5
7F71
100
AcDbEntity
  8
1
100
AcDbLine
 10
6.05
 20
1.507465
 30
0.0
 11
5.82196
 21
3.612976
 31
0.0
  0
LINE
  5
7F72
100
AcDbEntity
  8
1
100
AcDbLine
 10
6.019458
 20
1.789458
 30
0.0
 11
6.11805
 21
3.55
 31
0.0
  0
LINE
  5
7F73
100
AcDbEntity
  8
1
100
AcDbLine
 10
4.65
 20
1.507465
 30
0.0
 11
4.878039
 21
3.612976
 31
0.0
  0
LINE
  5
7F74
100
AcDbEntity
  8
1
100
AcDbLine
 10
4.680541
 20
1.789458
 30
0.0
 11
4.581949
 21
3.55
 31
0.0
  0
LINE
  5
7F75
100
AcDbEntity
  8
OSIE
100
AcDbLine
 10
5.35
 20
3.35
 30
0.0
 11
5.35
 21
1.4
 31
0.0
  0
ARC
  5
7F76
100
AcDbEntity
  8
1
100
AcDbCircle
 10
5.35
 20
5.35
 30
0.0
 40
5.259241
100
AcDbArc
 50
205.906088
 51
334.093912
  0
ARC
  5
7F77
100
AcDbEntity
  8
1
100
AcDbCircle
 10
5.35
 20
5.35
 30
0.0
 40
3.622932
100
AcDbArc
 50
259.351483
 51
280.648517
  0
ARC
  5
7F78
100
AcDbEntity
  8
1
100
AcDbCircle
 10
5.35
 20
5.35
 30
0.0
 40
3.905775
100
AcDbArc
 50
259.675564
 51
280.324436
  0
LINE
  5
7F79
100
AcDbEntity
  8
1
100
AcDbLine
 10
4.65
 20
0.399243
 30
0.0
 11
4.65
 21
1.507465
 31
0.0
  0
LINE
  5
7F7A
100
AcDbEntity
  8
1
100
AcDbLine
 10
6.05
 20
0.399243
 30
0.0
 11
6.05
 21
1.507465
 31
0.0
  0
LINE
  5
7F7B
100
AcDbEntity
  8
OSIE
100
AcDbLine
 10
4.35
 20
5.35
 30
0.0
 11
6.35
 21
5.35
 31
0.0
  0
ARC
  5
7F7C
100
AcDbEntity
  8
1
100
AcDbCircle
 10
5.35
 20
5.35
 30
0.0
 40
1.8
100
AcDbArc
 50
74.79935
 51
105.20065
  0
ARC
  5
7F7D
100
AcDbEntity
  8
1
100
AcDbCircle
 10
5.35
 20
5.35
 30
0.0
 40
3.622932
100
AcDbArc
 50
79.351483
 51
100.648517
  0
ARC
  5
7F7E
100
AcDbEntity
  8
1
100
AcDbCircle
 10
5.35
 20
5.35
 30
0.0
 40
3.905775
100
AcDbArc
 50
79.675564
 51
100.324436
  0
ARC
  5
7F7F
100
AcDbEntity
  8
1
100
AcDbCircle
 10
5.35
 20
5.35
 30
0.0
 40
1.8
100
AcDbArc
 50
254.79935
 51
285.20065
  0
LINE
  5
7F80
100
AcDbEntity
  8
OSIE
 48
3.0
100
AcDbLine
 10
2.606298
 20
2.606299
 30
0.0
 11
8.093701
 21
8.093701
 31
0.0
  0
LINE
  5
7F81
100
AcDbEntity
  8
OSIE
 48
3.0
100
AcDbLine
 10
2.606298
 20
8.093701
 30
0.0
 11
8.093701
 21
2.606299
 31
0.0
  0
LINE
  5
7F82
100
AcDbEntity
  8
1
100
AcDbLine
 10
4.680541
 20
8.910542
 30
0.0
 11
4.581949
 21
7.15
 31
0.0
  0
LINE
  5
7F83
100
AcDbEntity
  8
1
100
AcDbLine
 10
4.65
 20
9.192535
 30
0.0
 11
4.878039
 21
7.087024
 31
0.0
  0
LINE
  5
7F84
100
AcDbEntity
  8
OSIE
100
AcDbLine
 10
5.35
 20
7.35
 30
0.0
 11
5.35
 21
9.3
 31
0.0
  0
LINE
  5
7F85
100
AcDbEntity
  8
1
100
AcDbLine
 10
3.55
 20
6.11805
 30
0.0
 11
4.295348
 21
6.404652
 31
0.0
  0
LINE
  5
7F86
100
AcDbEntity
  8
1
100
AcDbLine
 10
4.536087
 20
6.163912
 30
0.0
 11
4.878039
 21
7.087024
 31
0.0
  0
LINE
  5
7F87
100
AcDbEntity
  8
1
100
AcDbLine
 10
3.612975
 20
5.82196
 30
0.0
 11
4.536087
 21
6.163912
 31
0.0
  0
ARC
  5
7F88
100
AcDbEntity
  8
1
100
AcDbCircle
 10
5.35
 20
5.35
 30
0.0
 40
1.8
100
AcDbArc
 50
180.0
 51
195.20065
  0
LINE
  5
7F89
100
AcDbEntity
  8
1
100
AcDbLine
 10
3.612975
 20
5.82196
 30
0.0
 11
3.55
 21
6.11805
 31
0.0
  0
ARC
  5
7F8A
100
AcDbEntity
  8
1
100
AcDbCircle
 10
5.35
 20
5.35
 30
0.0
 40
1.8
100
AcDbArc
 50
164.79935
 51
180.0
  0
LINE
  5
7F8B
100
AcDbEntity
  8
1
100
AcDbLine
 10
4.295348
 20
6.404652
 30
0.0
 11
4.582681
 21
7.16307
 31
0.0
  0
LINE
  5
7F8C
100
AcDbEntity
  8
1
100
AcDbLine
 10
4.878039
 20
7.087024
 30
0.0
 11
4.581949
 21
7.15
 31
0.0
  0
ARC
  5
7F8D
100
AcDbEntity
  8
1
100
AcDbCircle
 10
5.35
 20
5.35
 30
0.0
 40
3.905775
100
AcDbArc
 50
180.0
 51
190.324436
  0
ARC
  5
7F8E
100
AcDbEntity
  8
1
100
AcDbCircle
 10
5.35
 20
5.35
 30
0.0
 40
3.905775
100
AcDbArc
 50
169.675564
 51
180.0
  0
ARC
  5
7F8F
100
AcDbEntity
  8
1
100
AcDbCircle
 10
5.35
 20
5.35
 30
0.0
 40
3.622932
100
AcDbArc
 50
180.0
 51
190.648517
  0
ARC
  5
7F90
100
AcDbEntity
  8
1
100
AcDbCircle
 10
5.35
 20
5.35
 30
0.0
 40
3.622932
100
AcDbArc
 50
169.351483
 51
180.0
  0
LINE
  5
7F91
100
AcDbEntity
  8
1
100
AcDbLine
 10
1.507465
 20
4.65
 30
0.0
 11
3.612975
 21
4.87804
 31
0.0
  0
LINE
  5
7F92
100
AcDbEntity
  8
1
100
AcDbLine
 10
1.507465
 20
6.05
 30
0.0
 11
3.612975
 21
5.82196
 31
0.0
  0
LINE
  5
7F93
100
AcDbEntity
  8
1
100
AcDbLine
 10
1.789458
 20
6.019459
 30
0.0
 11
3.55
 21
6.11805
 31
0.0
  0
LINE
  5
7F94
100
AcDbEntity
  8
OSIE
100
AcDbLine
 10
3.35
 20
5.35
 30
0.0
 11
1.4
 21
5.35
 31
0.0
  0
LINE
  5
7F95
100
AcDbEntity
  8
1
100
AcDbLine
 10
4.295348
 20
4.295348
 30
0.0
 11
4.582681
 21
3.53693
 31
0.0
  0
LINE
  5
7F96
100
AcDbEntity
  8
1
100
AcDbLine
 10
4.878039
 20
3.612976
 30
0.0
 11
4.581949
 21
3.55
 31
0.0
  0
LINE
  5
7F97
100
AcDbEntity
  8
1
100
AcDbLine
 10
4.536087
 20
4.536088
 30
0.0
 11
4.878039
 21
3.612976
 31
0.0
  0
LINE
  5
7F98
100
AcDbEntity
  8
1
100
AcDbLine
 10
3.55
 20
4.58195
 30
0.0
 11
4.295348
 21
4.295348
 31
0.0
  0
LINE
  5
7F99
100
AcDbEntity
  8
OSIE
100
AcDbLine
 10
5.35
 20
4.35
 30
0.0
 11
5.35
 21
6.35
 31
0.0
  0
LINE
  5
7F9A
100
AcDbEntity
  8
1
100
AcDbLine
 10
3.612975
 20
4.87804
 30
0.0
 11
4.536087
 21
4.536088
 31
0.0
  0
LINE
  5
7F9B
100
AcDbEntity
  8
1
100
AcDbLine
 10
1.789458
 20
4.680542
 30
0.0
 11
3.55
 21
4.58195
 31
0.0
  0
LINE
  5
7F9C
100
AcDbEntity
  8
1
100
AcDbLine
 10
3.612975
 20
4.87804
 30
0.0
 11
3.55
 21
4.58195
 31
0.0
  0
LINE
  5
7F9D
100
AcDbEntity
  8
1
100
AcDbLine
 10
4.65
 20
10.300758
 30
0.0
 11
4.65
 21
9.192535
 31
0.0
  0
LINE
  5
7F9E
100
AcDbEntity
  8
1
100
AcDbLine
 10
6.019458
 20
8.910542
 30
0.0
 11
6.11805
 21
7.15
 31
0.0
  0
LINE
  5
7F9F
100
AcDbEntity
  8
1
100
AcDbLine
 10
6.05
 20
9.192535
 30
0.0
 11
5.82196
 21
7.087024
 31
0.0
  0
ARC
  5
7FA0
100
AcDbEntity
  8
1
100
AcDbCircle
 10
5.35
 20
5.35
 30
0.0
 40
3.622932
100
AcDbArc
 50
349.351483
 51
360.0
  0
ARC
  5
7FA1
100
AcDbEntity
  8
1
100
AcDbCircle
 10
5.35
 20
5.35
 30
0.0
 40
3.905775
100
AcDbArc
 50
349.675564
 51
360.0
  0
ARC
  5
7FA2
100
AcDbEntity
  8
1
100
AcDbCircle
 10
5.35
 20
5.35
 30
0.0
 40
3.622932
100
AcDbArc
 50
0.0
 51
10.648517
  0
ARC
  5
7FA3
100
AcDbEntity
  8
1
100
AcDbCircle
 10
5.35
 20
5.35
 30
0.0
 40
3.905775
100
AcDbArc
 50
0.0
 51
10.324436
  0
LINE
  5
7FA4
100
AcDbEntity
  8
1
100
AcDbLine
 10
6.404651
 20
6.404652
 30
0.0
 11
7.16307
 21
6.117318
 31
0.0
  0
LINE
  5
7FA5
100
AcDbEntity
  8
1
100
AcDbLine
 10
5.82196
 20
7.087024
 30
0.0
 11
6.163912
 21
6.163912
 31
0.0
  0
LINE
  5
7FA6
100
AcDbEntity
  8
1
100
AcDbLine
 10
6.163912
 20
6.163912
 30
0.0
 11
7.087024
 21
5.82196
 31
0.0
  0
ARC
  5
7FA7
100
AcDbEntity
  8
1
100
AcDbCircle
 10
5.35
 20
5.35
 30
0.0
 40
1.8
100
AcDbArc
 50
344.79935
 51
360.0
  0
ARC
  5
7FA8
100
AcDbEntity
  8
1
100
AcDbCircle
 10
5.35
 20
5.35
 30
0.0
 40
1.8
100
AcDbArc
 50
0.0
 51
15.20065
  0
LINE
  5
7FA9
100
AcDbEntity
  8
1
100
AcDbLine
 10
7.087024
 20
5.82196
 30
0.0
 11
7.15
 21
6.11805
 31
0.0
  0
LINE
  5
7FAA
100
AcDbEntity
  8
1
100
AcDbLine
 10
6.11805
 20
7.15
 30
0.0
 11
6.404651
 21
6.404652
 31
0.0
  0
LINE
  5
7FAB
100
AcDbEntity
  8
1
100
AcDbLine
 10
5.82196
 20
7.087024
 30
0.0
 11
6.11805
 21
7.15
 31
0.0
  0
LINE
  5
7FAC
100
AcDbEntity
  8
1
100
AcDbLine
 10
6.11805
 20
3.55
 30
0.0
 11
6.404651
 21
4.295348
 31
0.0
  0
LINE
  5
7FAD
100
AcDbEntity
  8
1
100
AcDbLine
 10
5.82196
 20
3.612976
 30
0.0
 11
6.11805
 21
3.55
 31
0.0
  0
LINE
  5
7FAE
100
AcDbEntity
  8
1
100
AcDbLine
 10
5.82196
 20
3.612976
 30
0.0
 11
6.163912
 21
4.536088
 31
0.0
  0
LINE
  5
7FAF
100
AcDbEntity
  8
1
100
AcDbLine
 10
6.404651
 20
4.295348
 30
0.0
 11
7.16307
 21
4.582682
 31
0.0
  0
LINE
  5
7FB0
100
AcDbEntity
  8
1
100
AcDbLine
 10
6.163912
 20
4.536088
 30
0.0
 11
7.087024
 21
4.87804
 31
0.0
  0
LINE
  5
7FB1
100
AcDbEntity
  8
1
100
AcDbLine
 10
7.087024
 20
4.87804
 30
0.0
 11
7.15
 21
4.58195
 31
0.0
  0
LINE
  5
7FB2
100
AcDbEntity
  8
1
100
AcDbLine
 10
9.192535
 20
4.65
 30
0.0
 11
7.087024
 21
4.87804
 31
0.0
  0
LINE
  5
7FB3
100
AcDbEntity
  8
1
100
AcDbLine
 10
8.910542
 20
4.680542
 30
0.0
 11
7.15
 21
4.58195
 31
0.0
  0
LINE
  5
7FB4
100
AcDbEntity
  8
1
100
AcDbLine
 10
8.910542
 20
6.019459
 30
0.0
 11
7.15
 21
6.11805
 31
0.0
  0
LINE
  5
7FB5
100
AcDbEntity
  8
1
100
AcDbLine
 10
9.192535
 20
6.05
 30
0.0
 11
7.087024
 21
5.82196
 31
0.0
  0
LINE
  5
7FB6
100
AcDbEntity
  8
OSIE
100
AcDbLine
 10
7.35
 20
5.35
 30
0.0
 11
9.3
 21
5.35
 31
0.0
  0
LINE
  5
7FB7
100
AcDbEntity
  8
1
100
AcDbLine
 10
10.556845
 20
6.539065
 30
0.0
 11
10.660275
 21
5.948524
 31
0.0
  0
LINE
  5
7FB8
100
AcDbEntity
  8
1
100
AcDbLine
 10
10.15
 20
7.664915
 30
0.0
 11
10.385993
 21
7.113751
 31
0.0
  0
LINE
  5
7FB9
100
AcDbEntity
  8
1
100
AcDbLine
 10
10.385993
 20
7.113751
 30
0.0
 11
10.556845
 21
6.539065
 31
0.0
  0
LINE
  5
7FBA
100
AcDbEntity
  8
1
100
AcDbLine
 10
10.080746
 20
7.647749
 30
0.0
 11
10.15
 21
7.580424
 31
0.0
  0
LINE
  5
7FBB
100
AcDbEntity
  8
1
100
AcDbLine
 10
10.660275
 20
5.948524
 30
0.0
 11
10.694906
 21
5.35
 31
0.0
  0
LINE
  5
7FBC
100
AcDbEntity
  8
1
100
AcDbLine
 10
10.694906
 20
5.35
 30
0.0
 11
10.660275
 21
4.751477
 31
0.0
  0
LINE
  5
7FBD
100
AcDbEntity
  8
1
100
AcDbLine
 10
10.556845
 20
4.160935
 30
0.0
 11
10.385993
 21
3.58625
 31
0.0
  0
LINE
  5
7FBE
100
AcDbEntity
  8
1
100
AcDbLine
 10
10.385993
 20
3.58625
 30
0.0
 11
10.15
 21
3.035085
 31
0.0
  0
LINE
  5
7FBF
100
AcDbEntity
  8
1
100
AcDbLine
 10
10.080746
 20
3.052252
 30
0.0
 11
10.15
 21
3.119576
 31
0.0
  0
LINE
  5
7FC0
100
AcDbEntity
  8
1
100
AcDbLine
 10
10.660275
 20
4.751477
 30
0.0
 11
10.556845
 21
4.160935
 31
0.0
  0
LINE
  5
7FC1
100
AcDbEntity
  8
1
100
AcDbLine
 10
6.05
 20
10.300758
 30
0.0
 11
6.05
 21
9.192535
 31
0.0
  0
ARC
  5
7FC2
100
AcDbEntity
  8
1
100
AcDbCircle
 10
5.35
 20
5.35
 30
0.0
 40
5.0
100
AcDbArc
 50
0.0
 51
180.0
  0
CIRCLE
  5
7FC3
100
AcDbEntity
  8
1
100
AcDbCircle
 10
5.35
 20
5.35
 30
0.0
 40
5.35
  0
ARC
  5
7FC4
100
AcDbEntity
  8
1
100
AcDbCircle
 10
5.35
 20
5.35
 30
0.0
 40
5.0
100
AcDbArc
 50
180.0
 51
0.0
  0
ARC
  5
7FC5
100
AcDbEntity
  8
1
100
AcDbCircle
 10
5.35
 20
5.35
 30
0.0
 40
5.259241
100
AcDbArc
 50
25.906088
 51
154.093912
  0
LINE
  5
7FC6
100
AcDbEntity
  8
1
100
AcDbLine
 10
0.314006
 20
3.58625
 30
0.0
 11
0.143155
 21
4.160935
 31
0.0
  0
ENDBLK
  5
7FC8
100
AcDbEntity
  8
0
100
AcDbBlockEnd
  0
BLOCK
  5
7FCB
100
AcDbEntity
  8
0
100
AcDbBlockBegin
  2
A$C369D6037
 70
     0
 10
0.0
 20
0.0
 30
0.0
  3
A$C369D6037
  1

  0
INSERT
  5
7FCA
100
AcDbEntity
  8
1
100
AcDbBlockReference
  2
A$C312173AA
 10
0.0
 20
0.0
 30
0.0
  0
ENDBLK
  5
7FCC
100
AcDbEntity
  8
0
100
AcDbBlockEnd
  0
BLOCK
  5
8091
100
AcDbEntity
  8
0
 62
     3
100
AcDbBlockBegin
  2
A$C3D1C28BF
 70
     0
 10
0.0
 20
0.0
 30
0.0
  3
A$C3D1C28BF
  1

  0
LINE
  5
8082
100
AcDbEntity
  8
WYMIARY
 62
     3
100
AcDbLine
 10
60.772901
 20
28.671415
 30
0.0
 11
21.812605
 21
56.839707
 31
0.0
  0
LINE
  5
8083
100
AcDbEntity
  8
WYMIARY
 62
     3
100
AcDbLine
 10
87.562069
 20
22.937132
 30
0.0
 11
109.230664
 21
55.263482
 31
0.0
  0
LINE
  5
8084
100
AcDbEntity
  8
WYMIARY
 62
     3
100
AcDbLine
 10
73.784782
 20
19.496562
 30
0.0
 11
73.784782
 21
49.697118
 31
0.0
  0
LINE
  5
8085
100
AcDbEntity
  8
WYMIARY
 62
     3
100
AcDbLine
 10
88.327474
 20
0.0
 30
0.0
 11
149.559859
 21
49.697118
 31
0.0
  0
TEXT
  5
8086
100
AcDbEntity
  8
WY
 62
     3
100
AcDbText
 10
94.795662
 20
57.462112
 30
0.0
 40
2.0
  1
Description plate GZT4-0035
 51
15.0
  7
ITALIC
100
AcDbText
  0
TEXT
  5
8087
100
AcDbEntity
  8
WY
 62
     3
100
AcDbText
 10
94.795662
 20
60.76955
 30
0.0
 40
2.0
  1
Płytka do opisu GZT4-0035
 51
15.0
  7
ITALIC
100
AcDbText
  0
TEXT
  5
8088
100
AcDbEntity
  8
WY
 62
     3
100
AcDbText
 10
-0.000001
 20
58.652527
 30
0.0
 40
2.0
  1
Retainer / retractor clip GZT80-0040
 51
15.0
  7
ITALIC
100
AcDbText
  0
TEXT
  5
8089
100
AcDbEntity
  8
WY
 62
     3
100
AcDbText
 10
0.183542
 20
61.683112
 30
0.0
 40
2.0
  1
Obejma wyrzutnikowa GZT80-0040
 51
15.0
  7
ITALIC
100
AcDbText
  0
TEXT
  5
808A
100
AcDbEntity
  8
WY
 62
     3
100
AcDbText
 10
63.255465
 20
54.536716
 30
0.0
 40
2.0
  1
Przekaźnik R2
 51
15.0
  7
ITALIC
100
AcDbText
  0
TEXT
  5
808B
100
AcDbEntity
  8
WY
 62
     3
100
AcDbText
 10
63.255465
 20
51.229278
 30
0.0
 40
2.0
  1
Relay R2
 51
15.0
  7
ITALIC
100
AcDbText
  0
TEXT
  5
808C
100
AcDbEntity
  8
WY
 62
     3
100
AcDbText
 10
145.711378
 20
51.660487
 30
0.0
 40
2.0
  1
Socket GZM2
 51
15.0
  7
ITALIC
100
AcDbText
  0
TEXT
  5
808D
100
AcDbEntity
  8
WY
 62
     3
100
AcDbText
 10
145.711378
 20
54.967926
 30
0.0
 40
2.0
  1
Gniazdo GZM2
 51
15.0
  7
ITALIC
100
AcDbText
  0
TEXT
  5
808E
100
AcDbEntity
  8
WY
 62
     3
100
AcDbText
 10
0.97021
 20
41.467875
 30
0.0
 40
2.0
  1
Moduł typu M...
 51
15.0
  7
ITALIC
100
AcDbText
  0
LINE
  5
808F
100
AcDbEntity
  8
WYMIARY
 62
     3
100
AcDbLine
 10
45.273452
 20
9.557138
 30
0.0
 11
10.638884
 21
36.508268
 31
0.0
  0
TEXT
  5
8090
100
AcDbEntity
  8
WY
 62
     3
100
AcDbText
 10
0.97021
 20
38.160437
 30
0.0
 40
2.0
  1
Module type M...
 51
15.0
  7
ITALIC
100
AcDbText
  0
ENDBLK
  5
8092
100
AcDbEntity
  8
0
 62
     3
100
AcDbBlockEnd
  0
BLOCK
  5
C6C1
100
AcDbEntity
  8
0
100
AcDbBlockBegin
  2
*D208
 70
     1
 10
0.0
 20
0.0
 30
0.0
  3
*D208
  1

  0
LINE
  5
C6C2
100
AcDbEntity
  8
0
  6
BYBLOCK
 62
     0
100
AcDbLine
 10
607.489388
 20
797.599148
 30
0.0
 11
635.388403
 21
797.599148
 31
0.0
  0
LINE
  5
C6C3
100
AcDbEntity
  8
0
  6
BYBLOCK
 62
     0
100
AcDbLine
 10
607.489388
 20
713.599148
 30
0.0
 11
635.388403
 21
713.599148
 31
0.0
  0
LINE
  5
C6C4
100
AcDbEntity
  8
0
  6
BYBLOCK
 62
     0
100
AcDbLine
 10
633.888403
 20
794.099148
 30
0.0
 11
633.888403
 21
717.099148
 31
0.0
  0
SOLID
  5
C6C5
100
AcDbEntity
  8
0
  6
BYBLOCK
 62
     0
100
AcDbTrace
 10
633.30507
 20
794.099148
 30
0.0
 11
634.471737
 21
794.099148
 31
0.0
 12
633.888403
 22
797.599148
 32
0.0
 13
633.888403
 23
797.599148
 33
0.0
  0
SOLID
  5
C6C6
100
AcDbEntity
  8
0
  6
BYBLOCK
 62
     0
100
AcDbTrace
 10
633.30507
 20
717.099148
 30
0.0
 11
634.471737
 21
717.099148
 31
0.0
 12
633.888403
 22
713.599148
 32
0.0
 13
633.888403
 23
713.599148
 33
0.0
  0
MTEXT
  5
C6C7
100
AcDbEntity
  8
0
  6
BYBLOCK
 62
     0
100
AcDbMText
 10
632.238403
 20
755.599148
 30
0.0
 40
1.8
 41
0.0
 71
     5
 72
     1
  1
\A1;84.00
 11
0.0
 21
1.0
 31
0.0
  0
POINT
  5
C6C8
100
AcDbEntity
  8
DEFPOINTS
  6
BYBLOCK
 62
     0
100
AcDbPoint
 10
605.989388
 20
797.599148
 30
0.0
  0
POINT
  5
C6C9
100
AcDbEntity
  8
DEFPOINTS
  6
BYBLOCK
 62
     0
100
AcDbPoint
 10
605.989388
 20
713.599148
 30
0.0
  0
POINT
  5
C6CA
100
AcDbEntity
  8
DEFPOINTS
  6
BYBLOCK
 62
     0
100
AcDbPoint
 10
633.888403
 20
713.599148
 30
0.0
  0
ENDBLK
  5
C6CB
100
AcDbEntity
  8
0
100
AcDbBlockEnd
  0
BLOCK
  5
C6B6
100
AcDbEntity
  8
0
100
AcDbBlockBegin
  2
*D209
 70
     1
 10
0.0
 20
0.0
 30
0.0
  3
*D209
  1

  0
LINE
  5
C6B7
100
AcDbEntity
  8
0
  6
BYBLOCK
 62
     0
100
AcDbLine
 10
607.489388
 20
778.099148
 30
0.0
 11
626.292822
 21
778.099148
 31
0.0
  0
LINE
  5
C6B8
100
AcDbEntity
  8
0
  6
BYBLOCK
 62
     0
100
AcDbLine
 10
607.489388
 20
733.099148
 30
0.0
 11
626.292822
 21
733.099148
 31
0.0
  0
LINE
  5
C6B9
100
AcDbEntity
  8
0
  6
BYBLOCK
 62
     0
100
AcDbLine
 10
624.792822
 20
774.599148
 30
0.0
 11
624.792822
 21
736.599148
 31
0.0
  0
SOLID
  5
C6BA
100
AcDbEntity
  8
0
  6
BYBLOCK
 62
     0
100
AcDbTrace
 10
624.209488
 20
774.599148
 30
0.0
 11
625.376155
 21
774.599148
 31
0.0
 12
624.792822
 22
778.099148
 32
0.0
 13
624.792822
 23
778.099148
 33
0.0
  0
SOLID
  5
C6BB
100
AcDbEntity
  8
0
  6
BYBLOCK
 62
     0
100
AcDbTrace
 10
624.209488
 20
736.599148
 30
0.0
 11
625.376155
 21
736.599148
 31
0.0
 12
624.792822
 22
733.099148
 32
0.0
 13
624.792822
 23
733.099148
 33
0.0
  0
MTEXT
  5
C6BC
100
AcDbEntity
  8
0
  6
BYBLOCK
 62
     0
100
AcDbMText
 10
623.142822
 20
755.599148
 30
0.0
 40
1.8
 41
0.0
 71
     5
 72
     1
  1
\A1;45.00
 11
0.0
 21
1.0
 31
0.0
  0
POINT
  5
C6BD
100
AcDbEntity
  8
DEFPOINTS
  6
BYBLOCK
 62
     0
100
AcDbPoint
 10
605.989388
 20
778.099148
 30
0.0
  0
POINT
  5
C6BE
100
AcDbEntity
  8
DEFPOINTS
  6
BYBLOCK
 62
     0
100
AcDbPoint
 10
605.989388
 20
733.099148
 30
0.0
  0
POINT
  5
C6BF
100
AcDbEntity
  8
DEFPOINTS
  6
BYBLOCK
 62
     0
100
AcDbPoint
 10
624.792822
 20
733.099148
 30
0.0
  0
ENDBLK
  5
C6C0
100
AcDbEntity
  8
0
100
AcDbBlockEnd
  0
BLOCK
  5
C6CC
100
AcDbEntity
  8
0
100
AcDbBlockBegin
  2
*D210
 70
     1
 10
0.0
 20
0.0
 30
0.0
  3
*D210
  1

  0
LINE
  5
C6CD
100
AcDbEntity
  8
0
  6
BYBLOCK
 62
     0
100
AcDbLine
 10
552.689388
 20
799.099148
 30
0.0
 11
552.689388
 21
811.406951
 31
0.0
  0
LINE
  5
C6CE
100
AcDbEntity
  8
0
  6
BYBLOCK
 62
     0
100
AcDbLine
 10
605.989388
 20
799.099148
 30
0.0
 11
605.989388
 21
811.406951
 31
0.0
  0
LINE
  5
C6CF
100
AcDbEntity
  8
0
  6
BYBLOCK
 62
     0
100
AcDbLine
 10
556.189388
 20
809.906951
 30
0.0
 11
602.489388
 21
809.906951
 31
0.0
  0
SOLID
  5
C6D0
100
AcDbEntity
  8
0
  6
BYBLOCK
 62
     0
100
AcDbTrace
 10
556.189388
 20
810.490285
 30
0.0
 11
556.189388
 21
809.323618
 31
0.0
 12
552.689388
 22
809.906951
 32
0.0
 13
552.689388
 23
809.906951
 33
0.0
  0
SOLID
  5
C6D1
100
AcDbEntity
  8
0
  6
BYBLOCK
 62
     0
100
AcDbTrace
 10
602.489388
 20
810.490285
 30
0.0
 11
602.489388
 21
809.323618
 31
0.0
 12
605.989388
 22
809.906951
 32
0.0
 13
605.989388
 23
809.906951
 33
0.0
  0
MTEXT
  5
C6D2
100
AcDbEntity
  8
0
  6
BYBLOCK
 62
     0
100
AcDbMText
 10
579.339388
 20
811.556951
 30
0.0
 40
1.8
 41
0.0
 71
     5
 72
     1
  1
\A1;53.30
  0
POINT
  5
C6D3
100
AcDbEntity
  8
DEFPOINTS
  6
BYBLOCK
 62
     0
100
AcDbPoint
 10
552.689388
 20
797.599148
 30
0.0
  0
POINT
  5
C6D4
100
AcDbEntity
  8
DEFPOINTS
  6
BYBLOCK
 62
     0
100
AcDbPoint
 10
605.989388
 20
797.599148
 30
0.0
  0
POINT
  5
C6D5
100
AcDbEntity
  8
DEFPOINTS
  6
BYBLOCK
 62
     0
100
AcDbPoint
 10
605.989388
 20
809.906951
 30
0.0
  0
ENDBLK
  5
C6D6
100
AcDbEntity
  8
0
100
AcDbBlockEnd
  0
BLOCK
  5
C9F7
100
AcDbEntity
  8
0
 62
     3
100
AcDbBlockBegin
  2
A$C69C843E8
 70
     0
 10
0.0
 20
0.0
 30
0.0
  3
A$C69C843E8
  1

  0
LINE
  5
C6E6
100
AcDbEntity
  8
2
 62
     6
100
AcDbLine
 10
0.0
 20
0.0
 30
0.0
 11
201.630407
 21
0.0
 31
0.0
  0
LINE
  5
C6E7
100
AcDbEntity
  8
2
100
AcDbLine
 10
201.630407
 20
297.0
 30
0.0
 11
11.630407
 21
297.0
 31
0.0
  0
LINE
  5
C6E8
100
AcDbEntity
  8
2
100
AcDbLine
 10
196.630407
 20
5.0
 30
0.0
 11
196.630407
 21
292.0
 31
0.0
  0
LINE
  5
C6E9
100
AcDbEntity
  8
WYMIARY
 62
     6
100
AcDbLine
 10
0.0
 20
0.0
 30
0.0
 11
0.0
 21
297.0
 31
0.0
  0
LINE
  5
C6EA
100
AcDbEntity
  8
WYMIARY
 62
     6
100
AcDbLine
 10
11.630407
 20
292.0
 30
0.0
 11
11.630407
 21
5.0
 31
0.0
  0
LINE
  5
C6EB
100
AcDbEntity
  8
WYMIARY
 62
     6
100
AcDbLine
 10
0.0
 20
0.0
 30
0.0
 11
0.0
 21
297.0
 31
0.0
  0
LINE
  5
C6EC
100
AcDbEntity
  8
2
100
AcDbLine
 10
0.0
 20
0.0
 30
0.0
 11
0.0
 21
297.0
 31
0.0
  0
LINE
  5
C6ED
100
AcDbEntity
  8
WYMIARY
 62
     6
100
AcDbLine
 10
0.0
 20
0.0
 30
0.0
 11
0.0
 21
297.0
 31
0.0
  0
LINE
  5
C6EE
100
AcDbEntity
  8
2
100
AcDbLine
 10
0.0
 20
0.0
 30
0.0
 11
0.0
 21
297.0
 31
0.0
  0
LINE
  5
C6EF
100
AcDbEntity
  8
WYMIARY
 62
     6
100
AcDbLine
 10
0.0
 20
0.0
 30
0.0
 11
0.0
 21
297.0
 31
0.0
  0
LINE
  5
C6F0
100
AcDbEntity
  8
WYMIARY
 62
     6
100
AcDbLine
 10
0.0
 20
0.0
 30
0.0
 11
0.0
 21
297.0
 31
0.0
  0
LINE
  5
C6F1
100
AcDbEntity
  8
WYMIARY
 62
     6
100
AcDbLine
 10
0.0
 20
0.0
 30
0.0
 11
0.0
 21
297.0
 31
0.0
  0
LINE
  5
C6F2
100
AcDbEntity
  8
2
100
AcDbLine
 10
0.0
 20
0.0
 30
0.0
 11
0.0
 21
297.0
 31
0.0
  0
LINE
  5
C6F3
100
AcDbEntity
  8
WY
  6
CONTINUOUS
 62
     3
100
AcDbLine
 10
196.630407
 20
19.689837
 30
0.0
 11
11.630407
 21
19.689837
 31
0.0
  0
LINE
  5
C6F4
100
AcDbEntity
  8
2
100
AcDbLine
 10
11.630407
 20
5.0
 30
0.0
 11
196.630407
 21
5.0
 31
0.0
  0
TEXT
  5
C6F5
100
AcDbEntity
  8
WY
100
AcDbText
 10
16.895522
 20
16.373845
 30
0.0
 40
2.0
  1
Skala
 51
15.0
  7
ITALIC
100
AcDbText
  0
TEXT
  5
C6F6
100
AcDbEntity
  8
1
100
AcDbText
 10
14.260741
 20
8.797458
 30
0.0
 40
5.0
  1
1:1
 51
15.0
  7
ITALIC
100
AcDbText
  0
LINE
  5
C6F7
100
AcDbEntity
  8
WYMIARY
 62
     3
100
AcDbLine
 10
26.630407
 20
19.689837
 30
0.0
 11
26.630407
 21
5.0
 31
0.0
  0
TEXT
  5
C6F8
100
AcDbEntity
  8
1
100
AcDbText
 10
108.294632
 20
34.42252
 30
0.0
 40
5.0
  1
RIK63-04-...
 41
0.75
  7
ITALIC
100
AcDbText
  0
CIRCLE
  5
C6F9
100
AcDbEntity
  8
WYMIARY
 62
     3
100
AcDbCircle
 10
113.450947
 20
127.719042
 30
0.0
 40
3.75
  0
LINE
  5
C6FA
100
AcDbEntity
  8
WYMIARY
 62
     3
100
AcDbLine
 10
112.830006
 20
130.488862
 30
0.0
 11
114.218131
 21
130.488862
 31
0.0
  0
LINE
  5
C6FB
100
AcDbEntity
  8
WYMIARY
 62
     3
100
AcDbLine
 10
112.830006
 20
130.488862
 30
0.0
 11
114.218131
 21
130.488862
 31
0.0
  0
LINE
  5
C6FC
100
AcDbEntity
  8
WYMIARY
 62
     3
100
AcDbLine
 10
112.830006
 20
130.488862
 30
0.0
 11
114.218131
 21
130.488862
 31
0.0
  0
LINE
  5
C6FD
100
AcDbEntity
  8
WYMIARY
 62
     3
100
AcDbLine
 10
112.830006
 20
124.949222
 30
0.0
 11
114.218131
 21
124.949222
 31
0.0
  0
TEXT
  5
C6FE
100
AcDbEntity
  8
1
100
AcDbText
 10
111.946111
 20
120.350588
 30
0.0
 40
3.0
  1
R1
 41
0.65
  7
ITALIC
100
AcDbText
  0
LINE
  5
C6FF
100
AcDbEntity
  8
WYMIARY
 62
     3
100
AcDbLine
 10
106.700947
 20
137.119042
 30
0.0
 11
125.450947
 21
137.119042
 31
0.0
  0
LINE
  5
C700
100
AcDbEntity
  8
WYMIARY
 62
     3
100
AcDbLine
 10
160.000947
 20
117.619042
 30
0.0
 11
106.700947
 21
117.619042
 31
0.0
  0
LINE
  5
C701
100
AcDbEntity
  8
WYMIARY
 62
     3
100
AcDbLine
 10
160.000947
 20
137.119042
 30
0.0
 11
106.700947
 21
137.119042
 31
0.0
  0
CIRCLE
  5
C702
100
AcDbEntity
  8
WYMIARY
 62
     3
100
AcDbCircle
 10
113.450947
 20
62.519042
 30
0.0
 40
3.75
  0
TEXT
  5
C703
100
AcDbEntity
  8
1
100
AcDbText
 10
111.946111
 20
67.008855
 30
0.0
 40
3.0
  1
R2
 41
0.65
  7
ITALIC
100
AcDbText
  0
LINE
  5
C704
100
AcDbEntity
  8
WYMIARY
 62
     3
100
AcDbLine
 10
112.830006
 20
65.288862
 30
0.0
 11
114.218131
 21
65.288862
 31
0.0
  0
LINE
  5
C705
100
AcDbEntity
  8
WYMIARY
 62
     3
100
AcDbLine
 10
112.830006
 20
59.749222
 30
0.0
 11
114.218131
 21
59.749222
 31
0.0
  0
LINE
  5
C706
100
AcDbEntity
  8
WYMIARY
 62
     3
100
AcDbLine
 10
112.830006
 20
59.749222
 30
0.0
 11
114.218131
 21
59.749222
 31
0.0
  0
LINE
  5
C707
100
AcDbEntity
  8
WYMIARY
 62
     3
100
AcDbLine
 10
112.830006
 20
59.749222
 30
0.0
 11
114.218131
 21
59.749222
 31
0.0
  0
LINE
  5
C708
100
AcDbEntity
  8
WYMIARY
 62
     3
100
AcDbLine
 10
160.000947
 20
72.619042
 30
0.0
 11
106.700947
 21
72.619042
 31
0.0
  0
LINE
  5
C709
100
AcDbEntity
  8
WYMIARY
 62
     3
100
AcDbLine
 10
106.700947
 20
53.119042
 30
0.0
 11
160.000947
 21
53.119042
 31
0.0
  0
TEXT
  5
C70A
100
AcDbEntity
  8
WY
100
AcDbText
 10
101.520952
 20
16.599248
 30
0.0
 40
2.0
  1
Draw. No.
 51
15.0
  7
ITALIC
100
AcDbText
  0
TEXT
  5
C70B
100
AcDbEntity
  8
1
100
AcDbText
 10
101.868067
 20
9.064009
 30
0.0
 40
3.0
  1
RIK63-02
 41
0.65
  7
ITALIC
100
AcDbText
  0
CIRCLE
  5
C70C
100
AcDbEntity
  8
WYMIARY
 62
     3
100
AcDbCircle
 10
63.61696
 20
69.569042
 30
0.0
 40
2.25
  0
LINE
  5
C70D
100
AcDbEntity
  8
WYMIARY
 62
     3
100
AcDbLine
 10
36.96696
 20
137.119042
 30
0.0
 11
36.96696
 21
53.119042
 31
0.0
  0
LINE
  5
C70E
100
AcDbEntity
  8
WYMIARY
 62
     3
100
AcDbLine
 10
90.26696
 20
53.119042
 30
0.0
 11
90.26696
 21
137.119042
 31
0.0
  0
LINE
  5
C70F
100
AcDbEntity
  8
WYMIARY
 62
     3
100
AcDbLine
 10
106.700947
 20
137.119042
 30
0.0
 11
106.700947
 21
53.119042
 31
0.0
  0
TEXT
  5
C710
100
AcDbEntity
  8
1
100
AcDbText
 10
36.588277
 20
34.42252
 30
0.0
 40
5.0
  1
RIK63-22-...
 41
0.75
  7
ITALIC
100
AcDbText
  0
LINE
  5
C711
100
AcDbEntity
  8
WYMIARY
 62
     3
100
AcDbLine
 10
70.731721
 20
65.288862
 30
0.0
 11
72.119847
 21
65.288862
 31
0.0
  0
LINE
  5
C712
100
AcDbEntity
  8
WYMIARY
 62
     3
100
AcDbLine
 10
70.731721
 20
59.749222
 30
0.0
 11
72.119847
 21
59.749222
 31
0.0
  0
LINE
  5
C713
100
AcDbEntity
  8
WYMIARY
 62
     3
100
AcDbLine
 10
36.96696
 20
53.119042
 30
0.0
 11
90.26696
 21
53.119042
 31
0.0
  0
TEXT
  5
C714
100
AcDbEntity
  8
1
100
AcDbText
 10
69.907228
 20
67.008855
 30
0.0
 40
3.0
  1
R6
 41
0.65
  7
ITALIC
100
AcDbText
  0
CIRCLE
  5
C715
100
AcDbEntity
  8
WYMIARY
 62
     3
100
AcDbCircle
 10
71.51696
 20
62.519042
 30
0.0
 40
3.75
  0
ARC
  5
C716
100
AcDbEntity
  8
0
100
AcDbCircle
 10
70.168137
 20
10.503572
 30
0.0
 40
1.488419
100
AcDbArc
 50
269.300887
 51
348.365732
  0
ARC
  5
C717
100
AcDbEntity
  8
0
100
AcDbCircle
 10
70.168137
 20
14.124104
 30
0.0
 40
1.488419
100
AcDbArc
 50
11.634268
 51
90.699113
  0
LINE
  5
C718
100
AcDbEntity
  8
0
100
AcDbLine
 10
49.572234
 20
12.896139
 30
0.0
 11
50.474646
 21
12.896139
 31
0.0
1001
ACAD
1000
ASC_BOUNDS
1002
{
1070
    19
1002
}
  0
ELLIPSE
  5
C719
100
AcDbEntity
  8
0
100
AcDbEllipse
 10
49.572234
 20
12.896139
 30
0.0
 11
1.203215696869352
 21
0.0000000000000893
 31
0.0
210
0.0
220
0.0
230
1.0
 40
0.958812
 41
4.712388980384611
 42
6.283185307179508
1001
ACAD
1000
ASC_BOUNDS
1002
{
1070
    19
1002
}
  0
TEXT
  5
C71A
100
AcDbEntity
  8
WY
100
AcDbText
 10
29.000976
 20
16.329369
 30
0.0
 40
2.0
  1
Format
 51
15.0
  7
ITALIC
100
AcDbText
  0
TEXT
  5
C71B
100
AcDbEntity
  8
1
100
AcDbText
 10
29.566334
 20
8.797458
 30
0.0
 40
5.0
  1
A4
 51
15.0
  7
ITALIC
100
AcDbText
  0
LINE
  5
C71C
100
AcDbEntity
  8
0
100
AcDbLine
 10
49.572234
 20
8.185369
 30
0.0
 11
49.572234
 21
11.742481
 31
0.0
1001
ACAD
1000
ASC_BOUNDS
1002
{
1070
    19
1002
}
  0
ELLIPSE
  5
C71D
100
AcDbEntity
  8
0
100
AcDbEllipse
 10
48.770091
 20
8.185369
 30
0.0
 11
0.8021437979128704
 21
0.0000000000001602
 31
0.0
210
0.0
220
0.0
230
1.0
 40
0.958812
 41
4.712388980384497
 42
6.283185307179378
1001
ACAD
1000
ASC_BOUNDS
1002
{
1070
    19
1002
}
  0
ELLIPSE
  5
C71E
100
AcDbEntity
  8
0
100
AcDbEllipse
 10
46.589262
 20
15.17942
 30
0.0
 11
2.983077570132104
 21
0.0000000000002996
 31
0.0
210
0.0
220
0.0
230
1.0
 40
0.958812
 41
-1.562393163247347
 42
0.0084031635475457
1001
ACAD
1000
ASC_BOUNDS
1002
{
1070
    19
1002
}
  0
ELLIPSE
  5
C71F
100
AcDbEntity
  8
0
100
AcDbEllipse
 10
46.546086
 20
15.509539
 30
0.0
 11
-4.072692107280919
 21
0.0000000000000925
 31
0.0
210
0.0
220
0.0
230
1.0
 40
0.958812
 41
1.587553347046634
 42
2.408388587343224
1001
ACAD
1000
ASC_BOUNDS
1002
{
1070
    19
1002
}
  0
LINE
  5
C720
100
AcDbEntity
  8
0
100
AcDbLine
 10
49.572234
 20
15.155386
 30
0.0
 11
49.572234
 21
16.260974
 31
0.0
1001
ACAD
1000
ASC_BOUNDS
1002
{
1070
    19
1002
}
  0
ELLIPSE
  5
C721
100
AcDbEntity
  8
0
100
AcDbEllipse
 10
48.770091
 20
16.260974
 30
0.0
 11
-0.8021437979128705
 21
0.000000000000038
 31
0.0
210
0.0
220
0.0
230
1.0
 40
0.958812
 41
3.141592653589842
 42
4.712388980384734
1001
ACAD
1000
ASC_BOUNDS
1002
{
1070
    19
1002
}
  0
LINE
  5
C722
100
AcDbEntity
  8
0
100
AcDbLine
 10
43.656424
 20
11.742481
 30
0.0
 11
42.754012
 21
11.742481
 31
0.0
1001
ACAD
1000
ASC_BOUNDS
1002
{
1070
    19
1002
}
  0
ELLIPSE
  5
C723
100
AcDbEntity
  8
0
100
AcDbEllipse
 10
43.656424
 20
11.742481
 30
0.0
 11
-1.203215696869327
 21
0.0000000000001967
 31
0.0
210
0.0
220
0.0
230
1.0
 40
0.958812
 41
-1.570796326794739
 42
0.0000000000001705
1001
ACAD
1000
ASC_BOUNDS
1002
{
1070
    19
1002
}
  0
LINE
  5
C724
100
AcDbEntity
  8
0
100
AcDbLine
 10
42.453208
 20
11.742481
 30
0.0
 11
42.754012
 21
11.742481
 31
0.0
1001
ACAD
1000
ASC_BOUNDS
1002
{
1070
    19
1002
}
  0
LINE
  5
C725
100
AcDbEntity
  8
0
100
AcDbLine
 10
43.656424
 20
9.895062
 30
0.0
 11
43.656424
 21
8.185369
 31
0.0
1001
ACAD
1000
ASC_BOUNDS
1002
{
1070
    19
1002
}
  0
ELLIPSE
  5
C726
100
AcDbEntity
  8
0
100
AcDbEllipse
 10
44.458568
 20
8.185369
 30
0.0
 11
-0.8021437979128705
 21
0.0000000000000154
 31
0.0
210
0.0
220
0.0
230
1.0
 40
0.958812
 41
0.00000000000002
 42
1.570796326794914
1001
ACAD
1000
ASC_BOUNDS
1002
{
1070
    19
1002
}
  0
LINE
  5
C727
100
AcDbEntity
  8
0
100
AcDbLine
 10
43.656424
 20
13.461283
 30
0.0
 11
43.656424
 21
16.260974
 31
0.0
1001
ACAD
1000
ASC_BOUNDS
1002
{
1070
    19
1002
}
  0
LINE
  5
C728
100
AcDbEntity
  8
0
100
AcDbLine
 10
43.656424
 20
11.742481
 30
0.0
 11
43.656424
 21
11.034515
 31
0.0
1001
ACAD
1000
ASC_BOUNDS
1002
{
1070
    19
1002
}
  0
LINE
  5
C729
100
AcDbEntity
  8
0
100
AcDbLine
 10
43.656424
 20
13.461283
 30
0.0
 11
43.656424
 21
12.896139
 31
0.0
1001
ACAD
1000
ASC_BOUNDS
1002
{
1070
    19
1002
}
  0
ELLIPSE
  5
C72A
100
AcDbEntity
  8
0
100
AcDbEllipse
 10
44.458568
 20
16.260974
 30
0.0
 11
0.8021437979128704
 21
0.000000000000038
 31
0.0
210
0.0
220
0.0
230
1.0
 40
0.958812
 41
1.570796326794851
 42
3.141592653589743
1001
ACAD
1000
ASC_BOUNDS
1002
{
1070
    19
1002
}
  0
LINE
  5
C72B
100
AcDbEntity
  8
WYMIARY
 62
     3
100
AcDbLine
 10
41.630407
 20
19.689837
 30
0.0
 11
41.630407
 21
5.0
 31
0.0
  0
LINE
  5
C72C
100
AcDbEntity
  8
0
100
AcDbLine
 10
44.458568
 20
7.416264
 30
0.0
 11
48.770091
 21
7.416264
 31
0.0
1001
ACAD
1000
ASC_BOUNDS
1002
{
1070
    19
1002
}
  0
ELLIPSE
  5
C72D
100
AcDbEntity
  8
0
100
AcDbEllipse
 10
46.208354
 20
9.872488
 30
0.0
 11
2.960559210508897
 21
0.3570763225581005
 31
0.0
210
0.0
220
0.0
230
1.0
 40
0.820999
 41
1.335209029023201
 42
2.503032872947537
1001
ACAD
1000
ASC_BOUNDS
1002
{
1070
    19
1002
}
  0
ELLIPSE
  5
C72E
100
AcDbEntity
  8
0
100
AcDbEllipse
 10
46.43886
 20
8.937307
 30
0.0
 11
3.015746449176212
 21
0.7746519372140012
 31
0.0
210
0.0
220
0.0
230
1.0
 40
0.846775
 41
1.29973646820557
 42
2.479974117225238
1001
ACAD
1000
ASC_BOUNDS
1002
{
1070
    19
1002
}
  0
LINE
  5
C72F
100
AcDbEntity
  8
0
100
AcDbLine
 10
44.458568
 20
17.03008
 30
0.0
 11
48.770091
 21
17.03008
 31
0.0
  0
ARC
  5
C730
100
AcDbEntity
  8
0
100
AcDbCircle
 10
59.015348
 20
10.472364
 30
0.0
 40
1.425319
100
AcDbArc
 50
269.703671
 51
350.465171
  0
ARC
  5
C731
100
AcDbEntity
  8
0
100
AcDbCircle
 10
59.015348
 20
14.17837
 30
0.0
 40
1.425319
100
AcDbArc
 50
9.534829
 51
90.296329
  0
LINE
  5
C732
100
AcDbEntity
  8
0
100
AcDbLine
 10
60.420976
 20
11.81167
 30
0.0
 11
58.296976
 21
11.81167
 31
0.0
  0
LINE
  5
C733
100
AcDbEntity
  8
0
100
AcDbLine
 10
58.971976
 20
11.13667
 30
0.0
 11
60.420976
 21
11.13667
 31
0.0
  0
ARC
  5
C734
100
AcDbEntity
  8
0
100
AcDbCircle
 10
58.160605
 20
10.472364
 30
0.0
 40
1.425319
100
AcDbArc
 50
189.534829
 51
270.296329
  0
LINE
  5
C735
100
AcDbEntity
  8
0
100
AcDbLine
 10
53.850992
 20
14.361264
 30
0.0
 11
53.862565
 21
9.015264
 31
0.0
  0
LINE
  5
C736
100
AcDbEntity
  8
0
100
AcDbLine
 10
53.850992
 20
9.015264
 30
0.0
 11
53.862565
 21
9.022759
 31
0.0
  0
LINE
  5
C737
100
AcDbEntity
  8
0
100
AcDbLine
 10
58.153233
 20
9.047064
 30
0.0
 11
59.007976
 21
9.047064
 31
0.0
  0
ARC
  5
C738
100
AcDbEntity
  8
0
100
AcDbCircle
 10
54.757651
 20
14.34127
 30
0.0
 40
1.377457
100
AcDbArc
 50
16.265061
 51
130.527299
  0
ARC
  5
C739
100
AcDbEntity
  8
0
100
AcDbCircle
 10
58.160605
 20
14.17837
 30
0.0
 40
1.425319
100
AcDbArc
 50
89.703671
 51
170.465171
  0
LINE
  5
C73A
100
AcDbEntity
  8
0
100
AcDbLine
 10
54.869903
 20
12.93607
 30
0.0
 11
56.079976
 21
12.93607
 31
0.0
  0
LINE
  5
C73B
100
AcDbEntity
  8
0
100
AcDbLine
 10
54.537565
 20
12.93607
 30
0.0
 11
56.079976
 21
12.93607
 31
0.0
  0
ARC
  5
C73C
100
AcDbEntity
  8
0
100
AcDbCircle
 10
54.188492
 20
14.361264
 30
0.0
 40
0.3375
100
AcDbArc
 50
360.0
 51
180.0
  0
LINE
  5
C73D
100
AcDbEntity
  8
0
100
AcDbLine
 10
54.525992
 20
14.361264
 30
0.0
 11
54.537565
 21
12.93607
 31
0.0
  0
ARC
  5
C73E
100
AcDbEntity
  8
0
100
AcDbCircle
 10
58.634476
 20
14.361264
 30
0.0
 40
0.3375
100
AcDbArc
 50
360.0
 51
180.0
  0
LINE
  5
C73F
100
AcDbEntity
  8
0
100
AcDbLine
 10
58.296976
 20
11.81167
 30
0.0
 11
58.296976
 21
10.236264
 31
0.0
  0
LINE
  5
C740
100
AcDbEntity
  8
0
100
AcDbLine
 10
58.296976
 20
12.71167
 30
0.0
 11
58.971976
 21
12.71167
 31
0.0
  0
LINE
  5
C741
100
AcDbEntity
  8
0
100
AcDbLine
 10
58.971976
 20
11.13667
 30
0.0
 11
58.971976
 21
10.252764
 31
0.0
  0
LINE
  5
C742
100
AcDbEntity
  8
0
100
AcDbLine
 10
58.296976
 20
11.81167
 30
0.0
 11
58.296976
 21
10.252764
 31
0.0
  0
ARC
  5
C743
100
AcDbEntity
  8
0
100
AcDbCircle
 10
58.634476
 20
10.252764
 30
0.0
 40
0.3375
100
AcDbArc
 50
180.0
 51
0.0
  0
LINE
  5
C744
100
AcDbEntity
  8
0
100
AcDbLine
 10
58.971976
 20
14.361264
 30
0.0
 11
58.971976
 21
12.71167
 31
0.0
  0
LINE
  5
C745
100
AcDbEntity
  8
0
100
AcDbLine
 10
58.296976
 20
14.361264
 30
0.0
 11
58.296976
 21
12.71167
 31
0.0
  0
LINE
  5
C746
100
AcDbEntity
  8
0
100
AcDbLine
 10
56.079976
 20
12.93607
 30
0.0
 11
56.079976
 21
14.72707
 31
0.0
1001
ACAD
1000
ASC_BOUNDS
1002
{
1070
    19
1002
}
  0
LINE
  5
C747
100
AcDbEntity
  8
0
100
AcDbLine
 10
56.754976
 20
10.236264
 30
0.0
 11
56.754976
 21
14.41447
 31
0.0
  0
LINE
  5
C748
100
AcDbEntity
  8
0
100
AcDbLine
 10
53.862565
 20
15.60367
 30
0.0
 11
53.862565
 21
15.38827
 31
0.0
  0
LINE
  5
C749
100
AcDbEntity
  8
0
100
AcDbLine
 10
58.153233
 20
15.60367
 30
0.0
 11
59.007976
 21
15.60367
 31
0.0
  0
LINE
  5
C74A
100
AcDbEntity
  8
0
100
AcDbLine
 10
52.32045
 20
9.015264
 30
0.0
 11
52.32045
 21
15.60367
 31
0.0
1001
ACAD
1000
ASC_BOUNDS
1002
{
1070
    19
1002
}
  0
LINE
  5
C74B
100
AcDbEntity
  8
0
100
AcDbLine
 10
50.77545
 20
12.896139
 30
0.0
 11
50.474646
 21
12.896139
 31
0.0
1001
ACAD
1000
ASC_BOUNDS
1002
{
1070
    19
1002
}
  0
LINE
  5
C74C
100
AcDbEntity
  8
0
100
AcDbLine
 10
52.32045
 20
9.015264
 30
0.0
 11
53.862565
 21
9.015264
 31
0.0
1001
ACAD
1000
ASC_BOUNDS
1002
{
1070
    19
1002
}
  0
LINE
  5
C74D
100
AcDbEntity
  8
0
100
AcDbLine
 10
52.32045
 20
15.60367
 30
0.0
 11
53.862565
 21
15.60367
 31
0.0
1001
ACAD
1000
ASC_BOUNDS
1002
{
1070
    19
1002
}
  0
ARC
  5
C74E
100
AcDbEntity
  8
0
100
AcDbCircle
 10
65.940883
 20
10.136416
 30
0.0
 40
1.128907
100
AcDbArc
 50
276.719576
 51
2.175194
  0
ARC
  5
C74F
100
AcDbEntity
  8
0
100
AcDbCircle
 10
69.201815
 20
10.503572
 30
0.0
 40
1.488419
100
AcDbArc
 50
191.634268
 51
270.699113
  0
LINE
  5
C750
100
AcDbEntity
  8
0
100
AcDbLine
 10
69.219976
 20
9.015264
 30
0.0
 11
70.149976
 21
9.015264
 31
0.0
  0
ARC
  5
C751
100
AcDbEntity
  8
0
100
AcDbCircle
 10
69.201815
 20
14.124104
 30
0.0
 40
1.488419
100
AcDbArc
 50
89.300887
 51
168.365732
  0
LINE
  5
C752
100
AcDbEntity
  8
0
100
AcDbLine
 10
67.068976
 20
14.583264
 30
0.0
 11
67.068976
 21
10.179264
 31
0.0
  0
ARC
  5
C753
100
AcDbEntity
  8
0
100
AcDbCircle
 10
69.684976
 20
14.361264
 30
0.0
 40
0.3375
100
AcDbArc
 50
360.0
 51
180.0
  0
ARC
  5
C754
100
AcDbEntity
  8
0
100
AcDbCircle
 10
69.684976
 20
10.252764
 30
0.0
 40
0.3375
100
AcDbArc
 50
180.0
 51
0.0
  0
LINE
  5
C755
100
AcDbEntity
  8
0
100
AcDbLine
 10
69.347476
 20
14.361264
 30
0.0
 11
69.347476
 21
10.252764
 31
0.0
  0
LINE
  5
C756
100
AcDbEntity
  8
0
100
AcDbLine
 10
70.022476
 20
14.361264
 30
0.0
 11
70.022476
 21
10.252764
 31
0.0
  0
LINE
  5
C757
100
AcDbEntity
  8
0
100
AcDbLine
 10
67.743976
 20
10.203412
 30
0.0
 11
67.743976
 21
14.424264
 31
0.0
  0
LINE
  5
C758
100
AcDbEntity
  8
0
100
AcDbLine
 10
69.219976
 20
15.612412
 30
0.0
 11
70.149976
 21
15.612412
 31
0.0
  0
LINE
  5
C759
100
AcDbEntity
  8
0
100
AcDbLine
 10
64.851976
 20
9.438264
 30
0.0
 11
64.851976
 21
7.416264
 31
0.0
  0
ARC
  5
C75A
100
AcDbEntity
  8
0
100
AcDbCircle
 10
65.501556
 20
9.724764
 30
0.0
 40
0.709955
100
AcDbArc
 50
203.80008
 51
272.051918
  0
LINE
  5
C75B
100
AcDbEntity
  8
0
100
AcDbLine
 10
63.306976
 20
7.416264
 30
0.0
 11
63.306976
 21
15.612264
 31
0.0
  0
LINE
  5
C75C
100
AcDbEntity
  8
0
100
AcDbLine
 10
61.107976
 20
9.015264
 30
0.0
 11
61.107976
 21
17.211264
 31
0.0
  0
LINE
  5
C75D
100
AcDbEntity
  8
0
100
AcDbLine
 10
62.652976
 20
17.211264
 30
0.0
 11
62.652976
 21
9.015264
 31
0.0
  0
LINE
  5
C75E
100
AcDbEntity
  8
0
100
AcDbLine
 10
64.851976
 20
7.416264
 30
0.0
 11
63.306976
 21
7.416264
 31
0.0
  0
LINE
  5
C75F
100
AcDbEntity
  8
0
100
AcDbLine
 10
62.652976
 20
9.015264
 30
0.0
 11
61.107976
 21
9.015264
 31
0.0
  0
LINE
  5
C760
100
AcDbEntity
  8
0
100
AcDbLine
 10
60.420976
 20
11.13667
 30
0.0
 11
60.420976
 21
10.236264
 31
0.0
  0
LINE
  5
C761
100
AcDbEntity
  8
0
100
AcDbLine
 10
60.420976
 20
11.81167
 30
0.0
 11
60.420976
 21
14.41447
 31
0.0
  0
LINE
  5
C762
100
AcDbEntity
  8
0
100
AcDbLine
 10
65.526976
 20
14.361264
 30
0.0
 11
65.526976
 21
10.252764
 31
0.0
  0
LINE
  5
C763
100
AcDbEntity
  8
0
100
AcDbLine
 10
64.851976
 20
14.361264
 30
0.0
 11
64.851976
 21
10.252764
 31
0.0
  0
ARC
  5
C764
100
AcDbEntity
  8
0
100
AcDbCircle
 10
65.189476
 20
10.252764
 30
0.0
 40
0.3375
100
AcDbArc
 50
180.0
 51
0.0
  0
ARC
  5
C765
100
AcDbEntity
  8
0
100
AcDbCircle
 10
65.189476
 20
14.361264
 30
0.0
 40
0.3375
100
AcDbArc
 50
360.0
 51
180.0
  0
LINE
  5
C766
100
AcDbEntity
  8
0
100
AcDbLine
 10
63.306976
 20
15.612264
 30
0.0
 11
64.851976
 21
15.612264
 31
0.0
  0
LINE
  5
C767
100
AcDbEntity
  8
0
100
AcDbLine
 10
61.107976
 20
17.211264
 30
0.0
 11
62.652976
 21
17.211264
 31
0.0
  0
LINE
  5
C768
100
AcDbEntity
  8
0
100
AcDbLine
 10
64.851976
 20
15.612264
 30
0.0
 11
64.851976
 21
15.324264
 31
0.0
  0
LINE
  5
C769
100
AcDbEntity
  8
0
100
AcDbLine
 10
65.535023
 20
9.015264
 30
0.0
 11
66.072976
 21
9.015264
 31
0.0
  0
ARC
  5
C76A
100
AcDbEntity
  8
0
100
AcDbCircle
 10
65.711003
 20
14.207365
 30
0.0
 40
1.409039
100
AcDbArc
 50
15.47255
 51
127.56454
  0
LINE
  5
C76B
100
AcDbEntity
  8
WYMIARY
 62
     3
100
AcDbLine
 10
46.663185
 20
63.292252
 30
0.0
 11
46.663185
 21
61.904126
 31
0.0
  0
LINE
  5
C76C
100
AcDbEntity
  8
WYMIARY
 62
     3
100
AcDbLine
 10
43.096019
 20
65.288862
 30
0.0
 11
44.484144
 21
65.288862
 31
0.0
  0
LINE
  5
C76D
100
AcDbEntity
  8
WYMIARY
 62
     3
100
AcDbLine
 10
43.096019
 20
63.292252
 30
0.0
 11
43.096019
 21
65.288862
 31
0.0
  0
LINE
  5
C76E
100
AcDbEntity
  8
WYMIARY
 62
     3
100
AcDbLine
 10
41.123545
 20
63.292252
 30
0.0
 11
43.096019
 21
63.292252
 31
0.0
  0
LINE
  5
C76F
100
AcDbEntity
  8
WYMIARY
 62
     3
100
AcDbLine
 10
44.484144
 20
63.292252
 30
0.0
 11
44.484144
 21
65.288862
 31
0.0
  0
TEXT
  5
C770
100
AcDbEntity
  8
1
100
AcDbText
 10
43.049663
 20
67.008855
 30
0.0
 40
3.0
  1
2
 41
0.65
  7
ITALIC
100
AcDbText
  0
LINE
  5
C771
100
AcDbEntity
  8
WYMIARY
 62
     3
100
AcDbLine
 10
43.096019
 20
59.749222
 30
0.0
 11
44.484144
 21
59.749222
 31
0.0
  0
LINE
  5
C772
100
AcDbEntity
  8
WYMIARY
 62
     3
100
AcDbLine
 10
43.096019
 20
59.749222
 30
0.0
 11
44.484144
 21
59.749222
 31
0.0
  0
LINE
  5
C773
100
AcDbEntity
  8
WYMIARY
 62
     3
100
AcDbLine
 10
43.096019
 20
59.749222
 30
0.0
 11
44.484144
 21
59.749222
 31
0.0
  0
LINE
  5
C774
100
AcDbEntity
  8
WYMIARY
 62
     3
100
AcDbLine
 10
43.096019
 20
59.749222
 30
0.0
 11
43.096019
 21
61.904126
 31
0.0
  0
LINE
  5
C775
100
AcDbEntity
  8
WYMIARY
 62
     3
100
AcDbLine
 10
41.123545
 20
61.904126
 30
0.0
 11
43.096019
 21
61.904126
 31
0.0
  0
LINE
  5
C776
100
AcDbEntity
  8
WYMIARY
 62
     3
100
AcDbLine
 10
44.484144
 20
59.749222
 30
0.0
 11
44.484144
 21
61.904126
 31
0.0
  0
LINE
  5
C777
100
AcDbEntity
  8
WYMIARY
 62
     3
100
AcDbLine
 10
41.123545
 20
63.292252
 30
0.0
 11
41.123545
 21
61.904126
 31
0.0
  0
LINE
  5
C778
100
AcDbEntity
  8
WYMIARY
 62
     3
100
AcDbLine
 10
44.484144
 20
63.292252
 30
0.0
 11
46.663185
 21
63.292252
 31
0.0
  0
LINE
  5
C779
100
AcDbEntity
  8
WYMIARY
 62
     3
100
AcDbLine
 10
44.484144
 20
61.904126
 30
0.0
 11
46.663185
 21
61.904126
 31
0.0
  0
CIRCLE
  5
C77A
100
AcDbEntity
  8
WYMIARY
 62
     3
100
AcDbCircle
 10
43.71696
 20
62.519042
 30
0.0
 40
3.75
  0
LINE
  5
C77B
100
AcDbEntity
  8
WYMIARY
 62
     3
100
AcDbLine
 10
56.484144
 20
63.292252
 30
0.0
 11
58.663185
 21
63.292252
 31
0.0
  0
LINE
  5
C77C
100
AcDbEntity
  8
WYMIARY
 62
     3
100
AcDbLine
 10
55.096019
 20
63.292252
 30
0.0
 11
55.096019
 21
65.288862
 31
0.0
  0
LINE
  5
C77D
100
AcDbEntity
  8
WYMIARY
 62
     3
100
AcDbLine
 10
56.484144
 20
63.292252
 30
0.0
 11
56.484144
 21
65.288862
 31
0.0
  0
LINE
  5
C77E
100
AcDbEntity
  8
WYMIARY
 62
     3
100
AcDbLine
 10
55.096019
 20
65.288862
 30
0.0
 11
56.484144
 21
65.288862
 31
0.0
  0
TEXT
  5
C77F
100
AcDbEntity
  8
1
100
AcDbText
 10
54.429609
 20
67.008855
 30
0.0
 40
3.0
  1
R4
 41
0.65
  7
ITALIC
100
AcDbText
  0
LINE
  5
C780
100
AcDbEntity
  8
WYMIARY
 62
     3
100
AcDbLine
 10
56.484144
 20
61.904126
 30
0.0
 11
58.663185
 21
61.904126
 31
0.0
  0
LINE
  5
C781
100
AcDbEntity
  8
WYMIARY
 62
     3
100
AcDbLine
 10
55.096019
 20
59.749222
 30
0.0
 11
55.096019
 21
61.904126
 31
0.0
  0
LINE
  5
C782
100
AcDbEntity
  8
WYMIARY
 62
     3
100
AcDbLine
 10
56.484144
 20
59.749222
 30
0.0
 11
56.484144
 21
61.904126
 31
0.0
  0
LINE
  5
C783
100
AcDbEntity
  8
WYMIARY
 62
     3
100
AcDbLine
 10
55.096019
 20
59.749222
 30
0.0
 11
56.484144
 21
59.749222
 31
0.0
  0
LINE
  5
C784
100
AcDbEntity
  8
WYMIARY
 62
     3
100
AcDbLine
 10
55.096019
 20
59.749222
 30
0.0
 11
56.484144
 21
59.749222
 31
0.0
  0
LINE
  5
C785
100
AcDbEntity
  8
WYMIARY
 62
     3
100
AcDbLine
 10
55.096019
 20
59.749222
 30
0.0
 11
56.484144
 21
59.749222
 31
0.0
  0
LINE
  5
C786
100
AcDbEntity
  8
WYMIARY
 62
     3
100
AcDbLine
 10
58.663185
 20
63.292252
 30
0.0
 11
58.663185
 21
61.904126
 31
0.0
  0
LINE
  5
C787
100
AcDbEntity
  8
WYMIARY
 62
     3
100
AcDbLine
 10
53.123545
 20
63.292252
 30
0.0
 11
53.123545
 21
61.904126
 31
0.0
  0
LINE
  5
C788
100
AcDbEntity
  8
WYMIARY
 62
     3
100
AcDbLine
 10
53.123545
 20
63.292252
 30
0.0
 11
55.096019
 21
63.292252
 31
0.0
  0
LINE
  5
C789
100
AcDbEntity
  8
WYMIARY
 62
     3
100
AcDbLine
 10
53.123545
 20
61.904126
 30
0.0
 11
55.096019
 21
61.904126
 31
0.0
  0
CIRCLE
  5
C78A
100
AcDbEntity
  8
WYMIARY
 62
     3
100
AcDbCircle
 10
55.71696
 20
62.519042
 30
0.0
 40
3.75
  0
LINE
  5
C78B
100
AcDbEntity
  8
WYMIARY
 62
     3
100
AcDbLine
 10
70.731721
 20
63.292252
 30
0.0
 11
70.731721
 21
65.288862
 31
0.0
  0
LINE
  5
C78C
100
AcDbEntity
  8
WYMIARY
 62
     3
100
AcDbLine
 10
70.731721
 20
59.749222
 30
0.0
 11
70.731721
 21
61.904126
 31
0.0
  0
TEXT
  5
C78D
100
AcDbEntity
  8
1
100
AcDbText
 10
62.315617
 20
63.2834
 30
0.0
 40
3.0
  1
A2
 41
0.65
  7
ITALIC
100
AcDbText
  0
LINE
  5
C78E
100
AcDbEntity
  8
WYMIARY
 62
     3
100
AcDbLine
 10
64.105258
 20
59.411156
 30
0.0
 11
65.630586
 21
59.411156
 31
0.0
  0
LINE
  5
C78F
100
AcDbEntity
  8
WYMIARY
 62
     3
100
AcDbLine
 10
64.105258
 20
60.382844
 30
0.0
 11
65.630586
 21
60.382844
 31
0.0
  0
LINE
  5
C790
100
AcDbEntity
  8
WYMIARY
 62
     3
100
AcDbLine
 10
63.133569
 20
61.780472
 30
0.0
 11
64.105258
 21
61.780472
 31
0.0
  0
LINE
  5
C791
100
AcDbEntity
  8
WYMIARY
 62
     3
100
AcDbLine
 10
63.133569
 20
57.902724
 30
0.0
 11
64.105258
 21
57.902724
 31
0.0
  0
LINE
  5
C792
100
AcDbEntity
  8
WYMIARY
 62
     3
100
AcDbLine
 10
63.133569
 20
57.902724
 30
0.0
 11
64.105258
 21
57.902724
 31
0.0
  0
LINE
  5
C793
100
AcDbEntity
  8
WYMIARY
 62
     3
100
AcDbLine
 10
63.133569
 20
57.902724
 30
0.0
 11
64.105258
 21
57.902724
 31
0.0
  0
LINE
  5
C794
100
AcDbEntity
  8
WYMIARY
 62
     3
100
AcDbLine
 10
63.133569
 20
57.902724
 30
0.0
 11
63.133569
 21
59.411156
 31
0.0
  0
LINE
  5
C795
100
AcDbEntity
  8
WYMIARY
 62
     3
100
AcDbLine
 10
64.105258
 20
57.902724
 30
0.0
 11
64.105258
 21
59.411156
 31
0.0
  0
LINE
  5
C796
100
AcDbEntity
  8
WYMIARY
 62
     3
100
AcDbLine
 10
64.105258
 20
60.382844
 30
0.0
 11
64.105258
 21
61.780472
 31
0.0
  0
LINE
  5
C797
100
AcDbEntity
  8
WYMIARY
 62
     3
100
AcDbLine
 10
63.133569
 20
60.382844
 30
0.0
 11
63.133569
 21
61.780472
 31
0.0
  0
LINE
  5
C798
100
AcDbEntity
  8
WYMIARY
 62
     3
100
AcDbLine
 10
65.630586
 20
60.382844
 30
0.0
 11
65.630586
 21
59.411156
 31
0.0
  0
LINE
  5
C799
100
AcDbEntity
  8
WYMIARY
 62
     3
100
AcDbLine
 10
68.759247
 20
63.292252
 30
0.0
 11
68.759247
 21
61.904126
 31
0.0
  0
LINE
  5
C79A
100
AcDbEntity
  8
WYMIARY
 62
     3
100
AcDbLine
 10
61.752838
 20
60.382844
 30
0.0
 11
61.752838
 21
59.411156
 31
0.0
  0
CIRCLE
  5
C79B
100
AcDbEntity
  8
WYMIARY
 62
     3
100
AcDbCircle
 10
63.61696
 20
59.869042
 30
0.0
 40
2.25
  0
LINE
  5
C79C
100
AcDbEntity
  8
WYMIARY
 62
     3
100
AcDbLine
 10
61.752838
 20
59.411156
 30
0.0
 11
63.133569
 21
59.411156
 31
0.0
  0
LINE
  5
C79D
100
AcDbEntity
  8
WYMIARY
 62
     3
100
AcDbLine
 10
61.752838
 20
60.382844
 30
0.0
 11
63.133569
 21
60.382844
 31
0.0
  0
LINE
  5
C79E
100
AcDbEntity
  8
WYMIARY
 62
     3
100
AcDbLine
 10
68.759247
 20
63.292252
 30
0.0
 11
70.731721
 21
63.292252
 31
0.0
  0
LINE
  5
C79F
100
AcDbEntity
  8
WYMIARY
 62
     3
100
AcDbLine
 10
68.759247
 20
61.904126
 30
0.0
 11
70.731721
 21
61.904126
 31
0.0
  0
TEXT
  5
C7A0
100
AcDbEntity
  8
WY
100
AcDbText
 10
78.376163
 20
11.60401
 30
0.0
 40
2.0
  1
02-02-2008
 51
15.0
  7
ITALIC
100
AcDbText
  0
LINE
  5
C7A1
100
AcDbEntity
  8
0
100
AcDbLine
 10
73.845976
 20
17.211264
 30
0.0
 11
73.845976
 21
9.015264
 31
0.0
  0
LINE
  5
C7A2
100
AcDbEntity
  8
1
100
AcDbLine
 10
77.428619
 20
5.0
 30
0.0
 11
77.428619
 21
19.689837
 31
0.0
  0
LINE
  5
C7A3
100
AcDbEntity
  8
0
100
AcDbLine
 10
72.300976
 20
9.015264
 30
0.0
 11
72.300976
 21
17.211264
 31
0.0
  0
LINE
  5
C7A4
100
AcDbEntity
  8
0
100
AcDbLine
 10
71.625976
 20
14.424264
 30
0.0
 11
71.625976
 21
10.203412
 31
0.0
  0
LINE
  5
C7A5
100
AcDbEntity
  8
0
100
AcDbLine
 10
73.845976
 20
9.015264
 30
0.0
 11
72.300976
 21
9.015264
 31
0.0
  0
LINE
  5
C7A6
100
AcDbEntity
  8
0
100
AcDbLine
 10
72.300976
 20
17.211264
 30
0.0
 11
73.845976
 21
17.211264
 31
0.0
  0
TEXT
  5
C7A7
100
AcDbEntity
  8
WY
100
AcDbText
 10
82.807533
 20
16.149239
 30
0.0
 40
2.0
  1
Data
 51
15.0
  7
ITALIC
100
AcDbText
  0
LINE
  5
C7A8
100
AcDbEntity
  8
WYMIARY
 62
     3
100
AcDbLine
 10
100.331944
 20
19.689837
 30
0.0
 11
100.331944
 21
5.0
 31
0.0
  0
LINE
  5
C7A9
100
AcDbEntity
  8
WYMIARY
 62
     3
100
AcDbLine
 10
80.848986
 20
63.292252
 30
0.0
 11
82.821459
 21
63.292252
 31
0.0
  0
LINE
  5
C7AA
100
AcDbEntity
  8
WYMIARY
 62
     3
100
AcDbLine
 10
80.848986
 20
61.904126
 30
0.0
 11
82.821459
 21
61.904126
 31
0.0
  0
CIRCLE
  5
C7AB
100
AcDbEntity
  8
WYMIARY
 62
     3
100
AcDbCircle
 10
83.51696
 20
62.519042
 30
0.0
 40
3.75
  0
LINE
  5
C7AC
100
AcDbEntity
  8
WYMIARY
 62
     3
100
AcDbLine
 10
80.848986
 20
63.292252
 30
0.0
 11
80.848986
 21
61.904126
 31
0.0
  0
LINE
  5
C7AD
100
AcDbEntity
  8
WYMIARY
 62
     3
100
AcDbLine
 10
72.119847
 20
63.292252
 30
0.0
 11
74.298887
 21
63.292252
 31
0.0
  0
LINE
  5
C7AE
100
AcDbEntity
  8
WYMIARY
 62
     3
100
AcDbLine
 10
72.119847
 20
63.292252
 30
0.0
 11
72.119847
 21
65.288862
 31
0.0
  0
LINE
  5
C7AF
100
AcDbEntity
  8
WYMIARY
 62
     3
100
AcDbLine
 10
72.119847
 20
61.904126
 30
0.0
 11
74.298887
 21
61.904126
 31
0.0
  0
LINE
  5
C7B0
100
AcDbEntity
  8
WYMIARY
 62
     3
100
AcDbLine
 10
72.119847
 20
59.749222
 30
0.0
 11
72.119847
 21
61.904126
 31
0.0
  0
LINE
  5
C7B1
100
AcDbEntity
  8
WYMIARY
 62
     3
100
AcDbLine
 10
74.298887
 20
63.292252
 30
0.0
 11
74.298887
 21
61.904126
 31
0.0
  0
LINE
  5
C7B2
100
AcDbEntity
  8
WYMIARY
 62
     3
100
AcDbLine
 10
82.821459
 20
65.288862
 30
0.0
 11
84.209585
 21
65.288862
 31
0.0
  0
LINE
  5
C7B3
100
AcDbEntity
  8
WYMIARY
 62
     3
100
AcDbLine
 10
82.821459
 20
63.292252
 30
0.0
 11
82.821459
 21
65.288862
 31
0.0
  0
LINE
  5
C7B4
100
AcDbEntity
  8
WYMIARY
 62
     3
100
AcDbLine
 10
84.209585
 20
63.292252
 30
0.0
 11
84.209585
 21
65.288862
 31
0.0
  0
LINE
  5
C7B5
100
AcDbEntity
  8
WYMIARY
 62
     3
100
AcDbLine
 10
84.209585
 20
63.292252
 30
0.0
 11
86.388625
 21
63.292252
 31
0.0
  0
TEXT
  5
C7B6
100
AcDbEntity
  8
1
100
AcDbText
 10
82.937751
 20
67.008855
 30
0.0
 40
3.0
  1
8
 41
0.65
  7
ITALIC
100
AcDbText
  0
LINE
  5
C7B7
100
AcDbEntity
  8
WYMIARY
 62
     3
100
AcDbLine
 10
82.821459
 20
59.749222
 30
0.0
 11
84.209585
 21
59.749222
 31
0.0
  0
LINE
  5
C7B8
100
AcDbEntity
  8
WYMIARY
 62
     3
100
AcDbLine
 10
84.209585
 20
59.749222
 30
0.0
 11
84.209585
 21
61.904126
 31
0.0
  0
LINE
  5
C7B9
100
AcDbEntity
  8
WYMIARY
 62
     3
100
AcDbLine
 10
82.821459
 20
59.749222
 30
0.0
 11
82.821459
 21
61.904126
 31
0.0
  0
LINE
  5
C7BA
100
AcDbEntity
  8
WYMIARY
 62
     3
100
AcDbLine
 10
84.209585
 20
61.904126
 30
0.0
 11
86.388625
 21
61.904126
 31
0.0
  0
LINE
  5
C7BB
100
AcDbEntity
  8
WYMIARY
 62
     3
100
AcDbLine
 10
86.388625
 20
63.292252
 30
0.0
 11
86.388625
 21
61.904126
 31
0.0
  0
LINE
  5
C7BC
100
AcDbEntity
  8
WYMIARY
 62
     3
100
AcDbLine
 10
110.857532
 20
63.292252
 30
0.0
 11
112.830006
 21
63.292252
 31
0.0
  0
LINE
  5
C7BD
100
AcDbEntity
  8
WYMIARY
 62
     3
100
AcDbLine
 10
112.830006
 20
63.292252
 30
0.0
 11
112.830006
 21
65.288862
 31
0.0
  0
LINE
  5
C7BE
100
AcDbEntity
  8
WYMIARY
 62
     3
100
AcDbLine
 10
110.857532
 20
61.904126
 30
0.0
 11
112.830006
 21
61.904126
 31
0.0
  0
LINE
  5
C7BF
100
AcDbEntity
  8
WYMIARY
 62
     3
100
AcDbLine
 10
112.830006
 20
59.749222
 30
0.0
 11
112.830006
 21
61.904126
 31
0.0
  0
LINE
  5
C7C0
100
AcDbEntity
  8
WYMIARY
 62
     3
100
AcDbLine
 10
110.857532
 20
63.292252
 30
0.0
 11
110.857532
 21
61.904126
 31
0.0
  0
LINE
  5
C7C1
100
AcDbEntity
  8
WYMIARY
 62
     3
100
AcDbLine
 10
70.731721
 20
130.488862
 30
0.0
 11
72.119847
 21
130.488862
 31
0.0
  0
LINE
  5
C7C2
100
AcDbEntity
  8
WYMIARY
 62
     3
100
AcDbLine
 10
70.731721
 20
124.949222
 30
0.0
 11
72.119847
 21
124.949222
 31
0.0
  0
LINE
  5
C7C3
100
AcDbEntity
  8
WYMIARY
 62
     3
100
AcDbLine
 10
90.26696
 20
137.119042
 30
0.0
 11
36.96696
 21
137.119042
 31
0.0
  0
LINE
  5
C7C4
100
AcDbEntity
  8
WYMIARY
 62
     3
100
AcDbLine
 10
90.26696
 20
117.619042
 30
0.0
 11
36.96696
 21
117.619042
 31
0.0
  0
TEXT
  5
C7C5
100
AcDbEntity
  8
1
100
AcDbText
 10
70.023836
 20
120.350588
 30
0.0
 40
3.0
  1
R5
 41
0.65
  7
ITALIC
100
AcDbText
  0
CIRCLE
  5
C7C6
100
AcDbEntity
  8
WYMIARY
 62
     3
100
AcDbCircle
 10
71.51696
 20
127.719042
 30
0.0
 40
3.75
  0
LINE
  5
C7C7
100
AcDbEntity
  8
WYMIARY
 62
     3
100
AcDbLine
 10
90.26696
 20
72.619042
 30
0.0
 11
36.96696
 21
72.619042
 31
0.0
  0
LINE
  5
C7C8
100
AcDbEntity
  8
WYMIARY
 62
     3
100
AcDbLine
 10
36.96696
 20
137.119042
 30
0.0
 11
55.71696
 21
137.119042
 31
0.0
  0
TEXT
  5
C7C9
100
AcDbEntity
  8
1
100
AcDbText
 10
43.131945
 20
120.350588
 30
0.0
 40
3.0
  1
1
 41
0.65
  7
ITALIC
100
AcDbText
  0
LINE
  5
C7CA
100
AcDbEntity
  8
WYMIARY
 62
     3
100
AcDbLine
 10
36.96696
 20
137.119042
 30
0.0
 11
43.71696
 21
137.119042
 31
0.0
  0
LINE
  5
C7CB
100
AcDbEntity
  8
WYMIARY
 62
     3
100
AcDbLine
 10
36.96696
 20
137.119042
 30
0.0
 11
36.96696
 21
127.719042
 31
0.0
  0
LINE
  5
C7CC
100
AcDbEntity
  8
WYMIARY
 62
     3
100
AcDbLine
 10
46.663185
 20
126.945833
 30
0.0
 11
46.663185
 21
128.333958
 31
0.0
  0
LINE
  5
C7CD
100
AcDbEntity
  8
WYMIARY
 62
     3
100
AcDbLine
 10
43.096019
 20
130.488862
 30
0.0
 11
44.484144
 21
130.488862
 31
0.0
  0
LINE
  5
C7CE
100
AcDbEntity
  8
WYMIARY
 62
     3
100
AcDbLine
 10
43.096019
 20
130.488862
 30
0.0
 11
44.484144
 21
130.488862
 31
0.0
  0
LINE
  5
C7CF
100
AcDbEntity
  8
WYMIARY
 62
     3
100
AcDbLine
 10
43.096019
 20
130.488862
 30
0.0
 11
44.484144
 21
130.488862
 31
0.0
  0
LINE
  5
C7D0
100
AcDbEntity
  8
WYMIARY
 62
     3
100
AcDbLine
 10
43.096019
 20
124.949222
 30
0.0
 11
44.484144
 21
124.949222
 31
0.0
  0
LINE
  5
C7D1
100
AcDbEntity
  8
WYMIARY
 62
     3
100
AcDbLine
 10
43.096019
 20
126.945833
 30
0.0
 11
43.096019
 21
124.949222
 31
0.0
  0
LINE
  5
C7D2
100
AcDbEntity
  8
WYMIARY
 62
     3
100
AcDbLine
 10
41.123545
 20
126.945833
 30
0.0
 11
41.123545
 21
128.333958
 31
0.0
  0
LINE
  5
C7D3
100
AcDbEntity
  8
WYMIARY
 62
     3
100
AcDbLine
 10
41.123545
 20
128.333958
 30
0.0
 11
43.096019
 21
128.333958
 31
0.0
  0
LINE
  5
C7D4
100
AcDbEntity
  8
WYMIARY
 62
     3
100
AcDbLine
 10
41.123545
 20
126.945833
 30
0.0
 11
43.096019
 21
126.945833
 31
0.0
  0
LINE
  5
C7D5
100
AcDbEntity
  8
WYMIARY
 62
     3
100
AcDbLine
 10
44.484144
 20
126.945833
 30
0.0
 11
44.484144
 21
124.949222
 31
0.0
  0
LINE
  5
C7D6
100
AcDbEntity
  8
WYMIARY
 62
     3
100
AcDbLine
 10
43.096019
 20
130.488862
 30
0.0
 11
43.096019
 21
128.333958
 31
0.0
  0
LINE
  5
C7D7
100
AcDbEntity
  8
WYMIARY
 62
     3
100
AcDbLine
 10
44.484144
 20
130.488862
 30
0.0
 11
44.484144
 21
128.333958
 31
0.0
  0
LINE
  5
C7D8
100
AcDbEntity
  8
WYMIARY
 62
     3
100
AcDbLine
 10
44.484144
 20
128.333958
 30
0.0
 11
46.663185
 21
128.333958
 31
0.0
  0
LINE
  5
C7D9
100
AcDbEntity
  8
WYMIARY
 62
     3
100
AcDbLine
 10
44.484144
 20
126.945833
 30
0.0
 11
46.663185
 21
126.945833
 31
0.0
  0
CIRCLE
  5
C7DA
100
AcDbEntity
  8
WYMIARY
 62
     3
100
AcDbCircle
 10
43.71696
 20
127.719042
 30
0.0
 40
3.75
  0
TEXT
  5
C7DB
100
AcDbEntity
  8
1
100
AcDbText
 10
54.310471
 20
120.350588
 30
0.0
 40
3.0
  1
R3
 41
0.65
  7
ITALIC
100
AcDbText
  0
CIRCLE
  5
C7DC
100
AcDbEntity
  8
WYMIARY
 62
     3
100
AcDbCircle
 10
63.61696
 20
120.669042
 30
0.0
 40
2.25
  0
LINE
  5
C7DD
100
AcDbEntity
  8
WYMIARY
 62
     3
100
AcDbLine
 10
55.096019
 20
130.488862
 30
0.0
 11
56.484144
 21
130.488862
 31
0.0
  0
LINE
  5
C7DE
100
AcDbEntity
  8
WYMIARY
 62
     3
100
AcDbLine
 10
55.096019
 20
130.488862
 30
0.0
 11
56.484144
 21
130.488862
 31
0.0
  0
LINE
  5
C7DF
100
AcDbEntity
  8
WYMIARY
 62
     3
100
AcDbLine
 10
55.096019
 20
130.488862
 30
0.0
 11
56.484144
 21
130.488862
 31
0.0
  0
LINE
  5
C7E0
100
AcDbEntity
  8
WYMIARY
 62
     3
100
AcDbLine
 10
55.096019
 20
124.949222
 30
0.0
 11
56.484144
 21
124.949222
 31
0.0
  0
LINE
  5
C7E1
100
AcDbEntity
  8
WYMIARY
 62
     3
100
AcDbLine
 10
58.663185
 20
126.945833
 30
0.0
 11
58.663185
 21
128.333958
 31
0.0
  0
LINE
  5
C7E2
100
AcDbEntity
  8
WYMIARY
 62
     3
100
AcDbLine
 10
56.484144
 20
128.333958
 30
0.0
 11
58.663185
 21
128.333958
 31
0.0
  0
LINE
  5
C7E3
100
AcDbEntity
  8
WYMIARY
 62
     3
100
AcDbLine
 10
56.484144
 20
126.945833
 30
0.0
 11
58.663185
 21
126.945833
 31
0.0
  0
LINE
  5
C7E4
100
AcDbEntity
  8
WYMIARY
 62
     3
100
AcDbLine
 10
56.484144
 20
126.945833
 30
0.0
 11
56.484144
 21
124.949222
 31
0.0
  0
LINE
  5
C7E5
100
AcDbEntity
  8
WYMIARY
 62
     3
100
AcDbLine
 10
55.096019
 20
126.945833
 30
0.0
 11
55.096019
 21
124.949222
 31
0.0
  0
LINE
  5
C7E6
100
AcDbEntity
  8
WYMIARY
 62
     3
100
AcDbLine
 10
55.096019
 20
130.488862
 30
0.0
 11
55.096019
 21
128.333958
 31
0.0
  0
LINE
  5
C7E7
100
AcDbEntity
  8
WYMIARY
 62
     3
100
AcDbLine
 10
56.484144
 20
130.488862
 30
0.0
 11
56.484144
 21
128.333958
 31
0.0
  0
LINE
  5
C7E8
100
AcDbEntity
  8
WYMIARY
 62
     3
100
AcDbLine
 10
53.123545
 20
126.945833
 30
0.0
 11
53.123545
 21
128.333958
 31
0.0
  0
LINE
  5
C7E9
100
AcDbEntity
  8
WYMIARY
 62
     3
100
AcDbLine
 10
53.123545
 20
128.333958
 30
0.0
 11
55.096019
 21
128.333958
 31
0.0
  0
LINE
  5
C7EA
100
AcDbEntity
  8
WYMIARY
 62
     3
100
AcDbLine
 10
53.123545
 20
126.945833
 30
0.0
 11
55.096019
 21
126.945833
 31
0.0
  0
CIRCLE
  5
C7EB
100
AcDbEntity
  8
WYMIARY
 62
     3
100
AcDbCircle
 10
55.71696
 20
127.719042
 30
0.0
 40
3.75
  0
LINE
  5
C7EC
100
AcDbEntity
  8
WYMIARY
 62
     3
100
AcDbLine
 10
70.731721
 20
126.945833
 30
0.0
 11
70.731721
 21
124.949222
 31
0.0
  0
LINE
  5
C7ED
100
AcDbEntity
  8
WYMIARY
 62
     3
100
AcDbLine
 10
70.731721
 20
130.488862
 30
0.0
 11
70.731721
 21
128.333958
 31
0.0
  0
LINE
  5
C7EE
100
AcDbEntity
  8
WYMIARY
 62
     3
100
AcDbLine
 10
64.105258
 20
129.85524
 30
0.0
 11
65.630586
 21
129.85524
 31
0.0
  0
LINE
  5
C7EF
100
AcDbEntity
  8
WYMIARY
 62
     3
100
AcDbLine
 10
64.105258
 20
130.826928
 30
0.0
 11
65.630586
 21
130.826928
 31
0.0
  0
TEXT
  5
C7F0
100
AcDbEntity
  8
1
100
AcDbText
 10
62.315617
 20
124.743437
 30
0.0
 40
3.0
  1
A1
 41
0.65
  7
ITALIC
100
AcDbText
  0
LINE
  5
C7F1
100
AcDbEntity
  8
WYMIARY
 62
     3
100
AcDbLine
 10
63.133569
 20
132.33536
 30
0.0
 11
63.133569
 21
130.826928
 31
0.0
  0
LINE
  5
C7F2
100
AcDbEntity
  8
WYMIARY
 62
     3
100
AcDbLine
 10
64.105258
 20
132.33536
 30
0.0
 11
64.105258
 21
130.826928
 31
0.0
  0
LINE
  5
C7F3
100
AcDbEntity
  8
WYMIARY
 62
     3
100
AcDbLine
 10
63.133569
 20
132.33536
 30
0.0
 11
64.105258
 21
132.33536
 31
0.0
  0
LINE
  5
C7F4
100
AcDbEntity
  8
WYMIARY
 62
     3
100
AcDbLine
 10
63.133569
 20
132.33536
 30
0.0
 11
64.105258
 21
132.33536
 31
0.0
  0
LINE
  5
C7F5
100
AcDbEntity
  8
WYMIARY
 62
     3
100
AcDbLine
 10
63.133569
 20
132.33536
 30
0.0
 11
64.105258
 21
132.33536
 31
0.0
  0
LINE
  5
C7F6
100
AcDbEntity
  8
WYMIARY
 62
     3
100
AcDbLine
 10
63.133569
 20
128.457613
 30
0.0
 11
64.105258
 21
128.457613
 31
0.0
  0
LINE
  5
C7F7
100
AcDbEntity
  8
WYMIARY
 62
     3
100
AcDbLine
 10
64.105258
 20
129.85524
 30
0.0
 11
64.105258
 21
128.457613
 31
0.0
  0
LINE
  5
C7F8
100
AcDbEntity
  8
WYMIARY
 62
     3
100
AcDbLine
 10
63.133569
 20
129.85524
 30
0.0
 11
63.133569
 21
128.457613
 31
0.0
  0
LINE
  5
C7F9
100
AcDbEntity
  8
WYMIARY
 62
     3
100
AcDbLine
 10
65.630586
 20
129.85524
 30
0.0
 11
65.630586
 21
130.826928
 31
0.0
  0
LINE
  5
C7FA
100
AcDbEntity
  8
WYMIARY
 62
     3
100
AcDbLine
 10
68.759247
 20
126.945833
 30
0.0
 11
68.759247
 21
128.333958
 31
0.0
  0
LINE
  5
C7FB
100
AcDbEntity
  8
WYMIARY
 62
     3
100
AcDbLine
 10
61.752838
 20
129.85524
 30
0.0
 11
61.752838
 21
130.826928
 31
0.0
  0
CIRCLE
  5
C7FC
100
AcDbEntity
  8
WYMIARY
 62
     3
100
AcDbCircle
 10
63.61696
 20
130.369042
 30
0.0
 40
2.25
  0
LINE
  5
C7FD
100
AcDbEntity
  8
WYMIARY
 62
     3
100
AcDbLine
 10
61.752838
 20
130.826928
 30
0.0
 11
63.133569
 21
130.826928
 31
0.0
  0
LINE
  5
C7FE
100
AcDbEntity
  8
WYMIARY
 62
     3
100
AcDbLine
 10
61.752838
 20
129.85524
 30
0.0
 11
63.133569
 21
129.85524
 31
0.0
  0
LINE
  5
C7FF
100
AcDbEntity
  8
WYMIARY
 62
     3
100
AcDbLine
 10
68.759247
 20
126.945833
 30
0.0
 11
70.731721
 21
126.945833
 31
0.0
  0
LINE
  5
C800
100
AcDbEntity
  8
WYMIARY
 62
     3
100
AcDbLine
 10
68.759247
 20
128.333958
 30
0.0
 11
70.731721
 21
128.333958
 31
0.0
  0
TEXT
  5
C801
100
AcDbEntity
  8
1
100
AcDbText
 10
82.745112
 20
120.350588
 30
0.0
 40
3.0
  1
7
 41
0.65
  7
ITALIC
100
AcDbText
  0
LINE
  5
C802
100
AcDbEntity
  8
WYMIARY
 62
     3
100
AcDbLine
 10
80.848986
 20
126.945833
 30
0.0
 11
82.821459
 21
126.945833
 31
0.0
  0
LINE
  5
C803
100
AcDbEntity
  8
WYMIARY
 62
     3
100
AcDbLine
 10
80.848986
 20
128.333958
 30
0.0
 11
82.821459
 21
128.333958
 31
0.0
  0
CIRCLE
  5
C804
100
AcDbEntity
  8
WYMIARY
 62
     3
100
AcDbCircle
 10
83.51696
 20
127.719042
 30
0.0
 40
3.75
  0
LINE
  5
C805
100
AcDbEntity
  8
WYMIARY
 62
     3
100
AcDbLine
 10
80.848986
 20
126.945833
 30
0.0
 11
80.848986
 21
128.333958
 31
0.0
  0
LINE
  5
C806
100
AcDbEntity
  8
WYMIARY
 62
     3
100
AcDbLine
 10
72.119847
 20
126.945833
 30
0.0
 11
72.119847
 21
124.949222
 31
0.0
  0
LINE
  5
C807
100
AcDbEntity
  8
WYMIARY
 62
     3
100
AcDbLine
 10
72.119847
 20
126.945833
 30
0.0
 11
74.298887
 21
126.945833
 31
0.0
  0
LINE
  5
C808
100
AcDbEntity
  8
WYMIARY
 62
     3
100
AcDbLine
 10
74.298887
 20
126.945833
 30
0.0
 11
74.298887
 21
128.333958
 31
0.0
  0
LINE
  5
C809
100
AcDbEntity
  8
WYMIARY
 62
     3
100
AcDbLine
 10
72.119847
 20
128.333958
 30
0.0
 11
74.298887
 21
128.333958
 31
0.0
  0
LINE
  5
C80A
100
AcDbEntity
  8
WYMIARY
 62
     3
100
AcDbLine
 10
72.119847
 20
130.488862
 30
0.0
 11
72.119847
 21
128.333958
 31
0.0
  0
LINE
  5
C80B
100
AcDbEntity
  8
WYMIARY
 62
     3
100
AcDbLine
 10
82.821459
 20
130.488862
 30
0.0
 11
84.209585
 21
130.488862
 31
0.0
  0
LINE
  5
C80C
100
AcDbEntity
  8
WYMIARY
 62
     3
100
AcDbLine
 10
86.388625
 20
126.945833
 30
0.0
 11
86.388625
 21
128.333958
 31
0.0
  0
LINE
  5
C80D
100
AcDbEntity
  8
WYMIARY
 62
     3
100
AcDbLine
 10
84.209585
 20
126.945833
 30
0.0
 11
84.209585
 21
124.949222
 31
0.0
  0
LINE
  5
C80E
100
AcDbEntity
  8
WYMIARY
 62
     3
100
AcDbLine
 10
82.821459
 20
126.945833
 30
0.0
 11
82.821459
 21
124.949222
 31
0.0
  0
LINE
  5
C80F
100
AcDbEntity
  8
WYMIARY
 62
     3
100
AcDbLine
 10
82.821459
 20
124.949222
 30
0.0
 11
84.209585
 21
124.949222
 31
0.0
  0
LINE
  5
C810
100
AcDbEntity
  8
WYMIARY
 62
     3
100
AcDbLine
 10
84.209585
 20
126.945833
 30
0.0
 11
86.388625
 21
126.945833
 31
0.0
  0
LINE
  5
C811
100
AcDbEntity
  8
WYMIARY
 62
     3
100
AcDbLine
 10
84.209585
 20
128.333958
 30
0.0
 11
86.388625
 21
128.333958
 31
0.0
  0
LINE
  5
C812
100
AcDbEntity
  8
WYMIARY
 62
     3
100
AcDbLine
 10
82.821459
 20
130.488862
 30
0.0
 11
82.821459
 21
128.333958
 31
0.0
  0
LINE
  5
C813
100
AcDbEntity
  8
WYMIARY
 62
     3
100
AcDbLine
 10
84.209585
 20
130.488862
 30
0.0
 11
84.209585
 21
128.333958
 31
0.0
  0
LINE
  5
C814
100
AcDbEntity
  8
WYMIARY
 62
     3
100
AcDbLine
 10
106.700947
 20
137.119042
 30
0.0
 11
113.450947
 21
137.119042
 31
0.0
  0
LINE
  5
C815
100
AcDbEntity
  8
WYMIARY
 62
     3
100
AcDbLine
 10
110.857532
 20
126.945833
 30
0.0
 11
112.830006
 21
126.945833
 31
0.0
  0
LINE
  5
C816
100
AcDbEntity
  8
WYMIARY
 62
     3
100
AcDbLine
 10
110.857532
 20
128.333958
 30
0.0
 11
112.830006
 21
128.333958
 31
0.0
  0
LINE
  5
C817
100
AcDbEntity
  8
WYMIARY
 62
     3
100
AcDbLine
 10
110.857532
 20
126.945833
 30
0.0
 11
110.857532
 21
128.333958
 31
0.0
  0
LINE
  5
C818
100
AcDbEntity
  8
WYMIARY
 62
     3
100
AcDbLine
 10
112.830006
 20
126.945833
 30
0.0
 11
112.830006
 21
124.949222
 31
0.0
  0
LINE
  5
C819
100
AcDbEntity
  8
WYMIARY
 62
     3
100
AcDbLine
 10
112.830006
 20
130.488862
 30
0.0
 11
112.830006
 21
128.333958
 31
0.0
  0
LINE
  5
C81A
100
AcDbEntity
  8
WYMIARY
 62
     3
100
AcDbLine
 10
106.700947
 20
137.119042
 30
0.0
 11
106.700947
 21
127.719042
 31
0.0
  0
CIRCLE
  5
C81B
100
AcDbEntity
  8
WYMIARY
 62
     3
100
AcDbCircle
 10
133.350947
 20
69.569042
 30
0.0
 40
2.25
  0
LINE
  5
C81C
100
AcDbEntity
  8
WYMIARY
 62
     3
100
AcDbLine
 10
160.000947
 20
53.119042
 30
0.0
 11
160.000947
 21
137.119042
 31
0.0
  0
CIRCLE
  5
C81D
100
AcDbEntity
  8
WYMIARY
 62
     3
100
AcDbCircle
 10
153.250947
 20
62.519042
 30
0.0
 40
3.75
  0
TEXT
  5
C81E
100
AcDbEntity
  8
WY
100
AcDbText
 10
143.544189
 20
16.599248
 30
0.0
 40
2.0
  1
Product type
 51
15.0
  7
ITALIC
100
AcDbText
  0
TEXT
  5
C81F
100
AcDbEntity
  8
1
100
AcDbText
 10
143.348048
 20
9.064009
 30
0.0
 40
5.0
  1
RIK63
 41
0.75
  7
ITALIC
100
AcDbText
  0
LINE
  5
C820
100
AcDbEntity
  8
1
100
AcDbLine
 10
141.352991
 20
5.0
 30
0.0
 11
141.352991
 21
19.689837
 31
0.0
  0
TEXT
  5
C821
100
AcDbEntity
  8
1
100
AcDbText
 10
132.049604
 20
63.2834
 30
0.0
 40
3.0
  1
A2
 41
0.65
  7
ITALIC
100
AcDbText
  0
LINE
  5
C822
100
AcDbEntity
  8
WYMIARY
 62
     3
100
AcDbLine
 10
133.839245
 20
60.382844
 30
0.0
 11
135.364573
 21
60.382844
 31
0.0
  0
LINE
  5
C823
100
AcDbEntity
  8
WYMIARY
 62
     3
100
AcDbLine
 10
133.839245
 20
59.411156
 30
0.0
 11
135.364573
 21
59.411156
 31
0.0
  0
CIRCLE
  5
C824
100
AcDbEntity
  8
WYMIARY
 62
     3
100
AcDbCircle
 10
133.350947
 20
59.869042
 30
0.0
 40
2.25
  0
LINE
  5
C825
100
AcDbEntity
  8
WYMIARY
 62
     3
100
AcDbLine
 10
122.857532
 20
63.292252
 30
0.0
 11
124.830006
 21
63.292252
 31
0.0
  0
TEXT
  5
C826
100
AcDbEntity
  8
1
100
AcDbText
 10
123.725501
 20
67.008855
 30
0.0
 40
3.0
  1
R4
 41
0.65
  7
ITALIC
100
AcDbText
  0
LINE
  5
C827
100
AcDbEntity
  8
WYMIARY
 62
     3
100
AcDbLine
 10
122.857532
 20
61.904126
 30
0.0
 11
124.830006
 21
61.904126
 31
0.0
  0
CIRCLE
  5
C828
100
AcDbEntity
  8
WYMIARY
 62
     3
100
AcDbCircle
 10
125.450947
 20
62.519042
 30
0.0
 40
3.75
  0
LINE
  5
C829
100
AcDbEntity
  8
WYMIARY
 62
     3
100
AcDbLine
 10
122.857532
 20
63.292252
 30
0.0
 11
122.857532
 21
61.904126
 31
0.0
  0
LINE
  5
C82A
100
AcDbEntity
  8
WYMIARY
 62
     3
100
AcDbLine
 10
114.218131
 20
63.292252
 30
0.0
 11
116.397172
 21
63.292252
 31
0.0
  0
LINE
  5
C82B
100
AcDbEntity
  8
WYMIARY
 62
     3
100
AcDbLine
 10
114.218131
 20
61.904126
 30
0.0
 11
116.397172
 21
61.904126
 31
0.0
  0
LINE
  5
C82C
100
AcDbEntity
  8
WYMIARY
 62
     3
100
AcDbLine
 10
114.218131
 20
63.292252
 30
0.0
 11
114.218131
 21
65.288862
 31
0.0
  0
LINE
  5
C82D
100
AcDbEntity
  8
WYMIARY
 62
     3
100
AcDbLine
 10
114.218131
 20
59.749222
 30
0.0
 11
114.218131
 21
61.904126
 31
0.0
  0
LINE
  5
C82E
100
AcDbEntity
  8
WYMIARY
 62
     3
100
AcDbLine
 10
116.397172
 20
63.292252
 30
0.0
 11
116.397172
 21
61.904126
 31
0.0
  0
LINE
  5
C82F
100
AcDbEntity
  8
WYMIARY
 62
     3
100
AcDbLine
 10
131.486825
 20
60.382844
 30
0.0
 11
132.867556
 21
60.382844
 31
0.0
  0
LINE
  5
C830
100
AcDbEntity
  8
WYMIARY
 62
     3
100
AcDbLine
 10
132.867556
 20
60.382844
 30
0.0
 11
132.867556
 21
61.780472
 31
0.0
  0
LINE
  5
C831
100
AcDbEntity
  8
WYMIARY
 62
     3
100
AcDbLine
 10
133.839245
 20
60.382844
 30
0.0
 11
133.839245
 21
61.780472
 31
0.0
  0
LINE
  5
C832
100
AcDbEntity
  8
WYMIARY
 62
     3
100
AcDbLine
 10
133.839245
 20
57.902724
 30
0.0
 11
133.839245
 21
59.411156
 31
0.0
  0
LINE
  5
C833
100
AcDbEntity
  8
WYMIARY
 62
     3
100
AcDbLine
 10
132.867556
 20
57.902724
 30
0.0
 11
132.867556
 21
59.411156
 31
0.0
  0
LINE
  5
C834
100
AcDbEntity
  8
WYMIARY
 62
     3
100
AcDbLine
 10
131.486825
 20
59.411156
 30
0.0
 11
132.867556
 21
59.411156
 31
0.0
  0
LINE
  5
C835
100
AcDbEntity
  8
WYMIARY
 62
     3
100
AcDbLine
 10
132.867556
 20
57.902724
 30
0.0
 11
133.839245
 21
57.902724
 31
0.0
  0
LINE
  5
C836
100
AcDbEntity
  8
WYMIARY
 62
     3
100
AcDbLine
 10
132.867556
 20
57.902724
 30
0.0
 11
133.839245
 21
57.902724
 31
0.0
  0
LINE
  5
C837
100
AcDbEntity
  8
WYMIARY
 62
     3
100
AcDbLine
 10
132.867556
 20
57.902724
 30
0.0
 11
133.839245
 21
57.902724
 31
0.0
  0
LINE
  5
C838
100
AcDbEntity
  8
WYMIARY
 62
     3
100
AcDbLine
 10
131.486825
 20
60.382844
 30
0.0
 11
131.486825
 21
59.411156
 31
0.0
  0
LINE
  5
C839
100
AcDbEntity
  8
WYMIARY
 62
     3
100
AcDbLine
 10
132.867556
 20
61.780472
 30
0.0
 11
133.839245
 21
61.780472
 31
0.0
  0
LINE
  5
C83A
100
AcDbEntity
  8
WYMIARY
 62
     3
100
AcDbLine
 10
126.218131
 20
63.292252
 30
0.0
 11
126.218131
 21
65.288862
 31
0.0
  0
LINE
  5
C83B
100
AcDbEntity
  8
WYMIARY
 62
     3
100
AcDbLine
 10
126.218131
 20
63.292252
 30
0.0
 11
128.397172
 21
63.292252
 31
0.0
  0
LINE
  5
C83C
100
AcDbEntity
  8
WYMIARY
 62
     3
100
AcDbLine
 10
124.830006
 20
63.292252
 30
0.0
 11
124.830006
 21
65.288862
 31
0.0
  0
LINE
  5
C83D
100
AcDbEntity
  8
WYMIARY
 62
     3
100
AcDbLine
 10
124.830006
 20
65.288862
 30
0.0
 11
126.218131
 21
65.288862
 31
0.0
  0
LINE
  5
C83E
100
AcDbEntity
  8
WYMIARY
 62
     3
100
AcDbLine
 10
126.218131
 20
59.749222
 30
0.0
 11
126.218131
 21
61.904126
 31
0.0
  0
LINE
  5
C83F
100
AcDbEntity
  8
WYMIARY
 62
     3
100
AcDbLine
 10
126.218131
 20
61.904126
 30
0.0
 11
128.397172
 21
61.904126
 31
0.0
  0
LINE
  5
C840
100
AcDbEntity
  8
WYMIARY
 62
     3
100
AcDbLine
 10
124.830006
 20
59.749222
 30
0.0
 11
124.830006
 21
61.904126
 31
0.0
  0
LINE
  5
C841
100
AcDbEntity
  8
WYMIARY
 62
     3
100
AcDbLine
 10
124.830006
 20
59.749222
 30
0.0
 11
126.218131
 21
59.749222
 31
0.0
  0
LINE
  5
C842
100
AcDbEntity
  8
WYMIARY
 62
     3
100
AcDbLine
 10
124.830006
 20
59.749222
 30
0.0
 11
126.218131
 21
59.749222
 31
0.0
  0
LINE
  5
C843
100
AcDbEntity
  8
WYMIARY
 62
     3
100
AcDbLine
 10
124.830006
 20
59.749222
 30
0.0
 11
126.218131
 21
59.749222
 31
0.0
  0
LINE
  5
C844
100
AcDbEntity
  8
WYMIARY
 62
     3
100
AcDbLine
 10
128.397172
 20
63.292252
 30
0.0
 11
128.397172
 21
61.904126
 31
0.0
  0
LINE
  5
C845
100
AcDbEntity
  8
WYMIARY
 62
     3
100
AcDbLine
 10
141.853834
 20
63.292252
 30
0.0
 11
144.032874
 21
63.292252
 31
0.0
  0
LINE
  5
C846
100
AcDbEntity
  8
WYMIARY
 62
     3
100
AcDbLine
 10
141.853834
 20
61.904126
 30
0.0
 11
144.032874
 21
61.904126
 31
0.0
  0
LINE
  5
C847
100
AcDbEntity
  8
WYMIARY
 62
     3
100
AcDbLine
 10
140.465708
 20
65.288862
 30
0.0
 11
141.853834
 21
65.288862
 31
0.0
  0
LINE
  5
C848
100
AcDbEntity
  8
WYMIARY
 62
     3
100
AcDbLine
 10
140.465708
 20
63.292252
 30
0.0
 11
140.465708
 21
65.288862
 31
0.0
  0
LINE
  5
C849
100
AcDbEntity
  8
WYMIARY
 62
     3
100
AcDbLine
 10
141.853834
 20
63.292252
 30
0.0
 11
141.853834
 21
65.288862
 31
0.0
  0
LINE
  5
C84A
100
AcDbEntity
  8
WYMIARY
 62
     3
100
AcDbLine
 10
141.853834
 20
59.749222
 30
0.0
 11
141.853834
 21
61.904126
 31
0.0
  0
LINE
  5
C84B
100
AcDbEntity
  8
WYMIARY
 62
     3
100
AcDbLine
 10
140.465708
 20
59.749222
 30
0.0
 11
140.465708
 21
61.904126
 31
0.0
  0
LINE
  5
C84C
100
AcDbEntity
  8
WYMIARY
 62
     3
100
AcDbLine
 10
140.465708
 20
59.749222
 30
0.0
 11
141.853834
 21
59.749222
 31
0.0
  0
LINE
  5
C84D
100
AcDbEntity
  8
WYMIARY
 62
     3
100
AcDbLine
 10
144.032874
 20
63.292252
 30
0.0
 11
144.032874
 21
61.904126
 31
0.0
  0
LINE
  5
C84E
100
AcDbEntity
  8
WYMIARY
 62
     3
100
AcDbLine
 10
138.493234
 20
63.292252
 30
0.0
 11
138.493234
 21
61.904126
 31
0.0
  0
LINE
  5
C84F
100
AcDbEntity
  8
WYMIARY
 62
     3
100
AcDbLine
 10
135.364573
 20
60.382844
 30
0.0
 11
135.364573
 21
59.411156
 31
0.0
  0
TEXT
  5
C850
100
AcDbEntity
  8
1
100
AcDbText
 10
139.745472
 20
67.008855
 30
0.0
 40
3.0
  1
R6
 41
0.65
  7
ITALIC
100
AcDbText
  0
CIRCLE
  5
C851
100
AcDbEntity
  8
WYMIARY
 62
     3
100
AcDbCircle
 10
141.250947
 20
62.519042
 30
0.0
 40
3.75
  0
LINE
  5
C852
100
AcDbEntity
  8
WYMIARY
 62
     3
100
AcDbLine
 10
138.493234
 20
63.292252
 30
0.0
 11
140.465708
 21
63.292252
 31
0.0
  0
LINE
  5
C853
100
AcDbEntity
  8
WYMIARY
 62
     3
100
AcDbLine
 10
138.493234
 20
61.904126
 30
0.0
 11
140.465708
 21
61.904126
 31
0.0
  0
LINE
  5
C854
100
AcDbEntity
  8
WYMIARY
 62
     3
100
AcDbLine
 10
153.943572
 20
63.292252
 30
0.0
 11
156.122613
 21
63.292252
 31
0.0
  0
LINE
  5
C855
100
AcDbEntity
  8
WYMIARY
 62
     3
100
AcDbLine
 10
153.943572
 20
61.904126
 30
0.0
 11
156.122613
 21
61.904126
 31
0.0
  0
LINE
  5
C856
100
AcDbEntity
  8
WYMIARY
 62
     3
100
AcDbLine
 10
150.582973
 20
63.292252
 30
0.0
 11
152.555446
 21
63.292252
 31
0.0
  0
TEXT
  5
C857
100
AcDbEntity
  8
1
100
AcDbText
 10
151.68192
 20
67.008855
 30
0.0
 40
3.0
  1
R8
 41
0.65
  7
ITALIC
100
AcDbText
  0
LINE
  5
C858
100
AcDbEntity
  8
WYMIARY
 62
     3
100
AcDbLine
 10
153.943572
 20
63.292252
 30
0.0
 11
153.943572
 21
65.288862
 31
0.0
  0
LINE
  5
C859
100
AcDbEntity
  8
WYMIARY
 62
     3
100
AcDbLine
 10
152.555446
 20
63.292252
 30
0.0
 11
152.555446
 21
65.288862
 31
0.0
  0
LINE
  5
C85A
100
AcDbEntity
  8
WYMIARY
 62
     3
100
AcDbLine
 10
152.555446
 20
65.288862
 30
0.0
 11
153.943572
 21
65.288862
 31
0.0
  0
LINE
  5
C85B
100
AcDbEntity
  8
WYMIARY
 62
     3
100
AcDbLine
 10
150.582973
 20
61.904126
 30
0.0
 11
152.555446
 21
61.904126
 31
0.0
  0
LINE
  5
C85C
100
AcDbEntity
  8
WYMIARY
 62
     3
100
AcDbLine
 10
152.555446
 20
59.749222
 30
0.0
 11
152.555446
 21
61.904126
 31
0.0
  0
LINE
  5
C85D
100
AcDbEntity
  8
WYMIARY
 62
     3
100
AcDbLine
 10
153.943572
 20
59.749222
 30
0.0
 11
153.943572
 21
61.904126
 31
0.0
  0
LINE
  5
C85E
100
AcDbEntity
  8
WYMIARY
 62
     3
100
AcDbLine
 10
152.555446
 20
59.749222
 30
0.0
 11
153.943572
 21
59.749222
 31
0.0
  0
LINE
  5
C85F
100
AcDbEntity
  8
WYMIARY
 62
     3
100
AcDbLine
 10
150.582973
 20
63.292252
 30
0.0
 11
150.582973
 21
61.904126
 31
0.0
  0
LINE
  5
C860
100
AcDbEntity
  8
WYMIARY
 62
     3
100
AcDbLine
 10
156.122613
 20
63.292252
 30
0.0
 11
156.122613
 21
61.904126
 31
0.0
  0
CIRCLE
  5
C861
100
AcDbEntity
  8
WYMIARY
 62
     3
100
AcDbCircle
 10
153.250947
 20
127.719042
 30
0.0
 40
3.75
  0
LINE
  5
C862
100
AcDbEntity
  8
WYMIARY
 62
     3
100
AcDbLine
 10
133.839245
 20
130.826928
 30
0.0
 11
135.364573
 21
130.826928
 31
0.0
  0
LINE
  5
C863
100
AcDbEntity
  8
WYMIARY
 62
     3
100
AcDbLine
 10
133.839245
 20
129.85524
 30
0.0
 11
135.364573
 21
129.85524
 31
0.0
  0
CIRCLE
  5
C864
100
AcDbEntity
  8
WYMIARY
 62
     3
100
AcDbCircle
 10
133.350947
 20
130.369042
 30
0.0
 40
2.25
  0
CIRCLE
  5
C865
100
AcDbEntity
  8
WYMIARY
 62
     3
100
AcDbCircle
 10
133.350947
 20
120.669042
 30
0.0
 40
2.25
  0
TEXT
  5
C866
100
AcDbEntity
  8
1
100
AcDbText
 10
123.725501
 20
120.350588
 30
0.0
 40
3.0
  1
R3
 41
0.65
  7
ITALIC
100
AcDbText
  0
LINE
  5
C867
100
AcDbEntity
  8
WYMIARY
 62
     3
100
AcDbLine
 10
122.857532
 20
126.945833
 30
0.0
 11
124.830006
 21
126.945833
 31
0.0
  0
LINE
  5
C868
100
AcDbEntity
  8
WYMIARY
 62
     3
100
AcDbLine
 10
122.857532
 20
128.333958
 30
0.0
 11
124.830006
 21
128.333958
 31
0.0
  0
CIRCLE
  5
C869
100
AcDbEntity
  8
WYMIARY
 62
     3
100
AcDbCircle
 10
125.450947
 20
127.719042
 30
0.0
 40
3.75
  0
LINE
  5
C86A
100
AcDbEntity
  8
WYMIARY
 62
     3
100
AcDbLine
 10
122.857532
 20
126.945833
 30
0.0
 11
122.857532
 21
128.333958
 31
0.0
  0
LINE
  5
C86B
100
AcDbEntity
  8
WYMIARY
 62
     3
100
AcDbLine
 10
114.218131
 20
126.945833
 30
0.0
 11
116.397172
 21
126.945833
 31
0.0
  0
LINE
  5
C86C
100
AcDbEntity
  8
WYMIARY
 62
     3
100
AcDbLine
 10
114.218131
 20
128.333958
 30
0.0
 11
116.397172
 21
128.333958
 31
0.0
  0
LINE
  5
C86D
100
AcDbEntity
  8
WYMIARY
 62
     3
100
AcDbLine
 10
114.218131
 20
126.945833
 30
0.0
 11
114.218131
 21
124.949222
 31
0.0
  0
LINE
  5
C86E
100
AcDbEntity
  8
WYMIARY
 62
     3
100
AcDbLine
 10
114.218131
 20
130.488862
 30
0.0
 11
114.218131
 21
128.333958
 31
0.0
  0
LINE
  5
C86F
100
AcDbEntity
  8
WYMIARY
 62
     3
100
AcDbLine
 10
116.397172
 20
126.945833
 30
0.0
 11
116.397172
 21
128.333958
 31
0.0
  0
LINE
  5
C870
100
AcDbEntity
  8
WYMIARY
 62
     3
100
AcDbLine
 10
131.486825
 20
129.85524
 30
0.0
 11
131.486825
 21
130.826928
 31
0.0
  0
LINE
  5
C871
100
AcDbEntity
  8
WYMIARY
 62
     3
100
AcDbLine
 10
132.867556
 20
132.33536
 30
0.0
 11
133.839245
 21
132.33536
 31
0.0
  0
LINE
  5
C872
100
AcDbEntity
  8
WYMIARY
 62
     3
100
AcDbLine
 10
132.867556
 20
132.33536
 30
0.0
 11
133.839245
 21
132.33536
 31
0.0
  0
LINE
  5
C873
100
AcDbEntity
  8
WYMIARY
 62
     3
100
AcDbLine
 10
132.867556
 20
132.33536
 30
0.0
 11
133.839245
 21
132.33536
 31
0.0
  0
LINE
  5
C874
100
AcDbEntity
  8
WYMIARY
 62
     3
100
AcDbLine
 10
133.839245
 20
132.33536
 30
0.0
 11
133.839245
 21
130.826928
 31
0.0
  0
LINE
  5
C875
100
AcDbEntity
  8
WYMIARY
 62
     3
100
AcDbLine
 10
131.486825
 20
129.85524
 30
0.0
 11
132.867556
 21
129.85524
 31
0.0
  0
LINE
  5
C876
100
AcDbEntity
  8
WYMIARY
 62
     3
100
AcDbLine
 10
131.486825
 20
130.826928
 30
0.0
 11
132.867556
 21
130.826928
 31
0.0
  0
LINE
  5
C877
100
AcDbEntity
  8
WYMIARY
 62
     3
100
AcDbLine
 10
132.867556
 20
132.33536
 30
0.0
 11
132.867556
 21
130.826928
 31
0.0
  0
TEXT
  5
C878
100
AcDbEntity
  8
1
100
AcDbText
 10
132.049604
 20
124.743437
 30
0.0
 40
3.0
  1
A1
 41
0.65
  7
ITALIC
100
AcDbText
  0
LINE
  5
C879
100
AcDbEntity
  8
WYMIARY
 62
     3
100
AcDbLine
 10
132.867556
 20
128.457613
 30
0.0
 11
133.839245
 21
128.457613
 31
0.0
  0
LINE
  5
C87A
100
AcDbEntity
  8
WYMIARY
 62
     3
100
AcDbLine
 10
132.867556
 20
129.85524
 30
0.0
 11
132.867556
 21
128.457613
 31
0.0
  0
LINE
  5
C87B
100
AcDbEntity
  8
WYMIARY
 62
     3
100
AcDbLine
 10
133.839245
 20
129.85524
 30
0.0
 11
133.839245
 21
128.457613
 31
0.0
  0
LINE
  5
C87C
100
AcDbEntity
  8
WYMIARY
 62
     3
100
AcDbLine
 10
124.830006
 20
130.488862
 30
0.0
 11
126.218131
 21
130.488862
 31
0.0
  0
LINE
  5
C87D
100
AcDbEntity
  8
WYMIARY
 62
     3
100
AcDbLine
 10
124.830006
 20
130.488862
 30
0.0
 11
126.218131
 21
130.488862
 31
0.0
  0
LINE
  5
C87E
100
AcDbEntity
  8
WYMIARY
 62
     3
100
AcDbLine
 10
124.830006
 20
130.488862
 30
0.0
 11
126.218131
 21
130.488862
 31
0.0
  0
LINE
  5
C87F
100
AcDbEntity
  8
WYMIARY
 62
     3
100
AcDbLine
 10
126.218131
 20
126.945833
 30
0.0
 11
126.218131
 21
124.949222
 31
0.0
  0
LINE
  5
C880
100
AcDbEntity
  8
WYMIARY
 62
     3
100
AcDbLine
 10
126.218131
 20
126.945833
 30
0.0
 11
128.397172
 21
126.945833
 31
0.0
  0
LINE
  5
C881
100
AcDbEntity
  8
WYMIARY
 62
     3
100
AcDbLine
 10
126.218131
 20
128.333958
 30
0.0
 11
128.397172
 21
128.333958
 31
0.0
  0
LINE
  5
C882
100
AcDbEntity
  8
WYMIARY
 62
     3
100
AcDbLine
 10
128.397172
 20
126.945833
 30
0.0
 11
128.397172
 21
128.333958
 31
0.0
  0
LINE
  5
C883
100
AcDbEntity
  8
WYMIARY
 62
     3
100
AcDbLine
 10
124.830006
 20
126.945833
 30
0.0
 11
124.830006
 21
124.949222
 31
0.0
  0
LINE
  5
C884
100
AcDbEntity
  8
WYMIARY
 62
     3
100
AcDbLine
 10
124.830006
 20
124.949222
 30
0.0
 11
126.218131
 21
124.949222
 31
0.0
  0
LINE
  5
C885
100
AcDbEntity
  8
WYMIARY
 62
     3
100
AcDbLine
 10
126.218131
 20
130.488862
 30
0.0
 11
126.218131
 21
128.333958
 31
0.0
  0
LINE
  5
C886
100
AcDbEntity
  8
WYMIARY
 62
     3
100
AcDbLine
 10
124.830006
 20
130.488862
 30
0.0
 11
124.830006
 21
128.333958
 31
0.0
  0
TEXT
  5
C887
100
AcDbEntity
  8
1
100
AcDbText
 10
151.68192
 20
120.350588
 30
0.0
 40
3.0
  1
R7
 41
0.65
  7
ITALIC
100
AcDbText
  0
TEXT
  5
C888
100
AcDbEntity
  8
1
100
AcDbText
 10
139.745472
 20
120.350588
 30
0.0
 40
3.0
  1
R5
 41
0.65
  7
ITALIC
100
AcDbText
  0
LINE
  5
C889
100
AcDbEntity
  8
WYMIARY
 62
     3
100
AcDbLine
 10
141.853834
 20
128.333958
 30
0.0
 11
144.032874
 21
128.333958
 31
0.0
  0
LINE
  5
C88A
100
AcDbEntity
  8
WYMIARY
 62
     3
100
AcDbLine
 10
141.853834
 20
126.945833
 30
0.0
 11
144.032874
 21
126.945833
 31
0.0
  0
LINE
  5
C88B
100
AcDbEntity
  8
WYMIARY
 62
     3
100
AcDbLine
 10
140.465708
 20
130.488862
 30
0.0
 11
141.853834
 21
130.488862
 31
0.0
  0
LINE
  5
C88C
100
AcDbEntity
  8
WYMIARY
 62
     3
100
AcDbLine
 10
141.853834
 20
126.945833
 30
0.0
 11
141.853834
 21
124.949222
 31
0.0
  0
LINE
  5
C88D
100
AcDbEntity
  8
WYMIARY
 62
     3
100
AcDbLine
 10
140.465708
 20
126.945833
 30
0.0
 11
140.465708
 21
124.949222
 31
0.0
  0
LINE
  5
C88E
100
AcDbEntity
  8
WYMIARY
 62
     3
100
AcDbLine
 10
140.465708
 20
124.949222
 30
0.0
 11
141.853834
 21
124.949222
 31
0.0
  0
LINE
  5
C88F
100
AcDbEntity
  8
WYMIARY
 62
     3
100
AcDbLine
 10
140.465708
 20
130.488862
 30
0.0
 11
140.465708
 21
128.333958
 31
0.0
  0
LINE
  5
C890
100
AcDbEntity
  8
WYMIARY
 62
     3
100
AcDbLine
 10
141.853834
 20
130.488862
 30
0.0
 11
141.853834
 21
128.333958
 31
0.0
  0
LINE
  5
C891
100
AcDbEntity
  8
WYMIARY
 62
     3
100
AcDbLine
 10
144.032874
 20
126.945833
 30
0.0
 11
144.032874
 21
128.333958
 31
0.0
  0
LINE
  5
C892
100
AcDbEntity
  8
WYMIARY
 62
     3
100
AcDbLine
 10
138.493234
 20
126.945833
 30
0.0
 11
138.493234
 21
128.333958
 31
0.0
  0
LINE
  5
C893
100
AcDbEntity
  8
WYMIARY
 62
     3
100
AcDbLine
 10
135.364573
 20
129.85524
 30
0.0
 11
135.364573
 21
130.826928
 31
0.0
  0
CIRCLE
  5
C894
100
AcDbEntity
  8
WYMIARY
 62
     3
100
AcDbCircle
 10
141.250947
 20
127.719042
 30
0.0
 40
3.75
  0
LINE
  5
C895
100
AcDbEntity
  8
WYMIARY
 62
     3
100
AcDbLine
 10
138.493234
 20
128.333958
 30
0.0
 11
140.465708
 21
128.333958
 31
0.0
  0
LINE
  5
C896
100
AcDbEntity
  8
WYMIARY
 62
     3
100
AcDbLine
 10
138.493234
 20
126.945833
 30
0.0
 11
140.465708
 21
126.945833
 31
0.0
  0
LINE
  5
C897
100
AcDbEntity
  8
WYMIARY
 62
     3
100
AcDbLine
 10
153.943572
 20
128.333958
 30
0.0
 11
156.122613
 21
128.333958
 31
0.0
  0
LINE
  5
C898
100
AcDbEntity
  8
WYMIARY
 62
     3
100
AcDbLine
 10
153.943572
 20
126.945833
 30
0.0
 11
156.122613
 21
126.945833
 31
0.0
  0
LINE
  5
C899
100
AcDbEntity
  8
WYMIARY
 62
     3
100
AcDbLine
 10
152.555446
 20
130.488862
 30
0.0
 11
153.943572
 21
130.488862
 31
0.0
  0
LINE
  5
C89A
100
AcDbEntity
  8
WYMIARY
 62
     3
100
AcDbLine
 10
150.582973
 20
128.333958
 30
0.0
 11
152.555446
 21
128.333958
 31
0.0
  0
LINE
  5
C89B
100
AcDbEntity
  8
WYMIARY
 62
     3
100
AcDbLine
 10
150.582973
 20
126.945833
 30
0.0
 11
152.555446
 21
126.945833
 31
0.0
  0
LINE
  5
C89C
100
AcDbEntity
  8
WYMIARY
 62
     3
100
AcDbLine
 10
150.582973
 20
126.945833
 30
0.0
 11
150.582973
 21
128.333958
 31
0.0
  0
LINE
  5
C89D
100
AcDbEntity
  8
WYMIARY
 62
     3
100
AcDbLine
 10
152.555446
 20
124.949222
 30
0.0
 11
153.943572
 21
124.949222
 31
0.0
  0
LINE
  5
C89E
100
AcDbEntity
  8
WYMIARY
 62
     3
100
AcDbLine
 10
152.555446
 20
126.945833
 30
0.0
 11
152.555446
 21
124.949222
 31
0.0
  0
LINE
  5
C89F
100
AcDbEntity
  8
WYMIARY
 62
     3
100
AcDbLine
 10
153.943572
 20
126.945833
 30
0.0
 11
153.943572
 21
124.949222
 31
0.0
  0
LINE
  5
C8A0
100
AcDbEntity
  8
WYMIARY
 62
     3
100
AcDbLine
 10
153.943572
 20
130.488862
 30
0.0
 11
153.943572
 21
128.333958
 31
0.0
  0
LINE
  5
C8A1
100
AcDbEntity
  8
WYMIARY
 62
     3
100
AcDbLine
 10
152.555446
 20
130.488862
 30
0.0
 11
152.555446
 21
128.333958
 31
0.0
  0
LINE
  5
C8A2
100
AcDbEntity
  8
WYMIARY
 62
     3
100
AcDbLine
 10
156.122613
 20
126.945833
 30
0.0
 11
156.122613
 21
128.333958
 31
0.0
  0
LINE
  5
C8A3
100
AcDbEntity
  8
2
100
AcDbLine
 10
196.630407
 20
292.0
 30
0.0
 11
11.630407
 21
292.0
 31
0.0
  0
LINE
  5
C8A4
100
AcDbEntity
  8
WYMIARY
 62
     6
100
AcDbLine
 10
11.630407
 20
297.0
 30
0.0
 11
0.0
 21
297.0
 31
0.0
  0
TEXT
  5
C8A5
100
AcDbEntity
  8
1
100
AcDbText
 10
108.294632
 20
150.850357
 30
0.0
 40
5.0
  1
RIK63-31-...
 41
0.75
  7
ITALIC
100
AcDbText
  0
LINE
  5
C8A6
100
AcDbEntity
  8
WYMIARY
 62
     3
100
AcDbLine
 10
106.700947
 20
244.949211
 30
0.0
 11
125.450947
 21
244.949211
 31
0.0
  0
LINE
  5
C8A7
100
AcDbEntity
  8
WYMIARY
 62
     3
100
AcDbLine
 10
160.000947
 20
244.949211
 30
0.0
 11
106.700947
 21
244.949211
 31
0.0
  0
CIRCLE
  5
C8A8
100
AcDbEntity
  8
WYMIARY
 62
     3
100
AcDbCircle
 10
113.450947
 20
235.549211
 30
0.0
 40
3.75
  0
LINE
  5
C8A9
100
AcDbEntity
  8
WYMIARY
 62
     3
100
AcDbLine
 10
112.830006
 20
232.779391
 30
0.0
 11
114.218131
 21
232.779391
 31
0.0
  0
LINE
  5
C8AA
100
AcDbEntity
  8
WYMIARY
 62
     3
100
AcDbLine
 10
112.830006
 20
238.319031
 30
0.0
 11
114.218131
 21
238.319031
 31
0.0
  0
LINE
  5
C8AB
100
AcDbEntity
  8
WYMIARY
 62
     3
100
AcDbLine
 10
112.830006
 20
238.319031
 30
0.0
 11
114.218131
 21
238.319031
 31
0.0
  0
LINE
  5
C8AC
100
AcDbEntity
  8
WYMIARY
 62
     3
100
AcDbLine
 10
112.830006
 20
238.319031
 30
0.0
 11
114.218131
 21
238.319031
 31
0.0
  0
TEXT
  5
C8AD
100
AcDbEntity
  8
1
100
AcDbText
 10
112.78365
 20
174.839025
 30
0.0
 40
3.0
  1
2
 41
0.65
  7
ITALIC
100
AcDbText
  0
LINE
  5
C8AE
100
AcDbEntity
  8
WYMIARY
 62
     3
100
AcDbLine
 10
160.000947
 20
225.449211
 30
0.0
 11
106.700947
 21
225.449211
 31
0.0
  0
LINE
  5
C8AF
100
AcDbEntity
  8
WYMIARY
 62
     3
100
AcDbLine
 10
160.000947
 20
180.449211
 30
0.0
 11
106.700947
 21
180.449211
 31
0.0
  0
LINE
  5
C8B0
100
AcDbEntity
  8
WYMIARY
 62
     3
100
AcDbLine
 10
112.830006
 20
167.579391
 30
0.0
 11
114.218131
 21
167.579391
 31
0.0
  0
LINE
  5
C8B1
100
AcDbEntity
  8
WYMIARY
 62
     3
100
AcDbLine
 10
112.830006
 20
167.579391
 30
0.0
 11
114.218131
 21
167.579391
 31
0.0
  0
LINE
  5
C8B2
100
AcDbEntity
  8
WYMIARY
 62
     3
100
AcDbLine
 10
112.830006
 20
167.579391
 30
0.0
 11
114.218131
 21
167.579391
 31
0.0
  0
LINE
  5
C8B3
100
AcDbEntity
  8
WYMIARY
 62
     3
100
AcDbLine
 10
112.830006
 20
173.119031
 30
0.0
 11
114.218131
 21
173.119031
 31
0.0
  0
LINE
  5
C8B4
100
AcDbEntity
  8
WYMIARY
 62
     3
100
AcDbLine
 10
106.700947
 20
160.949211
 30
0.0
 11
160.000947
 21
160.949211
 31
0.0
  0
CIRCLE
  5
C8B5
100
AcDbEntity
  8
WYMIARY
 62
     3
100
AcDbCircle
 10
113.450947
 20
170.349211
 30
0.0
 40
3.75
  0
LINE
  5
C8B6
100
AcDbEntity
  8
WYMIARY
 62
     3
100
AcDbLine
 10
36.96696
 20
244.949211
 30
0.0
 11
36.96696
 21
160.949211
 31
0.0
  0
LINE
  5
C8B7
100
AcDbEntity
  8
WYMIARY
 62
     3
100
AcDbLine
 10
106.700947
 20
244.949211
 30
0.0
 11
106.700947
 21
160.949211
 31
0.0
  0
LINE
  5
C8B8
100
AcDbEntity
  8
WYMIARY
 62
     3
100
AcDbLine
 10
90.26696
 20
160.949211
 30
0.0
 11
90.26696
 21
244.949211
 31
0.0
  0
TEXT
  5
C8B9
100
AcDbEntity
  8
1
100
AcDbText
 10
36.588277
 20
150.850357
 30
0.0
 40
5.0
  1
RIK63-40-...
 41
0.75
  7
ITALIC
100
AcDbText
  0
TEXT
  5
C8BA
100
AcDbEntity
  8
1
100
AcDbText
 10
70.849023
 20
174.839025
 30
0.0
 40
3.0
  1
6
 41
0.65
  7
ITALIC
100
AcDbText
  0
LINE
  5
C8BB
100
AcDbEntity
  8
WYMIARY
 62
     3
100
AcDbLine
 10
90.26696
 20
180.449211
 30
0.0
 11
36.96696
 21
180.449211
 31
0.0
  0
LINE
  5
C8BC
100
AcDbEntity
  8
WYMIARY
 62
     3
100
AcDbLine
 10
70.731721
 20
167.579391
 30
0.0
 11
72.119847
 21
167.579391
 31
0.0
  0
LINE
  5
C8BD
100
AcDbEntity
  8
WYMIARY
 62
     3
100
AcDbLine
 10
70.731721
 20
173.119031
 30
0.0
 11
72.119847
 21
173.119031
 31
0.0
  0
LINE
  5
C8BE
100
AcDbEntity
  8
WYMIARY
 62
     3
100
AcDbLine
 10
36.96696
 20
160.949211
 30
0.0
 11
90.26696
 21
160.949211
 31
0.0
  0
CIRCLE
  5
C8BF
100
AcDbEntity
  8
WYMIARY
 62
     3
100
AcDbCircle
 10
71.51696
 20
170.349211
 30
0.0
 40
3.75
  0
LINE
  5
C8C0
100
AcDbEntity
  8
WYMIARY
 62
     3
100
AcDbLine
 10
68.759247
 20
171.122421
 30
0.0
 11
68.759247
 21
169.734295
 31
0.0
  0
LINE
  5
C8C1
100
AcDbEntity
  8
WYMIARY
 62
     3
100
AcDbLine
 10
58.663185
 20
171.122421
 30
0.0
 11
58.663185
 21
169.734295
 31
0.0
  0
LINE
  5
C8C2
100
AcDbEntity
  8
WYMIARY
 62
     3
100
AcDbLine
 10
46.663185
 20
171.122421
 30
0.0
 11
46.663185
 21
169.734295
 31
0.0
  0
LINE
  5
C8C3
100
AcDbEntity
  8
WYMIARY
 62
     3
100
AcDbLine
 10
53.123545
 20
171.122421
 30
0.0
 11
53.123545
 21
169.734295
 31
0.0
  0
LINE
  5
C8C4
100
AcDbEntity
  8
WYMIARY
 62
     3
100
AcDbLine
 10
41.123545
 20
171.122421
 30
0.0
 11
41.123545
 21
169.734295
 31
0.0
  0
CIRCLE
  5
C8C5
100
AcDbEntity
  8
WYMIARY
 62
     3
100
AcDbCircle
 10
43.71696
 20
170.349211
 30
0.0
 40
3.75
  0
CIRCLE
  5
C8C6
100
AcDbEntity
  8
WYMIARY
 62
     3
100
AcDbCircle
 10
55.71696
 20
170.349211
 30
0.0
 40
3.75
  0
LINE
  5
C8C7
100
AcDbEntity
  8
WYMIARY
 62
     3
100
AcDbLine
 10
44.484144
 20
167.579391
 30
0.0
 11
44.484144
 21
169.734295
 31
0.0
  0
LINE
  5
C8C8
100
AcDbEntity
  8
WYMIARY
 62
     3
100
AcDbLine
 10
41.123545
 20
169.734295
 30
0.0
 11
43.096019
 21
169.734295
 31
0.0
  0
LINE
  5
C8C9
100
AcDbEntity
  8
WYMIARY
 62
     3
100
AcDbLine
 10
43.096019
 20
167.579391
 30
0.0
 11
43.096019
 21
169.734295
 31
0.0
  0
LINE
  5
C8CA
100
AcDbEntity
  8
WYMIARY
 62
     3
100
AcDbLine
 10
43.096019
 20
167.579391
 30
0.0
 11
44.484144
 21
167.579391
 31
0.0
  0
LINE
  5
C8CB
100
AcDbEntity
  8
WYMIARY
 62
     3
100
AcDbLine
 10
43.096019
 20
167.579391
 30
0.0
 11
44.484144
 21
167.579391
 31
0.0
  0
LINE
  5
C8CC
100
AcDbEntity
  8
WYMIARY
 62
     3
100
AcDbLine
 10
43.096019
 20
167.579391
 30
0.0
 11
44.484144
 21
167.579391
 31
0.0
  0
LINE
  5
C8CD
100
AcDbEntity
  8
WYMIARY
 62
     3
100
AcDbLine
 10
44.484144
 20
169.734295
 30
0.0
 11
46.663185
 21
169.734295
 31
0.0
  0
LINE
  5
C8CE
100
AcDbEntity
  8
WYMIARY
 62
     3
100
AcDbLine
 10
55.096019
 20
167.579391
 30
0.0
 11
56.484144
 21
167.579391
 31
0.0
  0
LINE
  5
C8CF
100
AcDbEntity
  8
WYMIARY
 62
     3
100
AcDbLine
 10
55.096019
 20
167.579391
 30
0.0
 11
56.484144
 21
167.579391
 31
0.0
  0
LINE
  5
C8D0
100
AcDbEntity
  8
WYMIARY
 62
     3
100
AcDbLine
 10
55.096019
 20
167.579391
 30
0.0
 11
56.484144
 21
167.579391
 31
0.0
  0
LINE
  5
C8D1
100
AcDbEntity
  8
WYMIARY
 62
     3
100
AcDbLine
 10
56.484144
 20
167.579391
 30
0.0
 11
56.484144
 21
169.734295
 31
0.0
  0
LINE
  5
C8D2
100
AcDbEntity
  8
WYMIARY
 62
     3
100
AcDbLine
 10
55.096019
 20
167.579391
 30
0.0
 11
55.096019
 21
169.734295
 31
0.0
  0
LINE
  5
C8D3
100
AcDbEntity
  8
WYMIARY
 62
     3
100
AcDbLine
 10
56.484144
 20
169.734295
 30
0.0
 11
58.663185
 21
169.734295
 31
0.0
  0
LINE
  5
C8D4
100
AcDbEntity
  8
WYMIARY
 62
     3
100
AcDbLine
 10
53.123545
 20
169.734295
 30
0.0
 11
55.096019
 21
169.734295
 31
0.0
  0
LINE
  5
C8D5
100
AcDbEntity
  8
WYMIARY
 62
     3
100
AcDbLine
 10
70.731721
 20
167.579391
 30
0.0
 11
70.731721
 21
169.734295
 31
0.0
  0
LINE
  5
C8D6
100
AcDbEntity
  8
WYMIARY
 62
     3
100
AcDbLine
 10
64.105258
 20
168.213013
 30
0.0
 11
65.630586
 21
168.213013
 31
0.0
  0
LINE
  5
C8D7
100
AcDbEntity
  8
WYMIARY
 62
     3
100
AcDbLine
 10
64.105258
 20
167.241325
 30
0.0
 11
65.630586
 21
167.241325
 31
0.0
  0
LINE
  5
C8D8
100
AcDbEntity
  8
WYMIARY
 62
     3
100
AcDbLine
 10
63.133569
 20
168.213013
 30
0.0
 11
63.133569
 21
169.610641
 31
0.0
  0
LINE
  5
C8D9
100
AcDbEntity
  8
WYMIARY
 62
     3
100
AcDbLine
 10
64.105258
 20
168.213013
 30
0.0
 11
64.105258
 21
169.610641
 31
0.0
  0
LINE
  5
C8DA
100
AcDbEntity
  8
WYMIARY
 62
     3
100
AcDbLine
 10
64.105258
 20
165.732893
 30
0.0
 11
64.105258
 21
167.241325
 31
0.0
  0
LINE
  5
C8DB
100
AcDbEntity
  8
WYMIARY
 62
     3
100
AcDbLine
 10
63.133569
 20
165.732893
 30
0.0
 11
63.133569
 21
167.241325
 31
0.0
  0
LINE
  5
C8DC
100
AcDbEntity
  8
WYMIARY
 62
     3
100
AcDbLine
 10
63.133569
 20
165.732893
 30
0.0
 11
64.105258
 21
165.732893
 31
0.0
  0
LINE
  5
C8DD
100
AcDbEntity
  8
WYMIARY
 62
     3
100
AcDbLine
 10
63.133569
 20
165.732893
 30
0.0
 11
64.105258
 21
165.732893
 31
0.0
  0
LINE
  5
C8DE
100
AcDbEntity
  8
WYMIARY
 62
     3
100
AcDbLine
 10
63.133569
 20
165.732893
 30
0.0
 11
64.105258
 21
165.732893
 31
0.0
  0
LINE
  5
C8DF
100
AcDbEntity
  8
WYMIARY
 62
     3
100
AcDbLine
 10
63.133569
 20
169.610641
 30
0.0
 11
64.105258
 21
169.610641
 31
0.0
  0
LINE
  5
C8E0
100
AcDbEntity
  8
WYMIARY
 62
     3
100
AcDbLine
 10
65.630586
 20
168.213013
 30
0.0
 11
65.630586
 21
167.241325
 31
0.0
  0
LINE
  5
C8E1
100
AcDbEntity
  8
WYMIARY
 62
     3
100
AcDbLine
 10
61.752838
 20
168.213013
 30
0.0
 11
61.752838
 21
167.241325
 31
0.0
  0
CIRCLE
  5
C8E2
100
AcDbEntity
  8
WYMIARY
 62
     3
100
AcDbCircle
 10
63.61696
 20
167.699211
 30
0.0
 40
2.25
  0
LINE
  5
C8E3
100
AcDbEntity
  8
WYMIARY
 62
     3
100
AcDbLine
 10
61.752838
 20
168.213013
 30
0.0
 11
63.133569
 21
168.213013
 31
0.0
  0
LINE
  5
C8E4
100
AcDbEntity
  8
WYMIARY
 62
     3
100
AcDbLine
 10
61.752838
 20
167.241325
 30
0.0
 11
63.133569
 21
167.241325
 31
0.0
  0
LINE
  5
C8E5
100
AcDbEntity
  8
WYMIARY
 62
     3
100
AcDbLine
 10
68.759247
 20
169.734295
 30
0.0
 11
70.731721
 21
169.734295
 31
0.0
  0
TEXT
  5
C8E6
100
AcDbEntity
  8
1
100
AcDbText
 10
43.049663
 20
174.839025
 30
0.0
 40
3.0
  1
2
 41
0.65
  7
ITALIC
100
AcDbText
  0
LINE
  5
C8E7
100
AcDbEntity
  8
WYMIARY
 62
     3
100
AcDbLine
 10
44.484144
 20
171.122421
 30
0.0
 11
44.484144
 21
173.119031
 31
0.0
  0
LINE
  5
C8E8
100
AcDbEntity
  8
WYMIARY
 62
     3
100
AcDbLine
 10
41.123545
 20
171.122421
 30
0.0
 11
43.096019
 21
171.122421
 31
0.0
  0
LINE
  5
C8E9
100
AcDbEntity
  8
WYMIARY
 62
     3
100
AcDbLine
 10
43.096019
 20
171.122421
 30
0.0
 11
43.096019
 21
173.119031
 31
0.0
  0
LINE
  5
C8EA
100
AcDbEntity
  8
WYMIARY
 62
     3
100
AcDbLine
 10
43.096019
 20
173.119031
 30
0.0
 11
44.484144
 21
173.119031
 31
0.0
  0
LINE
  5
C8EB
100
AcDbEntity
  8
WYMIARY
 62
     3
100
AcDbLine
 10
44.484144
 20
171.122421
 30
0.0
 11
46.663185
 21
171.122421
 31
0.0
  0
TEXT
  5
C8EC
100
AcDbEntity
  8
1
100
AcDbText
 10
55.057471
 20
174.839025
 30
0.0
 40
3.0
  1
4
 41
0.65
  7
ITALIC
100
AcDbText
  0
LINE
  5
C8ED
100
AcDbEntity
  8
WYMIARY
 62
     3
100
AcDbLine
 10
55.096019
 20
173.119031
 30
0.0
 11
56.484144
 21
173.119031
 31
0.0
  0
LINE
  5
C8EE
100
AcDbEntity
  8
WYMIARY
 62
     3
100
AcDbLine
 10
56.484144
 20
171.122421
 30
0.0
 11
56.484144
 21
173.119031
 31
0.0
  0
LINE
  5
C8EF
100
AcDbEntity
  8
WYMIARY
 62
     3
100
AcDbLine
 10
55.096019
 20
171.122421
 30
0.0
 11
55.096019
 21
173.119031
 31
0.0
  0
LINE
  5
C8F0
100
AcDbEntity
  8
WYMIARY
 62
     3
100
AcDbLine
 10
56.484144
 20
171.122421
 30
0.0
 11
58.663185
 21
171.122421
 31
0.0
  0
LINE
  5
C8F1
100
AcDbEntity
  8
WYMIARY
 62
     3
100
AcDbLine
 10
53.123545
 20
171.122421
 30
0.0
 11
55.096019
 21
171.122421
 31
0.0
  0
CIRCLE
  5
C8F2
100
AcDbEntity
  8
WYMIARY
 62
     3
100
AcDbCircle
 10
63.61696
 20
177.399211
 30
0.0
 40
2.25
  0
LINE
  5
C8F3
100
AcDbEntity
  8
WYMIARY
 62
     3
100
AcDbLine
 10
70.731721
 20
171.122421
 30
0.0
 11
70.731721
 21
173.119031
 31
0.0
  0
LINE
  5
C8F4
100
AcDbEntity
  8
WYMIARY
 62
     3
100
AcDbLine
 10
68.759247
 20
171.122421
 30
0.0
 11
70.731721
 21
171.122421
 31
0.0
  0
TEXT
  5
C8F5
100
AcDbEntity
  8
1
100
AcDbText
 10
62.315617
 20
171.113569
 30
0.0
 40
3.0
  1
A2
 41
0.65
  7
ITALIC
100
AcDbText
  0
LINE
  5
C8F6
100
AcDbEntity
  8
WYMIARY
 62
     3
100
AcDbLine
 10
110.857532
 20
171.122421
 30
0.0
 11
110.857532
 21
169.734295
 31
0.0
  0
LINE
  5
C8F7
100
AcDbEntity
  8
WYMIARY
 62
     3
100
AcDbLine
 10
80.848986
 20
171.122421
 30
0.0
 11
80.848986
 21
169.734295
 31
0.0
  0
LINE
  5
C8F8
100
AcDbEntity
  8
WYMIARY
 62
     3
100
AcDbLine
 10
86.388625
 20
171.122421
 30
0.0
 11
86.388625
 21
169.734295
 31
0.0
  0
LINE
  5
C8F9
100
AcDbEntity
  8
WYMIARY
 62
     3
100
AcDbLine
 10
74.298887
 20
171.122421
 30
0.0
 11
74.298887
 21
169.734295
 31
0.0
  0
CIRCLE
  5
C8FA
100
AcDbEntity
  8
WYMIARY
 62
     3
100
AcDbCircle
 10
83.51696
 20
170.349211
 30
0.0
 40
3.75
  0
LINE
  5
C8FB
100
AcDbEntity
  8
WYMIARY
 62
     3
100
AcDbLine
 10
80.848986
 20
169.734295
 30
0.0
 11
82.821459
 21
169.734295
 31
0.0
  0
LINE
  5
C8FC
100
AcDbEntity
  8
WYMIARY
 62
     3
100
AcDbLine
 10
72.119847
 20
167.579391
 30
0.0
 11
72.119847
 21
169.734295
 31
0.0
  0
LINE
  5
C8FD
100
AcDbEntity
  8
WYMIARY
 62
     3
100
AcDbLine
 10
72.119847
 20
169.734295
 30
0.0
 11
74.298887
 21
169.734295
 31
0.0
  0
LINE
  5
C8FE
100
AcDbEntity
  8
WYMIARY
 62
     3
100
AcDbLine
 10
84.209585
 20
169.734295
 30
0.0
 11
86.388625
 21
169.734295
 31
0.0
  0
LINE
  5
C8FF
100
AcDbEntity
  8
WYMIARY
 62
     3
100
AcDbLine
 10
82.821459
 20
167.579391
 30
0.0
 11
82.821459
 21
169.734295
 31
0.0
  0
LINE
  5
C900
100
AcDbEntity
  8
WYMIARY
 62
     3
100
AcDbLine
 10
84.209585
 20
167.579391
 30
0.0
 11
84.209585
 21
169.734295
 31
0.0
  0
LINE
  5
C901
100
AcDbEntity
  8
WYMIARY
 62
     3
100
AcDbLine
 10
82.821459
 20
167.579391
 30
0.0
 11
84.209585
 21
167.579391
 31
0.0
  0
LINE
  5
C902
100
AcDbEntity
  8
WYMIARY
 62
     3
100
AcDbLine
 10
112.830006
 20
167.579391
 30
0.0
 11
112.830006
 21
169.734295
 31
0.0
  0
LINE
  5
C903
100
AcDbEntity
  8
WYMIARY
 62
     3
100
AcDbLine
 10
110.857532
 20
169.734295
 30
0.0
 11
112.830006
 21
169.734295
 31
0.0
  0
LINE
  5
C904
100
AcDbEntity
  8
WYMIARY
 62
     3
100
AcDbLine
 10
80.848986
 20
171.122421
 30
0.0
 11
82.821459
 21
171.122421
 31
0.0
  0
LINE
  5
C905
100
AcDbEntity
  8
WYMIARY
 62
     3
100
AcDbLine
 10
72.119847
 20
171.122421
 30
0.0
 11
72.119847
 21
173.119031
 31
0.0
  0
LINE
  5
C906
100
AcDbEntity
  8
WYMIARY
 62
     3
100
AcDbLine
 10
72.119847
 20
171.122421
 30
0.0
 11
74.298887
 21
171.122421
 31
0.0
  0
TEXT
  5
C907
100
AcDbEntity
  8
1
100
AcDbText
 10
82.937751
 20
174.839025
 30
0.0
 40
3.0
  1
8
 41
0.65
  7
ITALIC
100
AcDbText
  0
LINE
  5
C908
100
AcDbEntity
  8
WYMIARY
 62
     3
100
AcDbLine
 10
84.209585
 20
171.122421
 30
0.0
 11
86.388625
 21
171.122421
 31
0.0
  0
LINE
  5
C909
100
AcDbEntity
  8
WYMIARY
 62
     3
100
AcDbLine
 10
84.209585
 20
171.122421
 30
0.0
 11
84.209585
 21
173.119031
 31
0.0
  0
LINE
  5
C90A
100
AcDbEntity
  8
WYMIARY
 62
     3
100
AcDbLine
 10
82.821459
 20
171.122421
 30
0.0
 11
82.821459
 21
173.119031
 31
0.0
  0
LINE
  5
C90B
100
AcDbEntity
  8
WYMIARY
 62
     3
100
AcDbLine
 10
82.821459
 20
173.119031
 30
0.0
 11
84.209585
 21
173.119031
 31
0.0
  0
LINE
  5
C90C
100
AcDbEntity
  8
WYMIARY
 62
     3
100
AcDbLine
 10
112.830006
 20
171.122421
 30
0.0
 11
112.830006
 21
173.119031
 31
0.0
  0
LINE
  5
C90D
100
AcDbEntity
  8
WYMIARY
 62
     3
100
AcDbLine
 10
110.857532
 20
171.122421
 30
0.0
 11
112.830006
 21
171.122421
 31
0.0
  0
LINE
  5
C90E
100
AcDbEntity
  8
WYMIARY
 62
     3
100
AcDbLine
 10
90.26696
 20
244.949211
 30
0.0
 11
36.96696
 21
244.949211
 31
0.0
  0
TEXT
  5
C90F
100
AcDbEntity
  8
1
100
AcDbText
 10
70.808664
 20
228.180757
 30
0.0
 40
3.0
  1
5
 41
0.65
  7
ITALIC
100
AcDbText
  0
LINE
  5
C910
100
AcDbEntity
  8
WYMIARY
 62
     3
100
AcDbLine
 10
70.731721
 20
232.779391
 30
0.0
 11
72.119847
 21
232.779391
 31
0.0
  0
LINE
  5
C911
100
AcDbEntity
  8
WYMIARY
 62
     3
100
AcDbLine
 10
70.731721
 20
238.319031
 30
0.0
 11
72.119847
 21
238.319031
 31
0.0
  0
LINE
  5
C912
100
AcDbEntity
  8
WYMIARY
 62
     3
100
AcDbLine
 10
90.26696
 20
225.449211
 30
0.0
 11
36.96696
 21
225.449211
 31
0.0
  0
CIRCLE
  5
C913
100
AcDbEntity
  8
WYMIARY
 62
     3
100
AcDbCircle
 10
71.51696
 20
235.549211
 30
0.0
 40
3.75
  0
LINE
  5
C914
100
AcDbEntity
  8
WYMIARY
 62
     3
100
AcDbLine
 10
70.731721
 20
238.319031
 30
0.0
 11
70.731721
 21
236.164128
 31
0.0
  0
LINE
  5
C915
100
AcDbEntity
  8
WYMIARY
 62
     3
100
AcDbLine
 10
63.133569
 20
237.685409
 30
0.0
 11
63.133569
 21
236.287782
 31
0.0
  0
LINE
  5
C916
100
AcDbEntity
  8
WYMIARY
 62
     3
100
AcDbLine
 10
64.105258
 20
237.685409
 30
0.0
 11
64.105258
 21
236.287782
 31
0.0
  0
LINE
  5
C917
100
AcDbEntity
  8
WYMIARY
 62
     3
100
AcDbLine
 10
56.484144
 20
238.319031
 30
0.0
 11
56.484144
 21
236.164128
 31
0.0
  0
LINE
  5
C918
100
AcDbEntity
  8
WYMIARY
 62
     3
100
AcDbLine
 10
55.096019
 20
238.319031
 30
0.0
 11
55.096019
 21
236.164128
 31
0.0
  0
LINE
  5
C919
100
AcDbEntity
  8
WYMIARY
 62
     3
100
AcDbLine
 10
44.484144
 20
238.319031
 30
0.0
 11
44.484144
 21
236.164128
 31
0.0
  0
LINE
  5
C91A
100
AcDbEntity
  8
WYMIARY
 62
     3
100
AcDbLine
 10
43.096019
 20
238.319031
 30
0.0
 11
43.096019
 21
236.164128
 31
0.0
  0
CIRCLE
  5
C91B
100
AcDbEntity
  8
WYMIARY
 62
     3
100
AcDbCircle
 10
43.71696
 20
235.549211
 30
0.0
 40
3.75
  0
CIRCLE
  5
C91C
100
AcDbEntity
  8
WYMIARY
 62
     3
100
AcDbCircle
 10
55.71696
 20
235.549211
 30
0.0
 40
3.75
  0
LINE
  5
C91D
100
AcDbEntity
  8
WYMIARY
 62
     3
100
AcDbLine
 10
36.96696
 20
244.949211
 30
0.0
 11
36.96696
 21
235.549211
 31
0.0
  0
CIRCLE
  5
C91E
100
AcDbEntity
  8
WYMIARY
 62
     3
100
AcDbCircle
 10
63.61696
 20
238.199211
 30
0.0
 40
2.25
  0
LINE
  5
C91F
100
AcDbEntity
  8
WYMIARY
 62
     3
100
AcDbLine
 10
46.663185
 20
234.776002
 30
0.0
 11
46.663185
 21
236.164128
 31
0.0
  0
TEXT
  5
C920
100
AcDbEntity
  8
1
100
AcDbText
 10
43.131945
 20
228.180757
 30
0.0
 40
3.0
  1
1
 41
0.65
  7
ITALIC
100
AcDbText
  0
LINE
  5
C921
100
AcDbEntity
  8
WYMIARY
 62
     3
100
AcDbLine
 10
44.484144
 20
234.776002
 30
0.0
 11
44.484144
 21
232.779391
 31
0.0
  0
LINE
  5
C922
100
AcDbEntity
  8
WYMIARY
 62
     3
100
AcDbLine
 10
41.123545
 20
234.776002
 30
0.0
 11
43.096019
 21
234.776002
 31
0.0
  0
LINE
  5
C923
100
AcDbEntity
  8
WYMIARY
 62
     3
100
AcDbLine
 10
41.123545
 20
236.164128
 30
0.0
 11
43.096019
 21
236.164128
 31
0.0
  0
LINE
  5
C924
100
AcDbEntity
  8
WYMIARY
 62
     3
100
AcDbLine
 10
41.123545
 20
234.776002
 30
0.0
 11
41.123545
 21
236.164128
 31
0.0
  0
LINE
  5
C925
100
AcDbEntity
  8
WYMIARY
 62
     3
100
AcDbLine
 10
43.096019
 20
234.776002
 30
0.0
 11
43.096019
 21
232.779391
 31
0.0
  0
LINE
  5
C926
100
AcDbEntity
  8
WYMIARY
 62
     3
100
AcDbLine
 10
43.096019
 20
232.779391
 30
0.0
 11
44.484144
 21
232.779391
 31
0.0
  0
LINE
  5
C927
100
AcDbEntity
  8
WYMIARY
 62
     3
100
AcDbLine
 10
44.484144
 20
234.776002
 30
0.0
 11
46.663185
 21
234.776002
 31
0.0
  0
LINE
  5
C928
100
AcDbEntity
  8
WYMIARY
 62
     3
100
AcDbLine
 10
44.484144
 20
236.164128
 30
0.0
 11
46.663185
 21
236.164128
 31
0.0
  0
TEXT
  5
C929
100
AcDbEntity
  8
1
100
AcDbText
 10
55.095299
 20
228.180757
 30
0.0
 40
3.0
  1
3
 41
0.65
  7
ITALIC
100
AcDbText
  0
LINE
  5
C92A
100
AcDbEntity
  8
WYMIARY
 62
     3
100
AcDbLine
 10
55.096019
 20
234.776002
 30
0.0
 11
55.096019
 21
232.779391
 31
0.0
  0
LINE
  5
C92B
100
AcDbEntity
  8
WYMIARY
 62
     3
100
AcDbLine
 10
56.484144
 20
234.776002
 30
0.0
 11
56.484144
 21
232.779391
 31
0.0
  0
LINE
  5
C92C
100
AcDbEntity
  8
WYMIARY
 62
     3
100
AcDbLine
 10
56.484144
 20
234.776002
 30
0.0
 11
58.663185
 21
234.776002
 31
0.0
  0
LINE
  5
C92D
100
AcDbEntity
  8
WYMIARY
 62
     3
100
AcDbLine
 10
56.484144
 20
236.164128
 30
0.0
 11
58.663185
 21
236.164128
 31
0.0
  0
LINE
  5
C92E
100
AcDbEntity
  8
WYMIARY
 62
     3
100
AcDbLine
 10
58.663185
 20
234.776002
 30
0.0
 11
58.663185
 21
236.164128
 31
0.0
  0
LINE
  5
C92F
100
AcDbEntity
  8
WYMIARY
 62
     3
100
AcDbLine
 10
55.096019
 20
232.779391
 30
0.0
 11
56.484144
 21
232.779391
 31
0.0
  0
LINE
  5
C930
100
AcDbEntity
  8
WYMIARY
 62
     3
100
AcDbLine
 10
53.123545
 20
234.776002
 30
0.0
 11
53.123545
 21
236.164128
 31
0.0
  0
LINE
  5
C931
100
AcDbEntity
  8
WYMIARY
 62
     3
100
AcDbLine
 10
53.123545
 20
234.776002
 30
0.0
 11
55.096019
 21
234.776002
 31
0.0
  0
LINE
  5
C932
100
AcDbEntity
  8
WYMIARY
 62
     3
100
AcDbLine
 10
53.123545
 20
236.164128
 30
0.0
 11
55.096019
 21
236.164128
 31
0.0
  0
LINE
  5
C933
100
AcDbEntity
  8
WYMIARY
 62
     3
100
AcDbLine
 10
70.731721
 20
234.776002
 30
0.0
 11
70.731721
 21
232.779391
 31
0.0
  0
TEXT
  5
C934
100
AcDbEntity
  8
1
100
AcDbText
 10
62.315617
 20
232.573606
 30
0.0
 40
3.0
  1
A1
 41
0.65
  7
ITALIC
100
AcDbText
  0
LINE
  5
C935
100
AcDbEntity
  8
WYMIARY
 62
     3
100
AcDbLine
 10
63.133569
 20
236.287782
 30
0.0
 11
64.105258
 21
236.287782
 31
0.0
  0
LINE
  5
C936
100
AcDbEntity
  8
WYMIARY
 62
     3
100
AcDbLine
 10
68.759247
 20
234.776002
 30
0.0
 11
68.759247
 21
236.164128
 31
0.0
  0
CIRCLE
  5
C937
100
AcDbEntity
  8
WYMIARY
 62
     3
100
AcDbCircle
 10
63.61696
 20
228.499211
 30
0.0
 40
2.25
  0
LINE
  5
C938
100
AcDbEntity
  8
WYMIARY
 62
     3
100
AcDbLine
 10
68.759247
 20
236.164128
 30
0.0
 11
70.731721
 21
236.164128
 31
0.0
  0
LINE
  5
C939
100
AcDbEntity
  8
WYMIARY
 62
     3
100
AcDbLine
 10
68.759247
 20
234.776002
 30
0.0
 11
70.731721
 21
234.776002
 31
0.0
  0
LINE
  5
C93A
100
AcDbEntity
  8
WYMIARY
 62
     3
100
AcDbLine
 10
36.96696
 20
244.949211
 30
0.0
 11
55.71696
 21
244.949211
 31
0.0
  0
LINE
  5
C93B
100
AcDbEntity
  8
WYMIARY
 62
     3
100
AcDbLine
 10
36.96696
 20
244.949211
 30
0.0
 11
43.71696
 21
244.949211
 31
0.0
  0
LINE
  5
C93C
100
AcDbEntity
  8
WYMIARY
 62
     3
100
AcDbLine
 10
43.096019
 20
238.319031
 30
0.0
 11
44.484144
 21
238.319031
 31
0.0
  0
LINE
  5
C93D
100
AcDbEntity
  8
WYMIARY
 62
     3
100
AcDbLine
 10
43.096019
 20
238.319031
 30
0.0
 11
44.484144
 21
238.319031
 31
0.0
  0
LINE
  5
C93E
100
AcDbEntity
  8
WYMIARY
 62
     3
100
AcDbLine
 10
43.096019
 20
238.319031
 30
0.0
 11
44.484144
 21
238.319031
 31
0.0
  0
LINE
  5
C93F
100
AcDbEntity
  8
WYMIARY
 62
     3
100
AcDbLine
 10
55.096019
 20
238.319031
 30
0.0
 11
56.484144
 21
238.319031
 31
0.0
  0
LINE
  5
C940
100
AcDbEntity
  8
WYMIARY
 62
     3
100
AcDbLine
 10
55.096019
 20
238.319031
 30
0.0
 11
56.484144
 21
238.319031
 31
0.0
  0
LINE
  5
C941
100
AcDbEntity
  8
WYMIARY
 62
     3
100
AcDbLine
 10
55.096019
 20
238.319031
 30
0.0
 11
56.484144
 21
238.319031
 31
0.0
  0
LINE
  5
C942
100
AcDbEntity
  8
WYMIARY
 62
     3
100
AcDbLine
 10
63.133569
 20
240.16553
 30
0.0
 11
64.105258
 21
240.16553
 31
0.0
  0
LINE
  5
C943
100
AcDbEntity
  8
WYMIARY
 62
     3
100
AcDbLine
 10
63.133569
 20
240.16553
 30
0.0
 11
64.105258
 21
240.16553
 31
0.0
  0
LINE
  5
C944
100
AcDbEntity
  8
WYMIARY
 62
     3
100
AcDbLine
 10
63.133569
 20
240.16553
 30
0.0
 11
64.105258
 21
240.16553
 31
0.0
  0
LINE
  5
C945
100
AcDbEntity
  8
WYMIARY
 62
     3
100
AcDbLine
 10
64.105258
 20
238.657097
 30
0.0
 11
65.630586
 21
238.657097
 31
0.0
  0
LINE
  5
C946
100
AcDbEntity
  8
WYMIARY
 62
     3
100
AcDbLine
 10
64.105258
 20
237.685409
 30
0.0
 11
65.630586
 21
237.685409
 31
0.0
  0
LINE
  5
C947
100
AcDbEntity
  8
WYMIARY
 62
     3
100
AcDbLine
 10
65.630586
 20
237.685409
 30
0.0
 11
65.630586
 21
238.657097
 31
0.0
  0
LINE
  5
C948
100
AcDbEntity
  8
WYMIARY
 62
     3
100
AcDbLine
 10
61.752838
 20
237.685409
 30
0.0
 11
61.752838
 21
238.657097
 31
0.0
  0
LINE
  5
C949
100
AcDbEntity
  8
WYMIARY
 62
     3
100
AcDbLine
 10
61.752838
 20
237.685409
 30
0.0
 11
63.133569
 21
237.685409
 31
0.0
  0
LINE
  5
C94A
100
AcDbEntity
  8
WYMIARY
 62
     3
100
AcDbLine
 10
61.752838
 20
238.657097
 30
0.0
 11
63.133569
 21
238.657097
 31
0.0
  0
LINE
  5
C94B
100
AcDbEntity
  8
WYMIARY
 62
     3
100
AcDbLine
 10
64.105258
 20
240.16553
 30
0.0
 11
64.105258
 21
238.657097
 31
0.0
  0
LINE
  5
C94C
100
AcDbEntity
  8
WYMIARY
 62
     3
100
AcDbLine
 10
63.133569
 20
240.16553
 30
0.0
 11
63.133569
 21
238.657097
 31
0.0
  0
LINE
  5
C94D
100
AcDbEntity
  8
WYMIARY
 62
     3
100
AcDbLine
 10
112.830006
 20
238.319031
 30
0.0
 11
112.830006
 21
236.164128
 31
0.0
  0
LINE
  5
C94E
100
AcDbEntity
  8
WYMIARY
 62
     3
100
AcDbLine
 10
84.209585
 20
238.319031
 30
0.0
 11
84.209585
 21
236.164128
 31
0.0
  0
LINE
  5
C94F
100
AcDbEntity
  8
WYMIARY
 62
     3
100
AcDbLine
 10
82.821459
 20
238.319031
 30
0.0
 11
82.821459
 21
236.164128
 31
0.0
  0
CIRCLE
  5
C950
100
AcDbEntity
  8
WYMIARY
 62
     3
100
AcDbCircle
 10
83.51696
 20
235.549211
 30
0.0
 40
3.75
  0
LINE
  5
C951
100
AcDbEntity
  8
WYMIARY
 62
     3
100
AcDbLine
 10
72.119847
 20
238.319031
 30
0.0
 11
72.119847
 21
236.164128
 31
0.0
  0
LINE
  5
C952
100
AcDbEntity
  8
WYMIARY
 62
     3
100
AcDbLine
 10
106.700947
 20
244.949211
 30
0.0
 11
106.700947
 21
235.549211
 31
0.0
  0
LINE
  5
C953
100
AcDbEntity
  8
WYMIARY
 62
     3
100
AcDbLine
 10
106.700947
 20
244.949211
 30
0.0
 11
106.700947
 21
235.549211
 31
0.0
  0
LINE
  5
C954
100
AcDbEntity
  8
WYMIARY
 62
     3
100
AcDbLine
 10
80.848986
 20
236.164128
 30
0.0
 11
82.821459
 21
236.164128
 31
0.0
  0
LINE
  5
C955
100
AcDbEntity
  8
WYMIARY
 62
     3
100
AcDbLine
 10
80.848986
 20
234.776002
 30
0.0
 11
82.821459
 21
234.776002
 31
0.0
  0
LINE
  5
C956
100
AcDbEntity
  8
WYMIARY
 62
     3
100
AcDbLine
 10
80.848986
 20
234.776002
 30
0.0
 11
80.848986
 21
236.164128
 31
0.0
  0
LINE
  5
C957
100
AcDbEntity
  8
WYMIARY
 62
     3
100
AcDbLine
 10
72.119847
 20
236.164128
 30
0.0
 11
74.298887
 21
236.164128
 31
0.0
  0
LINE
  5
C958
100
AcDbEntity
  8
WYMIARY
 62
     3
100
AcDbLine
 10
74.298887
 20
234.776002
 30
0.0
 11
74.298887
 21
236.164128
 31
0.0
  0
LINE
  5
C959
100
AcDbEntity
  8
WYMIARY
 62
     3
100
AcDbLine
 10
72.119847
 20
234.776002
 30
0.0
 11
74.298887
 21
234.776002
 31
0.0
  0
LINE
  5
C95A
100
AcDbEntity
  8
WYMIARY
 62
     3
100
AcDbLine
 10
72.119847
 20
234.776002
 30
0.0
 11
72.119847
 21
232.779391
 31
0.0
  0
TEXT
  5
C95B
100
AcDbEntity
  8
1
100
AcDbText
 10
82.745112
 20
228.180757
 30
0.0
 40
3.0
  1
7
 41
0.65
  7
ITALIC
100
AcDbText
  0
LINE
  5
C95C
100
AcDbEntity
  8
WYMIARY
 62
     3
100
AcDbLine
 10
84.209585
 20
236.164128
 30
0.0
 11
86.388625
 21
236.164128
 31
0.0
  0
LINE
  5
C95D
100
AcDbEntity
  8
WYMIARY
 62
     3
100
AcDbLine
 10
84.209585
 20
234.776002
 30
0.0
 11
86.388625
 21
234.776002
 31
0.0
  0
LINE
  5
C95E
100
AcDbEntity
  8
WYMIARY
 62
     3
100
AcDbLine
 10
82.821459
 20
232.779391
 30
0.0
 11
84.209585
 21
232.779391
 31
0.0
  0
LINE
  5
C95F
100
AcDbEntity
  8
WYMIARY
 62
     3
100
AcDbLine
 10
82.821459
 20
234.776002
 30
0.0
 11
82.821459
 21
232.779391
 31
0.0
  0
LINE
  5
C960
100
AcDbEntity
  8
WYMIARY
 62
     3
100
AcDbLine
 10
84.209585
 20
234.776002
 30
0.0
 11
84.209585
 21
232.779391
 31
0.0
  0
LINE
  5
C961
100
AcDbEntity
  8
WYMIARY
 62
     3
100
AcDbLine
 10
86.388625
 20
234.776002
 30
0.0
 11
86.388625
 21
236.164128
 31
0.0
  0
LINE
  5
C962
100
AcDbEntity
  8
WYMIARY
 62
     3
100
AcDbLine
 10
112.830006
 20
234.776002
 30
0.0
 11
112.830006
 21
232.779391
 31
0.0
  0
LINE
  5
C963
100
AcDbEntity
  8
WYMIARY
 62
     3
100
AcDbLine
 10
110.857532
 20
234.776002
 30
0.0
 11
110.857532
 21
236.164128
 31
0.0
  0
LINE
  5
C964
100
AcDbEntity
  8
WYMIARY
 62
     3
100
AcDbLine
 10
110.857532
 20
236.164128
 30
0.0
 11
112.830006
 21
236.164128
 31
0.0
  0
LINE
  5
C965
100
AcDbEntity
  8
WYMIARY
 62
     3
100
AcDbLine
 10
110.857532
 20
234.776002
 30
0.0
 11
112.830006
 21
234.776002
 31
0.0
  0
TEXT
  5
C966
100
AcDbEntity
  8
1
100
AcDbText
 10
112.865932
 20
228.180757
 30
0.0
 40
3.0
  1
1
 41
0.65
  7
ITALIC
100
AcDbText
  0
LINE
  5
C967
100
AcDbEntity
  8
WYMIARY
 62
     3
100
AcDbLine
 10
82.821459
 20
238.319031
 30
0.0
 11
84.209585
 21
238.319031
 31
0.0
  0
LINE
  5
C968
100
AcDbEntity
  8
WYMIARY
 62
     3
100
AcDbLine
 10
106.700947
 20
244.949211
 30
0.0
 11
113.450947
 21
244.949211
 31
0.0
  0
LINE
  5
C969
100
AcDbEntity
  8
WYMIARY
 62
     3
100
AcDbLine
 10
160.000947
 20
160.949211
 30
0.0
 11
160.000947
 21
244.949211
 31
0.0
  0
CIRCLE
  5
C96A
100
AcDbEntity
  8
WYMIARY
 62
     3
100
AcDbCircle
 10
153.250947
 20
170.349211
 30
0.0
 40
3.75
  0
LINE
  5
C96B
100
AcDbEntity
  8
WYMIARY
 62
     3
100
AcDbLine
 10
150.582973
 20
171.122421
 30
0.0
 11
150.582973
 21
169.734295
 31
0.0
  0
LINE
  5
C96C
100
AcDbEntity
  8
WYMIARY
 62
     3
100
AcDbLine
 10
156.122613
 20
171.122421
 30
0.0
 11
156.122613
 21
169.734295
 31
0.0
  0
LINE
  5
C96D
100
AcDbEntity
  8
WYMIARY
 62
     3
100
AcDbLine
 10
144.032874
 20
171.122421
 30
0.0
 11
144.032874
 21
169.734295
 31
0.0
  0
LINE
  5
C96E
100
AcDbEntity
  8
WYMIARY
 62
     3
100
AcDbLine
 10
138.493234
 20
171.122421
 30
0.0
 11
138.493234
 21
169.734295
 31
0.0
  0
LINE
  5
C96F
100
AcDbEntity
  8
WYMIARY
 62
     3
100
AcDbLine
 10
122.857532
 20
171.122421
 30
0.0
 11
122.857532
 21
169.734295
 31
0.0
  0
LINE
  5
C970
100
AcDbEntity
  8
WYMIARY
 62
     3
100
AcDbLine
 10
128.397172
 20
171.122421
 30
0.0
 11
128.397172
 21
169.734295
 31
0.0
  0
LINE
  5
C971
100
AcDbEntity
  8
WYMIARY
 62
     3
100
AcDbLine
 10
116.397172
 20
171.122421
 30
0.0
 11
116.397172
 21
169.734295
 31
0.0
  0
CIRCLE
  5
C972
100
AcDbEntity
  8
WYMIARY
 62
     3
100
AcDbCircle
 10
141.250947
 20
170.349211
 30
0.0
 40
3.75
  0
CIRCLE
  5
C973
100
AcDbEntity
  8
WYMIARY
 62
     3
100
AcDbCircle
 10
125.450947
 20
170.349211
 30
0.0
 40
3.75
  0
LINE
  5
C974
100
AcDbEntity
  8
WYMIARY
 62
     3
100
AcDbLine
 10
133.839245
 20
167.241325
 30
0.0
 11
135.364573
 21
167.241325
 31
0.0
  0
LINE
  5
C975
100
AcDbEntity
  8
WYMIARY
 62
     3
100
AcDbLine
 10
133.839245
 20
168.213013
 30
0.0
 11
135.364573
 21
168.213013
 31
0.0
  0
CIRCLE
  5
C976
100
AcDbEntity
  8
WYMIARY
 62
     3
100
AcDbCircle
 10
133.350947
 20
167.699211
 30
0.0
 40
2.25
  0
LINE
  5
C977
100
AcDbEntity
  8
WYMIARY
 62
     3
100
AcDbLine
 10
122.857532
 20
169.734295
 30
0.0
 11
124.830006
 21
169.734295
 31
0.0
  0
LINE
  5
C978
100
AcDbEntity
  8
WYMIARY
 62
     3
100
AcDbLine
 10
114.218131
 20
169.734295
 30
0.0
 11
116.397172
 21
169.734295
 31
0.0
  0
LINE
  5
C979
100
AcDbEntity
  8
WYMIARY
 62
     3
100
AcDbLine
 10
114.218131
 20
167.579391
 30
0.0
 11
114.218131
 21
169.734295
 31
0.0
  0
LINE
  5
C97A
100
AcDbEntity
  8
WYMIARY
 62
     3
100
AcDbLine
 10
132.867556
 20
169.610641
 30
0.0
 11
133.839245
 21
169.610641
 31
0.0
  0
LINE
  5
C97B
100
AcDbEntity
  8
WYMIARY
 62
     3
100
AcDbLine
 10
131.486825
 20
168.213013
 30
0.0
 11
131.486825
 21
167.241325
 31
0.0
  0
LINE
  5
C97C
100
AcDbEntity
  8
WYMIARY
 62
     3
100
AcDbLine
 10
132.867556
 20
165.732893
 30
0.0
 11
133.839245
 21
165.732893
 31
0.0
  0
LINE
  5
C97D
100
AcDbEntity
  8
WYMIARY
 62
     3
100
AcDbLine
 10
132.867556
 20
165.732893
 30
0.0
 11
133.839245
 21
165.732893
 31
0.0
  0
LINE
  5
C97E
100
AcDbEntity
  8
WYMIARY
 62
     3
100
AcDbLine
 10
132.867556
 20
165.732893
 30
0.0
 11
133.839245
 21
165.732893
 31
0.0
  0
LINE
  5
C97F
100
AcDbEntity
  8
WYMIARY
 62
     3
100
AcDbLine
 10
131.486825
 20
167.241325
 30
0.0
 11
132.867556
 21
167.241325
 31
0.0
  0
LINE
  5
C980
100
AcDbEntity
  8
WYMIARY
 62
     3
100
AcDbLine
 10
132.867556
 20
165.732893
 30
0.0
 11
132.867556
 21
167.241325
 31
0.0
  0
LINE
  5
C981
100
AcDbEntity
  8
WYMIARY
 62
     3
100
AcDbLine
 10
133.839245
 20
165.732893
 30
0.0
 11
133.839245
 21
167.241325
 31
0.0
  0
LINE
  5
C982
100
AcDbEntity
  8
WYMIARY
 62
     3
100
AcDbLine
 10
133.839245
 20
168.213013
 30
0.0
 11
133.839245
 21
169.610641
 31
0.0
  0
LINE
  5
C983
100
AcDbEntity
  8
WYMIARY
 62
     3
100
AcDbLine
 10
132.867556
 20
168.213013
 30
0.0
 11
132.867556
 21
169.610641
 31
0.0
  0
LINE
  5
C984
100
AcDbEntity
  8
WYMIARY
 62
     3
100
AcDbLine
 10
131.486825
 20
168.213013
 30
0.0
 11
132.867556
 21
168.213013
 31
0.0
  0
LINE
  5
C985
100
AcDbEntity
  8
WYMIARY
 62
     3
100
AcDbLine
 10
126.218131
 20
169.734295
 30
0.0
 11
128.397172
 21
169.734295
 31
0.0
  0
LINE
  5
C986
100
AcDbEntity
  8
WYMIARY
 62
     3
100
AcDbLine
 10
124.830006
 20
167.579391
 30
0.0
 11
124.830006
 21
169.734295
 31
0.0
  0
LINE
  5
C987
100
AcDbEntity
  8
WYMIARY
 62
     3
100
AcDbLine
 10
126.218131
 20
167.579391
 30
0.0
 11
126.218131
 21
169.734295
 31
0.0
  0
LINE
  5
C988
100
AcDbEntity
  8
WYMIARY
 62
     3
100
AcDbLine
 10
124.830006
 20
167.579391
 30
0.0
 11
126.218131
 21
167.579391
 31
0.0
  0
LINE
  5
C989
100
AcDbEntity
  8
WYMIARY
 62
     3
100
AcDbLine
 10
124.830006
 20
167.579391
 30
0.0
 11
126.218131
 21
167.579391
 31
0.0
  0
LINE
  5
C98A
100
AcDbEntity
  8
WYMIARY
 62
     3
100
AcDbLine
 10
124.830006
 20
167.579391
 30
0.0
 11
126.218131
 21
167.579391
 31
0.0
  0
LINE
  5
C98B
100
AcDbEntity
  8
WYMIARY
 62
     3
100
AcDbLine
 10
141.853834
 20
169.734295
 30
0.0
 11
144.032874
 21
169.734295
 31
0.0
  0
LINE
  5
C98C
100
AcDbEntity
  8
WYMIARY
 62
     3
100
AcDbLine
 10
140.465708
 20
167.579391
 30
0.0
 11
141.853834
 21
167.579391
 31
0.0
  0
LINE
  5
C98D
100
AcDbEntity
  8
WYMIARY
 62
     3
100
AcDbLine
 10
140.465708
 20
167.579391
 30
0.0
 11
140.465708
 21
169.734295
 31
0.0
  0
LINE
  5
C98E
100
AcDbEntity
  8
WYMIARY
 62
     3
100
AcDbLine
 10
141.853834
 20
167.579391
 30
0.0
 11
141.853834
 21
169.734295
 31
0.0
  0
LINE
  5
C98F
100
AcDbEntity
  8
WYMIARY
 62
     3
100
AcDbLine
 10
135.364573
 20
168.213013
 30
0.0
 11
135.364573
 21
167.241325
 31
0.0
  0
LINE
  5
C990
100
AcDbEntity
  8
WYMIARY
 62
     3
100
AcDbLine
 10
138.493234
 20
169.734295
 30
0.0
 11
140.465708
 21
169.734295
 31
0.0
  0
LINE
  5
C991
100
AcDbEntity
  8
WYMIARY
 62
     3
100
AcDbLine
 10
153.943572
 20
169.734295
 30
0.0
 11
156.122613
 21
169.734295
 31
0.0
  0
LINE
  5
C992
100
AcDbEntity
  8
WYMIARY
 62
     3
100
AcDbLine
 10
152.555446
 20
167.579391
 30
0.0
 11
153.943572
 21
167.579391
 31
0.0
  0
LINE
  5
C993
100
AcDbEntity
  8
WYMIARY
 62
     3
100
AcDbLine
 10
153.943572
 20
167.579391
 30
0.0
 11
153.943572
 21
169.734295
 31
0.0
  0
LINE
  5
C994
100
AcDbEntity
  8
WYMIARY
 62
     3
100
AcDbLine
 10
152.555446
 20
167.579391
 30
0.0
 11
152.555446
 21
169.734295
 31
0.0
  0
LINE
  5
C995
100
AcDbEntity
  8
WYMIARY
 62
     3
100
AcDbLine
 10
150.582973
 20
169.734295
 30
0.0
 11
152.555446
 21
169.734295
 31
0.0
  0
CIRCLE
  5
C996
100
AcDbEntity
  8
WYMIARY
 62
     3
100
AcDbCircle
 10
133.350947
 20
177.399211
 30
0.0
 40
2.25
  0
TEXT
  5
C997
100
AcDbEntity
  8
1
100
AcDbText
 10
132.049604
 20
171.113569
 30
0.0
 40
3.0
  1
A2
 41
0.65
  7
ITALIC
100
AcDbText
  0
LINE
  5
C998
100
AcDbEntity
  8
WYMIARY
 62
     3
100
AcDbLine
 10
122.857532
 20
171.122421
 30
0.0
 11
124.830006
 21
171.122421
 31
0.0
  0
LINE
  5
C999
100
AcDbEntity
  8
WYMIARY
 62
     3
100
AcDbLine
 10
114.218131
 20
171.122421
 30
0.0
 11
116.397172
 21
171.122421
 31
0.0
  0
LINE
  5
C99A
100
AcDbEntity
  8
WYMIARY
 62
     3
100
AcDbLine
 10
114.218131
 20
171.122421
 30
0.0
 11
114.218131
 21
173.119031
 31
0.0
  0
TEXT
  5
C99B
100
AcDbEntity
  8
1
100
AcDbText
 10
124.791458
 20
174.839025
 30
0.0
 40
3.0
  1
4
 41
0.65
  7
ITALIC
100
AcDbText
  0
LINE
  5
C99C
100
AcDbEntity
  8
WYMIARY
 62
     3
100
AcDbLine
 10
126.218131
 20
171.122421
 30
0.0
 11
128.397172
 21
171.122421
 31
0.0
  0
LINE
  5
C99D
100
AcDbEntity
  8
WYMIARY
 62
     3
100
AcDbLine
 10
124.830006
 20
171.122421
 30
0.0
 11
124.830006
 21
173.119031
 31
0.0
  0
LINE
  5
C99E
100
AcDbEntity
  8
WYMIARY
 62
     3
100
AcDbLine
 10
126.218131
 20
171.122421
 30
0.0
 11
126.218131
 21
173.119031
 31
0.0
  0
LINE
  5
C99F
100
AcDbEntity
  8
WYMIARY
 62
     3
100
AcDbLine
 10
124.830006
 20
173.119031
 30
0.0
 11
126.218131
 21
173.119031
 31
0.0
  0
TEXT
  5
C9A0
100
AcDbEntity
  8
1
100
AcDbText
 10
140.58301
 20
174.839025
 30
0.0
 40
3.0
  1
6
 41
0.65
  7
ITALIC
100
AcDbText
  0
LINE
  5
C9A1
100
AcDbEntity
  8
WYMIARY
 62
     3
100
AcDbLine
 10
141.853834
 20
171.122421
 30
0.0
 11
144.032874
 21
171.122421
 31
0.0
  0
LINE
  5
C9A2
100
AcDbEntity
  8
WYMIARY
 62
     3
100
AcDbLine
 10
141.853834
 20
171.122421
 30
0.0
 11
141.853834
 21
173.119031
 31
0.0
  0
LINE
  5
C9A3
100
AcDbEntity
  8
WYMIARY
 62
     3
100
AcDbLine
 10
140.465708
 20
171.122421
 30
0.0
 11
140.465708
 21
173.119031
 31
0.0
  0
LINE
  5
C9A4
100
AcDbEntity
  8
WYMIARY
 62
     3
100
AcDbLine
 10
140.465708
 20
173.119031
 30
0.0
 11
141.853834
 21
173.119031
 31
0.0
  0
LINE
  5
C9A5
100
AcDbEntity
  8
WYMIARY
 62
     3
100
AcDbLine
 10
138.493234
 20
171.122421
 30
0.0
 11
140.465708
 21
171.122421
 31
0.0
  0
TEXT
  5
C9A6
100
AcDbEntity
  8
1
100
AcDbText
 10
151.701651
 20
174.839025
 30
0.0
 40
3.0
  1
R8
 41
0.65
  7
ITALIC
100
AcDbText
  0
LINE
  5
C9A7
100
AcDbEntity
  8
WYMIARY
 62
     3
100
AcDbLine
 10
153.943572
 20
171.122421
 30
0.0
 11
156.122613
 21
171.122421
 31
0.0
  0
LINE
  5
C9A8
100
AcDbEntity
  8
WYMIARY
 62
     3
100
AcDbLine
 10
152.555446
 20
173.119031
 30
0.0
 11
153.943572
 21
173.119031
 31
0.0
  0
LINE
  5
C9A9
100
AcDbEntity
  8
WYMIARY
 62
     3
100
AcDbLine
 10
152.555446
 20
171.122421
 30
0.0
 11
152.555446
 21
173.119031
 31
0.0
  0
LINE
  5
C9AA
100
AcDbEntity
  8
WYMIARY
 62
     3
100
AcDbLine
 10
153.943572
 20
171.122421
 30
0.0
 11
153.943572
 21
173.119031
 31
0.0
  0
LINE
  5
C9AB
100
AcDbEntity
  8
WYMIARY
 62
     3
100
AcDbLine
 10
150.582973
 20
171.122421
 30
0.0
 11
152.555446
 21
171.122421
 31
0.0
  0
CIRCLE
  5
C9AC
100
AcDbEntity
  8
WYMIARY
 62
     3
100
AcDbCircle
 10
153.250947
 20
235.549211
 30
0.0
 40
3.75
  0
LINE
  5
C9AD
100
AcDbEntity
  8
WYMIARY
 62
     3
100
AcDbLine
 10
152.555446
 20
238.319031
 30
0.0
 11
152.555446
 21
236.164128
 31
0.0
  0
LINE
  5
C9AE
100
AcDbEntity
  8
WYMIARY
 62
     3
100
AcDbLine
 10
153.943572
 20
238.319031
 30
0.0
 11
153.943572
 21
236.164128
 31
0.0
  0
LINE
  5
C9AF
100
AcDbEntity
  8
WYMIARY
 62
     3
100
AcDbLine
 10
141.853834
 20
238.319031
 30
0.0
 11
141.853834
 21
236.164128
 31
0.0
  0
LINE
  5
C9B0
100
AcDbEntity
  8
WYMIARY
 62
     3
100
AcDbLine
 10
140.465708
 20
238.319031
 30
0.0
 11
140.465708
 21
236.164128
 31
0.0
  0
LINE
  5
C9B1
100
AcDbEntity
  8
WYMIARY
 62
     3
100
AcDbLine
 10
133.839245
 20
237.685409
 30
0.0
 11
133.839245
 21
236.287782
 31
0.0
  0
LINE
  5
C9B2
100
AcDbEntity
  8
WYMIARY
 62
     3
100
AcDbLine
 10
132.867556
 20
237.685409
 30
0.0
 11
132.867556
 21
236.287782
 31
0.0
  0
LINE
  5
C9B3
100
AcDbEntity
  8
WYMIARY
 62
     3
100
AcDbLine
 10
124.830006
 20
238.319031
 30
0.0
 11
124.830006
 21
236.164128
 31
0.0
  0
LINE
  5
C9B4
100
AcDbEntity
  8
WYMIARY
 62
     3
100
AcDbLine
 10
126.218131
 20
238.319031
 30
0.0
 11
126.218131
 21
236.164128
 31
0.0
  0
LINE
  5
C9B5
100
AcDbEntity
  8
WYMIARY
 62
     3
100
AcDbLine
 10
114.218131
 20
238.319031
 30
0.0
 11
114.218131
 21
236.164128
 31
0.0
  0
CIRCLE
  5
C9B6
100
AcDbEntity
  8
WYMIARY
 62
     3
100
AcDbCircle
 10
125.450947
 20
235.549211
 30
0.0
 40
3.75
  0
CIRCLE
  5
C9B7
100
AcDbEntity
  8
WYMIARY
 62
     3
100
AcDbCircle
 10
141.250947
 20
235.549211
 30
0.0
 40
3.75
  0
CIRCLE
  5
C9B8
100
AcDbEntity
  8
WYMIARY
 62
     3
100
AcDbCircle
 10
133.350947
 20
238.199211
 30
0.0
 40
2.25
  0
CIRCLE
  5
C9B9
100
AcDbEntity
  8
WYMIARY
 62
     3
100
AcDbCircle
 10
133.350947
 20
228.499211
 30
0.0
 40
2.25
  0
LINE
  5
C9BA
100
AcDbEntity
  8
WYMIARY
 62
     3
100
AcDbLine
 10
122.857532
 20
236.164128
 30
0.0
 11
124.830006
 21
236.164128
 31
0.0
  0
LINE
  5
C9BB
100
AcDbEntity
  8
WYMIARY
 62
     3
100
AcDbLine
 10
122.857532
 20
234.776002
 30
0.0
 11
124.830006
 21
234.776002
 31
0.0
  0
LINE
  5
C9BC
100
AcDbEntity
  8
WYMIARY
 62
     3
100
AcDbLine
 10
122.857532
 20
234.776002
 30
0.0
 11
122.857532
 21
236.164128
 31
0.0
  0
LINE
  5
C9BD
100
AcDbEntity
  8
WYMIARY
 62
     3
100
AcDbLine
 10
114.218131
 20
236.164128
 30
0.0
 11
116.397172
 21
236.164128
 31
0.0
  0
LINE
  5
C9BE
100
AcDbEntity
  8
WYMIARY
 62
     3
100
AcDbLine
 10
114.218131
 20
234.776002
 30
0.0
 11
116.397172
 21
234.776002
 31
0.0
  0
LINE
  5
C9BF
100
AcDbEntity
  8
WYMIARY
 62
     3
100
AcDbLine
 10
114.218131
 20
234.776002
 30
0.0
 11
114.218131
 21
232.779391
 31
0.0
  0
LINE
  5
C9C0
100
AcDbEntity
  8
WYMIARY
 62
     3
100
AcDbLine
 10
116.397172
 20
234.776002
 30
0.0
 11
116.397172
 21
236.164128
 31
0.0
  0
LINE
  5
C9C1
100
AcDbEntity
  8
WYMIARY
 62
     3
100
AcDbLine
 10
132.867556
 20
236.287782
 30
0.0
 11
133.839245
 21
236.287782
 31
0.0
  0
TEXT
  5
C9C2
100
AcDbEntity
  8
1
100
AcDbText
 10
132.049604
 20
232.573606
 30
0.0
 40
3.0
  1
A1
 41
0.65
  7
ITALIC
100
AcDbText
  0
LINE
  5
C9C3
100
AcDbEntity
  8
WYMIARY
 62
     3
100
AcDbLine
 10
124.830006
 20
232.779391
 30
0.0
 11
126.218131
 21
232.779391
 31
0.0
  0
LINE
  5
C9C4
100
AcDbEntity
  8
WYMIARY
 62
     3
100
AcDbLine
 10
128.397172
 20
234.776002
 30
0.0
 11
128.397172
 21
236.164128
 31
0.0
  0
LINE
  5
C9C5
100
AcDbEntity
  8
WYMIARY
 62
     3
100
AcDbLine
 10
126.218131
 20
236.164128
 30
0.0
 11
128.397172
 21
236.164128
 31
0.0
  0
LINE
  5
C9C6
100
AcDbEntity
  8
WYMIARY
 62
     3
100
AcDbLine
 10
126.218131
 20
234.776002
 30
0.0
 11
128.397172
 21
234.776002
 31
0.0
  0
LINE
  5
C9C7
100
AcDbEntity
  8
WYMIARY
 62
     3
100
AcDbLine
 10
126.218131
 20
234.776002
 30
0.0
 11
126.218131
 21
232.779391
 31
0.0
  0
LINE
  5
C9C8
100
AcDbEntity
  8
WYMIARY
 62
     3
100
AcDbLine
 10
124.830006
 20
234.776002
 30
0.0
 11
124.830006
 21
232.779391
 31
0.0
  0
TEXT
  5
C9C9
100
AcDbEntity
  8
1
100
AcDbText
 10
124.829286
 20
228.180757
 30
0.0
 40
3.0
  1
3
 41
0.65
  7
ITALIC
100
AcDbText
  0
LINE
  5
C9CA
100
AcDbEntity
  8
WYMIARY
 62
     3
100
AcDbLine
 10
141.853834
 20
234.776002
 30
0.0
 11
144.032874
 21
234.776002
 31
0.0
  0
LINE
  5
C9CB
100
AcDbEntity
  8
WYMIARY
 62
     3
100
AcDbLine
 10
141.853834
 20
236.164128
 30
0.0
 11
144.032874
 21
236.164128
 31
0.0
  0
LINE
  5
C9CC
100
AcDbEntity
  8
WYMIARY
 62
     3
100
AcDbLine
 10
140.465708
 20
232.779391
 30
0.0
 11
141.853834
 21
232.779391
 31
0.0
  0
LINE
  5
C9CD
100
AcDbEntity
  8
WYMIARY
 62
     3
100
AcDbLine
 10
140.465708
 20
234.776002
 30
0.0
 11
140.465708
 21
232.779391
 31
0.0
  0
LINE
  5
C9CE
100
AcDbEntity
  8
WYMIARY
 62
     3
100
AcDbLine
 10
141.853834
 20
234.776002
 30
0.0
 11
141.853834
 21
232.779391
 31
0.0
  0
TEXT
  5
C9CF
100
AcDbEntity
  8
1
100
AcDbText
 10
140.542651
 20
228.180757
 30
0.0
 40
3.0
  1
5
 41
0.65
  7
ITALIC
100
AcDbText
  0
LINE
  5
C9D0
100
AcDbEntity
  8
WYMIARY
 62
     3
100
AcDbLine
 10
144.032874
 20
234.776002
 30
0.0
 11
144.032874
 21
236.164128
 31
0.0
  0
LINE
  5
C9D1
100
AcDbEntity
  8
WYMIARY
 62
     3
100
AcDbLine
 10
138.493234
 20
234.776002
 30
0.0
 11
138.493234
 21
236.164128
 31
0.0
  0
LINE
  5
C9D2
100
AcDbEntity
  8
WYMIARY
 62
     3
100
AcDbLine
 10
138.493234
 20
234.776002
 30
0.0
 11
140.465708
 21
234.776002
 31
0.0
  0
LINE
  5
C9D3
100
AcDbEntity
  8
WYMIARY
 62
     3
100
AcDbLine
 10
138.493234
 20
236.164128
 30
0.0
 11
140.465708
 21
236.164128
 31
0.0
  0
LINE
  5
C9D4
100
AcDbEntity
  8
WYMIARY
 62
     3
100
AcDbLine
 10
153.943572
 20
234.776002
 30
0.0
 11
156.122613
 21
234.776002
 31
0.0
  0
LINE
  5
C9D5
100
AcDbEntity
  8
WYMIARY
 62
     3
100
AcDbLine
 10
153.943572
 20
236.164128
 30
0.0
 11
156.122613
 21
236.164128
 31
0.0
  0
TEXT
  5
C9D6
100
AcDbEntity
  8
1
100
AcDbText
 10
151.924763
 20
228.180757
 30
0.0
 40
3.0
  1
R7
 41
0.65
  7
ITALIC
100
AcDbText
  0
LINE
  5
C9D7
100
AcDbEntity
  8
WYMIARY
 62
     3
100
AcDbLine
 10
153.943572
 20
234.776002
 30
0.0
 11
153.943572
 21
232.779391
 31
0.0
  0
LINE
  5
C9D8
100
AcDbEntity
  8
WYMIARY
 62
     3
100
AcDbLine
 10
152.555446
 20
234.776002
 30
0.0
 11
152.555446
 21
232.779391
 31
0.0
  0
LINE
  5
C9D9
100
AcDbEntity
  8
WYMIARY
 62
     3
100
AcDbLine
 10
152.555446
 20
232.779391
 30
0.0
 11
153.943572
 21
232.779391
 31
0.0
  0
LINE
  5
C9DA
100
AcDbEntity
  8
WYMIARY
 62
     3
100
AcDbLine
 10
150.582973
 20
234.776002
 30
0.0
 11
150.582973
 21
236.164128
 31
0.0
  0
LINE
  5
C9DB
100
AcDbEntity
  8
WYMIARY
 62
     3
100
AcDbLine
 10
150.582973
 20
234.776002
 30
0.0
 11
152.555446
 21
234.776002
 31
0.0
  0
LINE
  5
C9DC
100
AcDbEntity
  8
WYMIARY
 62
     3
100
AcDbLine
 10
150.582973
 20
236.164128
 30
0.0
 11
152.555446
 21
236.164128
 31
0.0
  0
LINE
  5
C9DD
100
AcDbEntity
  8
WYMIARY
 62
     3
100
AcDbLine
 10
156.122613
 20
234.776002
 30
0.0
 11
156.122613
 21
236.164128
 31
0.0
  0
LINE
  5
C9DE
100
AcDbEntity
  8
WYMIARY
 62
     3
100
AcDbLine
 10
133.839245
 20
237.685409
 30
0.0
 11
135.364573
 21
237.685409
 31
0.0
  0
LINE
  5
C9DF
100
AcDbEntity
  8
WYMIARY
 62
     3
100
AcDbLine
 10
133.839245
 20
238.657097
 30
0.0
 11
135.364573
 21
238.657097
 31
0.0
  0
LINE
  5
C9E0
100
AcDbEntity
  8
WYMIARY
 62
     3
100
AcDbLine
 10
132.867556
 20
240.16553
 30
0.0
 11
133.839245
 21
240.16553
 31
0.0
  0
LINE
  5
C9E1
100
AcDbEntity
  8
WYMIARY
 62
     3
100
AcDbLine
 10
132.867556
 20
240.16553
 30
0.0
 11
133.839245
 21
240.16553
 31
0.0
  0
LINE
  5
C9E2
100
AcDbEntity
  8
WYMIARY
 62
     3
100
AcDbLine
 10
132.867556
 20
240.16553
 30
0.0
 11
133.839245
 21
240.16553
 31
0.0
  0
LINE
  5
C9E3
100
AcDbEntity
  8
WYMIARY
 62
     3
100
AcDbLine
 10
131.486825
 20
238.657097
 30
0.0
 11
132.867556
 21
238.657097
 31
0.0
  0
LINE
  5
C9E4
100
AcDbEntity
  8
WYMIARY
 62
     3
100
AcDbLine
 10
131.486825
 20
237.685409
 30
0.0
 11
132.867556
 21
237.685409
 31
0.0
  0
LINE
  5
C9E5
100
AcDbEntity
  8
WYMIARY
 62
     3
100
AcDbLine
 10
131.486825
 20
237.685409
 30
0.0
 11
131.486825
 21
238.657097
 31
0.0
  0
LINE
  5
C9E6
100
AcDbEntity
  8
WYMIARY
 62
     3
100
AcDbLine
 10
124.830006
 20
238.319031
 30
0.0
 11
126.218131
 21
238.319031
 31
0.0
  0
LINE
  5
C9E7
100
AcDbEntity
  8
WYMIARY
 62
     3
100
AcDbLine
 10
124.830006
 20
238.319031
 30
0.0
 11
126.218131
 21
238.319031
 31
0.0
  0
LINE
  5
C9E8
100
AcDbEntity
  8
WYMIARY
 62
     3
100
AcDbLine
 10
124.830006
 20
238.319031
 30
0.0
 11
126.218131
 21
238.319031
 31
0.0
  0
LINE
  5
C9E9
100
AcDbEntity
  8
WYMIARY
 62
     3
100
AcDbLine
 10
132.867556
 20
240.16553
 30
0.0
 11
132.867556
 21
238.657097
 31
0.0
  0
LINE
  5
C9EA
100
AcDbEntity
  8
WYMIARY
 62
     3
100
AcDbLine
 10
133.839245
 20
240.16553
 30
0.0
 11
133.839245
 21
238.657097
 31
0.0
  0
LINE
  5
C9EB
100
AcDbEntity
  8
WYMIARY
 62
     3
100
AcDbLine
 10
140.465708
 20
238.319031
 30
0.0
 11
141.853834
 21
238.319031
 31
0.0
  0
LINE
  5
C9EC
100
AcDbEntity
  8
WYMIARY
 62
     3
100
AcDbLine
 10
135.364573
 20
237.685409
 30
0.0
 11
135.364573
 21
238.657097
 31
0.0
  0
LINE
  5
C9ED
100
AcDbEntity
  8
WYMIARY
 62
     3
100
AcDbLine
 10
152.555446
 20
238.319031
 30
0.0
 11
153.943572
 21
238.319031
 31
0.0
  0
TEXT
  5
C9EE
100
AcDbEntity
  8
1
100
AcDbText
 10
89.861937
 20
273.769102
 30
0.0
 40
5.0
  1
RIK63
 41
0.75
  7
ITALIC
100
AcDbText
  0
LINE
  5
C9EF
100
AcDbEntity
  8
2
100
AcDbLine
 10
201.630407
 20
0.0
 30
0.0
 11
201.630407
 21
297.0
 31
0.0
  0
LINE
  5
C9F0
100
AcDbEntity
  8
WYMIARY
 62
     6
100
AcDbLine
 10
201.630407
 20
0.0
 30
0.0
 11
201.630407
 21
297.0
 31
0.0
  0
LINE
  5
C9F1
100
AcDbEntity
  8
WYMIARY
 62
     6
100
AcDbLine
 10
201.630407
 20
0.0
 30
0.0
 11
201.630407
 21
297.0
 31
0.0
  0
LINE
  5
C9F2
100
AcDbEntity
  8
WYMIARY
 62
     6
100
AcDbLine
 10
201.630407
 20
0.0
 30
0.0
 11
201.630407
 21
297.0
 31
0.0
  0
LINE
  5
C9F3
100
AcDbEntity
  8
2
100
AcDbLine
 10
201.630407
 20
0.0
 30
0.0
 11
201.630407
 21
297.0
 31
0.0
  0
LINE
  5
C9F4
100
AcDbEntity
  8
WYMIARY
 62
     6
100
AcDbLine
 10
201.630407
 20
0.0
 30
0.0
 11
201.630407
 21
297.0
 31
0.0
  0
LINE
  5
C9F5
100
AcDbEntity
  8
2
100
AcDbLine
 10
201.630407
 20
0.0
 30
0.0
 11
201.630407
 21
297.0
 31
0.0
  0
LINE
  5
C9F6
100
AcDbEntity
  8
WYMIARY
 62
     6
100
AcDbLine
 10
201.630407
 20
0.0
 30
0.0
 11
201.630407
 21
297.0
 31
0.0
  0
ENDBLK
  5
C9F8
100
AcDbEntity
  8
0
 62
     3
100
AcDbBlockEnd
  0
ENDSEC
  0
SECTION
  2
ENTITIES
  0
LINE
  5
2D2D
100
AcDbEntity
  8
WYMIARY
 62
     6
100
AcDbLine
 10
486.041244
 20
552.649937
 30
0.0
 11
486.041244
 21
849.649937
 31
0.0
  0
LINE
  5
2D2E
100
AcDbEntity
  8
WYMIARY
 62
     6
100
AcDbLine
 10
497.671651
 20
844.649937
 30
0.0
 11
497.671651
 21
557.649937
 31
0.0
  0
LINE
  5
2D34
100
AcDbEntity
  8
2
100
AcDbLine
 10
682.671651
 20
557.649937
 30
0.0
 11
682.671651
 21
844.649937
 31
0.0
  0
LINE
  5
2D35
100
AcDbEntity
  8
2
100
AcDbLine
 10
687.671651
 20
552.649937
 30
0.0
 11
687.671651
 21
849.649937
 31
0.0
  0
LINE
  5
2D36
100
AcDbEntity
  8
WY
  6
CONTINUOUS
 62
     3
100
AcDbLine
 10
682.671651
 20
572.339774
 30
0.0
 11
497.671651
 21
572.339774
 31
0.0
  0
LINE
  5
2D38
100
AcDbEntity
  8
2
100
AcDbLine
 10
497.671651
 20
557.649937
 30
0.0
 11
682.671651
 21
557.649937
 31
0.0
  0
LINE
  5
2D39
100
AcDbEntity
  8
2
 62
     6
100
AcDbLine
 10
486.041244
 20
552.649937
 30
0.0
 11
687.671651
 21
552.649937
 31
0.0
  0
LINE
  5
2D3A
100
AcDbEntity
  8
0
100
AcDbLine
 10
529.697667
 20
564.392417
 30
0.0
 11
528.795256
 21
564.392417
 31
0.0
1001
ACAD
1000
ASC_BOUNDS
1002
{
1070
    19
1002
}
  0
ELLIPSE
  5
2D3B
100
AcDbEntity
  8
0
100
AcDbEllipse
 10
529.697667
 20
564.392417
 30
0.0
 11
-1.203215696869327
 21
0.0000000000001967
 31
0.0
210
0.0
220
0.0
230
1.0
 40
0.958812
 41
-1.570796326794739
 42
0.0000000000001705
1001
ACAD
1000
ASC_BOUNDS
1002
{
1070
    19
1002
}
  0
TEXT
  5
2D3D
100
AcDbEntity
  8
1
100
AcDbText
 10
515.607578
 20
561.447394
 30
0.0
 40
5.0
  1
A4
 51
15.0
  7
ITALIC
100
AcDbText
  0
TEXT
  5
2D42
100
AcDbEntity
  8
WY
100
AcDbText
 10
502.936765
 20
569.023781
 30
0.0
 40
2.0
  1
Skala
 51
15.0
  7
ITALIC
100
AcDbText
  0
TEXT
  5
2D43
100
AcDbEntity
  8
WY
100
AcDbText
 10
515.042219
 20
568.979306
 30
0.0
 40
2.0
  1
Format
 51
15.0
  7
ITALIC
100
AcDbText
  0
LINE
  5
2D44
100
AcDbEntity
  8
0
100
AcDbLine
 10
528.494452
 20
564.392417
 30
0.0
 11
528.795256
 21
564.392417
 31
0.0
1001
ACAD
1000
ASC_BOUNDS
1002
{
1070
    19
1002
}
  0
LINE
  5
2D45
100
AcDbEntity
  8
0
100
AcDbLine
 10
559.88722
 20
569.861201
 30
0.0
 11
559.88722
 21
561.665201
 31
0.0
  0
LINE
  5
2D46
100
AcDbEntity
  8
0
100
AcDbLine
 10
550.89322
 20
562.088201
 30
0.0
 11
550.89322
 21
560.066201
 31
0.0
  0
ARC
  5
2D47
100
AcDbEntity
  8
0
100
AcDbCircle
 10
551.5428
 20
562.374701
 30
0.0
 40
0.709955
100
AcDbArc
 50
203.80008
 51
272.051918
  0
LINE
  5
2D48
100
AcDbEntity
  8
0
100
AcDbLine
 10
549.34822
 20
560.066201
 30
0.0
 11
549.34822
 21
568.262201
 31
0.0
  0
ARC
  5
2D49
100
AcDbEntity
  8
0
100
AcDbCircle
 10
551.982126
 20
562.786353
 30
0.0
 40
1.128907
100
AcDbArc
 50
276.719576
 51
2.175194
  0
ARC
  5
2D4A
100
AcDbEntity
  8
0
100
AcDbCircle
 10
555.243059
 20
563.153509
 30
0.0
 40
1.488419
100
AcDbArc
 50
191.634268
 51
270.699113
  0
ARC
  5
2D4B
100
AcDbEntity
  8
0
100
AcDbCircle
 10
556.209381
 20
563.153509
 30
0.0
 40
1.488419
100
AcDbArc
 50
269.300887
 51
348.365732
  0
LINE
  5
2D4C
100
AcDbEntity
  8
0
100
AcDbLine
 10
558.34222
 20
561.665201
 30
0.0
 11
558.34222
 21
569.861201
 31
0.0
  0
ARC
  5
2D4D
100
AcDbEntity
  8
0
100
AcDbCircle
 10
545.056591
 20
563.122301
 30
0.0
 40
1.425319
100
AcDbArc
 50
269.703671
 51
350.465171
  0
ARC
  5
2D4E
100
AcDbEntity
  8
0
100
AcDbCircle
 10
544.201848
 20
563.122301
 30
0.0
 40
1.425319
100
AcDbArc
 50
189.534829
 51
270.296329
  0
LINE
  5
2D4F
100
AcDbEntity
  8
0
100
AcDbLine
 10
547.14922
 20
561.665201
 30
0.0
 11
547.14922
 21
569.861201
 31
0.0
  0
LINE
  5
2D50
100
AcDbEntity
  8
0
100
AcDbLine
 10
548.69422
 20
569.861201
 30
0.0
 11
548.69422
 21
561.665201
 31
0.0
  0
LINE
  5
2D51
100
AcDbEntity
  8
0
100
AcDbLine
 10
539.892236
 20
567.011201
 30
0.0
 11
539.903809
 21
561.665201
 31
0.0
  0
LINE
  5
2D52
100
AcDbEntity
  8
0
100
AcDbLine
 10
538.361694
 20
561.665201
 30
0.0
 11
538.361694
 21
568.253607
 31
0.0
1001
ACAD
1000
ASC_BOUNDS
1002
{
1070
    19
1002
}
  0
LINE
  5
2D53
100
AcDbEntity
  8
0
100
AcDbLine
 10
529.697667
 20
562.544998
 30
0.0
 11
529.697667
 21
560.835305
 31
0.0
1001
ACAD
1000
ASC_BOUNDS
1002
{
1070
    19
1002
}
  0
LINE
  5
2D54
100
AcDbEntity
  8
0
100
AcDbLine
 10
535.613478
 20
560.835305
 30
0.0
 11
535.613478
 21
564.392417
 31
0.0
1001
ACAD
1000
ASC_BOUNDS
1002
{
1070
    19
1002
}
  0
LINE
  5
2D55
100
AcDbEntity
  8
1
100
AcDbLine
 10
563.469863
 20
557.649937
 30
0.0
 11
563.469863
 21
572.339774
 31
0.0
  0
LINE
  5
2D56
100
AcDbEntity
  8
0
100
AcDbLine
 10
530.499811
 20
560.0662
 30
0.0
 11
534.811334
 21
560.0662
 31
0.0
1001
ACAD
1000
ASC_BOUNDS
1002
{
1070
    19
1002
}
  0
ELLIPSE
  5
2D57
100
AcDbEntity
  8
0
100
AcDbEllipse
 10
530.499811
 20
560.835305
 30
0.0
 11
-0.8021437979128705
 21
0.0000000000000154
 31
0.0
210
0.0
220
0.0
230
1.0
 40
0.958812
 41
0.00000000000002
 42
1.570796326794914
1001
ACAD
1000
ASC_BOUNDS
1002
{
1070
    19
1002
}
  0
ELLIPSE
  5
2D58
100
AcDbEntity
  8
0
100
AcDbEllipse
 10
534.811334
 20
560.835305
 30
0.0
 11
0.8021437979128704
 21
0.0000000000001602
 31
0.0
210
0.0
220
0.0
230
1.0
 40
0.958812
 41
4.712388980384497
 42
6.283185307179378
1001
ACAD
1000
ASC_BOUNDS
1002
{
1070
    19
1002
}
  0
LINE
  5
2D59
100
AcDbEntity
  8
0
100
AcDbLine
 10
539.892236
 20
561.665201
 30
0.0
 11
539.903809
 21
561.672695
 31
0.0
  0
LINE
  5
2D5A
100
AcDbEntity
  8
0
100
AcDbLine
 10
538.361694
 20
561.665201
 30
0.0
 11
539.903809
 21
561.665201
 31
0.0
1001
ACAD
1000
ASC_BOUNDS
1002
{
1070
    19
1002
}
  0
LINE
  5
2D5B
100
AcDbEntity
  8
0
100
AcDbLine
 10
544.194477
 20
561.697001
 30
0.0
 11
545.04922
 21
561.697001
 31
0.0
  0
LINE
  5
2D5C
100
AcDbEntity
  8
0
100
AcDbLine
 10
550.89322
 20
560.066201
 30
0.0
 11
549.34822
 21
560.066201
 31
0.0
  0
LINE
  5
2D5D
100
AcDbEntity
  8
0
100
AcDbLine
 10
548.69422
 20
561.665201
 30
0.0
 11
547.14922
 21
561.665201
 31
0.0
  0
LINE
  5
2D5E
100
AcDbEntity
  8
0
100
AcDbLine
 10
551.576266
 20
561.665201
 30
0.0
 11
552.11422
 21
561.665201
 31
0.0
  0
LINE
  5
2D5F
100
AcDbEntity
  8
0
100
AcDbLine
 10
555.26122
 20
561.665201
 30
0.0
 11
556.19122
 21
561.665201
 31
0.0
  0
LINE
  5
2D60
100
AcDbEntity
  8
0
100
AcDbLine
 10
559.88722
 20
561.665201
 30
0.0
 11
558.34222
 21
561.665201
 31
0.0
  0
ARC
  5
2D61
100
AcDbEntity
  8
0
100
AcDbCircle
 10
545.056591
 20
566.828307
 30
0.0
 40
1.425319
100
AcDbArc
 50
9.534829
 51
90.296329
  0
LINE
  5
2D62
100
AcDbEntity
  8
0
100
AcDbLine
 10
546.46222
 20
564.461607
 30
0.0
 11
544.33822
 21
564.461607
 31
0.0
  0
LINE
  5
2D63
100
AcDbEntity
  8
0
100
AcDbLine
 10
545.01322
 20
563.786607
 30
0.0
 11
546.46222
 21
563.786607
 31
0.0
  0
LINE
  5
2D64
100
AcDbEntity
  8
0
100
AcDbLine
 10
529.697667
 20
566.11122
 30
0.0
 11
529.697667
 21
568.910911
 31
0.0
1001
ACAD
1000
ASC_BOUNDS
1002
{
1070
    19
1002
}
  0
ELLIPSE
  5
2D65
100
AcDbEntity
  8
0
100
AcDbEllipse
 10
532.630506
 20
567.829357
 30
0.0
 11
2.983077570132104
 21
0.0000000000002996
 31
0.0
210
0.0
220
0.0
230
1.0
 40
0.958812
 41
-1.562393163247347
 42
0.0084031635475457
1001
ACAD
1000
ASC_BOUNDS
1002
{
1070
    19
1002
}
  0
ELLIPSE
  5
2D66
100
AcDbEntity
  8
0
100
AcDbEllipse
 10
532.58733
 20
568.159476
 30
0.0
 11
-4.072692107280919
 21
0.0000000000000925
 31
0.0
210
0.0
220
0.0
230
1.0
 40
0.958812
 41
1.587553347046634
 42
2.408388587343224
1001
ACAD
1000
ASC_BOUNDS
1002
{
1070
    19
1002
}
  0
LINE
  5
2D67
100
AcDbEntity
  8
0
100
AcDbLine
 10
529.697667
 20
564.392417
 30
0.0
 11
529.697667
 21
563.684451
 31
0.0
1001
ACAD
1000
ASC_BOUNDS
1002
{
1070
    19
1002
}
  0
LINE
  5
2D68
100
AcDbEntity
  8
0
100
AcDbLine
 10
529.697667
 20
566.11122
 30
0.0
 11
529.697667
 21
565.546075
 31
0.0
1001
ACAD
1000
ASC_BOUNDS
1002
{
1070
    19
1002
}
  0
ELLIPSE
  5
2D69
100
AcDbEntity
  8
0
100
AcDbEllipse
 10
532.249598
 20
562.522424
 30
0.0
 11
2.960559210508897
 21
0.3570763225581005
 31
0.0
210
0.0
220
0.0
230
1.0
 40
0.820999
 41
1.335209029023201
 42
2.503032872947537
1001
ACAD
1000
ASC_BOUNDS
1002
{
1070
    19
1002
}
  0
ELLIPSE
  5
2D6A
100
AcDbEntity
  8
0
100
AcDbEllipse
 10
532.480104
 20
561.587243
 30
0.0
 11
3.015746449176212
 21
0.7746519372140012
 31
0.0
210
0.0
220
0.0
230
1.0
 40
0.846775
 41
1.29973646820557
 42
2.479974117225238
1001
ACAD
1000
ASC_BOUNDS
1002
{
1070
    19
1002
}
  0
LINE
  5
2D6B
100
AcDbEntity
  8
0
100
AcDbLine
 10
536.816694
 20
565.546075
 30
0.0
 11
536.51589
 21
565.546075
 31
0.0
1001
ACAD
1000
ASC_BOUNDS
1002
{
1070
    19
1002
}
  0
LINE
  5
2D6C
100
AcDbEntity
  8
0
100
AcDbLine
 10
535.613478
 20
565.546075
 30
0.0
 11
536.51589
 21
565.546075
 31
0.0
1001
ACAD
1000
ASC_BOUNDS
1002
{
1070
    19
1002
}
  0
ELLIPSE
  5
2D6D
100
AcDbEntity
  8
0
100
AcDbEllipse
 10
535.613478
 20
565.546075
 30
0.0
 11
1.203215696869352
 21
0.0000000000000893
 31
0.0
210
0.0
220
0.0
230
1.0
 40
0.958812
 41
4.712388980384611
 42
6.283185307179508
1001
ACAD
1000
ASC_BOUNDS
1002
{
1070
    19
1002
}
  0
LINE
  5
2D6E
100
AcDbEntity
  8
0
100
AcDbLine
 10
530.499811
 20
569.680016
 30
0.0
 11
534.811334
 21
569.680016
 31
0.0
  0
ELLIPSE
  5
2D6F
100
AcDbEntity
  8
0
100
AcDbEllipse
 10
530.499811
 20
568.910911
 30
0.0
 11
0.8021437979128704
 21
0.000000000000038
 31
0.0
210
0.0
220
0.0
230
1.0
 40
0.958812
 41
1.570796326794851
 42
3.141592653589743
1001
ACAD
1000
ASC_BOUNDS
1002
{
1070
    19
1002
}
  0
LINE
  5
2D70
100
AcDbEntity
  8
0
100
AcDbLine
 10
535.613478
 20
567.805322
 30
0.0
 11
535.613478
 21
568.910911
 31
0.0
1001
ACAD
1000
ASC_BOUNDS
1002
{
1070
    19
1002
}
  0
ELLIPSE
  5
2D71
100
AcDbEntity
  8
0
100
AcDbEllipse
 10
534.811334
 20
568.910911
 30
0.0
 11
-0.8021437979128705
 21
0.000000000000038
 31
0.0
210
0.0
220
0.0
230
1.0
 40
0.958812
 41
3.141592653589842
 42
4.712388980384734
1001
ACAD
1000
ASC_BOUNDS
1002
{
1070
    19
1002
}
  0
ARC
  5
2D72
100
AcDbEntity
  8
0
100
AcDbCircle
 10
540.798894
 20
566.991207
 30
0.0
 40
1.377457
100
AcDbArc
 50
16.265061
 51
130.527299
  0
ARC
  5
2D73
100
AcDbEntity
  8
0
100
AcDbCircle
 10
544.201848
 20
566.828307
 30
0.0
 40
1.425319
100
AcDbArc
 50
89.703671
 51
170.465171
  0
LINE
  5
2D74
100
AcDbEntity
  8
0
100
AcDbLine
 10
540.911147
 20
565.586007
 30
0.0
 11
542.12122
 21
565.586007
 31
0.0
  0
LINE
  5
2D75
100
AcDbEntity
  8
0
100
AcDbLine
 10
540.578809
 20
565.586007
 30
0.0
 11
542.12122
 21
565.586007
 31
0.0
  0
ARC
  5
2D76
100
AcDbEntity
  8
0
100
AcDbCircle
 10
540.229736
 20
567.011201
 30
0.0
 40
0.3375
100
AcDbArc
 50
360.0
 51
180.0
  0
LINE
  5
2D77
100
AcDbEntity
  8
0
100
AcDbLine
 10
540.567236
 20
567.011201
 30
0.0
 11
540.578809
 21
565.586007
 31
0.0
  0
ARC
  5
2D78
100
AcDbEntity
  8
0
100
AcDbCircle
 10
544.67572
 20
567.011201
 30
0.0
 40
0.3375
100
AcDbArc
 50
360.0
 51
180.0
  0
LINE
  5
2D79
100
AcDbEntity
  8
0
100
AcDbLine
 10
544.33822
 20
564.461607
 30
0.0
 11
544.33822
 21
562.886201
 31
0.0
  0
LINE
  5
2D7A
100
AcDbEntity
  8
0
100
AcDbLine
 10
544.33822
 20
565.361607
 30
0.0
 11
545.01322
 21
565.361607
 31
0.0
  0
LINE
  5
2D7B
100
AcDbEntity
  8
0
100
AcDbLine
 10
545.01322
 20
563.786607
 30
0.0
 11
545.01322
 21
562.902701
 31
0.0
  0
LINE
  5
2D7C
100
AcDbEntity
  8
0
100
AcDbLine
 10
544.33822
 20
564.461607
 30
0.0
 11
544.33822
 21
562.902701
 31
0.0
  0
ARC
  5
2D7D
100
AcDbEntity
  8
0
100
AcDbCircle
 10
544.67572
 20
562.902701
 30
0.0
 40
0.3375
100
AcDbArc
 50
180.0
 51
0.0
  0
LINE
  5
2D7E
100
AcDbEntity
  8
0
100
AcDbLine
 10
545.01322
 20
567.011201
 30
0.0
 11
545.01322
 21
565.361607
 31
0.0
  0
LINE
  5
2D7F
100
AcDbEntity
  8
0
100
AcDbLine
 10
544.33822
 20
567.011201
 30
0.0
 11
544.33822
 21
565.361607
 31
0.0
  0
LINE
  5
2D80
100
AcDbEntity
  8
0
100
AcDbLine
 10
542.12122
 20
565.586007
 30
0.0
 11
542.12122
 21
567.377007
 31
0.0
1001
ACAD
1000
ASC_BOUNDS
1002
{
1070
    19
1002
}
  0
LINE
  5
2D81
100
AcDbEntity
  8
0
100
AcDbLine
 10
542.79622
 20
562.886201
 30
0.0
 11
542.79622
 21
567.064407
 31
0.0
  0
LINE
  5
2D82
100
AcDbEntity
  8
0
100
AcDbLine
 10
539.903809
 20
568.253607
 30
0.0
 11
539.903809
 21
568.038207
 31
0.0
  0
LINE
  5
2D83
100
AcDbEntity
  8
0
100
AcDbLine
 10
538.361694
 20
568.253607
 30
0.0
 11
539.903809
 21
568.253607
 31
0.0
1001
ACAD
1000
ASC_BOUNDS
1002
{
1070
    19
1002
}
  0
LINE
  5
2D84
100
AcDbEntity
  8
0
100
AcDbLine
 10
544.194477
 20
568.253607
 30
0.0
 11
545.04922
 21
568.253607
 31
0.0
  0
ARC
  5
2D85
100
AcDbEntity
  8
0
100
AcDbCircle
 10
555.243059
 20
566.77404
 30
0.0
 40
1.488419
100
AcDbArc
 50
89.300887
 51
168.365732
  0
ARC
  5
2D86
100
AcDbEntity
  8
0
100
AcDbCircle
 10
551.752247
 20
566.857302
 30
0.0
 40
1.409039
100
AcDbArc
 50
15.47255
 51
127.56454
  0
LINE
  5
2D87
100
AcDbEntity
  8
0
100
AcDbLine
 10
546.46222
 20
563.786607
 30
0.0
 11
546.46222
 21
562.886201
 31
0.0
  0
LINE
  5
2D88
100
AcDbEntity
  8
0
100
AcDbLine
 10
546.46222
 20
564.461607
 30
0.0
 11
546.46222
 21
567.064407
 31
0.0
  0
LINE
  5
2D89
100
AcDbEntity
  8
0
100
AcDbLine
 10
553.11022
 20
567.233201
 30
0.0
 11
553.11022
 21
562.829201
 31
0.0
  0
LINE
  5
2D8A
100
AcDbEntity
  8
0
100
AcDbLine
 10
551.56822
 20
567.011201
 30
0.0
 11
551.56822
 21
562.902701
 31
0.0
  0
LINE
  5
2D8B
100
AcDbEntity
  8
0
100
AcDbLine
 10
550.89322
 20
567.011201
 30
0.0
 11
550.89322
 21
562.902701
 31
0.0
  0
ARC
  5
2D8C
100
AcDbEntity
  8
0
100
AcDbCircle
 10
551.23072
 20
562.902701
 30
0.0
 40
0.3375
100
AcDbArc
 50
180.0
 51
0.0
  0
ARC
  5
2D8D
100
AcDbEntity
  8
0
100
AcDbCircle
 10
551.23072
 20
567.011201
 30
0.0
 40
0.3375
100
AcDbArc
 50
360.0
 51
180.0
  0
LINE
  5
2D8E
100
AcDbEntity
  8
0
100
AcDbLine
 10
549.34822
 20
568.262201
 30
0.0
 11
550.89322
 21
568.262201
 31
0.0
  0
LINE
  5
2D8F
100
AcDbEntity
  8
0
100
AcDbLine
 10
547.14922
 20
569.861201
 30
0.0
 11
548.69422
 21
569.861201
 31
0.0
  0
LINE
  5
2D90
100
AcDbEntity
  8
0
100
AcDbLine
 10
550.89322
 20
568.262201
 30
0.0
 11
550.89322
 21
567.974201
 31
0.0
  0
ARC
  5
2D91
100
AcDbEntity
  8
0
100
AcDbCircle
 10
556.209381
 20
566.77404
 30
0.0
 40
1.488419
100
AcDbArc
 50
11.634268
 51
90.699113
  0
LINE
  5
2D92
100
AcDbEntity
  8
0
100
AcDbLine
 10
557.66722
 20
567.074201
 30
0.0
 11
557.66722
 21
562.853348
 31
0.0
  0
ARC
  5
2D93
100
AcDbEntity
  8
0
100
AcDbCircle
 10
555.72622
 20
567.011201
 30
0.0
 40
0.3375
100
AcDbArc
 50
360.0
 51
180.0
  0
ARC
  5
2D94
100
AcDbEntity
  8
0
100
AcDbCircle
 10
555.72622
 20
562.902701
 30
0.0
 40
0.3375
100
AcDbArc
 50
180.0
 51
0.0
  0
LINE
  5
2D95
100
AcDbEntity
  8
0
100
AcDbLine
 10
555.38872
 20
567.011201
 30
0.0
 11
555.38872
 21
562.902701
 31
0.0
  0
LINE
  5
2D96
100
AcDbEntity
  8
0
100
AcDbLine
 10
556.06372
 20
567.011201
 30
0.0
 11
556.06372
 21
562.902701
 31
0.0
  0
LINE
  5
2D97
100
AcDbEntity
  8
0
100
AcDbLine
 10
553.78522
 20
562.853348
 30
0.0
 11
553.78522
 21
567.074201
 31
0.0
  0
LINE
  5
2D98
100
AcDbEntity
  8
0
100
AcDbLine
 10
555.26122
 20
568.262348
 30
0.0
 11
556.19122
 21
568.262348
 31
0.0
  0
LINE
  5
2D99
100
AcDbEntity
  8
0
100
AcDbLine
 10
558.34222
 20
569.861201
 30
0.0
 11
559.88722
 21
569.861201
 31
0.0
  0
TEXT
  5
2D9A
100
AcDbEntity
  8
WY
100
AcDbText
 10
564.417407
 20
564.253947
 30
0.0
 40
2.0
  1
02-02-2008
 51
15.0
  7
ITALIC
100
AcDbText
  0
TEXT
  5
2D9B
100
AcDbEntity
  8
WY
100
AcDbText
 10
568.848776
 20
568.799175
 30
0.0
 40
2.0
  1
Data
 51
15.0
  7
ITALIC
100
AcDbText
  0
LINE
  5
2D9E
100
AcDbEntity
  8
1
100
AcDbLine
 10
627.394234
 20
557.649937
 30
0.0
 11
627.394234
 21
572.339774
 31
0.0
  0
TEXT
  5
2D9F
100
AcDbEntity
  8
WY
100
AcDbText
 10
629.585432
 20
569.249185
 30
0.0
 40
2.0
  1
Product type
 51
15.0
  7
ITALIC
100
AcDbText
  0
LINE
  5
2DF2
100
AcDbEntity
  8
2
100
AcDbLine
 10
682.671651
 20
844.649937
 30
0.0
 11
497.671651
 21
844.649937
 31
0.0
  0
LINE
  5
2DF3
100
AcDbEntity
  8
2
100
AcDbLine
 10
687.671651
 20
849.649937
 30
0.0
 11
497.671651
 21
849.649937
 31
0.0
  0
LINE
  5
2E74
100
AcDbEntity
  8
WYMIARY
 62
     6
100
AcDbLine
 10
497.671651
 20
849.649937
 30
0.0
 11
486.041244
 21
849.649937
 31
0.0
  0
MTEXT
  5
31F2
100
AcDbEntity
  8
WYMIARY
100
AcDbMText
 10
780.543201
 20
224.476865
 30
0.0
 40
3.5
 41
15.6
 71
     1
 72
     5
  1

  7
ITALIC
  0
TEXT
  5
478E
100
AcDbEntity
  8
1
100
AcDbText
 10
500.301985
 20
561.447394
 30
0.0
 40
5.0
  1
1:1
 51
15.0
  7
ITALIC
100
AcDbText
  0
LINE
  5
482F
100
AcDbEntity
  8
WYMIARY
 62
     6
100
AcDbLine
 10
687.671651
 20
552.649937
 30
0.0
 11
687.671651
 21
849.649937
 31
0.0
  0
LINE
  5
4AD7
100
AcDbEntity
  8
WYMIARY
 62
     3
100
AcDbLine
 10
512.671651
 20
572.339774
 30
0.0
 11
512.671651
 21
557.649937
 31
0.0
  0
LINE
  5
4AD9
100
AcDbEntity
  8
WYMIARY
 62
     3
100
AcDbLine
 10
527.671651
 20
572.339774
 30
0.0
 11
527.671651
 21
557.649937
 31
0.0
  0
LINE
  5
4ADA
100
AcDbEntity
  8
WYMIARY
 62
     3
100
AcDbLine
 10
586.373187
 20
572.339774
 30
0.0
 11
586.373187
 21
557.649937
 31
0.0
  0
TEXT
  5
4ADB
100
AcDbEntity
  8
WY
100
AcDbText
 10
587.562196
 20
569.249185
 30
0.0
 40
2.0
  1
Draw. No.
 51
15.0
  7
ITALIC
100
AcDbText
  0
TEXT
  5
4ADF
100
AcDbEntity
  8
1
100
AcDbText
 10
587.909311
 20
561.713946
 30
0.0
 40
3.0
  1
RIK63-02A
 41
0.65
  7
ITALIC
100
AcDbText
  0
LINE
  5
4AE9
100
AcDbEntity
  8
WYMIARY
 62
     6
100
AcDbLine
 10
687.671651
 20
552.649937
 30
0.0
 11
687.671651
 21
849.649937
 31
0.0
  0
LINE
  5
6488
100
AcDbEntity
  8
WYMIARY
 62
     6
100
AcDbLine
 10
687.671651
 20
552.649937
 30
0.0
 11
687.671651
 21
849.649937
 31
0.0
  0
LINE
  5
648E
100
AcDbEntity
  8
2
100
AcDbLine
 10
687.671651
 20
552.649937
 30
0.0
 11
687.671651
 21
849.649937
 31
0.0
  0
LINE
  5
6CB6
100
AcDbEntity
  8
WYMIARY
 62
     6
100
AcDbLine
 10
687.671651
 20
552.649937
 30
0.0
 11
687.671651
 21
849.649937
 31
0.0
  0
LINE
  5
6CB8
100
AcDbEntity
  8
2
100
AcDbLine
 10
687.671651
 20
552.649937
 30
0.0
 11
687.671651
 21
849.649937
 31
0.0
  0
TEXT
  5
A05E
100
AcDbEntity
  8
1
100
AcDbText
 10
629.389291
 20
561.713946
 30
0.0
 40
5.0
  1
RIK63
 41
0.75
  7
ITALIC
100
AcDbText
  0
LINE
  5
B2C3
100
AcDbEntity
  8
WYMIARY
 62
     6
100
AcDbLine
 10
687.671651
 20
552.649937
 30
0.0
 11
687.671651
 21
849.649937
 31
0.0
  0
TEXT
  5
BFA4
100
AcDbEntity
  8
1
100
AcDbText
 10
575.90318
 20
826.419038
 30
0.0
 40
5.0
  1
RIK63
 41
0.75
  7
ITALIC
100
AcDbText
  0
LINE
  5
C5E6
100
AcDbEntity
  8
WYMIARY
 62
     3
100
AcDbLine
 10
552.689388
 20
713.599148
 30
0.0
 11
605.989388
 21
713.599148
 31
0.0
  0
LINE
  5
C5E7
100
AcDbEntity
  8
WYMIARY
 62
     3
100
AcDbLine
 10
605.989388
 20
713.599148
 30
0.0
 11
605.989388
 21
797.599148
 31
0.0
  0
LINE
  5
C5E8
100
AcDbEntity
  8
WYMIARY
 62
     3
100
AcDbLine
 10
605.989388
 20
797.599148
 30
0.0
 11
552.689388
 21
797.599148
 31
0.0
  0
LINE
  5
C5E9
100
AcDbEntity
  8
WYMIARY
 62
     3
100
AcDbLine
 10
552.689388
 20
797.599148
 30
0.0
 11
552.689388
 21
713.599148
 31
0.0
  0
LINE
  5
C5EF
100
AcDbEntity
  8
WYMIARY
 62
     3
100
AcDbLine
 10
605.989388
 20
778.099148
 30
0.0
 11
552.689388
 21
778.099148
 31
0.0
  0
LINE
  5
C5F1
100
AcDbEntity
  8
WYMIARY
 62
     3
100
AcDbLine
 10
605.989388
 20
733.099148
 30
0.0
 11
552.689388
 21
733.099148
 31
0.0
  0
LINE
  5
C5F2
100
AcDbEntity
  8
WYMIARY
 62
     3
100
AcDbLine
 10
552.689388
 20
797.599148
 30
0.0
 11
552.689388
 21
788.199148
 31
0.0
  0
LINE
  5
C5F4
100
AcDbEntity
  8
WYMIARY
 62
     3
100
AcDbLine
 10
552.689388
 20
797.599148
 30
0.0
 11
559.439388
 21
797.599148
 31
0.0
  0
LINE
  5
C5F6
100
AcDbEntity
  8
WYMIARY
 62
     3
100
AcDbLine
 10
552.689388
 20
797.599148
 30
0.0
 11
571.439388
 21
797.599148
 31
0.0
  0
CIRCLE
  5
C5F8
100
AcDbEntity
  8
WYMIARY
 62
     3
100
AcDbCircle
 10
559.439388
 20
788.199148
 30
0.0
 40
3.75
  0
CIRCLE
  5
C5F9
100
AcDbEntity
  8
WYMIARY
 62
     3
100
AcDbCircle
 10
571.439388
 20
788.199148
 30
0.0
 40
3.75
  0
CIRCLE
  5
C5FB
100
AcDbEntity
  8
WYMIARY
 62
     3
100
AcDbCircle
 10
587.239388
 20
788.199148
 30
0.0
 40
3.75
  0
CIRCLE
  5
C5FC
100
AcDbEntity
  8
WYMIARY
 62
     3
100
AcDbCircle
 10
599.239388
 20
788.199148
 30
0.0
 40
3.75
  0
LINE
  5
C5FD
100
AcDbEntity
  8
WYMIARY
 62
     3
100
AcDbLine
 10
570.818447
 20
790.968968
 30
0.0
 11
572.206573
 21
790.968968
 31
0.0
  0
LINE
  5
C5FE
100
AcDbEntity
  8
WYMIARY
 62
     3
100
AcDbLine
 10
570.818447
 20
790.968968
 30
0.0
 11
572.206573
 21
790.968968
 31
0.0
  0
LINE
  5
C5FF
100
AcDbEntity
  8
WYMIARY
 62
     3
100
AcDbLine
 10
570.818447
 20
790.968968
 30
0.0
 11
572.206573
 21
790.968968
 31
0.0
  0
LINE
  5
C600
100
AcDbEntity
  8
WYMIARY
 62
     3
100
AcDbLine
 10
570.818447
 20
785.429328
 30
0.0
 11
572.206573
 21
785.429328
 31
0.0
  0
LINE
  5
C601
100
AcDbEntity
  8
WYMIARY
 62
     3
100
AcDbLine
 10
568.845973
 20
787.425938
 30
0.0
 11
568.845973
 21
788.814064
 31
0.0
  0
LINE
  5
C602
100
AcDbEntity
  8
WYMIARY
 62
     3
100
AcDbLine
 10
574.385613
 20
787.425938
 30
0.0
 11
574.385613
 21
788.814064
 31
0.0
  0
LINE
  5
C603
100
AcDbEntity
  8
WYMIARY
 62
     3
100
AcDbLine
 10
568.845973
 20
788.814064
 30
0.0
 11
570.818447
 21
788.814064
 31
0.0
  0
LINE
  5
C604
100
AcDbEntity
  8
WYMIARY
 62
     3
100
AcDbLine
 10
570.818447
 20
790.968968
 30
0.0
 11
570.818447
 21
788.814064
 31
0.0
  0
LINE
  5
C605
100
AcDbEntity
  8
WYMIARY
 62
     3
100
AcDbLine
 10
572.206573
 20
790.968968
 30
0.0
 11
572.206573
 21
788.814064
 31
0.0
  0
LINE
  5
C606
100
AcDbEntity
  8
WYMIARY
 62
     3
100
AcDbLine
 10
568.845973
 20
787.425938
 30
0.0
 11
570.818447
 21
787.425938
 31
0.0
  0
LINE
  5
C607
100
AcDbEntity
  8
WYMIARY
 62
     3
100
AcDbLine
 10
572.206573
 20
788.814064
 30
0.0
 11
574.385613
 21
788.814064
 31
0.0
  0
LINE
  5
C608
100
AcDbEntity
  8
WYMIARY
 62
     3
100
AcDbLine
 10
572.206573
 20
787.425938
 30
0.0
 11
574.385613
 21
787.425938
 31
0.0
  0
LINE
  5
C609
100
AcDbEntity
  8
WYMIARY
 62
     3
100
AcDbLine
 10
572.206573
 20
787.425938
 30
0.0
 11
572.206573
 21
785.429328
 31
0.0
  0
LINE
  5
C60A
100
AcDbEntity
  8
WYMIARY
 62
     3
100
AcDbLine
 10
570.818447
 20
787.425938
 30
0.0
 11
570.818447
 21
785.429328
 31
0.0
  0
LINE
  5
C60B
100
AcDbEntity
  8
WYMIARY
 62
     3
100
AcDbLine
 10
558.818447
 20
790.968968
 30
0.0
 11
558.818447
 21
788.814064
 31
0.0
  0
LINE
  5
C60C
100
AcDbEntity
  8
WYMIARY
 62
     3
100
AcDbLine
 10
556.845973
 20
788.814064
 30
0.0
 11
558.818447
 21
788.814064
 31
0.0
  0
LINE
  5
C60D
100
AcDbEntity
  8
WYMIARY
 62
     3
100
AcDbLine
 10
560.206573
 20
788.814064
 30
0.0
 11
562.385613
 21
788.814064
 31
0.0
  0
LINE
  5
C60E
100
AcDbEntity
  8
WYMIARY
 62
     3
100
AcDbLine
 10
560.206573
 20
790.968968
 30
0.0
 11
560.206573
 21
788.814064
 31
0.0
  0
LINE
  5
C60F
100
AcDbEntity
  8
WYMIARY
 62
     3
100
AcDbLine
 10
560.206573
 20
787.425938
 30
0.0
 11
562.385613
 21
787.425938
 31
0.0
  0
LINE
  5
C610
100
AcDbEntity
  8
WYMIARY
 62
     3
100
AcDbLine
 10
558.818447
 20
787.425938
 30
0.0
 11
558.818447
 21
785.429328
 31
0.0
  0
LINE
  5
C611
100
AcDbEntity
  8
WYMIARY
 62
     3
100
AcDbLine
 10
556.845973
 20
787.425938
 30
0.0
 11
558.818447
 21
787.425938
 31
0.0
  0
LINE
  5
C612
100
AcDbEntity
  8
WYMIARY
 62
     3
100
AcDbLine
 10
560.206573
 20
787.425938
 30
0.0
 11
560.206573
 21
785.429328
 31
0.0
  0
LINE
  5
C613
100
AcDbEntity
  8
WYMIARY
 62
     3
100
AcDbLine
 10
558.818447
 20
785.429328
 30
0.0
 11
560.206573
 21
785.429328
 31
0.0
  0
LINE
  5
C614
100
AcDbEntity
  8
WYMIARY
 62
     3
100
AcDbLine
 10
562.385613
 20
787.425938
 30
0.0
 11
562.385613
 21
788.814064
 31
0.0
  0
LINE
  5
C615
100
AcDbEntity
  8
WYMIARY
 62
     3
100
AcDbLine
 10
556.845973
 20
787.425938
 30
0.0
 11
556.845973
 21
788.814064
 31
0.0
  0
LINE
  5
C616
100
AcDbEntity
  8
WYMIARY
 62
     3
100
AcDbLine
 10
558.818447
 20
790.968968
 30
0.0
 11
560.206573
 21
790.968968
 31
0.0
  0
LINE
  5
C617
100
AcDbEntity
  8
WYMIARY
 62
     3
100
AcDbLine
 10
558.818447
 20
790.968968
 30
0.0
 11
560.206573
 21
790.968968
 31
0.0
  0
LINE
  5
C618
100
AcDbEntity
  8
WYMIARY
 62
     3
100
AcDbLine
 10
558.818447
 20
790.968968
 30
0.0
 11
560.206573
 21
790.968968
 31
0.0
  0
LINE
  5
C619
100
AcDbEntity
  8
WYMIARY
 62
     3
100
AcDbLine
 10
584.481675
 20
787.425938
 30
0.0
 11
586.454149
 21
787.425938
 31
0.0
  0
LINE
  5
C61A
100
AcDbEntity
  8
WYMIARY
 62
     3
100
AcDbLine
 10
586.454149
 20
785.429328
 30
0.0
 11
587.842275
 21
785.429328
 31
0.0
  0
LINE
  5
C61B
100
AcDbEntity
  8
WYMIARY
 62
     3
100
AcDbLine
 10
586.454149
 20
787.425938
 30
0.0
 11
586.454149
 21
785.429328
 31
0.0
  0
LINE
  5
C61C
100
AcDbEntity
  8
WYMIARY
 62
     3
100
AcDbLine
 10
584.481675
 20
787.425938
 30
0.0
 11
584.481675
 21
788.814064
 31
0.0
  0
LINE
  5
C61D
100
AcDbEntity
  8
WYMIARY
 62
     3
100
AcDbLine
 10
587.842275
 20
787.425938
 30
0.0
 11
587.842275
 21
785.429328
 31
0.0
  0
LINE
  5
C61E
100
AcDbEntity
  8
WYMIARY
 62
     3
100
AcDbLine
 10
587.842275
 20
787.425938
 30
0.0
 11
590.021315
 21
787.425938
 31
0.0
  0
LINE
  5
C61F
100
AcDbEntity
  8
WYMIARY
 62
     3
100
AcDbLine
 10
590.021315
 20
787.425938
 30
0.0
 11
590.021315
 21
788.814064
 31
0.0
  0
LINE
  5
C620
100
AcDbEntity
  8
WYMIARY
 62
     3
100
AcDbLine
 10
587.842275
 20
790.968968
 30
0.0
 11
587.842275
 21
788.814064
 31
0.0
  0
LINE
  5
C621
100
AcDbEntity
  8
WYMIARY
 62
     3
100
AcDbLine
 10
587.842275
 20
788.814064
 30
0.0
 11
590.021315
 21
788.814064
 31
0.0
  0
LINE
  5
C622
100
AcDbEntity
  8
WYMIARY
 62
     3
100
AcDbLine
 10
584.481675
 20
788.814064
 30
0.0
 11
586.454149
 21
788.814064
 31
0.0
  0
LINE
  5
C623
100
AcDbEntity
  8
WYMIARY
 62
     3
100
AcDbLine
 10
586.454149
 20
790.968968
 30
0.0
 11
586.454149
 21
788.814064
 31
0.0
  0
LINE
  5
C624
100
AcDbEntity
  8
WYMIARY
 62
     3
100
AcDbLine
 10
586.454149
 20
790.968968
 30
0.0
 11
587.842275
 21
790.968968
 31
0.0
  0
LINE
  5
C625
100
AcDbEntity
  8
WYMIARY
 62
     3
100
AcDbLine
 10
599.932013
 20
787.425938
 30
0.0
 11
602.111054
 21
787.425938
 31
0.0
  0
LINE
  5
C626
100
AcDbEntity
  8
WYMIARY
 62
     3
100
AcDbLine
 10
599.932013
 20
787.425938
 30
0.0
 11
599.932013
 21
785.429328
 31
0.0
  0
LINE
  5
C627
100
AcDbEntity
  8
WYMIARY
 62
     3
100
AcDbLine
 10
598.543888
 20
787.425938
 30
0.0
 11
598.543888
 21
785.429328
 31
0.0
  0
LINE
  5
C628
100
AcDbEntity
  8
WYMIARY
 62
     3
100
AcDbLine
 10
596.571414
 20
787.425938
 30
0.0
 11
598.543888
 21
787.425938
 31
0.0
  0
LINE
  5
C629
100
AcDbEntity
  8
WYMIARY
 62
     3
100
AcDbLine
 10
598.543888
 20
785.429328
 30
0.0
 11
599.932013
 21
785.429328
 31
0.0
  0
LINE
  5
C62A
100
AcDbEntity
  8
WYMIARY
 62
     3
100
AcDbLine
 10
599.932013
 20
788.814064
 30
0.0
 11
602.111054
 21
788.814064
 31
0.0
  0
LINE
  5
C62B
100
AcDbEntity
  8
WYMIARY
 62
     3
100
AcDbLine
 10
598.543888
 20
790.968968
 30
0.0
 11
598.543888
 21
788.814064
 31
0.0
  0
LINE
  5
C62C
100
AcDbEntity
  8
WYMIARY
 62
     3
100
AcDbLine
 10
596.571414
 20
788.814064
 30
0.0
 11
598.543888
 21
788.814064
 31
0.0
  0
LINE
  5
C62D
100
AcDbEntity
  8
WYMIARY
 62
     3
100
AcDbLine
 10
599.932013
 20
790.968968
 30
0.0
 11
599.932013
 21
788.814064
 31
0.0
  0
LINE
  5
C62E
100
AcDbEntity
  8
WYMIARY
 62
     3
100
AcDbLine
 10
596.571414
 20
787.425938
 30
0.0
 11
596.571414
 21
788.814064
 31
0.0
  0
LINE
  5
C62F
100
AcDbEntity
  8
WYMIARY
 62
     3
100
AcDbLine
 10
602.111054
 20
787.425938
 30
0.0
 11
602.111054
 21
788.814064
 31
0.0
  0
LINE
  5
C630
100
AcDbEntity
  8
WYMIARY
 62
     3
100
AcDbLine
 10
598.543888
 20
790.968968
 30
0.0
 11
599.932013
 21
790.968968
 31
0.0
  0
CIRCLE
  5
C632
100
AcDbEntity
  8
WYMIARY
 62
     3
100
AcDbCircle
 10
579.339388
 20
790.849148
 30
0.0
 40
2.25
  0
CIRCLE
  5
C634
100
AcDbEntity
  8
WYMIARY
 62
     3
100
AcDbCircle
 10
579.339388
 20
781.149148
 30
0.0
 40
2.25
  0
LINE
  5
C635
100
AcDbEntity
  8
WYMIARY
 62
     3
100
AcDbLine
 10
578.855998
 20
792.815466
 30
0.0
 11
578.855998
 21
791.307034
 31
0.0
  0
LINE
  5
C636
100
AcDbEntity
  8
WYMIARY
 62
     3
100
AcDbLine
 10
577.475266
 20
791.307034
 30
0.0
 11
578.855998
 21
791.307034
 31
0.0
  0
LINE
  5
C637
100
AcDbEntity
  8
WYMIARY
 62
     3
100
AcDbLine
 10
579.827686
 20
790.335346
 30
0.0
 11
581.353014
 21
790.335346
 31
0.0
  0
LINE
  5
C638
100
AcDbEntity
  8
WYMIARY
 62
     3
100
AcDbLine
 10
579.827686
 20
790.335346
 30
0.0
 11
579.827686
 21
788.937718
 31
0.0
  0
LINE
  5
C639
100
AcDbEntity
  8
WYMIARY
 62
     3
100
AcDbLine
 10
578.855998
 20
790.335346
 30
0.0
 11
578.855998
 21
788.937718
 31
0.0
  0
LINE
  5
C63A
100
AcDbEntity
  8
WYMIARY
 62
     3
100
AcDbLine
 10
577.475266
 20
790.335346
 30
0.0
 11
578.855998
 21
790.335346
 31
0.0
  0
LINE
  5
C63B
100
AcDbEntity
  8
WYMIARY
 62
     3
100
AcDbLine
 10
579.827686
 20
791.307034
 30
0.0
 11
581.353014
 21
791.307034
 31
0.0
  0
LINE
  5
C63C
100
AcDbEntity
  8
WYMIARY
 62
     3
100
AcDbLine
 10
579.827686
 20
792.815466
 30
0.0
 11
579.827686
 21
791.307034
 31
0.0
  0
LINE
  5
C63D
100
AcDbEntity
  8
WYMIARY
 62
     3
100
AcDbLine
 10
578.855998
 20
788.937718
 30
0.0
 11
579.827686
 21
788.937718
 31
0.0
  0
LINE
  5
C63E
100
AcDbEntity
  8
WYMIARY
 62
     3
100
AcDbLine
 10
581.353014
 20
790.335346
 30
0.0
 11
581.353014
 21
791.307034
 31
0.0
  0
LINE
  5
C63F
100
AcDbEntity
  8
WYMIARY
 62
     3
100
AcDbLine
 10
578.855998
 20
792.815466
 30
0.0
 11
579.827686
 21
792.815466
 31
0.0
  0
LINE
  5
C640
100
AcDbEntity
  8
WYMIARY
 62
     3
100
AcDbLine
 10
578.855998
 20
792.815466
 30
0.0
 11
579.827686
 21
792.815466
 31
0.0
  0
LINE
  5
C641
100
AcDbEntity
  8
WYMIARY
 62
     3
100
AcDbLine
 10
578.855998
 20
792.815466
 30
0.0
 11
579.827686
 21
792.815466
 31
0.0
  0
LINE
  5
C642
100
AcDbEntity
  8
WYMIARY
 62
     3
100
AcDbLine
 10
577.475266
 20
790.335346
 30
0.0
 11
577.475266
 21
791.307034
 31
0.0
  0
LINE
  5
C643
100
AcDbEntity
  8
WYMIARY
 62
     3
100
AcDbLine
 10
579.827686
 20
719.891262
 30
0.0
 11
581.353014
 21
719.891262
 31
0.0
  0
LINE
  5
C644
100
AcDbEntity
  8
WYMIARY
 62
     3
100
AcDbLine
 10
579.827686
 20
720.86295
 30
0.0
 11
581.353014
 21
720.86295
 31
0.0
  0
CIRCLE
  5
C645
100
AcDbEntity
  8
WYMIARY
 62
     3
100
AcDbCircle
 10
579.339388
 20
730.049148
 30
0.0
 40
2.25
  0
CIRCLE
  5
C646
100
AcDbEntity
  8
WYMIARY
 62
     3
100
AcDbCircle
 10
579.339388
 20
720.349148
 30
0.0
 40
2.25
  0
LINE
  5
C647
100
AcDbEntity
  8
WYMIARY
 62
     3
100
AcDbLine
 10
556.845973
 20
723.772357
 30
0.0
 11
558.818447
 21
723.772357
 31
0.0
  0
LINE
  5
C648
100
AcDbEntity
  8
WYMIARY
 62
     3
100
AcDbLine
 10
556.845973
 20
722.384231
 30
0.0
 11
558.818447
 21
722.384231
 31
0.0
  0
CIRCLE
  5
C649
100
AcDbEntity
  8
WYMIARY
 62
     3
100
AcDbCircle
 10
559.439388
 20
722.999148
 30
0.0
 40
3.75
  0
LINE
  5
C64A
100
AcDbEntity
  8
WYMIARY
 62
     3
100
AcDbLine
 10
556.845973
 20
723.772357
 30
0.0
 11
556.845973
 21
722.384231
 31
0.0
  0
LINE
  5
C64B
100
AcDbEntity
  8
WYMIARY
 62
     3
100
AcDbLine
 10
558.818447
 20
720.229328
 30
0.0
 11
560.206573
 21
720.229328
 31
0.0
  0
LINE
  5
C64C
100
AcDbEntity
  8
WYMIARY
 62
     3
100
AcDbLine
 10
558.818447
 20
720.229328
 30
0.0
 11
560.206573
 21
720.229328
 31
0.0
  0
LINE
  5
C64D
100
AcDbEntity
  8
WYMIARY
 62
     3
100
AcDbLine
 10
558.818447
 20
720.229328
 30
0.0
 11
560.206573
 21
720.229328
 31
0.0
  0
LINE
  5
C64E
100
AcDbEntity
  8
WYMIARY
 62
     3
100
AcDbLine
 10
562.385613
 20
723.772357
 30
0.0
 11
562.385613
 21
722.384231
 31
0.0
  0
LINE
  5
C64F
100
AcDbEntity
  8
WYMIARY
 62
     3
100
AcDbLine
 10
558.818447
 20
725.768968
 30
0.0
 11
560.206573
 21
725.768968
 31
0.0
  0
LINE
  5
C650
100
AcDbEntity
  8
WYMIARY
 62
     3
100
AcDbLine
 10
560.206573
 20
723.772357
 30
0.0
 11
560.206573
 21
725.768968
 31
0.0
  0
LINE
  5
C651
100
AcDbEntity
  8
WYMIARY
 62
     3
100
AcDbLine
 10
558.818447
 20
723.772357
 30
0.0
 11
558.818447
 21
725.768968
 31
0.0
  0
LINE
  5
C652
100
AcDbEntity
  8
WYMIARY
 62
     3
100
AcDbLine
 10
560.206573
 20
723.772357
 30
0.0
 11
562.385613
 21
723.772357
 31
0.0
  0
LINE
  5
C653
100
AcDbEntity
  8
WYMIARY
 62
     3
100
AcDbLine
 10
560.206573
 20
720.229328
 30
0.0
 11
560.206573
 21
722.384231
 31
0.0
  0
LINE
  5
C654
100
AcDbEntity
  8
WYMIARY
 62
     3
100
AcDbLine
 10
560.206573
 20
722.384231
 30
0.0
 11
562.385613
 21
722.384231
 31
0.0
  0
LINE
  5
C655
100
AcDbEntity
  8
WYMIARY
 62
     3
100
AcDbLine
 10
558.818447
 20
720.229328
 30
0.0
 11
558.818447
 21
722.384231
 31
0.0
  0
LINE
  5
C656
100
AcDbEntity
  8
WYMIARY
 62
     3
100
AcDbLine
 10
572.206573
 20
723.772357
 30
0.0
 11
574.385613
 21
723.772357
 31
0.0
  0
LINE
  5
C657
100
AcDbEntity
  8
WYMIARY
 62
     3
100
AcDbLine
 10
572.206573
 20
722.384231
 30
0.0
 11
574.385613
 21
722.384231
 31
0.0
  0
CIRCLE
  5
C658
100
AcDbEntity
  8
WYMIARY
 62
     3
100
AcDbCircle
 10
571.439388
 20
722.999148
 30
0.0
 40
3.75
  0
LINE
  5
C659
100
AcDbEntity
  8
WYMIARY
 62
     3
100
AcDbLine
 10
570.818447
 20
723.772357
 30
0.0
 11
570.818447
 21
725.768968
 31
0.0
  0
LINE
  5
C65A
100
AcDbEntity
  8
WYMIARY
 62
     3
100
AcDbLine
 10
570.818447
 20
720.229328
 30
0.0
 11
570.818447
 21
722.384231
 31
0.0
  0
LINE
  5
C65B
100
AcDbEntity
  8
WYMIARY
 62
     3
100
AcDbLine
 10
572.206573
 20
723.772357
 30
0.0
 11
572.206573
 21
725.768968
 31
0.0
  0
LINE
  5
C65C
100
AcDbEntity
  8
WYMIARY
 62
     3
100
AcDbLine
 10
572.206573
 20
720.229328
 30
0.0
 11
572.206573
 21
722.384231
 31
0.0
  0
LINE
  5
C65D
100
AcDbEntity
  8
WYMIARY
 62
     3
100
AcDbLine
 10
568.845973
 20
723.772357
 30
0.0
 11
570.818447
 21
723.772357
 31
0.0
  0
LINE
  5
C65E
100
AcDbEntity
  8
WYMIARY
 62
     3
100
AcDbLine
 10
568.845973
 20
722.384231
 30
0.0
 11
570.818447
 21
722.384231
 31
0.0
  0
LINE
  5
C65F
100
AcDbEntity
  8
WYMIARY
 62
     3
100
AcDbLine
 10
568.845973
 20
723.772357
 30
0.0
 11
568.845973
 21
722.384231
 31
0.0
  0
LINE
  5
C660
100
AcDbEntity
  8
WYMIARY
 62
     3
100
AcDbLine
 10
570.818447
 20
725.768968
 30
0.0
 11
572.206573
 21
725.768968
 31
0.0
  0
LINE
  5
C661
100
AcDbEntity
  8
WYMIARY
 62
     3
100
AcDbLine
 10
570.818447
 20
720.229328
 30
0.0
 11
572.206573
 21
720.229328
 31
0.0
  0
LINE
  5
C662
100
AcDbEntity
  8
WYMIARY
 62
     3
100
AcDbLine
 10
570.818447
 20
720.229328
 30
0.0
 11
572.206573
 21
720.229328
 31
0.0
  0
LINE
  5
C663
100
AcDbEntity
  8
WYMIARY
 62
     3
100
AcDbLine
 10
570.818447
 20
720.229328
 30
0.0
 11
572.206573
 21
720.229328
 31
0.0
  0
LINE
  5
C664
100
AcDbEntity
  8
WYMIARY
 62
     3
100
AcDbLine
 10
578.855998
 20
722.260577
 30
0.0
 11
579.827686
 21
722.260577
 31
0.0
  0
LINE
  5
C665
100
AcDbEntity
  8
WYMIARY
 62
     3
100
AcDbLine
 10
577.475266
 20
720.86295
 30
0.0
 11
577.475266
 21
719.891262
 31
0.0
  0
LINE
  5
C666
100
AcDbEntity
  8
WYMIARY
 62
     3
100
AcDbLine
 10
578.855998
 20
718.382829
 30
0.0
 11
579.827686
 21
718.382829
 31
0.0
  0
LINE
  5
C667
100
AcDbEntity
  8
WYMIARY
 62
     3
100
AcDbLine
 10
578.855998
 20
718.382829
 30
0.0
 11
579.827686
 21
718.382829
 31
0.0
  0
LINE
  5
C668
100
AcDbEntity
  8
WYMIARY
 62
     3
100
AcDbLine
 10
578.855998
 20
718.382829
 30
0.0
 11
579.827686
 21
718.382829
 31
0.0
  0
LINE
  5
C669
100
AcDbEntity
  8
WYMIARY
 62
     3
100
AcDbLine
 10
577.475266
 20
719.891262
 30
0.0
 11
578.855998
 21
719.891262
 31
0.0
  0
LINE
  5
C66A
100
AcDbEntity
  8
WYMIARY
 62
     3
100
AcDbLine
 10
578.855998
 20
718.382829
 30
0.0
 11
578.855998
 21
719.891262
 31
0.0
  0
LINE
  5
C66B
100
AcDbEntity
  8
WYMIARY
 62
     3
100
AcDbLine
 10
579.827686
 20
718.382829
 30
0.0
 11
579.827686
 21
719.891262
 31
0.0
  0
LINE
  5
C66C
100
AcDbEntity
  8
WYMIARY
 62
     3
100
AcDbLine
 10
579.827686
 20
720.86295
 30
0.0
 11
579.827686
 21
722.260577
 31
0.0
  0
LINE
  5
C66D
100
AcDbEntity
  8
WYMIARY
 62
     3
100
AcDbLine
 10
578.855998
 20
720.86295
 30
0.0
 11
578.855998
 21
722.260577
 31
0.0
  0
LINE
  5
C66E
100
AcDbEntity
  8
WYMIARY
 62
     3
100
AcDbLine
 10
577.475266
 20
720.86295
 30
0.0
 11
578.855998
 21
720.86295
 31
0.0
  0
LINE
  5
C66F
100
AcDbEntity
  8
WYMIARY
 62
     3
100
AcDbLine
 10
574.385613
 20
723.772357
 30
0.0
 11
574.385613
 21
722.384231
 31
0.0
  0
CIRCLE
  5
C670
100
AcDbEntity
  8
WYMIARY
 62
     3
100
AcDbCircle
 10
599.239388
 20
722.999148
 30
0.0
 40
3.75
  0
LINE
  5
C671
100
AcDbEntity
  8
WYMIARY
 62
     3
100
AcDbLine
 10
587.842275
 20
722.384231
 30
0.0
 11
590.021315
 21
722.384231
 31
0.0
  0
LINE
  5
C672
100
AcDbEntity
  8
WYMIARY
 62
     3
100
AcDbLine
 10
587.842275
 20
723.772357
 30
0.0
 11
590.021315
 21
723.772357
 31
0.0
  0
CIRCLE
  5
C673
100
AcDbEntity
  8
WYMIARY
 62
     3
100
AcDbCircle
 10
587.239388
 20
722.999148
 30
0.0
 40
3.75
  0
LINE
  5
C674
100
AcDbEntity
  8
WYMIARY
 62
     3
100
AcDbLine
 10
581.353014
 20
720.86295
 30
0.0
 11
581.353014
 21
719.891262
 31
0.0
  0
LINE
  5
C675
100
AcDbEntity
  8
WYMIARY
 62
     3
100
AcDbLine
 10
586.454149
 20
720.229328
 30
0.0
 11
587.842275
 21
720.229328
 31
0.0
  0
LINE
  5
C676
100
AcDbEntity
  8
WYMIARY
 62
     3
100
AcDbLine
 10
586.454149
 20
720.229328
 30
0.0
 11
586.454149
 21
722.384231
 31
0.0
  0
LINE
  5
C677
100
AcDbEntity
  8
WYMIARY
 62
     3
100
AcDbLine
 10
584.481675
 20
722.384231
 30
0.0
 11
586.454149
 21
722.384231
 31
0.0
  0
LINE
  5
C678
100
AcDbEntity
  8
WYMIARY
 62
     3
100
AcDbLine
 10
587.842275
 20
720.229328
 30
0.0
 11
587.842275
 21
722.384231
 31
0.0
  0
LINE
  5
C679
100
AcDbEntity
  8
WYMIARY
 62
     3
100
AcDbLine
 10
587.842275
 20
723.772357
 30
0.0
 11
587.842275
 21
725.768968
 31
0.0
  0
LINE
  5
C67A
100
AcDbEntity
  8
WYMIARY
 62
     3
100
AcDbLine
 10
584.481675
 20
723.772357
 30
0.0
 11
584.481675
 21
722.384231
 31
0.0
  0
LINE
  5
C67B
100
AcDbEntity
  8
WYMIARY
 62
     3
100
AcDbLine
 10
586.454149
 20
723.772357
 30
0.0
 11
586.454149
 21
725.768968
 31
0.0
  0
LINE
  5
C67C
100
AcDbEntity
  8
WYMIARY
 62
     3
100
AcDbLine
 10
586.454149
 20
725.768968
 30
0.0
 11
587.842275
 21
725.768968
 31
0.0
  0
LINE
  5
C67D
100
AcDbEntity
  8
WYMIARY
 62
     3
100
AcDbLine
 10
584.481675
 20
723.772357
 30
0.0
 11
586.454149
 21
723.772357
 31
0.0
  0
LINE
  5
C67E
100
AcDbEntity
  8
WYMIARY
 62
     3
100
AcDbLine
 10
590.021315
 20
723.772357
 30
0.0
 11
590.021315
 21
722.384231
 31
0.0
  0
LINE
  5
C67F
100
AcDbEntity
  8
WYMIARY
 62
     3
100
AcDbLine
 10
598.543888
 20
720.229328
 30
0.0
 11
599.932013
 21
720.229328
 31
0.0
  0
LINE
  5
C680
100
AcDbEntity
  8
WYMIARY
 62
     3
100
AcDbLine
 10
602.111054
 20
723.772357
 30
0.0
 11
602.111054
 21
722.384231
 31
0.0
  0
LINE
  5
C681
100
AcDbEntity
  8
WYMIARY
 62
     3
100
AcDbLine
 10
596.571414
 20
723.772357
 30
0.0
 11
596.571414
 21
722.384231
 31
0.0
  0
LINE
  5
C682
100
AcDbEntity
  8
WYMIARY
 62
     3
100
AcDbLine
 10
599.932013
 20
720.229328
 30
0.0
 11
599.932013
 21
722.384231
 31
0.0
  0
LINE
  5
C683
100
AcDbEntity
  8
WYMIARY
 62
     3
100
AcDbLine
 10
596.571414
 20
722.384231
 30
0.0
 11
598.543888
 21
722.384231
 31
0.0
  0
LINE
  5
C684
100
AcDbEntity
  8
WYMIARY
 62
     3
100
AcDbLine
 10
598.543888
 20
720.229328
 30
0.0
 11
598.543888
 21
722.384231
 31
0.0
  0
LINE
  5
C685
100
AcDbEntity
  8
WYMIARY
 62
     3
100
AcDbLine
 10
599.932013
 20
722.384231
 30
0.0
 11
602.111054
 21
722.384231
 31
0.0
  0
LINE
  5
C686
100
AcDbEntity
  8
WYMIARY
 62
     3
100
AcDbLine
 10
598.543888
 20
725.768968
 30
0.0
 11
599.932013
 21
725.768968
 31
0.0
  0
LINE
  5
C687
100
AcDbEntity
  8
WYMIARY
 62
     3
100
AcDbLine
 10
596.571414
 20
723.772357
 30
0.0
 11
598.543888
 21
723.772357
 31
0.0
  0
LINE
  5
C688
100
AcDbEntity
  8
WYMIARY
 62
     3
100
AcDbLine
 10
598.543888
 20
723.772357
 30
0.0
 11
598.543888
 21
725.768968
 31
0.0
  0
LINE
  5
C689
100
AcDbEntity
  8
WYMIARY
 62
     3
100
AcDbLine
 10
599.932013
 20
723.772357
 30
0.0
 11
599.932013
 21
725.768968
 31
0.0
  0
LINE
  5
C68A
100
AcDbEntity
  8
WYMIARY
 62
     3
100
AcDbLine
 10
599.932013
 20
723.772357
 30
0.0
 11
602.111054
 21
723.772357
 31
0.0
  0
DIMENSION
  5
C69B
100
AcDbEntity
  8
WYMIARY
 62
     1
100
AcDbDimension
  2
*D208
 10
633.888403
 20
713.599148
 30
0.0
 11
632.238403
 21
755.599148
 31
0.0
 70
    32
  3
STANDARD
100
AcDbAlignedDimension
 13
605.989388
 23
797.599148
 33
0.0
 14
605.989388
 24
713.599148
 34
0.0
 50
90.0
100
AcDbRotatedDimension
1001
ACAD
1000
DSTYLE
1002
{
1070
   140
1040
1.8
1070
   147
1040
0.75
1002
}
  0
DIMENSION
  5
C6A8
100
AcDbEntity
  8
WYMIARY
 62
     1
100
AcDbDimension
  2
*D209
 10
624.792822
 20
733.099148
 30
0.0
 11
623.142822
 21
755.599148
 31
0.0
 70
    32
  3
STANDARD
100
AcDbAlignedDimension
 13
605.989388
 23
778.099148
 33
0.0
 14
605.989388
 24
733.099148
 34
0.0
 50
90.0
100
AcDbRotatedDimension
1001
ACAD
1000
DSTYLE
1002
{
1070
   140
1040
1.8
1070
   147
1040
0.75
1002
}
  0
DIMENSION
  5
C6B5
100
AcDbEntity
  8
WYMIARY
 62
     1
100
AcDbDimension
  2
*D210
 10
605.989388
 20
809.906951
 30
0.0
 11
579.339388
 21
811.556951
 31
0.0
 70
    32
  3
STANDARD
100
AcDbAlignedDimension
 13
552.689388
 23
797.599148
 33
0.0
 14
605.989388
 24
797.599148
 34
0.0
100
AcDbRotatedDimension
1001
ACAD
1000
DSTYLE
1002
{
1070
   140
1040
1.8
1070
   147
1040
0.75
1002
}
  0
TEXT
  5
C6DC
100
AcDbEntity
  8
1
100
AcDbText
 10
578.038045
 20
785.223542
 30
0.0
 40
3.0
  1
A1
 41
0.65
  7
ITALIC
100
AcDbText
  0
TEXT
  5
C6DD
100
AcDbEntity
  8
1
100
AcDbText
 10
578.038045
 20
723.763505
 30
0.0
 40
3.0
  1
A2
 41
0.65
  7
ITALIC
100
AcDbText
  0
LINE
  5
C9FA
100
AcDbEntity
  8
2
 62
     6
100
AcDbLine
 10
284.410837
 20
552.649937
 30
0.0
 11
486.041244
 21
552.649937
 31
0.0
  0
LINE
  5
C9FB
100
AcDbEntity
  8
2
100
AcDbLine
 10
486.041244
 20
849.649937
 30
0.0
 11
296.041244
 21
849.649937
 31
0.0
  0
LINE
  5
C9FC
100
AcDbEntity
  8
2
100
AcDbLine
 10
481.041244
 20
557.649937
 30
0.0
 11
481.041244
 21
844.649937
 31
0.0
  0
LINE
  5
C9FD
100
AcDbEntity
  8
WYMIARY
 62
     6
100
AcDbLine
 10
284.410837
 20
552.649937
 30
0.0
 11
284.410837
 21
849.649937
 31
0.0
  0
LINE
  5
C9FE
100
AcDbEntity
  8
WYMIARY
 62
     6
100
AcDbLine
 10
296.041244
 20
844.649937
 30
0.0
 11
296.041244
 21
557.649937
 31
0.0
  0
LINE
  5
C9FF
100
AcDbEntity
  8
WYMIARY
 62
     6
100
AcDbLine
 10
284.410837
 20
552.649937
 30
0.0
 11
284.410837
 21
849.649937
 31
0.0
  0
LINE
  5
CA00
100
AcDbEntity
  8
2
100
AcDbLine
 10
284.410837
 20
552.649937
 30
0.0
 11
284.410837
 21
849.649937
 31
0.0
  0
LINE
  5
CA01
100
AcDbEntity
  8
WYMIARY
 62
     6
100
AcDbLine
 10
284.410837
 20
552.649937
 30
0.0
 11
284.410837
 21
849.649937
 31
0.0
  0
LINE
  5
CA02
100
AcDbEntity
  8
2
100
AcDbLine
 10
284.410837
 20
552.649937
 30
0.0
 11
284.410837
 21
849.649937
 31
0.0
  0
LINE
  5
CA03
100
AcDbEntity
  8
WYMIARY
 62
     6
100
AcDbLine
 10
284.410837
 20
552.649937
 30
0.0
 11
284.410837
 21
849.649937
 31
0.0
  0
LINE
  5
CA04
100
AcDbEntity
  8
WYMIARY
 62
     6
100
AcDbLine
 10
284.410837
 20
552.649937
 30
0.0
 11
284.410837
 21
849.649937
 31
0.0
  0
LINE
  5
CA05
100
AcDbEntity
  8
WYMIARY
 62
     6
100
AcDbLine
 10
284.410837
 20
552.649937
 30
0.0
 11
284.410837
 21
849.649937
 31
0.0
  0
LINE
  5
CA06
100
AcDbEntity
  8
2
100
AcDbLine
 10
284.410837
 20
552.649937
 30
0.0
 11
284.410837
 21
849.649937
 31
0.0
  0
LINE
  5
CA07
100
AcDbEntity
  8
WY
  6
CONTINUOUS
 62
     3
100
AcDbLine
 10
481.041244
 20
572.339774
 30
0.0
 11
296.041244
 21
572.339774
 31
0.0
  0
LINE
  5
CA08
100
AcDbEntity
  8
2
100
AcDbLine
 10
296.041244
 20
557.649937
 30
0.0
 11
481.041244
 21
557.649937
 31
0.0
  0
TEXT
  5
CA09
100
AcDbEntity
  8
WY
100
AcDbText
 10
301.306359
 20
569.023781
 30
0.0
 40
2.0
  1
Skala
 51
15.0
  7
ITALIC
100
AcDbText
  0
TEXT
  5
CA0A
100
AcDbEntity
  8
1
100
AcDbText
 10
298.671578
 20
561.447394
 30
0.0
 40
5.0
  1
1:1
 51
15.0
  7
ITALIC
100
AcDbText
  0
LINE
  5
CA0B
100
AcDbEntity
  8
WYMIARY
 62
     3
100
AcDbLine
 10
311.041244
 20
572.339774
 30
0.0
 11
311.041244
 21
557.649937
 31
0.0
  0
TEXT
  5
CA0C
100
AcDbEntity
  8
1
100
AcDbText
 10
392.705469
 20
587.072457
 30
0.0
 40
5.0
  1
RIK63-04-...
 41
0.75
  7
ITALIC
100
AcDbText
  0
CIRCLE
  5
CA0D
100
AcDbEntity
  8
WYMIARY
 62
     3
100
AcDbCircle
 10
397.861784
 20
680.368979
 30
0.0
 40
3.75
  0
LINE
  5
CA0E
100
AcDbEntity
  8
WYMIARY
 62
     3
100
AcDbLine
 10
397.240842
 20
683.138799
 30
0.0
 11
398.628968
 21
683.138799
 31
0.0
  0
LINE
  5
CA0F
100
AcDbEntity
  8
WYMIARY
 62
     3
100
AcDbLine
 10
397.240842
 20
683.138799
 30
0.0
 11
398.628968
 21
683.138799
 31
0.0
  0
LINE
  5
CA10
100
AcDbEntity
  8
WYMIARY
 62
     3
100
AcDbLine
 10
397.240842
 20
683.138799
 30
0.0
 11
398.628968
 21
683.138799
 31
0.0
  0
LINE
  5
CA11
100
AcDbEntity
  8
WYMIARY
 62
     3
100
AcDbLine
 10
397.240842
 20
677.599159
 30
0.0
 11
398.628968
 21
677.599159
 31
0.0
  0
TEXT
  5
CA12
100
AcDbEntity
  8
1
100
AcDbText
 10
396.356948
 20
673.000525
 30
0.0
 40
3.0
  1
R1
 41
0.65
  7
ITALIC
100
AcDbText
  0
LINE
  5
CA13
100
AcDbEntity
  8
WYMIARY
 62
     3
100
AcDbLine
 10
391.111784
 20
689.768979
 30
0.0
 11
409.861784
 21
689.768979
 31
0.0
  0
LINE
  5
CA14
100
AcDbEntity
  8
WYMIARY
 62
     3
100
AcDbLine
 10
444.411784
 20
670.268979
 30
0.0
 11
391.111784
 21
670.268979
 31
0.0
  0
LINE
  5
CA15
100
AcDbEntity
  8
WYMIARY
 62
     3
100
AcDbLine
 10
444.411784
 20
689.768979
 30
0.0
 11
391.111784
 21
689.768979
 31
0.0
  0
CIRCLE
  5
CA16
100
AcDbEntity
  8
WYMIARY
 62
     3
100
AcDbCircle
 10
397.861784
 20
615.168979
 30
0.0
 40
3.75
  0
TEXT
  5
CA17
100
AcDbEntity
  8
1
100
AcDbText
 10
396.356948
 20
619.658792
 30
0.0
 40
3.0
  1
R2
 41
0.65
  7
ITALIC
100
AcDbText
  0
LINE
  5
CA18
100
AcDbEntity
  8
WYMIARY
 62
     3
100
AcDbLine
 10
397.240842
 20
617.938799
 30
0.0
 11
398.628968
 21
617.938799
 31
0.0
  0
LINE
  5
CA19
100
AcDbEntity
  8
WYMIARY
 62
     3
100
AcDbLine
 10
397.240842
 20
612.399159
 30
0.0
 11
398.628968
 21
612.399159
 31
0.0
  0
LINE
  5
CA1A
100
AcDbEntity
  8
WYMIARY
 62
     3
100
AcDbLine
 10
397.240842
 20
612.399159
 30
0.0
 11
398.628968
 21
612.399159
 31
0.0
  0
LINE
  5
CA1B
100
AcDbEntity
  8
WYMIARY
 62
     3
100
AcDbLine
 10
397.240842
 20
612.399159
 30
0.0
 11
398.628968
 21
612.399159
 31
0.0
  0
LINE
  5
CA1C
100
AcDbEntity
  8
WYMIARY
 62
     3
100
AcDbLine
 10
444.411784
 20
625.268979
 30
0.0
 11
391.111784
 21
625.268979
 31
0.0
  0
LINE
  5
CA1D
100
AcDbEntity
  8
WYMIARY
 62
     3
100
AcDbLine
 10
391.111784
 20
605.768979
 30
0.0
 11
444.411784
 21
605.768979
 31
0.0
  0
TEXT
  5
CA1E
100
AcDbEntity
  8
WY
100
AcDbText
 10
385.931789
 20
569.249185
 30
0.0
 40
2.0
  1
Draw. No.
 51
15.0
  7
ITALIC
100
AcDbText
  0
TEXT
  5
CA1F
100
AcDbEntity
  8
1
100
AcDbText
 10
386.278904
 20
561.713946
 30
0.0
 40
3.0
  1
RIK63-01A
 41
0.65
  7
ITALIC
100
AcDbText
  0
CIRCLE
  5
CA20
100
AcDbEntity
  8
WYMIARY
 62
     3
100
AcDbCircle
 10
348.027797
 20
622.218979
 30
0.0
 40
2.25
  0
LINE
  5
CA21
100
AcDbEntity
  8
WYMIARY
 62
     3
100
AcDbLine
 10
321.377797
 20
689.768979
 30
0.0
 11
321.377797
 21
605.768979
 31
0.0
  0
LINE
  5
CA22
100
AcDbEntity
  8
WYMIARY
 62
     3
100
AcDbLine
 10
374.677797
 20
605.768979
 30
0.0
 11
374.677797
 21
689.768979
 31
0.0
  0
LINE
  5
CA23
100
AcDbEntity
  8
WYMIARY
 62
     3
100
AcDbLine
 10
391.111784
 20
689.768979
 30
0.0
 11
391.111784
 21
605.768979
 31
0.0
  0
TEXT
  5
CA24
100
AcDbEntity
  8
1
100
AcDbText
 10
320.999114
 20
587.072457
 30
0.0
 40
5.0
  1
RIK63-22-...
 41
0.75
  7
ITALIC
100
AcDbText
  0
LINE
  5
CA25
100
AcDbEntity
  8
WYMIARY
 62
     3
100
AcDbLine
 10
355.142557
 20
617.938799
 30
0.0
 11
356.530683
 21
617.938799
 31
0.0
  0
LINE
  5
CA26
100
AcDbEntity
  8
WYMIARY
 62
     3
100
AcDbLine
 10
355.142557
 20
612.399159
 30
0.0
 11
356.530683
 21
612.399159
 31
0.0
  0
LINE
  5
CA27
100
AcDbEntity
  8
WYMIARY
 62
     3
100
AcDbLine
 10
321.377797
 20
605.768979
 30
0.0
 11
374.677797
 21
605.768979
 31
0.0
  0
TEXT
  5
CA28
100
AcDbEntity
  8
1
100
AcDbText
 10
354.318065
 20
619.658792
 30
0.0
 40
3.0
  1
R6
 41
0.65
  7
ITALIC
100
AcDbText
  0
CIRCLE
  5
CA29
100
AcDbEntity
  8
WYMIARY
 62
     3
100
AcDbCircle
 10
355.927797
 20
615.168979
 30
0.0
 40
3.75
  0
ARC
  5
CA2A
100
AcDbEntity
  8
0
100
AcDbCircle
 10
354.578974
 20
563.153509
 30
0.0
 40
1.488419
100
AcDbArc
 50
269.300887
 51
348.365732
  0
ARC
  5
CA2B
100
AcDbEntity
  8
0
100
AcDbCircle
 10
354.578974
 20
566.77404
 30
0.0
 40
1.488419
100
AcDbArc
 50
11.634268
 51
90.699113
  0
LINE
  5
CA2C
100
AcDbEntity
  8
0
100
AcDbLine
 10
333.983071
 20
565.546075
 30
0.0
 11
334.885483
 21
565.546075
 31
0.0
1001
ACAD
1000
ASC_BOUNDS
1002
{
1070
    19
1002
}
  0
ELLIPSE
  5
CA2D
100
AcDbEntity
  8
0
100
AcDbEllipse
 10
333.983071
 20
565.546075
 30
0.0
 11
1.203215696869352
 21
0.0000000000000893
 31
0.0
210
0.0
220
0.0
230
1.0
 40
0.958812
 41
4.712388980384611
 42
6.283185307179508
1001
ACAD
1000
ASC_BOUNDS
1002
{
1070
    19
1002
}
  0
TEXT
  5
CA2E
100
AcDbEntity
  8
WY
100
AcDbText
 10
313.411812
 20
568.979306
 30
0.0
 40
2.0
  1
Format
 51
15.0
  7
ITALIC
100
AcDbText
  0
TEXT
  5
CA2F
100
AcDbEntity
  8
1
100
AcDbText
 10
313.977171
 20
561.447394
 30
0.0
 40
5.0
  1
A4
 51
15.0
  7
ITALIC
100
AcDbText
  0
LINE
  5
CA30
100
AcDbEntity
  8
0
100
AcDbLine
 10
333.983071
 20
560.835305
 30
0.0
 11
333.983071
 21
564.392417
 31
0.0
1001
ACAD
1000
ASC_BOUNDS
1002
{
1070
    19
1002
}
  0
ELLIPSE
  5
CA31
100
AcDbEntity
  8
0
100
AcDbEllipse
 10
333.180927
 20
560.835305
 30
0.0
 11
0.8021437979128704
 21
0.0000000000001602
 31
0.0
210
0.0
220
0.0
230
1.0
 40
0.958812
 41
4.712388980384497
 42
6.283185307179378
1001
ACAD
1000
ASC_BOUNDS
1002
{
1070
    19
1002
}
  0
ELLIPSE
  5
CA32
100
AcDbEntity
  8
0
100
AcDbEllipse
 10
331.000099
 20
567.829357
 30
0.0
 11
2.983077570132104
 21
0.0000000000002996
 31
0.0
210
0.0
220
0.0
230
1.0
 40
0.958812
 41
-1.562393163247347
 42
0.0084031635475457
1001
ACAD
1000
ASC_BOUNDS
1002
{
1070
    19
1002
}
  0
ELLIPSE
  5
CA33
100
AcDbEntity
  8
0
100
AcDbEllipse
 10
330.956923
 20
568.159476
 30
0.0
 11
-4.072692107280919
 21
0.0000000000000925
 31
0.0
210
0.0
220
0.0
230
1.0
 40
0.958812
 41
1.587553347046634
 42
2.408388587343224
1001
ACAD
1000
ASC_BOUNDS
1002
{
1070
    19
1002
}
  0
LINE
  5
CA34
100
AcDbEntity
  8
0
100
AcDbLine
 10
333.983071
 20
567.805322
 30
0.0
 11
333.983071
 21
568.910911
 31
0.0
1001
ACAD
1000
ASC_BOUNDS
1002
{
1070
    19
1002
}
  0
ELLIPSE
  5
CA35
100
AcDbEntity
  8
0
100
AcDbEllipse
 10
333.180927
 20
568.910911
 30
0.0
 11
-0.8021437979128705
 21
0.000000000000038
 31
0.0
210
0.0
220
0.0
230
1.0
 40
0.958812
 41
3.141592653589842
 42
4.712388980384734
1001
ACAD
1000
ASC_BOUNDS
1002
{
1070
    19
1002
}
  0
LINE
  5
CA36
100
AcDbEntity
  8
0
100
AcDbLine
 10
328.067261
 20
564.392417
 30
0.0
 11
327.164849
 21
564.392417
 31
0.0
1001
ACAD
1000
ASC_BOUNDS
1002
{
1070
    19
1002
}
  0
ELLIPSE
  5
CA37
100
AcDbEntity
  8
0
100
AcDbEllipse
 10
328.067261
 20
564.392417
 30
0.0
 11
-1.203215696869327
 21
0.0000000000001967
 31
0.0
210
0.0
220
0.0
230
1.0
 40
0.958812
 41
-1.570796326794739
 42
0.0000000000001705
1001
ACAD
1000
ASC_BOUNDS
1002
{
1070
    19
1002
}
  0
LINE
  5
CA38
100
AcDbEntity
  8
0
100
AcDbLine
 10
326.864045
 20
564.392417
 30
0.0
 11
327.164849
 21
564.392417
 31
0.0
1001
ACAD
1000
ASC_BOUNDS
1002
{
1070
    19
1002
}
  0
LINE
  5
CA39
100
AcDbEntity
  8
0
100
AcDbLine
 10
328.067261
 20
562.544998
 30
0.0
 11
328.067261
 21
560.835305
 31
0.0
1001
ACAD
1000
ASC_BOUNDS
1002
{
1070
    19
1002
}
  0
ELLIPSE
  5
CA3A
100
AcDbEntity
  8
0
100
AcDbEllipse
 10
328.869405
 20
560.835305
 30
0.0
 11
-0.8021437979128705
 21
0.0000000000000154
 31
0.0
210
0.0
220
0.0
230
1.0
 40
0.958812
 41
0.00000000000002
 42
1.570796326794914
1001
ACAD
1000
ASC_BOUNDS
1002
{
1070
    19
1002
}
  0
LINE
  5
CA3B
100
AcDbEntity
  8
0
100
AcDbLine
 10
328.067261
 20
566.11122
 30
0.0
 11
328.067261
 21
568.910911
 31
0.0
1001
ACAD
1000
ASC_BOUNDS
1002
{
1070
    19
1002
}
  0
LINE
  5
CA3C
100
AcDbEntity
  8
0
100
AcDbLine
 10
328.067261
 20
564.392417
 30
0.0
 11
328.067261
 21
563.684451
 31
0.0
1001
ACAD
1000
ASC_BOUNDS
1002
{
1070
    19
1002
}
  0
LINE
  5
CA3D
100
AcDbEntity
  8
0
100
AcDbLine
 10
328.067261
 20
566.11122
 30
0.0
 11
328.067261
 21
565.546075
 31
0.0
1001
ACAD
1000
ASC_BOUNDS
1002
{
1070
    19
1002
}
  0
ELLIPSE
  5
CA3E
100
AcDbEntity
  8
0
100
AcDbEllipse
 10
328.869405
 20
568.910911
 30
0.0
 11
0.8021437979128704
 21
0.000000000000038
 31
0.0
210
0.0
220
0.0
230
1.0
 40
0.958812
 41
1.570796326794851
 42
3.141592653589743
1001
ACAD
1000
ASC_BOUNDS
1002
{
1070
    19
1002
}
  0
LINE
  5
CA3F
100
AcDbEntity
  8
WYMIARY
 62
     3
100
AcDbLine
 10
326.041244
 20
572.339774
 30
0.0
 11
326.041244
 21
557.649937
 31
0.0
  0
LINE
  5
CA40
100
AcDbEntity
  8
0
100
AcDbLine
 10
328.869405
 20
560.0662
 30
0.0
 11
333.180927
 21
560.0662
 31
0.0
1001
ACAD
1000
ASC_BOUNDS
1002
{
1070
    19
1002
}
  0
ELLIPSE
  5
CA41
100
AcDbEntity
  8
0
100
AcDbEllipse
 10
330.619191
 20
562.522424
 30
0.0
 11
2.960559210508897
 21
0.3570763225581005
 31
0.0
210
0.0
220
0.0
230
1.0
 40
0.820999
 41
1.335209029023201
 42
2.503032872947537
1001
ACAD
1000
ASC_BOUNDS
1002
{
1070
    19
1002
}
  0
ELLIPSE
  5
CA42
100
AcDbEntity
  8
0
100
AcDbEllipse
 10
330.849697
 20
561.587243
 30
0.0
 11
3.015746449176212
 21
0.7746519372140012
 31
0.0
210
0.0
220
0.0
230
1.0
 40
0.846775
 41
1.29973646820557
 42
2.479974117225238
1001
ACAD
1000
ASC_BOUNDS
1002
{
1070
    19
1002
}
  0
LINE
  5
CA43
100
AcDbEntity
  8
0
100
AcDbLine
 10
328.869405
 20
569.680016
 30
0.0
 11
333.180927
 21
569.680016
 31
0.0
  0
ARC
  5
CA44
100
AcDbEntity
  8
0
100
AcDbCircle
 10
343.426185
 20
563.122301
 30
0.0
 40
1.425319
100
AcDbArc
 50
269.703671
 51
350.465171
  0
ARC
  5
CA45
100
AcDbEntity
  8
0
100
AcDbCircle
 10
343.426185
 20
566.828307
 30
0.0
 40
1.425319
100
AcDbArc
 50
9.534829
 51
90.296329
  0
LINE
  5
CA46
100
AcDbEntity
  8
0
100
AcDbLine
 10
344.831813
 20
564.461607
 30
0.0
 11
342.707813
 21
564.461607
 31
0.0
  0
LINE
  5
CA47
100
AcDbEntity
  8
0
100
AcDbLine
 10
343.382813
 20
563.786607
 30
0.0
 11
344.831813
 21
563.786607
 31
0.0
  0
ARC
  5
CA48
100
AcDbEntity
  8
0
100
AcDbCircle
 10
342.571442
 20
563.122301
 30
0.0
 40
1.425319
100
AcDbArc
 50
189.534829
 51
270.296329
  0
LINE
  5
CA49
100
AcDbEntity
  8
0
100
AcDbLine
 10
338.261829
 20
567.011201
 30
0.0
 11
338.273402
 21
561.665201
 31
0.0
  0
LINE
  5
CA4A
100
AcDbEntity
  8
0
100
AcDbLine
 10
338.261829
 20
561.665201
 30
0.0
 11
338.273402
 21
561.672695
 31
0.0
  0
LINE
  5
CA4B
100
AcDbEntity
  8
0
100
AcDbLine
 10
342.56407
 20
561.697001
 30
0.0
 11
343.418813
 21
561.697001
 31
0.0
  0
ARC
  5
CA4C
100
AcDbEntity
  8
0
100
AcDbCircle
 10
339.168487
 20
566.991207
 30
0.0
 40
1.377457
100
AcDbArc
 50
16.265061
 51
130.527299
  0
ARC
  5
CA4D
100
AcDbEntity
  8
0
100
AcDbCircle
 10
342.571442
 20
566.828307
 30
0.0
 40
1.425319
100
AcDbArc
 50
89.703671
 51
170.465171
  0
LINE
  5
CA4E
100
AcDbEntity
  8
0
100
AcDbLine
 10
339.28074
 20
565.586007
 30
0.0
 11
340.490813
 21
565.586007
 31
0.0
  0
LINE
  5
CA4F
100
AcDbEntity
  8
0
100
AcDbLine
 10
338.948402
 20
565.586007
 30
0.0
 11
340.490813
 21
565.586007
 31
0.0
  0
ARC
  5
CA50
100
AcDbEntity
  8
0
100
AcDbCircle
 10
338.599329
 20
567.011201
 30
0.0
 40
0.3375
100
AcDbArc
 50
360.0
 51
180.0
  0
LINE
  5
CA51
100
AcDbEntity
  8
0
100
AcDbLine
 10
338.936829
 20
567.011201
 30
0.0
 11
338.948402
 21
565.586007
 31
0.0
  0
ARC
  5
CA52
100
AcDbEntity
  8
0
100
AcDbCircle
 10
343.045313
 20
567.011201
 30
0.0
 40
0.3375
100
AcDbArc
 50
360.0
 51
180.0
  0
LINE
  5
CA53
100
AcDbEntity
  8
0
100
AcDbLine
 10
342.707813
 20
564.461607
 30
0.0
 11
342.707813
 21
562.886201
 31
0.0
  0
LINE
  5
CA54
100
AcDbEntity
  8
0
100
AcDbLine
 10
342.707813
 20
565.361607
 30
0.0
 11
343.382813
 21
565.361607
 31
0.0
  0
LINE
  5
CA55
100
AcDbEntity
  8
0
100
AcDbLine
 10
343.382813
 20
563.786607
 30
0.0
 11
343.382813
 21
562.902701
 31
0.0
  0
LINE
  5
CA56
100
AcDbEntity
  8
0
100
AcDbLine
 10
342.707813
 20
564.461607
 30
0.0
 11
342.707813
 21
562.902701
 31
0.0
  0
ARC
  5
CA57
100
AcDbEntity
  8
0
100
AcDbCircle
 10
343.045313
 20
562.902701
 30
0.0
 40
0.3375
100
AcDbArc
 50
180.0
 51
0.0
  0
LINE
  5
CA58
100
AcDbEntity
  8
0
100
AcDbLine
 10
343.382813
 20
567.011201
 30
0.0
 11
343.382813
 21
565.361607
 31
0.0
  0
LINE
  5
CA59
100
AcDbEntity
  8
0
100
AcDbLine
 10
342.707813
 20
567.011201
 30
0.0
 11
342.707813
 21
565.361607
 31
0.0
  0
LINE
  5
CA5A
100
AcDbEntity
  8
0
100
AcDbLine
 10
340.490813
 20
565.586007
 30
0.0
 11
340.490813
 21
567.377007
 31
0.0
1001
ACAD
1000
ASC_BOUNDS
1002
{
1070
    19
1002
}
  0
LINE
  5
CA5B
100
AcDbEntity
  8
0
100
AcDbLine
 10
341.165813
 20
562.886201
 30
0.0
 11
341.165813
 21
567.064407
 31
0.0
  0
LINE
  5
CA5C
100
AcDbEntity
  8
0
100
AcDbLine
 10
338.273402
 20
568.253607
 30
0.0
 11
338.273402
 21
568.038207
 31
0.0
  0
LINE
  5
CA5D
100
AcDbEntity
  8
0
100
AcDbLine
 10
342.56407
 20
568.253607
 30
0.0
 11
343.418813
 21
568.253607
 31
0.0
  0
LINE
  5
CA5E
100
AcDbEntity
  8
0
100
AcDbLine
 10
336.731287
 20
561.665201
 30
0.0
 11
336.731287
 21
568.253607
 31
0.0
1001
ACAD
1000
ASC_BOUNDS
1002
{
1070
    19
1002
}
  0
LINE
  5
CA5F
100
AcDbEntity
  8
0
100
AcDbLine
 10
335.186287
 20
565.546075
 30
0.0
 11
334.885483
 21
565.546075
 31
0.0
1001
ACAD
1000
ASC_BOUNDS
1002
{
1070
    19
1002
}
  0
LINE
  5
CA60
100
AcDbEntity
  8
0
100
AcDbLine
 10
336.731287
 20
561.665201
 30
0.0
 11
338.273402
 21
561.665201
 31
0.0
1001
ACAD
1000
ASC_BOUNDS
1002
{
1070
    19
1002
}
  0
LINE
  5
CA61
100
AcDbEntity
  8
0
100
AcDbLine
 10
336.731287
 20
568.253607
 30
0.0
 11
338.273402
 21
568.253607
 31
0.0
1001
ACAD
1000
ASC_BOUNDS
1002
{
1070
    19
1002
}
  0
ARC
  5
CA62
100
AcDbEntity
  8
0
100
AcDbCircle
 10
350.35172
 20
562.786353
 30
0.0
 40
1.128907
100
AcDbArc
 50
276.719576
 51
2.175194
  0
ARC
  5
CA63
100
AcDbEntity
  8
0
100
AcDbCircle
 10
353.612652
 20
563.153509
 30
0.0
 40
1.488419
100
AcDbArc
 50
191.634268
 51
270.699113
  0
LINE
  5
CA64
100
AcDbEntity
  8
0
100
AcDbLine
 10
353.630813
 20
561.665201
 30
0.0
 11
354.560813
 21
561.665201
 31
0.0
  0
ARC
  5
CA65
100
AcDbEntity
  8
0
100
AcDbCircle
 10
353.612652
 20
566.77404
 30
0.0
 40
1.488419
100
AcDbArc
 50
89.300887
 51
168.365732
  0
LINE
  5
CA66
100
AcDbEntity
  8
0
100
AcDbLine
 10
351.479813
 20
567.233201
 30
0.0
 11
351.479813
 21
562.829201
 31
0.0
  0
ARC
  5
CA67
100
AcDbEntity
  8
0
100
AcDbCircle
 10
354.095813
 20
567.011201
 30
0.0
 40
0.3375
100
AcDbArc
 50
360.0
 51
180.0
  0
ARC
  5
CA68
100
AcDbEntity
  8
0
100
AcDbCircle
 10
354.095813
 20
562.902701
 30
0.0
 40
0.3375
100
AcDbArc
 50
180.0
 51
0.0
  0
LINE
  5
CA69
100
AcDbEntity
  8
0
100
AcDbLine
 10
353.758313
 20
567.011201
 30
0.0
 11
353.758313
 21
562.902701
 31
0.0
  0
LINE
  5
CA6A
100
AcDbEntity
  8
0
100
AcDbLine
 10
354.433313
 20
567.011201
 30
0.0
 11
354.433313
 21
562.902701
 31
0.0
  0
LINE
  5
CA6B
100
AcDbEntity
  8
0
100
AcDbLine
 10
352.154813
 20
562.853348
 30
0.0
 11
352.154813
 21
567.074201
 31
0.0
  0
LINE
  5
CA6C
100
AcDbEntity
  8
0
100
AcDbLine
 10
353.630813
 20
568.262348
 30
0.0
 11
354.560813
 21
568.262348
 31
0.0
  0
LINE
  5
CA6D
100
AcDbEntity
  8
0
100
AcDbLine
 10
349.262813
 20
562.088201
 30
0.0
 11
349.262813
 21
560.066201
 31
0.0
  0
ARC
  5
CA6E
100
AcDbEntity
  8
0
100
AcDbCircle
 10
349.912393
 20
562.374701
 30
0.0
 40
0.709955
100
AcDbArc
 50
203.80008
 51
272.051918
  0
LINE
  5
CA6F
100
AcDbEntity
  8
0
100
AcDbLine
 10
347.717813
 20
560.066201
 30
0.0
 11
347.717813
 21
568.262201
 31
0.0
  0
LINE
  5
CA70
100
AcDbEntity
  8
0
100
AcDbLine
 10
345.518813
 20
561.665201
 30
0.0
 11
345.518813
 21
569.861201
 31
0.0
  0
LINE
  5
CA71
100
AcDbEntity
  8
0
100
AcDbLine
 10
347.063813
 20
569.861201
 30
0.0
 11
347.063813
 21
561.665201
 31
0.0
  0
LINE
  5
CA72
100
AcDbEntity
  8
0
100
AcDbLine
 10
349.262813
 20
560.066201
 30
0.0
 11
347.717813
 21
560.066201
 31
0.0
  0
LINE
  5
CA73
100
AcDbEntity
  8
0
100
AcDbLine
 10
347.063813
 20
561.665201
 30
0.0
 11
345.518813
 21
561.665201
 31
0.0
  0
LINE
  5
CA74
100
AcDbEntity
  8
0
100
AcDbLine
 10
344.831813
 20
563.786607
 30
0.0
 11
344.831813
 21
562.886201
 31
0.0
  0
LINE
  5
CA75
100
AcDbEntity
  8
0
100
AcDbLine
 10
344.831813
 20
564.461607
 30
0.0
 11
344.831813
 21
567.064407
 31
0.0
  0
LINE
  5
CA76
100
AcDbEntity
  8
0
100
AcDbLine
 10
349.937813
 20
567.011201
 30
0.0
 11
349.937813
 21
562.902701
 31
0.0
  0
LINE
  5
CA77
100
AcDbEntity
  8
0
100
AcDbLine
 10
349.262813
 20
567.011201
 30
0.0
 11
349.262813
 21
562.902701
 31
0.0
  0
ARC
  5
CA78
100
AcDbEntity
  8
0
100
AcDbCircle
 10
349.600313
 20
562.902701
 30
0.0
 40
0.3375
100
AcDbArc
 50
180.0
 51
0.0
  0
ARC
  5
CA79
100
AcDbEntity
  8
0
100
AcDbCircle
 10
349.600313
 20
567.011201
 30
0.0
 40
0.3375
100
AcDbArc
 50
360.0
 51
180.0
  0
LINE
  5
CA7A
100
AcDbEntity
  8
0
100
AcDbLine
 10
347.717813
 20
568.262201
 30
0.0
 11
349.262813
 21
568.262201
 31
0.0
  0
LINE
  5
CA7B
100
AcDbEntity
  8
0
100
AcDbLine
 10
345.518813
 20
569.861201
 30
0.0
 11
347.063813
 21
569.861201
 31
0.0
  0
LINE
  5
CA7C
100
AcDbEntity
  8
0
100
AcDbLine
 10
349.262813
 20
568.262201
 30
0.0
 11
349.262813
 21
567.974201
 31
0.0
  0
LINE
  5
CA7D
100
AcDbEntity
  8
0
100
AcDbLine
 10
349.945859
 20
561.665201
 30
0.0
 11
350.483813
 21
561.665201
 31
0.0
  0
ARC
  5
CA7E
100
AcDbEntity
  8
0
100
AcDbCircle
 10
350.12184
 20
566.857302
 30
0.0
 40
1.409039
100
AcDbArc
 50
15.47255
 51
127.56454
  0
LINE
  5
CA7F
100
AcDbEntity
  8
WYMIARY
 62
     3
100
AcDbLine
 10
331.074021
 20
615.942188
 30
0.0
 11
331.074021
 21
614.554062
 31
0.0
  0
LINE
  5
CA80
100
AcDbEntity
  8
WYMIARY
 62
     3
100
AcDbLine
 10
327.506855
 20
617.938799
 30
0.0
 11
328.894981
 21
617.938799
 31
0.0
  0
LINE
  5
CA81
100
AcDbEntity
  8
WYMIARY
 62
     3
100
AcDbLine
 10
327.506855
 20
615.942188
 30
0.0
 11
327.506855
 21
617.938799
 31
0.0
  0
LINE
  5
CA82
100
AcDbEntity
  8
WYMIARY
 62
     3
100
AcDbLine
 10
325.534382
 20
615.942188
 30
0.0
 11
327.506855
 21
615.942188
 31
0.0
  0
LINE
  5
CA83
100
AcDbEntity
  8
WYMIARY
 62
     3
100
AcDbLine
 10
328.894981
 20
615.942188
 30
0.0
 11
328.894981
 21
617.938799
 31
0.0
  0
TEXT
  5
CA84
100
AcDbEntity
  8
1
100
AcDbText
 10
327.4605
 20
619.658792
 30
0.0
 40
3.0
  1
2
 41
0.65
  7
ITALIC
100
AcDbText
  0
LINE
  5
CA85
100
AcDbEntity
  8
WYMIARY
 62
     3
100
AcDbLine
 10
327.506855
 20
612.399159
 30
0.0
 11
328.894981
 21
612.399159
 31
0.0
  0
LINE
  5
CA86
100
AcDbEntity
  8
WYMIARY
 62
     3
100
AcDbLine
 10
327.506855
 20
612.399159
 30
0.0
 11
328.894981
 21
612.399159
 31
0.0
  0
LINE
  5
CA87
100
AcDbEntity
  8
WYMIARY
 62
     3
100
AcDbLine
 10
327.506855
 20
612.399159
 30
0.0
 11
328.894981
 21
612.399159
 31
0.0
  0
LINE
  5
CA88
100
AcDbEntity
  8
WYMIARY
 62
     3
100
AcDbLine
 10
327.506855
 20
612.399159
 30
0.0
 11
327.506855
 21
614.554062
 31
0.0
  0
LINE
  5
CA89
100
AcDbEntity
  8
WYMIARY
 62
     3
100
AcDbLine
 10
325.534382
 20
614.554062
 30
0.0
 11
327.506855
 21
614.554062
 31
0.0
  0
LINE
  5
CA8A
100
AcDbEntity
  8
WYMIARY
 62
     3
100
AcDbLine
 10
328.894981
 20
612.399159
 30
0.0
 11
328.894981
 21
614.554062
 31
0.0
  0
LINE
  5
CA8B
100
AcDbEntity
  8
WYMIARY
 62
     3
100
AcDbLine
 10
325.534382
 20
615.942188
 30
0.0
 11
325.534382
 21
614.554062
 31
0.0
  0
LINE
  5
CA8C
100
AcDbEntity
  8
WYMIARY
 62
     3
100
AcDbLine
 10
328.894981
 20
615.942188
 30
0.0
 11
331.074021
 21
615.942188
 31
0.0
  0
LINE
  5
CA8D
100
AcDbEntity
  8
WYMIARY
 62
     3
100
AcDbLine
 10
328.894981
 20
614.554062
 30
0.0
 11
331.074021
 21
614.554062
 31
0.0
  0
CIRCLE
  5
CA8E
100
AcDbEntity
  8
WYMIARY
 62
     3
100
AcDbCircle
 10
328.127797
 20
615.168979
 30
0.0
 40
3.75
  0
LINE
  5
CA8F
100
AcDbEntity
  8
WYMIARY
 62
     3
100
AcDbLine
 10
340.894981
 20
615.942188
 30
0.0
 11
343.074021
 21
615.942188
 31
0.0
  0
LINE
  5
CA90
100
AcDbEntity
  8
WYMIARY
 62
     3
100
AcDbLine
 10
339.506855
 20
615.942188
 30
0.0
 11
339.506855
 21
617.938799
 31
0.0
  0
LINE
  5
CA91
100
AcDbEntity
  8
WYMIARY
 62
     3
100
AcDbLine
 10
340.894981
 20
615.942188
 30
0.0
 11
340.894981
 21
617.938799
 31
0.0
  0
LINE
  5
CA92
100
AcDbEntity
  8
WYMIARY
 62
     3
100
AcDbLine
 10
339.506855
 20
617.938799
 30
0.0
 11
340.894981
 21
617.938799
 31
0.0
  0
TEXT
  5
CA93
100
AcDbEntity
  8
1
100
AcDbText
 10
338.840446
 20
619.658792
 30
0.0
 40
3.0
  1
R4
 41
0.65
  7
ITALIC
100
AcDbText
  0
LINE
  5
CA94
100
AcDbEntity
  8
WYMIARY
 62
     3
100
AcDbLine
 10
340.894981
 20
614.554062
 30
0.0
 11
343.074021
 21
614.554062
 31
0.0
  0
LINE
  5
CA95
100
AcDbEntity
  8
WYMIARY
 62
     3
100
AcDbLine
 10
339.506855
 20
612.399159
 30
0.0
 11
339.506855
 21
614.554062
 31
0.0
  0
LINE
  5
CA96
100
AcDbEntity
  8
WYMIARY
 62
     3
100
AcDbLine
 10
340.894981
 20
612.399159
 30
0.0
 11
340.894981
 21
614.554062
 31
0.0
  0
LINE
  5
CA97
100
AcDbEntity
  8
WYMIARY
 62
     3
100
AcDbLine
 10
339.506855
 20
612.399159
 30
0.0
 11
340.894981
 21
612.399159
 31
0.0
  0
LINE
  5
CA98
100
AcDbEntity
  8
WYMIARY
 62
     3
100
AcDbLine
 10
339.506855
 20
612.399159
 30
0.0
 11
340.894981
 21
612.399159
 31
0.0
  0
LINE
  5
CA99
100
AcDbEntity
  8
WYMIARY
 62
     3
100
AcDbLine
 10
339.506855
 20
612.399159
 30
0.0
 11
340.894981
 21
612.399159
 31
0.0
  0
LINE
  5
CA9A
100
AcDbEntity
  8
WYMIARY
 62
     3
100
AcDbLine
 10
343.074021
 20
615.942188
 30
0.0
 11
343.074021
 21
614.554062
 31
0.0
  0
LINE
  5
CA9B
100
AcDbEntity
  8
WYMIARY
 62
     3
100
AcDbLine
 10
337.534382
 20
615.942188
 30
0.0
 11
337.534382
 21
614.554062
 31
0.0
  0
LINE
  5
CA9C
100
AcDbEntity
  8
WYMIARY
 62
     3
100
AcDbLine
 10
337.534382
 20
615.942188
 30
0.0
 11
339.506855
 21
615.942188
 31
0.0
  0
LINE
  5
CA9D
100
AcDbEntity
  8
WYMIARY
 62
     3
100
AcDbLine
 10
337.534382
 20
614.554062
 30
0.0
 11
339.506855
 21
614.554062
 31
0.0
  0
CIRCLE
  5
CA9E
100
AcDbEntity
  8
WYMIARY
 62
     3
100
AcDbCircle
 10
340.127797
 20
615.168979
 30
0.0
 40
3.75
  0
LINE
  5
CA9F
100
AcDbEntity
  8
WYMIARY
 62
     3
100
AcDbLine
 10
355.142557
 20
615.942188
 30
0.0
 11
355.142557
 21
617.938799
 31
0.0
  0
LINE
  5
CAA0
100
AcDbEntity
  8
WYMIARY
 62
     3
100
AcDbLine
 10
355.142557
 20
612.399159
 30
0.0
 11
355.142557
 21
614.554062
 31
0.0
  0
TEXT
  5
CAA1
100
AcDbEntity
  8
1
100
AcDbText
 10
346.726454
 20
615.933336
 30
0.0
 40
3.0
  1
A2
 41
0.65
  7
ITALIC
100
AcDbText
  0
LINE
  5
CAA2
100
AcDbEntity
  8
WYMIARY
 62
     3
100
AcDbLine
 10
348.516094
 20
612.061093
 30
0.0
 11
350.041422
 21
612.061093
 31
0.0
  0
LINE
  5
CAA3
100
AcDbEntity
  8
WYMIARY
 62
     3
100
AcDbLine
 10
348.516094
 20
613.032781
 30
0.0
 11
350.041422
 21
613.032781
 31
0.0
  0
LINE
  5
CAA4
100
AcDbEntity
  8
WYMIARY
 62
     3
100
AcDbLine
 10
347.544406
 20
614.430408
 30
0.0
 11
348.516094
 21
614.430408
 31
0.0
  0
LINE
  5
CAA5
100
AcDbEntity
  8
WYMIARY
 62
     3
100
AcDbLine
 10
347.544406
 20
610.55266
 30
0.0
 11
348.516094
 21
610.55266
 31
0.0
  0
LINE
  5
CAA6
100
AcDbEntity
  8
WYMIARY
 62
     3
100
AcDbLine
 10
347.544406
 20
610.55266
 30
0.0
 11
348.516094
 21
610.55266
 31
0.0
  0
LINE
  5
CAA7
100
AcDbEntity
  8
WYMIARY
 62
     3
100
AcDbLine
 10
347.544406
 20
610.55266
 30
0.0
 11
348.516094
 21
610.55266
 31
0.0
  0
LINE
  5
CAA8
100
AcDbEntity
  8
WYMIARY
 62
     3
100
AcDbLine
 10
347.544406
 20
610.55266
 30
0.0
 11
347.544406
 21
612.061093
 31
0.0
  0
LINE
  5
CAA9
100
AcDbEntity
  8
WYMIARY
 62
     3
100
AcDbLine
 10
348.516094
 20
610.55266
 30
0.0
 11
348.516094
 21
612.061093
 31
0.0
  0
LINE
  5
CAAA
100
AcDbEntity
  8
WYMIARY
 62
     3
100
AcDbLine
 10
348.516094
 20
613.032781
 30
0.0
 11
348.516094
 21
614.430408
 31
0.0
  0
LINE
  5
CAAB
100
AcDbEntity
  8
WYMIARY
 62
     3
100
AcDbLine
 10
347.544406
 20
613.032781
 30
0.0
 11
347.544406
 21
614.430408
 31
0.0
  0
LINE
  5
CAAC
100
AcDbEntity
  8
WYMIARY
 62
     3
100
AcDbLine
 10
350.041422
 20
613.032781
 30
0.0
 11
350.041422
 21
612.061093
 31
0.0
  0
LINE
  5
CAAD
100
AcDbEntity
  8
WYMIARY
 62
     3
100
AcDbLine
 10
353.170084
 20
615.942188
 30
0.0
 11
353.170084
 21
614.554062
 31
0.0
  0
LINE
  5
CAAE
100
AcDbEntity
  8
WYMIARY
 62
     3
100
AcDbLine
 10
346.163675
 20
613.032781
 30
0.0
 11
346.163675
 21
612.061093
 31
0.0
  0
CIRCLE
  5
CAAF
100
AcDbEntity
  8
WYMIARY
 62
     3
100
AcDbCircle
 10
348.027797
 20
612.518979
 30
0.0
 40
2.25
  0
LINE
  5
CAB0
100
AcDbEntity
  8
WYMIARY
 62
     3
100
AcDbLine
 10
346.163675
 20
612.061093
 30
0.0
 11
347.544406
 21
612.061093
 31
0.0
  0
LINE
  5
CAB1
100
AcDbEntity
  8
WYMIARY
 62
     3
100
AcDbLine
 10
346.163675
 20
613.032781
 30
0.0
 11
347.544406
 21
613.032781
 31
0.0
  0
LINE
  5
CAB2
100
AcDbEntity
  8
WYMIARY
 62
     3
100
AcDbLine
 10
353.170084
 20
615.942188
 30
0.0
 11
355.142557
 21
615.942188
 31
0.0
  0
LINE
  5
CAB3
100
AcDbEntity
  8
WYMIARY
 62
     3
100
AcDbLine
 10
353.170084
 20
614.554062
 30
0.0
 11
355.142557
 21
614.554062
 31
0.0
  0
TEXT
  5
CAB4
100
AcDbEntity
  8
WY
100
AcDbText
 10
362.787
 20
564.253947
 30
0.0
 40
2.0
  1
02-02-2008
 51
15.0
  7
ITALIC
100
AcDbText
  0
LINE
  5
CAB5
100
AcDbEntity
  8
0
100
AcDbLine
 10
358.256813
 20
569.861201
 30
0.0
 11
358.256813
 21
561.665201
 31
0.0
  0
LINE
  5
CAB6
100
AcDbEntity
  8
1
100
AcDbLine
 10
361.839456
 20
557.649937
 30
0.0
 11
361.839456
 21
572.339774
 31
0.0
  0
LINE
  5
CAB7
100
AcDbEntity
  8
0
100
AcDbLine
 10
356.711813
 20
561.665201
 30
0.0
 11
356.711813
 21
569.861201
 31
0.0
  0
LINE
  5
CAB8
100
AcDbEntity
  8
0
100
AcDbLine
 10
356.036813
 20
567.074201
 30
0.0
 11
356.036813
 21
562.853348
 31
0.0
  0
LINE
  5
CAB9
100
AcDbEntity
  8
0
100
AcDbLine
 10
358.256813
 20
561.665201
 30
0.0
 11
356.711813
 21
561.665201
 31
0.0
  0
LINE
  5
CABA
100
AcDbEntity
  8
0
100
AcDbLine
 10
356.711813
 20
569.861201
 30
0.0
 11
358.256813
 21
569.861201
 31
0.0
  0
TEXT
  5
CABB
100
AcDbEntity
  8
WY
100
AcDbText
 10
367.218369
 20
568.799175
 30
0.0
 40
2.0
  1
Data
 51
15.0
  7
ITALIC
100
AcDbText
  0
LINE
  5
CABC
100
AcDbEntity
  8
WYMIARY
 62
     3
100
AcDbLine
 10
384.742781
 20
572.339774
 30
0.0
 11
384.742781
 21
557.649937
 31
0.0
  0
LINE
  5
CABD
100
AcDbEntity
  8
WYMIARY
 62
     3
100
AcDbLine
 10
365.259822
 20
615.942188
 30
0.0
 11
367.232296
 21
615.942188
 31
0.0
  0
LINE
  5
CABE
100
AcDbEntity
  8
WYMIARY
 62
     3
100
AcDbLine
 10
365.259822
 20
614.554062
 30
0.0
 11
367.232296
 21
614.554062
 31
0.0
  0
CIRCLE
  5
CABF
100
AcDbEntity
  8
WYMIARY
 62
     3
100
AcDbCircle
 10
367.927797
 20
615.168979
 30
0.0
 40
3.75
  0
LINE
  5
CAC0
100
AcDbEntity
  8
WYMIARY
 62
     3
100
AcDbLine
 10
365.259822
 20
615.942188
 30
0.0
 11
365.259822
 21
614.554062
 31
0.0
  0
LINE
  5
CAC1
100
AcDbEntity
  8
WYMIARY
 62
     3
100
AcDbLine
 10
356.530683
 20
615.942188
 30
0.0
 11
358.709724
 21
615.942188
 31
0.0
  0
LINE
  5
CAC2
100
AcDbEntity
  8
WYMIARY
 62
     3
100
AcDbLine
 10
356.530683
 20
615.942188
 30
0.0
 11
356.530683
 21
617.938799
 31
0.0
  0
LINE
  5
CAC3
100
AcDbEntity
  8
WYMIARY
 62
     3
100
AcDbLine
 10
356.530683
 20
614.554062
 30
0.0
 11
358.709724
 21
614.554062
 31
0.0
  0
LINE
  5
CAC4
100
AcDbEntity
  8
WYMIARY
 62
     3
100
AcDbLine
 10
356.530683
 20
612.399159
 30
0.0
 11
356.530683
 21
614.554062
 31
0.0
  0
LINE
  5
CAC5
100
AcDbEntity
  8
WYMIARY
 62
     3
100
AcDbLine
 10
358.709724
 20
615.942188
 30
0.0
 11
358.709724
 21
614.554062
 31
0.0
  0
LINE
  5
CAC6
100
AcDbEntity
  8
WYMIARY
 62
     3
100
AcDbLine
 10
367.232296
 20
617.938799
 30
0.0
 11
368.620422
 21
617.938799
 31
0.0
  0
LINE
  5
CAC7
100
AcDbEntity
  8
WYMIARY
 62
     3
100
AcDbLine
 10
367.232296
 20
615.942188
 30
0.0
 11
367.232296
 21
617.938799
 31
0.0
  0
LINE
  5
CAC8
100
AcDbEntity
  8
WYMIARY
 62
     3
100
AcDbLine
 10
368.620422
 20
615.942188
 30
0.0
 11
368.620422
 21
617.938799
 31
0.0
  0
LINE
  5
CAC9
100
AcDbEntity
  8
WYMIARY
 62
     3
100
AcDbLine
 10
368.620422
 20
615.942188
 30
0.0
 11
370.799462
 21
615.942188
 31
0.0
  0
TEXT
  5
CACA
100
AcDbEntity
  8
1
100
AcDbText
 10
367.348587
 20
619.658792
 30
0.0
 40
3.0
  1
8
 41
0.65
  7
ITALIC
100
AcDbText
  0
LINE
  5
CACB
100
AcDbEntity
  8
WYMIARY
 62
     3
100
AcDbLine
 10
367.232296
 20
612.399159
 30
0.0
 11
368.620422
 21
612.399159
 31
0.0
  0
LINE
  5
CACC
100
AcDbEntity
  8
WYMIARY
 62
     3
100
AcDbLine
 10
368.620422
 20
612.399159
 30
0.0
 11
368.620422
 21
614.554062
 31
0.0
  0
LINE
  5
CACD
100
AcDbEntity
  8
WYMIARY
 62
     3
100
AcDbLine
 10
367.232296
 20
612.399159
 30
0.0
 11
367.232296
 21
614.554062
 31
0.0
  0
LINE
  5
CACE
100
AcDbEntity
  8
WYMIARY
 62
     3
100
AcDbLine
 10
368.620422
 20
614.554062
 30
0.0
 11
370.799462
 21
614.554062
 31
0.0
  0
LINE
  5
CACF
100
AcDbEntity
  8
WYMIARY
 62
     3
100
AcDbLine
 10
370.799462
 20
615.942188
 30
0.0
 11
370.799462
 21
614.554062
 31
0.0
  0
LINE
  5
CAD0
100
AcDbEntity
  8
WYMIARY
 62
     3
100
AcDbLine
 10
395.268369
 20
615.942188
 30
0.0
 11
397.240842
 21
615.942188
 31
0.0
  0
LINE
  5
CAD1
100
AcDbEntity
  8
WYMIARY
 62
     3
100
AcDbLine
 10
397.240842
 20
615.942188
 30
0.0
 11
397.240842
 21
617.938799
 31
0.0
  0
LINE
  5
CAD2
100
AcDbEntity
  8
WYMIARY
 62
     3
100
AcDbLine
 10
395.268369
 20
614.554062
 30
0.0
 11
397.240842
 21
614.554062
 31
0.0
  0
LINE
  5
CAD3
100
AcDbEntity
  8
WYMIARY
 62
     3
100
AcDbLine
 10
397.240842
 20
612.399159
 30
0.0
 11
397.240842
 21
614.554062
 31
0.0
  0
LINE
  5
CAD4
100
AcDbEntity
  8
WYMIARY
 62
     3
100
AcDbLine
 10
395.268369
 20
615.942188
 30
0.0
 11
395.268369
 21
614.554062
 31
0.0
  0
LINE
  5
CAD5
100
AcDbEntity
  8
WYMIARY
 62
     3
100
AcDbLine
 10
355.142557
 20
683.138799
 30
0.0
 11
356.530683
 21
683.138799
 31
0.0
  0
LINE
  5
CAD6
100
AcDbEntity
  8
WYMIARY
 62
     3
100
AcDbLine
 10
355.142557
 20
677.599159
 30
0.0
 11
356.530683
 21
677.599159
 31
0.0
  0
LINE
  5
CAD7
100
AcDbEntity
  8
WYMIARY
 62
     3
100
AcDbLine
 10
374.677797
 20
689.768979
 30
0.0
 11
321.377797
 21
689.768979
 31
0.0
  0
LINE
  5
CAD8
100
AcDbEntity
  8
WYMIARY
 62
     3
100
AcDbLine
 10
374.677797
 20
670.268979
 30
0.0
 11
321.377797
 21
670.268979
 31
0.0
  0
TEXT
  5
CAD9
100
AcDbEntity
  8
1
100
AcDbText
 10
354.434673
 20
673.000525
 30
0.0
 40
3.0
  1
R5
 41
0.65
  7
ITALIC
100
AcDbText
  0
CIRCLE
  5
CADA
100
AcDbEntity
  8
WYMIARY
 62
     3
100
AcDbCircle
 10
355.927797
 20
680.368979
 30
0.0
 40
3.75
  0
LINE
  5
CADB
100
AcDbEntity
  8
WYMIARY
 62
     3
100
AcDbLine
 10
374.677797
 20
625.268979
 30
0.0
 11
321.377797
 21
625.268979
 31
0.0
  0
LINE
  5
CADC
100
AcDbEntity
  8
WYMIARY
 62
     3
100
AcDbLine
 10
321.377797
 20
689.768979
 30
0.0
 11
340.127797
 21
689.768979
 31
0.0
  0
TEXT
  5
CADD
100
AcDbEntity
  8
1
100
AcDbText
 10
327.542782
 20
673.000525
 30
0.0
 40
3.0
  1
1
 41
0.65
  7
ITALIC
100
AcDbText
  0
LINE
  5
CADE
100
AcDbEntity
  8
WYMIARY
 62
     3
100
AcDbLine
 10
321.377797
 20
689.768979
 30
0.0
 11
328.127797
 21
689.768979
 31
0.0
  0
LINE
  5
CADF
100
AcDbEntity
  8
WYMIARY
 62
     3
100
AcDbLine
 10
321.377797
 20
689.768979
 30
0.0
 11
321.377797
 21
680.368979
 31
0.0
  0
LINE
  5
CAE0
100
AcDbEntity
  8
WYMIARY
 62
     3
100
AcDbLine
 10
331.074021
 20
679.595769
 30
0.0
 11
331.074021
 21
680.983895
 31
0.0
  0
LINE
  5
CAE1
100
AcDbEntity
  8
WYMIARY
 62
     3
100
AcDbLine
 10
327.506855
 20
683.138799
 30
0.0
 11
328.894981
 21
683.138799
 31
0.0
  0
LINE
  5
CAE2
100
AcDbEntity
  8
WYMIARY
 62
     3
100
AcDbLine
 10
327.506855
 20
683.138799
 30
0.0
 11
328.894981
 21
683.138799
 31
0.0
  0
LINE
  5
CAE3
100
AcDbEntity
  8
WYMIARY
 62
     3
100
AcDbLine
 10
327.506855
 20
683.138799
 30
0.0
 11
328.894981
 21
683.138799
 31
0.0
  0
LINE
  5
CAE4
100
AcDbEntity
  8
WYMIARY
 62
     3
100
AcDbLine
 10
327.506855
 20
677.599159
 30
0.0
 11
328.894981
 21
677.599159
 31
0.0
  0
LINE
  5
CAE5
100
AcDbEntity
  8
WYMIARY
 62
     3
100
AcDbLine
 10
327.506855
 20
679.595769
 30
0.0
 11
327.506855
 21
677.599159
 31
0.0
  0
LINE
  5
CAE6
100
AcDbEntity
  8
WYMIARY
 62
     3
100
AcDbLine
 10
325.534382
 20
679.595769
 30
0.0
 11
325.534382
 21
680.983895
 31
0.0
  0
LINE
  5
CAE7
100
AcDbEntity
  8
WYMIARY
 62
     3
100
AcDbLine
 10
325.534382
 20
680.983895
 30
0.0
 11
327.506855
 21
680.983895
 31
0.0
  0
LINE
  5
CAE8
100
AcDbEntity
  8
WYMIARY
 62
     3
100
AcDbLine
 10
325.534382
 20
679.595769
 30
0.0
 11
327.506855
 21
679.595769
 31
0.0
  0
LINE
  5
CAE9
100
AcDbEntity
  8
WYMIARY
 62
     3
100
AcDbLine
 10
328.894981
 20
679.595769
 30
0.0
 11
328.894981
 21
677.599159
 31
0.0
  0
LINE
  5
CAEA
100
AcDbEntity
  8
WYMIARY
 62
     3
100
AcDbLine
 10
327.506855
 20
683.138799
 30
0.0
 11
327.506855
 21
680.983895
 31
0.0
  0
LINE
  5
CAEB
100
AcDbEntity
  8
WYMIARY
 62
     3
100
AcDbLine
 10
328.894981
 20
683.138799
 30
0.0
 11
328.894981
 21
680.983895
 31
0.0
  0
LINE
  5
CAEC
100
AcDbEntity
  8
WYMIARY
 62
     3
100
AcDbLine
 10
328.894981
 20
680.983895
 30
0.0
 11
331.074021
 21
680.983895
 31
0.0
  0
LINE
  5
CAED
100
AcDbEntity
  8
WYMIARY
 62
     3
100
AcDbLine
 10
328.894981
 20
679.595769
 30
0.0
 11
331.074021
 21
679.595769
 31
0.0
  0
CIRCLE
  5
CAEE
100
AcDbEntity
  8
WYMIARY
 62
     3
100
AcDbCircle
 10
328.127797
 20
680.368979
 30
0.0
 40
3.75
  0
TEXT
  5
CAEF
100
AcDbEntity
  8
1
100
AcDbText
 10
338.721308
 20
673.000525
 30
0.0
 40
3.0
  1
R3
 41
0.65
  7
ITALIC
100
AcDbText
  0
CIRCLE
  5
CAF0
100
AcDbEntity
  8
WYMIARY
 62
     3
100
AcDbCircle
 10
348.027797
 20
673.318979
 30
0.0
 40
2.25
  0
LINE
  5
CAF1
100
AcDbEntity
  8
WYMIARY
 62
     3
100
AcDbLine
 10
339.506855
 20
683.138799
 30
0.0
 11
340.894981
 21
683.138799
 31
0.0
  0
LINE
  5
CAF2
100
AcDbEntity
  8
WYMIARY
 62
     3
100
AcDbLine
 10
339.506855
 20
683.138799
 30
0.0
 11
340.894981
 21
683.138799
 31
0.0
  0
LINE
  5
CAF3
100
AcDbEntity
  8
WYMIARY
 62
     3
100
AcDbLine
 10
339.506855
 20
683.138799
 30
0.0
 11
340.894981
 21
683.138799
 31
0.0
  0
LINE
  5
CAF4
100
AcDbEntity
  8
WYMIARY
 62
     3
100
AcDbLine
 10
339.506855
 20
677.599159
 30
0.0
 11
340.894981
 21
677.599159
 31
0.0
  0
LINE
  5
CAF5
100
AcDbEntity
  8
WYMIARY
 62
     3
100
AcDbLine
 10
343.074021
 20
679.595769
 30
0.0
 11
343.074021
 21
680.983895
 31
0.0
  0
LINE
  5
CAF6
100
AcDbEntity
  8
WYMIARY
 62
     3
100
AcDbLine
 10
340.894981
 20
680.983895
 30
0.0
 11
343.074021
 21
680.983895
 31
0.0
  0
LINE
  5
CAF7
100
AcDbEntity
  8
WYMIARY
 62
     3
100
AcDbLine
 10
340.894981
 20
679.595769
 30
0.0
 11
343.074021
 21
679.595769
 31
0.0
  0
LINE
  5
CAF8
100
AcDbEntity
  8
WYMIARY
 62
     3
100
AcDbLine
 10
340.894981
 20
679.595769
 30
0.0
 11
340.894981
 21
677.599159
 31
0.0
  0
LINE
  5
CAF9
100
AcDbEntity
  8
WYMIARY
 62
     3
100
AcDbLine
 10
339.506855
 20
679.595769
 30
0.0
 11
339.506855
 21
677.599159
 31
0.0
  0
LINE
  5
CAFA
100
AcDbEntity
  8
WYMIARY
 62
     3
100
AcDbLine
 10
339.506855
 20
683.138799
 30
0.0
 11
339.506855
 21
680.983895
 31
0.0
  0
LINE
  5
CAFB
100
AcDbEntity
  8
WYMIARY
 62
     3
100
AcDbLine
 10
340.894981
 20
683.138799
 30
0.0
 11
340.894981
 21
680.983895
 31
0.0
  0
LINE
  5
CAFC
100
AcDbEntity
  8
WYMIARY
 62
     3
100
AcDbLine
 10
337.534382
 20
679.595769
 30
0.0
 11
337.534382
 21
680.983895
 31
0.0
  0
LINE
  5
CAFD
100
AcDbEntity
  8
WYMIARY
 62
     3
100
AcDbLine
 10
337.534382
 20
680.983895
 30
0.0
 11
339.506855
 21
680.983895
 31
0.0
  0
LINE
  5
CAFE
100
AcDbEntity
  8
WYMIARY
 62
     3
100
AcDbLine
 10
337.534382
 20
679.595769
 30
0.0
 11
339.506855
 21
679.595769
 31
0.0
  0
CIRCLE
  5
CAFF
100
AcDbEntity
  8
WYMIARY
 62
     3
100
AcDbCircle
 10
340.127797
 20
680.368979
 30
0.0
 40
3.75
  0
LINE
  5
CB00
100
AcDbEntity
  8
WYMIARY
 62
     3
100
AcDbLine
 10
355.142557
 20
679.595769
 30
0.0
 11
355.142557
 21
677.599159
 31
0.0
  0
LINE
  5
CB01
100
AcDbEntity
  8
WYMIARY
 62
     3
100
AcDbLine
 10
355.142557
 20
683.138799
 30
0.0
 11
355.142557
 21
680.983895
 31
0.0
  0
LINE
  5
CB02
100
AcDbEntity
  8
WYMIARY
 62
     3
100
AcDbLine
 10
348.516094
 20
682.505176
 30
0.0
 11
350.041422
 21
682.505176
 31
0.0
  0
LINE
  5
CB03
100
AcDbEntity
  8
WYMIARY
 62
     3
100
AcDbLine
 10
348.516094
 20
683.476864
 30
0.0
 11
350.041422
 21
683.476864
 31
0.0
  0
TEXT
  5
CB04
100
AcDbEntity
  8
1
100
AcDbText
 10
346.726454
 20
677.393373
 30
0.0
 40
3.0
  1
A1
 41
0.65
  7
ITALIC
100
AcDbText
  0
LINE
  5
CB05
100
AcDbEntity
  8
WYMIARY
 62
     3
100
AcDbLine
 10
347.544406
 20
684.985297
 30
0.0
 11
347.544406
 21
683.476864
 31
0.0
  0
LINE
  5
CB06
100
AcDbEntity
  8
WYMIARY
 62
     3
100
AcDbLine
 10
348.516094
 20
684.985297
 30
0.0
 11
348.516094
 21
683.476864
 31
0.0
  0
LINE
  5
CB07
100
AcDbEntity
  8
WYMIARY
 62
     3
100
AcDbLine
 10
347.544406
 20
684.985297
 30
0.0
 11
348.516094
 21
684.985297
 31
0.0
  0
LINE
  5
CB08
100
AcDbEntity
  8
WYMIARY
 62
     3
100
AcDbLine
 10
347.544406
 20
684.985297
 30
0.0
 11
348.516094
 21
684.985297
 31
0.0
  0
LINE
  5
CB09
100
AcDbEntity
  8
WYMIARY
 62
     3
100
AcDbLine
 10
347.544406
 20
684.985297
 30
0.0
 11
348.516094
 21
684.985297
 31
0.0
  0
LINE
  5
CB0A
100
AcDbEntity
  8
WYMIARY
 62
     3
100
AcDbLine
 10
347.544406
 20
681.107549
 30
0.0
 11
348.516094
 21
681.107549
 31
0.0
  0
LINE
  5
CB0B
100
AcDbEntity
  8
WYMIARY
 62
     3
100
AcDbLine
 10
348.516094
 20
682.505176
 30
0.0
 11
348.516094
 21
681.107549
 31
0.0
  0
LINE
  5
CB0C
100
AcDbEntity
  8
WYMIARY
 62
     3
100
AcDbLine
 10
347.544406
 20
682.505176
 30
0.0
 11
347.544406
 21
681.107549
 31
0.0
  0
LINE
  5
CB0D
100
AcDbEntity
  8
WYMIARY
 62
     3
100
AcDbLine
 10
350.041422
 20
682.505176
 30
0.0
 11
350.041422
 21
683.476864
 31
0.0
  0
LINE
  5
CB0E
100
AcDbEntity
  8
WYMIARY
 62
     3
100
AcDbLine
 10
353.170084
 20
679.595769
 30
0.0
 11
353.170084
 21
680.983895
 31
0.0
  0
LINE
  5
CB0F
100
AcDbEntity
  8
WYMIARY
 62
     3
100
AcDbLine
 10
346.163675
 20
682.505176
 30
0.0
 11
346.163675
 21
683.476864
 31
0.0
  0
CIRCLE
  5
CB10
100
AcDbEntity
  8
WYMIARY
 62
     3
100
AcDbCircle
 10
348.027797
 20
683.018979
 30
0.0
 40
2.25
  0
LINE
  5
CB11
100
AcDbEntity
  8
WYMIARY
 62
     3
100
AcDbLine
 10
346.163675
 20
683.476864
 30
0.0
 11
347.544406
 21
683.476864
 31
0.0
  0
LINE
  5
CB12
100
AcDbEntity
  8
WYMIARY
 62
     3
100
AcDbLine
 10
346.163675
 20
682.505176
 30
0.0
 11
347.544406
 21
682.505176
 31
0.0
  0
LINE
  5
CB13
100
AcDbEntity
  8
WYMIARY
 62
     3
100
AcDbLine
 10
353.170084
 20
679.595769
 30
0.0
 11
355.142557
 21
679.595769
 31
0.0
  0
LINE
  5
CB14
100
AcDbEntity
  8
WYMIARY
 62
     3
100
AcDbLine
 10
353.170084
 20
680.983895
 30
0.0
 11
355.142557
 21
680.983895
 31
0.0
  0
TEXT
  5
CB15
100
AcDbEntity
  8
1
100
AcDbText
 10
367.155949
 20
673.000525
 30
0.0
 40
3.0
  1
7
 41
0.65
  7
ITALIC
100
AcDbText
  0
LINE
  5
CB16
100
AcDbEntity
  8
WYMIARY
 62
     3
100
AcDbLine
 10
365.259822
 20
679.595769
 30
0.0
 11
367.232296
 21
679.595769
 31
0.0
  0
LINE
  5
CB17
100
AcDbEntity
  8
WYMIARY
 62
     3
100
AcDbLine
 10
365.259822
 20
680.983895
 30
0.0
 11
367.232296
 21
680.983895
 31
0.0
  0
CIRCLE
  5
CB18
100
AcDbEntity
  8
WYMIARY
 62
     3
100
AcDbCircle
 10
367.927797
 20
680.368979
 30
0.0
 40
3.75
  0
LINE
  5
CB19
100
AcDbEntity
  8
WYMIARY
 62
     3
100
AcDbLine
 10
365.259822
 20
679.595769
 30
0.0
 11
365.259822
 21
680.983895
 31
0.0
  0
LINE
  5
CB1A
100
AcDbEntity
  8
WYMIARY
 62
     3
100
AcDbLine
 10
356.530683
 20
679.595769
 30
0.0
 11
356.530683
 21
677.599159
 31
0.0
  0
LINE
  5
CB1B
100
AcDbEntity
  8
WYMIARY
 62
     3
100
AcDbLine
 10
356.530683
 20
679.595769
 30
0.0
 11
358.709724
 21
679.595769
 31
0.0
  0
LINE
  5
CB1C
100
AcDbEntity
  8
WYMIARY
 62
     3
100
AcDbLine
 10
358.709724
 20
679.595769
 30
0.0
 11
358.709724
 21
680.983895
 31
0.0
  0
LINE
  5
CB1D
100
AcDbEntity
  8
WYMIARY
 62
     3
100
AcDbLine
 10
356.530683
 20
680.983895
 30
0.0
 11
358.709724
 21
680.983895
 31
0.0
  0
LINE
  5
CB1E
100
AcDbEntity
  8
WYMIARY
 62
     3
100
AcDbLine
 10
356.530683
 20
683.138799
 30
0.0
 11
356.530683
 21
680.983895
 31
0.0
  0
LINE
  5
CB1F
100
AcDbEntity
  8
WYMIARY
 62
     3
100
AcDbLine
 10
367.232296
 20
683.138799
 30
0.0
 11
368.620422
 21
683.138799
 31
0.0
  0
LINE
  5
CB20
100
AcDbEntity
  8
WYMIARY
 62
     3
100
AcDbLine
 10
370.799462
 20
679.595769
 30
0.0
 11
370.799462
 21
680.983895
 31
0.0
  0
LINE
  5
CB21
100
AcDbEntity
  8
WYMIARY
 62
     3
100
AcDbLine
 10
368.620422
 20
679.595769
 30
0.0
 11
368.620422
 21
677.599159
 31
0.0
  0
LINE
  5
CB22
100
AcDbEntity
  8
WYMIARY
 62
     3
100
AcDbLine
 10
367.232296
 20
679.595769
 30
0.0
 11
367.232296
 21
677.599159
 31
0.0
  0
LINE
  5
CB23
100
AcDbEntity
  8
WYMIARY
 62
     3
100
AcDbLine
 10
367.232296
 20
677.599159
 30
0.0
 11
368.620422
 21
677.599159
 31
0.0
  0
LINE
  5
CB24
100
AcDbEntity
  8
WYMIARY
 62
     3
100
AcDbLine
 10
368.620422
 20
679.595769
 30
0.0
 11
370.799462
 21
679.595769
 31
0.0
  0
LINE
  5
CB25
100
AcDbEntity
  8
WYMIARY
 62
     3
100
AcDbLine
 10
368.620422
 20
680.983895
 30
0.0
 11
370.799462
 21
680.983895
 31
0.0
  0
LINE
  5
CB26
100
AcDbEntity
  8
WYMIARY
 62
     3
100
AcDbLine
 10
367.232296
 20
683.138799
 30
0.0
 11
367.232296
 21
680.983895
 31
0.0
  0
LINE
  5
CB27
100
AcDbEntity
  8
WYMIARY
 62
     3
100
AcDbLine
 10
368.620422
 20
683.138799
 30
0.0
 11
368.620422
 21
680.983895
 31
0.0
  0
LINE
  5
CB28
100
AcDbEntity
  8
WYMIARY
 62
     3
100
AcDbLine
 10
391.111784
 20
689.768979
 30
0.0
 11
397.861784
 21
689.768979
 31
0.0
  0
LINE
  5
CB29
100
AcDbEntity
  8
WYMIARY
 62
     3
100
AcDbLine
 10
395.268369
 20
679.595769
 30
0.0
 11
397.240842
 21
679.595769
 31
0.0
  0
LINE
  5
CB2A
100
AcDbEntity
  8
WYMIARY
 62
     3
100
AcDbLine
 10
395.268369
 20
680.983895
 30
0.0
 11
397.240842
 21
680.983895
 31
0.0
  0
LINE
  5
CB2B
100
AcDbEntity
  8
WYMIARY
 62
     3
100
AcDbLine
 10
395.268369
 20
679.595769
 30
0.0
 11
395.268369
 21
680.983895
 31
0.0
  0
LINE
  5
CB2C
100
AcDbEntity
  8
WYMIARY
 62
     3
100
AcDbLine
 10
397.240842
 20
679.595769
 30
0.0
 11
397.240842
 21
677.599159
 31
0.0
  0
LINE
  5
CB2D
100
AcDbEntity
  8
WYMIARY
 62
     3
100
AcDbLine
 10
397.240842
 20
683.138799
 30
0.0
 11
397.240842
 21
680.983895
 31
0.0
  0
LINE
  5
CB2E
100
AcDbEntity
  8
WYMIARY
 62
     3
100
AcDbLine
 10
391.111784
 20
689.768979
 30
0.0
 11
391.111784
 21
680.368979
 31
0.0
  0
CIRCLE
  5
CB2F
100
AcDbEntity
  8
WYMIARY
 62
     3
100
AcDbCircle
 10
417.761784
 20
622.218979
 30
0.0
 40
2.25
  0
LINE
  5
CB30
100
AcDbEntity
  8
WYMIARY
 62
     3
100
AcDbLine
 10
444.411784
 20
605.768979
 30
0.0
 11
444.411784
 21
689.768979
 31
0.0
  0
CIRCLE
  5
CB31
100
AcDbEntity
  8
WYMIARY
 62
     3
100
AcDbCircle
 10
437.661784
 20
615.168979
 30
0.0
 40
3.75
  0
TEXT
  5
CB32
100
AcDbEntity
  8
WY
100
AcDbText
 10
427.955025
 20
569.249185
 30
0.0
 40
2.0
  1
Product type
 51
15.0
  7
ITALIC
100
AcDbText
  0
TEXT
  5
CB33
100
AcDbEntity
  8
1
100
AcDbText
 10
427.758884
 20
561.713946
 30
0.0
 40
5.0
  1
RIK63
 41
0.75
  7
ITALIC
100
AcDbText
  0
LINE
  5
CB34
100
AcDbEntity
  8
1
100
AcDbLine
 10
425.763828
 20
557.649937
 30
0.0
 11
425.763828
 21
572.339774
 31
0.0
  0
TEXT
  5
CB35
100
AcDbEntity
  8
1
100
AcDbText
 10
416.460441
 20
615.933336
 30
0.0
 40
3.0
  1
A2
 41
0.65
  7
ITALIC
100
AcDbText
  0
LINE
  5
CB36
100
AcDbEntity
  8
WYMIARY
 62
     3
100
AcDbLine
 10
418.250081
 20
613.032781
 30
0.0
 11
419.775409
 21
613.032781
 31
0.0
  0
LINE
  5
CB37
100
AcDbEntity
  8
WYMIARY
 62
     3
100
AcDbLine
 10
418.250081
 20
612.061093
 30
0.0
 11
419.775409
 21
612.061093
 31
0.0
  0
CIRCLE
  5
CB38
100
AcDbEntity
  8
WYMIARY
 62
     3
100
AcDbCircle
 10
417.761784
 20
612.518979
 30
0.0
 40
2.25
  0
LINE
  5
CB39
100
AcDbEntity
  8
WYMIARY
 62
     3
100
AcDbLine
 10
407.268369
 20
615.942188
 30
0.0
 11
409.240842
 21
615.942188
 31
0.0
  0
TEXT
  5
CB3A
100
AcDbEntity
  8
1
100
AcDbText
 10
408.136338
 20
619.658792
 30
0.0
 40
3.0
  1
R4
 41
0.65
  7
ITALIC
100
AcDbText
  0
LINE
  5
CB3B
100
AcDbEntity
  8
WYMIARY
 62
     3
100
AcDbLine
 10
407.268369
 20
614.554062
 30
0.0
 11
409.240842
 21
614.554062
 31
0.0
  0
CIRCLE
  5
CB3C
100
AcDbEntity
  8
WYMIARY
 62
     3
100
AcDbCircle
 10
409.861784
 20
615.168979
 30
0.0
 40
3.75
  0
LINE
  5
CB3D
100
AcDbEntity
  8
WYMIARY
 62
     3
100
AcDbLine
 10
407.268369
 20
615.942188
 30
0.0
 11
407.268369
 21
614.554062
 31
0.0
  0
LINE
  5
CB3E
100
AcDbEntity
  8
WYMIARY
 62
     3
100
AcDbLine
 10
398.628968
 20
615.942188
 30
0.0
 11
400.808008
 21
615.942188
 31
0.0
  0
LINE
  5
CB3F
100
AcDbEntity
  8
WYMIARY
 62
     3
100
AcDbLine
 10
398.628968
 20
614.554062
 30
0.0
 11
400.808008
 21
614.554062
 31
0.0
  0
LINE
  5
CB40
100
AcDbEntity
  8
WYMIARY
 62
     3
100
AcDbLine
 10
398.628968
 20
615.942188
 30
0.0
 11
398.628968
 21
617.938799
 31
0.0
  0
LINE
  5
CB41
100
AcDbEntity
  8
WYMIARY
 62
     3
100
AcDbLine
 10
398.628968
 20
612.399159
 30
0.0
 11
398.628968
 21
614.554062
 31
0.0
  0
LINE
  5
CB42
100
AcDbEntity
  8
WYMIARY
 62
     3
100
AcDbLine
 10
400.808008
 20
615.942188
 30
0.0
 11
400.808008
 21
614.554062
 31
0.0
  0
LINE
  5
CB43
100
AcDbEntity
  8
WYMIARY
 62
     3
100
AcDbLine
 10
415.897662
 20
613.032781
 30
0.0
 11
417.278393
 21
613.032781
 31
0.0
  0
LINE
  5
CB44
100
AcDbEntity
  8
WYMIARY
 62
     3
100
AcDbLine
 10
417.278393
 20
613.032781
 30
0.0
 11
417.278393
 21
614.430408
 31
0.0
  0
LINE
  5
CB45
100
AcDbEntity
  8
WYMIARY
 62
     3
100
AcDbLine
 10
418.250081
 20
613.032781
 30
0.0
 11
418.250081
 21
614.430408
 31
0.0
  0
LINE
  5
CB46
100
AcDbEntity
  8
WYMIARY
 62
     3
100
AcDbLine
 10
418.250081
 20
610.55266
 30
0.0
 11
418.250081
 21
612.061093
 31
0.0
  0
LINE
  5
CB47
100
AcDbEntity
  8
WYMIARY
 62
     3
100
AcDbLine
 10
417.278393
 20
610.55266
 30
0.0
 11
417.278393
 21
612.061093
 31
0.0
  0
LINE
  5
CB48
100
AcDbEntity
  8
WYMIARY
 62
     3
100
AcDbLine
 10
415.897662
 20
612.061093
 30
0.0
 11
417.278393
 21
612.061093
 31
0.0
  0
LINE
  5
CB49
100
AcDbEntity
  8
WYMIARY
 62
     3
100
AcDbLine
 10
417.278393
 20
610.55266
 30
0.0
 11
418.250081
 21
610.55266
 31
0.0
  0
LINE
  5
CB4A
100
AcDbEntity
  8
WYMIARY
 62
     3
100
AcDbLine
 10
417.278393
 20
610.55266
 30
0.0
 11
418.250081
 21
610.55266
 31
0.0
  0
LINE
  5
CB4B
100
AcDbEntity
  8
WYMIARY
 62
     3
100
AcDbLine
 10
417.278393
 20
610.55266
 30
0.0
 11
418.250081
 21
610.55266
 31
0.0
  0
LINE
  5
CB4C
100
AcDbEntity
  8
WYMIARY
 62
     3
100
AcDbLine
 10
415.897662
 20
613.032781
 30
0.0
 11
415.897662
 21
612.061093
 31
0.0
  0
LINE
  5
CB4D
100
AcDbEntity
  8
WYMIARY
 62
     3
100
AcDbLine
 10
417.278393
 20
614.430408
 30
0.0
 11
418.250081
 21
614.430408
 31
0.0
  0
LINE
  5
CB4E
100
AcDbEntity
  8
WYMIARY
 62
     3
100
AcDbLine
 10
410.628968
 20
615.942188
 30
0.0
 11
410.628968
 21
617.938799
 31
0.0
  0
LINE
  5
CB4F
100
AcDbEntity
  8
WYMIARY
 62
     3
100
AcDbLine
 10
410.628968
 20
615.942188
 30
0.0
 11
412.808008
 21
615.942188
 31
0.0
  0
LINE
  5
CB50
100
AcDbEntity
  8
WYMIARY
 62
     3
100
AcDbLine
 10
409.240842
 20
615.942188
 30
0.0
 11
409.240842
 21
617.938799
 31
0.0
  0
LINE
  5
CB51
100
AcDbEntity
  8
WYMIARY
 62
     3
100
AcDbLine
 10
409.240842
 20
617.938799
 30
0.0
 11
410.628968
 21
617.938799
 31
0.0
  0
LINE
  5
CB52
100
AcDbEntity
  8
WYMIARY
 62
     3
100
AcDbLine
 10
410.628968
 20
612.399159
 30
0.0
 11
410.628968
 21
614.554062
 31
0.0
  0
LINE
  5
CB53
100
AcDbEntity
  8
WYMIARY
 62
     3
100
AcDbLine
 10
410.628968
 20
614.554062
 30
0.0
 11
412.808008
 21
614.554062
 31
0.0
  0
LINE
  5
CB54
100
AcDbEntity
  8
WYMIARY
 62
     3
100
AcDbLine
 10
409.240842
 20
612.399159
 30
0.0
 11
409.240842
 21
614.554062
 31
0.0
  0
LINE
  5
CB55
100
AcDbEntity
  8
WYMIARY
 62
     3
100
AcDbLine
 10
409.240842
 20
612.399159
 30
0.0
 11
410.628968
 21
612.399159
 31
0.0
  0
LINE
  5
CB56
100
AcDbEntity
  8
WYMIARY
 62
     3
100
AcDbLine
 10
409.240842
 20
612.399159
 30
0.0
 11
410.628968
 21
612.399159
 31
0.0
  0
LINE
  5
CB57
100
AcDbEntity
  8
WYMIARY
 62
     3
100
AcDbLine
 10
409.240842
 20
612.399159
 30
0.0
 11
410.628968
 21
612.399159
 31
0.0
  0
LINE
  5
CB58
100
AcDbEntity
  8
WYMIARY
 62
     3
100
AcDbLine
 10
412.808008
 20
615.942188
 30
0.0
 11
412.808008
 21
614.554062
 31
0.0
  0
LINE
  5
CB59
100
AcDbEntity
  8
WYMIARY
 62
     3
100
AcDbLine
 10
426.26467
 20
615.942188
 30
0.0
 11
428.443711
 21
615.942188
 31
0.0
  0
LINE
  5
CB5A
100
AcDbEntity
  8
WYMIARY
 62
     3
100
AcDbLine
 10
426.26467
 20
614.554062
 30
0.0
 11
428.443711
 21
614.554062
 31
0.0
  0
LINE
  5
CB5B
100
AcDbEntity
  8
WYMIARY
 62
     3
100
AcDbLine
 10
424.876544
 20
617.938799
 30
0.0
 11
426.26467
 21
617.938799
 31
0.0
  0
LINE
  5
CB5C
100
AcDbEntity
  8
WYMIARY
 62
     3
100
AcDbLine
 10
424.876544
 20
615.942188
 30
0.0
 11
424.876544
 21
617.938799
 31
0.0
  0
LINE
  5
CB5D
100
AcDbEntity
  8
WYMIARY
 62
     3
100
AcDbLine
 10
426.26467
 20
615.942188
 30
0.0
 11
426.26467
 21
617.938799
 31
0.0
  0
LINE
  5
CB5E
100
AcDbEntity
  8
WYMIARY
 62
     3
100
AcDbLine
 10
426.26467
 20
612.399159
 30
0.0
 11
426.26467
 21
614.554062
 31
0.0
  0
LINE
  5
CB5F
100
AcDbEntity
  8
WYMIARY
 62
     3
100
AcDbLine
 10
424.876544
 20
612.399159
 30
0.0
 11
424.876544
 21
614.554062
 31
0.0
  0
LINE
  5
CB60
100
AcDbEntity
  8
WYMIARY
 62
     3
100
AcDbLine
 10
424.876544
 20
612.399159
 30
0.0
 11
426.26467
 21
612.399159
 31
0.0
  0
LINE
  5
CB61
100
AcDbEntity
  8
WYMIARY
 62
     3
100
AcDbLine
 10
428.443711
 20
615.942188
 30
0.0
 11
428.443711
 21
614.554062
 31
0.0
  0
LINE
  5
CB62
100
AcDbEntity
  8
WYMIARY
 62
     3
100
AcDbLine
 10
422.904071
 20
615.942188
 30
0.0
 11
422.904071
 21
614.554062
 31
0.0
  0
LINE
  5
CB63
100
AcDbEntity
  8
WYMIARY
 62
     3
100
AcDbLine
 10
419.775409
 20
613.032781
 30
0.0
 11
419.775409
 21
612.061093
 31
0.0
  0
TEXT
  5
CB64
100
AcDbEntity
  8
1
100
AcDbText
 10
424.156309
 20
619.658792
 30
0.0
 40
3.0
  1
R6
 41
0.65
  7
ITALIC
100
AcDbText
  0
CIRCLE
  5
CB65
100
AcDbEntity
  8
WYMIARY
 62
     3
100
AcDbCircle
 10
425.661784
 20
615.168979
 30
0.0
 40
3.75
  0
LINE
  5
CB66
100
AcDbEntity
  8
WYMIARY
 62
     3
100
AcDbLine
 10
422.904071
 20
615.942188
 30
0.0
 11
424.876544
 21
615.942188
 31
0.0
  0
LINE
  5
CB67
100
AcDbEntity
  8
WYMIARY
 62
     3
100
AcDbLine
 10
422.904071
 20
614.554062
 30
0.0
 11
424.876544
 21
614.554062
 31
0.0
  0
LINE
  5
CB68
100
AcDbEntity
  8
WYMIARY
 62
     3
100
AcDbLine
 10
438.354409
 20
615.942188
 30
0.0
 11
440.533449
 21
615.942188
 31
0.0
  0
LINE
  5
CB69
100
AcDbEntity
  8
WYMIARY
 62
     3
100
AcDbLine
 10
438.354409
 20
614.554062
 30
0.0
 11
440.533449
 21
614.554062
 31
0.0
  0
LINE
  5
CB6A
100
AcDbEntity
  8
WYMIARY
 62
     3
100
AcDbLine
 10
434.993809
 20
615.942188
 30
0.0
 11
436.966283
 21
615.942188
 31
0.0
  0
TEXT
  5
CB6B
100
AcDbEntity
  8
1
100
AcDbText
 10
436.092757
 20
619.658792
 30
0.0
 40
3.0
  1
R8
 41
0.65
  7
ITALIC
100
AcDbText
  0
LINE
  5
CB6C
100
AcDbEntity
  8
WYMIARY
 62
     3
100
AcDbLine
 10
438.354409
 20
615.942188
 30
0.0
 11
438.354409
 21
617.938799
 31
0.0
  0
LINE
  5
CB6D
100
AcDbEntity
  8
WYMIARY
 62
     3
100
AcDbLine
 10
436.966283
 20
615.942188
 30
0.0
 11
436.966283
 21
617.938799
 31
0.0
  0
LINE
  5
CB6E
100
AcDbEntity
  8
WYMIARY
 62
     3
100
AcDbLine
 10
436.966283
 20
617.938799
 30
0.0
 11
438.354409
 21
617.938799
 31
0.0
  0
LINE
  5
CB6F
100
AcDbEntity
  8
WYMIARY
 62
     3
100
AcDbLine
 10
434.993809
 20
614.554062
 30
0.0
 11
436.966283
 21
614.554062
 31
0.0
  0
LINE
  5
CB70
100
AcDbEntity
  8
WYMIARY
 62
     3
100
AcDbLine
 10
436.966283
 20
612.399159
 30
0.0
 11
436.966283
 21
614.554062
 31
0.0
  0
LINE
  5
CB71
100
AcDbEntity
  8
WYMIARY
 62
     3
100
AcDbLine
 10
438.354409
 20
612.399159
 30
0.0
 11
438.354409
 21
614.554062
 31
0.0
  0
LINE
  5
CB72
100
AcDbEntity
  8
WYMIARY
 62
     3
100
AcDbLine
 10
436.966283
 20
612.399159
 30
0.0
 11
438.354409
 21
612.399159
 31
0.0
  0
LINE
  5
CB73
100
AcDbEntity
  8
WYMIARY
 62
     3
100
AcDbLine
 10
434.993809
 20
615.942188
 30
0.0
 11
434.993809
 21
614.554062
 31
0.0
  0
LINE
  5
CB74
100
AcDbEntity
  8
WYMIARY
 62
     3
100
AcDbLine
 10
440.533449
 20
615.942188
 30
0.0
 11
440.533449
 21
614.554062
 31
0.0
  0
CIRCLE
  5
CB75
100
AcDbEntity
  8
WYMIARY
 62
     3
100
AcDbCircle
 10
437.661784
 20
680.368979
 30
0.0
 40
3.75
  0
LINE
  5
CB76
100
AcDbEntity
  8
WYMIARY
 62
     3
100
AcDbLine
 10
418.250081
 20
683.476864
 30
0.0
 11
419.775409
 21
683.476864
 31
0.0
  0
LINE
  5
CB77
100
AcDbEntity
  8
WYMIARY
 62
     3
100
AcDbLine
 10
418.250081
 20
682.505176
 30
0.0
 11
419.775409
 21
682.505176
 31
0.0
  0
CIRCLE
  5
CB78
100
AcDbEntity
  8
WYMIARY
 62
     3
100
AcDbCircle
 10
417.761784
 20
683.018979
 30
0.0
 40
2.25
  0
CIRCLE
  5
CB79
100
AcDbEntity
  8
WYMIARY
 62
     3
100
AcDbCircle
 10
417.761784
 20
673.318979
 30
0.0
 40
2.25
  0
TEXT
  5
CB7A
100
AcDbEntity
  8
1
100
AcDbText
 10
408.136338
 20
673.000525
 30
0.0
 40
3.0
  1
R3
 41
0.65
  7
ITALIC
100
AcDbText
  0
LINE
  5
CB7B
100
AcDbEntity
  8
WYMIARY
 62
     3
100
AcDbLine
 10
407.268369
 20
679.595769
 30
0.0
 11
409.240842
 21
679.595769
 31
0.0
  0
LINE
  5
CB7C
100
AcDbEntity
  8
WYMIARY
 62
     3
100
AcDbLine
 10
407.268369
 20
680.983895
 30
0.0
 11
409.240842
 21
680.983895
 31
0.0
  0
CIRCLE
  5
CB7D
100
AcDbEntity
  8
WYMIARY
 62
     3
100
AcDbCircle
 10
409.861784
 20
680.368979
 30
0.0
 40
3.75
  0
LINE
  5
CB7E
100
AcDbEntity
  8
WYMIARY
 62
     3
100
AcDbLine
 10
407.268369
 20
679.595769
 30
0.0
 11
407.268369
 21
680.983895
 31
0.0
  0
LINE
  5
CB7F
100
AcDbEntity
  8
WYMIARY
 62
     3
100
AcDbLine
 10
398.628968
 20
679.595769
 30
0.0
 11
400.808008
 21
679.595769
 31
0.0
  0
LINE
  5
CB80
100
AcDbEntity
  8
WYMIARY
 62
     3
100
AcDbLine
 10
398.628968
 20
680.983895
 30
0.0
 11
400.808008
 21
680.983895
 31
0.0
  0
LINE
  5
CB81
100
AcDbEntity
  8
WYMIARY
 62
     3
100
AcDbLine
 10
398.628968
 20
679.595769
 30
0.0
 11
398.628968
 21
677.599159
 31
0.0
  0
LINE
  5
CB82
100
AcDbEntity
  8
WYMIARY
 62
     3
100
AcDbLine
 10
398.628968
 20
683.138799
 30
0.0
 11
398.628968
 21
680.983895
 31
0.0
  0
LINE
  5
CB83
100
AcDbEntity
  8
WYMIARY
 62
     3
100
AcDbLine
 10
400.808008
 20
679.595769
 30
0.0
 11
400.808008
 21
680.983895
 31
0.0
  0
LINE
  5
CB84
100
AcDbEntity
  8
WYMIARY
 62
     3
100
AcDbLine
 10
415.897662
 20
682.505176
 30
0.0
 11
415.897662
 21
683.476864
 31
0.0
  0
LINE
  5
CB85
100
AcDbEntity
  8
WYMIARY
 62
     3
100
AcDbLine
 10
417.278393
 20
684.985297
 30
0.0
 11
418.250081
 21
684.985297
 31
0.0
  0
LINE
  5
CB86
100
AcDbEntity
  8
WYMIARY
 62
     3
100
AcDbLine
 10
417.278393
 20
684.985297
 30
0.0
 11
418.250081
 21
684.985297
 31
0.0
  0
LINE
  5
CB87
100
AcDbEntity
  8
WYMIARY
 62
     3
100
AcDbLine
 10
417.278393
 20
684.985297
 30
0.0
 11
418.250081
 21
684.985297
 31
0.0
  0
LINE
  5
CB88
100
AcDbEntity
  8
WYMIARY
 62
     3
100
AcDbLine
 10
418.250081
 20
684.985297
 30
0.0
 11
418.250081
 21
683.476864
 31
0.0
  0
LINE
  5
CB89
100
AcDbEntity
  8
WYMIARY
 62
     3
100
AcDbLine
 10
415.897662
 20
682.505176
 30
0.0
 11
417.278393
 21
682.505176
 31
0.0
  0
LINE
  5
CB8A
100
AcDbEntity
  8
WYMIARY
 62
     3
100
AcDbLine
 10
415.897662
 20
683.476864
 30
0.0
 11
417.278393
 21
683.476864
 31
0.0
  0
LINE
  5
CB8B
100
AcDbEntity
  8
WYMIARY
 62
     3
100
AcDbLine
 10
417.278393
 20
684.985297
 30
0.0
 11
417.278393
 21
683.476864
 31
0.0
  0
TEXT
  5
CB8C
100
AcDbEntity
  8
1
100
AcDbText
 10
416.460441
 20
677.393373
 30
0.0
 40
3.0
  1
A1
 41
0.65
  7
ITALIC
100
AcDbText
  0
LINE
  5
CB8D
100
AcDbEntity
  8
WYMIARY
 62
     3
100
AcDbLine
 10
417.278393
 20
681.107549
 30
0.0
 11
418.250081
 21
681.107549
 31
0.0
  0
LINE
  5
CB8E
100
AcDbEntity
  8
WYMIARY
 62
     3
100
AcDbLine
 10
417.278393
 20
682.505176
 30
0.0
 11
417.278393
 21
681.107549
 31
0.0
  0
LINE
  5
CB8F
100
AcDbEntity
  8
WYMIARY
 62
     3
100
AcDbLine
 10
418.250081
 20
682.505176
 30
0.0
 11
418.250081
 21
681.107549
 31
0.0
  0
LINE
  5
CB90
100
AcDbEntity
  8
WYMIARY
 62
     3
100
AcDbLine
 10
409.240842
 20
683.138799
 30
0.0
 11
410.628968
 21
683.138799
 31
0.0
  0
LINE
  5
CB91
100
AcDbEntity
  8
WYMIARY
 62
     3
100
AcDbLine
 10
409.240842
 20
683.138799
 30
0.0
 11
410.628968
 21
683.138799
 31
0.0
  0
LINE
  5
CB92
100
AcDbEntity
  8
WYMIARY
 62
     3
100
AcDbLine
 10
409.240842
 20
683.138799
 30
0.0
 11
410.628968
 21
683.138799
 31
0.0
  0
LINE
  5
CB93
100
AcDbEntity
  8
WYMIARY
 62
     3
100
AcDbLine
 10
410.628968
 20
679.595769
 30
0.0
 11
410.628968
 21
677.599159
 31
0.0
  0
LINE
  5
CB94
100
AcDbEntity
  8
WYMIARY
 62
     3
100
AcDbLine
 10
410.628968
 20
679.595769
 30
0.0
 11
412.808008
 21
679.595769
 31
0.0
  0
LINE
  5
CB95
100
AcDbEntity
  8
WYMIARY
 62
     3
100
AcDbLine
 10
410.628968
 20
680.983895
 30
0.0
 11
412.808008
 21
680.983895
 31
0.0
  0
LINE
  5
CB96
100
AcDbEntity
  8
WYMIARY
 62
     3
100
AcDbLine
 10
412.808008
 20
679.595769
 30
0.0
 11
412.808008
 21
680.983895
 31
0.0
  0
LINE
  5
CB97
100
AcDbEntity
  8
WYMIARY
 62
     3
100
AcDbLine
 10
409.240842
 20
679.595769
 30
0.0
 11
409.240842
 21
677.599159
 31
0.0
  0
LINE
  5
CB98
100
AcDbEntity
  8
WYMIARY
 62
     3
100
AcDbLine
 10
409.240842
 20
677.599159
 30
0.0
 11
410.628968
 21
677.599159
 31
0.0
  0
LINE
  5
CB99
100
AcDbEntity
  8
WYMIARY
 62
     3
100
AcDbLine
 10
410.628968
 20
683.138799
 30
0.0
 11
410.628968
 21
680.983895
 31
0.0
  0
LINE
  5
CB9A
100
AcDbEntity
  8
WYMIARY
 62
     3
100
AcDbLine
 10
409.240842
 20
683.138799
 30
0.0
 11
409.240842
 21
680.983895
 31
0.0
  0
TEXT
  5
CB9B
100
AcDbEntity
  8
1
100
AcDbText
 10
436.092757
 20
673.000525
 30
0.0
 40
3.0
  1
R7
 41
0.65
  7
ITALIC
100
AcDbText
  0
TEXT
  5
CB9C
100
AcDbEntity
  8
1
100
AcDbText
 10
424.156309
 20
673.000525
 30
0.0
 40
3.0
  1
R5
 41
0.65
  7
ITALIC
100
AcDbText
  0
LINE
  5
CB9D
100
AcDbEntity
  8
WYMIARY
 62
     3
100
AcDbLine
 10
426.26467
 20
680.983895
 30
0.0
 11
428.443711
 21
680.983895
 31
0.0
  0
LINE
  5
CB9E
100
AcDbEntity
  8
WYMIARY
 62
     3
100
AcDbLine
 10
426.26467
 20
679.595769
 30
0.0
 11
428.443711
 21
679.595769
 31
0.0
  0
LINE
  5
CB9F
100
AcDbEntity
  8
WYMIARY
 62
     3
100
AcDbLine
 10
424.876544
 20
683.138799
 30
0.0
 11
426.26467
 21
683.138799
 31
0.0
  0
LINE
  5
CBA0
100
AcDbEntity
  8
WYMIARY
 62
     3
100
AcDbLine
 10
426.26467
 20
679.595769
 30
0.0
 11
426.26467
 21
677.599159
 31
0.0
  0
LINE
  5
CBA1
100
AcDbEntity
  8
WYMIARY
 62
     3
100
AcDbLine
 10
424.876544
 20
679.595769
 30
0.0
 11
424.876544
 21
677.599159
 31
0.0
  0
LINE
  5
CBA2
100
AcDbEntity
  8
WYMIARY
 62
     3
100
AcDbLine
 10
424.876544
 20
677.599159
 30
0.0
 11
426.26467
 21
677.599159
 31
0.0
  0
LINE
  5
CBA3
100
AcDbEntity
  8
WYMIARY
 62
     3
100
AcDbLine
 10
424.876544
 20
683.138799
 30
0.0
 11
424.876544
 21
680.983895
 31
0.0
  0
LINE
  5
CBA4
100
AcDbEntity
  8
WYMIARY
 62
     3
100
AcDbLine
 10
426.26467
 20
683.138799
 30
0.0
 11
426.26467
 21
680.983895
 31
0.0
  0
LINE
  5
CBA5
100
AcDbEntity
  8
WYMIARY
 62
     3
100
AcDbLine
 10
428.443711
 20
679.595769
 30
0.0
 11
428.443711
 21
680.983895
 31
0.0
  0
LINE
  5
CBA6
100
AcDbEntity
  8
WYMIARY
 62
     3
100
AcDbLine
 10
422.904071
 20
679.595769
 30
0.0
 11
422.904071
 21
680.983895
 31
0.0
  0
LINE
  5
CBA7
100
AcDbEntity
  8
WYMIARY
 62
     3
100
AcDbLine
 10
419.775409
 20
682.505176
 30
0.0
 11
419.775409
 21
683.476864
 31
0.0
  0
CIRCLE
  5
CBA8
100
AcDbEntity
  8
WYMIARY
 62
     3
100
AcDbCircle
 10
425.661784
 20
680.368979
 30
0.0
 40
3.75
  0
LINE
  5
CBA9
100
AcDbEntity
  8
WYMIARY
 62
     3
100
AcDbLine
 10
422.904071
 20
680.983895
 30
0.0
 11
424.876544
 21
680.983895
 31
0.0
  0
LINE
  5
CBAA
100
AcDbEntity
  8
WYMIARY
 62
     3
100
AcDbLine
 10
422.904071
 20
679.595769
 30
0.0
 11
424.876544
 21
679.595769
 31
0.0
  0
LINE
  5
CBAB
100
AcDbEntity
  8
WYMIARY
 62
     3
100
AcDbLine
 10
438.354409
 20
680.983895
 30
0.0
 11
440.533449
 21
680.983895
 31
0.0
  0
LINE
  5
CBAC
100
AcDbEntity
  8
WYMIARY
 62
     3
100
AcDbLine
 10
438.354409
 20
679.595769
 30
0.0
 11
440.533449
 21
679.595769
 31
0.0
  0
LINE
  5
CBAD
100
AcDbEntity
  8
WYMIARY
 62
     3
100
AcDbLine
 10
436.966283
 20
683.138799
 30
0.0
 11
438.354409
 21
683.138799
 31
0.0
  0
LINE
  5
CBAE
100
AcDbEntity
  8
WYMIARY
 62
     3
100
AcDbLine
 10
434.993809
 20
680.983895
 30
0.0
 11
436.966283
 21
680.983895
 31
0.0
  0
LINE
  5
CBAF
100
AcDbEntity
  8
WYMIARY
 62
     3
100
AcDbLine
 10
434.993809
 20
679.595769
 30
0.0
 11
436.966283
 21
679.595769
 31
0.0
  0
LINE
  5
CBB0
100
AcDbEntity
  8
WYMIARY
 62
     3
100
AcDbLine
 10
434.993809
 20
679.595769
 30
0.0
 11
434.993809
 21
680.983895
 31
0.0
  0
LINE
  5
CBB1
100
AcDbEntity
  8
WYMIARY
 62
     3
100
AcDbLine
 10
436.966283
 20
677.599159
 30
0.0
 11
438.354409
 21
677.599159
 31
0.0
  0
LINE
  5
CBB2
100
AcDbEntity
  8
WYMIARY
 62
     3
100
AcDbLine
 10
436.966283
 20
679.595769
 30
0.0
 11
436.966283
 21
677.599159
 31
0.0
  0
LINE
  5
CBB3
100
AcDbEntity
  8
WYMIARY
 62
     3
100
AcDbLine
 10
438.354409
 20
679.595769
 30
0.0
 11
438.354409
 21
677.599159
 31
0.0
  0
LINE
  5
CBB4
100
AcDbEntity
  8
WYMIARY
 62
     3
100
AcDbLine
 10
438.354409
 20
683.138799
 30
0.0
 11
438.354409
 21
680.983895
 31
0.0
  0
LINE
  5
CBB5
100
AcDbEntity
  8
WYMIARY
 62
     3
100
AcDbLine
 10
436.966283
 20
683.138799
 30
0.0
 11
436.966283
 21
680.983895
 31
0.0
  0
LINE
  5
CBB6
100
AcDbEntity
  8
WYMIARY
 62
     3
100
AcDbLine
 10
440.533449
 20
679.595769
 30
0.0
 11
440.533449
 21
680.983895
 31
0.0
  0
LINE
  5
CBB7
100
AcDbEntity
  8
2
100
AcDbLine
 10
481.041244
 20
844.649937
 30
0.0
 11
296.041244
 21
844.649937
 31
0.0
  0
LINE
  5
CBB8
100
AcDbEntity
  8
WYMIARY
 62
     6
100
AcDbLine
 10
296.041244
 20
849.649937
 30
0.0
 11
284.410837
 21
849.649937
 31
0.0
  0
TEXT
  5
CBB9
100
AcDbEntity
  8
1
100
AcDbText
 10
392.705469
 20
703.500294
 30
0.0
 40
5.0
  1
RIK63-31-...
 41
0.75
  7
ITALIC
100
AcDbText
  0
LINE
  5
CBBA
100
AcDbEntity
  8
WYMIARY
 62
     3
100
AcDbLine
 10
391.111784
 20
797.599148
 30
0.0
 11
409.861784
 21
797.599148
 31
0.0
  0
LINE
  5
CBBB
100
AcDbEntity
  8
WYMIARY
 62
     3
100
AcDbLine
 10
444.411784
 20
797.599148
 30
0.0
 11
391.111784
 21
797.599148
 31
0.0
  0
CIRCLE
  5
CBBC
100
AcDbEntity
  8
WYMIARY
 62
     3
100
AcDbCircle
 10
397.861784
 20
788.199148
 30
0.0
 40
3.75
  0
LINE
  5
CBBD
100
AcDbEntity
  8
WYMIARY
 62
     3
100
AcDbLine
 10
397.240842
 20
785.429328
 30
0.0
 11
398.628968
 21
785.429328
 31
0.0
  0
LINE
  5
CBBE
100
AcDbEntity
  8
WYMIARY
 62
     3
100
AcDbLine
 10
397.240842
 20
790.968968
 30
0.0
 11
398.628968
 21
790.968968
 31
0.0
  0
LINE
  5
CBBF
100
AcDbEntity
  8
WYMIARY
 62
     3
100
AcDbLine
 10
397.240842
 20
790.968968
 30
0.0
 11
398.628968
 21
790.968968
 31
0.0
  0
LINE
  5
CBC0
100
AcDbEntity
  8
WYMIARY
 62
     3
100
AcDbLine
 10
397.240842
 20
790.968968
 30
0.0
 11
398.628968
 21
790.968968
 31
0.0
  0
TEXT
  5
CBC1
100
AcDbEntity
  8
1
100
AcDbText
 10
397.194487
 20
727.488961
 30
0.0
 40
3.0
  1
2
 41
0.65
  7
ITALIC
100
AcDbText
  0
LINE
  5
CBC2
100
AcDbEntity
  8
WYMIARY
 62
     3
100
AcDbLine
 10
444.411784
 20
778.099148
 30
0.0
 11
391.111784
 21
778.099148
 31
0.0
  0
LINE
  5
CBC3
100
AcDbEntity
  8
WYMIARY
 62
     3
100
AcDbLine
 10
444.411784
 20
733.099148
 30
0.0
 11
391.111784
 21
733.099148
 31
0.0
  0
LINE
  5
CBC4
100
AcDbEntity
  8
WYMIARY
 62
     3
100
AcDbLine
 10
397.240842
 20
720.229328
 30
0.0
 11
398.628968
 21
720.229328
 31
0.0
  0
LINE
  5
CBC5
100
AcDbEntity
  8
WYMIARY
 62
     3
100
AcDbLine
 10
397.240842
 20
720.229328
 30
0.0
 11
398.628968
 21
720.229328
 31
0.0
  0
LINE
  5
CBC6
100
AcDbEntity
  8
WYMIARY
 62
     3
100
AcDbLine
 10
397.240842
 20
720.229328
 30
0.0
 11
398.628968
 21
720.229328
 31
0.0
  0
LINE
  5
CBC7
100
AcDbEntity
  8
WYMIARY
 62
     3
100
AcDbLine
 10
397.240842
 20
725.768968
 30
0.0
 11
398.628968
 21
725.768968
 31
0.0
  0
LINE
  5
CBC8
100
AcDbEntity
  8
WYMIARY
 62
     3
100
AcDbLine
 10
391.111784
 20
713.599148
 30
0.0
 11
444.411784
 21
713.599148
 31
0.0
  0
CIRCLE
  5
CBC9
100
AcDbEntity
  8
WYMIARY
 62
     3
100
AcDbCircle
 10
397.861784
 20
722.999148
 30
0.0
 40
3.75
  0
LINE
  5
CBCA
100
AcDbEntity
  8
WYMIARY
 62
     3
100
AcDbLine
 10
321.377797
 20
797.599148
 30
0.0
 11
321.377797
 21
713.599148
 31
0.0
  0
LINE
  5
CBCB
100
AcDbEntity
  8
WYMIARY
 62
     3
100
AcDbLine
 10
391.111784
 20
797.599148
 30
0.0
 11
391.111784
 21
713.599148
 31
0.0
  0
LINE
  5
CBCC
100
AcDbEntity
  8
WYMIARY
 62
     3
100
AcDbLine
 10
374.677797
 20
713.599148
 30
0.0
 11
374.677797
 21
797.599148
 31
0.0
  0
TEXT
  5
CBCD
100
AcDbEntity
  8
1
100
AcDbText
 10
320.999114
 20
703.500294
 30
0.0
 40
5.0
  1
RIK63-40-...
 41
0.75
  7
ITALIC
100
AcDbText
  0
TEXT
  5
CBCE
100
AcDbEntity
  8
1
100
AcDbText
 10
355.259859
 20
727.488961
 30
0.0
 40
3.0
  1
6
 41
0.65
  7
ITALIC
100
AcDbText
  0
LINE
  5
CBCF
100
AcDbEntity
  8
WYMIARY
 62
     3
100
AcDbLine
 10
374.677797
 20
733.099148
 30
0.0
 11
321.377797
 21
733.099148
 31
0.0
  0
LINE
  5
CBD0
100
AcDbEntity
  8
WYMIARY
 62
     3
100
AcDbLine
 10
355.142557
 20
720.229328
 30
0.0
 11
356.530683
 21
720.229328
 31
0.0
  0
LINE
  5
CBD1
100
AcDbEntity
  8
WYMIARY
 62
     3
100
AcDbLine
 10
355.142557
 20
725.768968
 30
0.0
 11
356.530683
 21
725.768968
 31
0.0
  0
LINE
  5
CBD2
100
AcDbEntity
  8
WYMIARY
 62
     3
100
AcDbLine
 10
321.377797
 20
713.599148
 30
0.0
 11
374.677797
 21
713.599148
 31
0.0
  0
CIRCLE
  5
CBD3
100
AcDbEntity
  8
WYMIARY
 62
     3
100
AcDbCircle
 10
355.927797
 20
722.999148
 30
0.0
 40
3.75
  0
LINE
  5
CBD4
100
AcDbEntity
  8
WYMIARY
 62
     3
100
AcDbLine
 10
353.170084
 20
723.772357
 30
0.0
 11
353.170084
 21
722.384231
 31
0.0
  0
LINE
  5
CBD5
100
AcDbEntity
  8
WYMIARY
 62
     3
100
AcDbLine
 10
343.074021
 20
723.772357
 30
0.0
 11
343.074021
 21
722.384231
 31
0.0
  0
LINE
  5
CBD6
100
AcDbEntity
  8
WYMIARY
 62
     3
100
AcDbLine
 10
331.074021
 20
723.772357
 30
0.0
 11
331.074021
 21
722.384231
 31
0.0
  0
LINE
  5
CBD7
100
AcDbEntity
  8
WYMIARY
 62
     3
100
AcDbLine
 10
337.534382
 20
723.772357
 30
0.0
 11
337.534382
 21
722.384231
 31
0.0
  0
LINE
  5
CBD8
100
AcDbEntity
  8
WYMIARY
 62
     3
100
AcDbLine
 10
325.534382
 20
723.772357
 30
0.0
 11
325.534382
 21
722.384231
 31
0.0
  0
CIRCLE
  5
CBD9
100
AcDbEntity
  8
WYMIARY
 62
     3
100
AcDbCircle
 10
328.127797
 20
722.999148
 30
0.0
 40
3.75
  0
CIRCLE
  5
CBDA
100
AcDbEntity
  8
WYMIARY
 62
     3
100
AcDbCircle
 10
340.127797
 20
722.999148
 30
0.0
 40
3.75
  0
LINE
  5
CBDB
100
AcDbEntity
  8
WYMIARY
 62
     3
100
AcDbLine
 10
328.894981
 20
720.229328
 30
0.0
 11
328.894981
 21
722.384231
 31
0.0
  0
LINE
  5
CBDC
100
AcDbEntity
  8
WYMIARY
 62
     3
100
AcDbLine
 10
325.534382
 20
722.384231
 30
0.0
 11
327.506855
 21
722.384231
 31
0.0
  0
LINE
  5
CBDD
100
AcDbEntity
  8
WYMIARY
 62
     3
100
AcDbLine
 10
327.506855
 20
720.229328
 30
0.0
 11
327.506855
 21
722.384231
 31
0.0
  0
LINE
  5
CBDE
100
AcDbEntity
  8
WYMIARY
 62
     3
100
AcDbLine
 10
327.506855
 20
720.229328
 30
0.0
 11
328.894981
 21
720.229328
 31
0.0
  0
LINE
  5
CBDF
100
AcDbEntity
  8
WYMIARY
 62
     3
100
AcDbLine
 10
327.506855
 20
720.229328
 30
0.0
 11
328.894981
 21
720.229328
 31
0.0
  0
LINE
  5
CBE0
100
AcDbEntity
  8
WYMIARY
 62
     3
100
AcDbLine
 10
327.506855
 20
720.229328
 30
0.0
 11
328.894981
 21
720.229328
 31
0.0
  0
LINE
  5
CBE1
100
AcDbEntity
  8
WYMIARY
 62
     3
100
AcDbLine
 10
328.894981
 20
722.384231
 30
0.0
 11
331.074021
 21
722.384231
 31
0.0
  0
LINE
  5
CBE2
100
AcDbEntity
  8
WYMIARY
 62
     3
100
AcDbLine
 10
339.506855
 20
720.229328
 30
0.0
 11
340.894981
 21
720.229328
 31
0.0
  0
LINE
  5
CBE3
100
AcDbEntity
  8
WYMIARY
 62
     3
100
AcDbLine
 10
339.506855
 20
720.229328
 30
0.0
 11
340.894981
 21
720.229328
 31
0.0
  0
LINE
  5
CBE4
100
AcDbEntity
  8
WYMIARY
 62
     3
100
AcDbLine
 10
339.506855
 20
720.229328
 30
0.0
 11
340.894981
 21
720.229328
 31
0.0
  0
LINE
  5
CBE5
100
AcDbEntity
  8
WYMIARY
 62
     3
100
AcDbLine
 10
340.894981
 20
720.229328
 30
0.0
 11
340.894981
 21
722.384231
 31
0.0
  0
LINE
  5
CBE6
100
AcDbEntity
  8
WYMIARY
 62
     3
100
AcDbLine
 10
339.506855
 20
720.229328
 30
0.0
 11
339.506855
 21
722.384231
 31
0.0
  0
LINE
  5
CBE7
100
AcDbEntity
  8
WYMIARY
 62
     3
100
AcDbLine
 10
340.894981
 20
722.384231
 30
0.0
 11
343.074021
 21
722.384231
 31
0.0
  0
LINE
  5
CBE8
100
AcDbEntity
  8
WYMIARY
 62
     3
100
AcDbLine
 10
337.534382
 20
722.384231
 30
0.0
 11
339.506855
 21
722.384231
 31
0.0
  0
LINE
  5
CBE9
100
AcDbEntity
  8
WYMIARY
 62
     3
100
AcDbLine
 10
355.142557
 20
720.229328
 30
0.0
 11
355.142557
 21
722.384231
 31
0.0
  0
LINE
  5
CBEA
100
AcDbEntity
  8
WYMIARY
 62
     3
100
AcDbLine
 10
348.516094
 20
720.86295
 30
0.0
 11
350.041422
 21
720.86295
 31
0.0
  0
LINE
  5
CBEB
100
AcDbEntity
  8
WYMIARY
 62
     3
100
AcDbLine
 10
348.516094
 20
719.891262
 30
0.0
 11
350.041422
 21
719.891262
 31
0.0
  0
LINE
  5
CBEC
100
AcDbEntity
  8
WYMIARY
 62
     3
100
AcDbLine
 10
347.544406
 20
720.86295
 30
0.0
 11
347.544406
 21
722.260577
 31
0.0
  0
LINE
  5
CBED
100
AcDbEntity
  8
WYMIARY
 62
     3
100
AcDbLine
 10
348.516094
 20
720.86295
 30
0.0
 11
348.516094
 21
722.260577
 31
0.0
  0
LINE
  5
CBEE
100
AcDbEntity
  8
WYMIARY
 62
     3
100
AcDbLine
 10
348.516094
 20
718.382829
 30
0.0
 11
348.516094
 21
719.891262
 31
0.0
  0
LINE
  5
CBEF
100
AcDbEntity
  8
WYMIARY
 62
     3
100
AcDbLine
 10
347.544406
 20
718.382829
 30
0.0
 11
347.544406
 21
719.891262
 31
0.0
  0
LINE
  5
CBF0
100
AcDbEntity
  8
WYMIARY
 62
     3
100
AcDbLine
 10
347.544406
 20
718.382829
 30
0.0
 11
348.516094
 21
718.382829
 31
0.0
  0
LINE
  5
CBF1
100
AcDbEntity
  8
WYMIARY
 62
     3
100
AcDbLine
 10
347.544406
 20
718.382829
 30
0.0
 11
348.516094
 21
718.382829
 31
0.0
  0
LINE
  5
CBF2
100
AcDbEntity
  8
WYMIARY
 62
     3
100
AcDbLine
 10
347.544406
 20
718.382829
 30
0.0
 11
348.516094
 21
718.382829
 31
0.0
  0
LINE
  5
CBF3
100
AcDbEntity
  8
WYMIARY
 62
     3
100
AcDbLine
 10
347.544406
 20
722.260577
 30
0.0
 11
348.516094
 21
722.260577
 31
0.0
  0
LINE
  5
CBF4
100
AcDbEntity
  8
WYMIARY
 62
     3
100
AcDbLine
 10
350.041422
 20
720.86295
 30
0.0
 11
350.041422
 21
719.891262
 31
0.0
  0
LINE
  5
CBF5
100
AcDbEntity
  8
WYMIARY
 62
     3
100
AcDbLine
 10
346.163675
 20
720.86295
 30
0.0
 11
346.163675
 21
719.891262
 31
0.0
  0
CIRCLE
  5
CBF6
100
AcDbEntity
  8
WYMIARY
 62
     3
100
AcDbCircle
 10
348.027797
 20
720.349148
 30
0.0
 40
2.25
  0
LINE
  5
CBF7
100
AcDbEntity
  8
WYMIARY
 62
     3
100
AcDbLine
 10
346.163675
 20
720.86295
 30
0.0
 11
347.544406
 21
720.86295
 31
0.0
  0
LINE
  5
CBF8
100
AcDbEntity
  8
WYMIARY
 62
     3
100
AcDbLine
 10
346.163675
 20
719.891262
 30
0.0
 11
347.544406
 21
719.891262
 31
0.0
  0
LINE
  5
CBF9
100
AcDbEntity
  8
WYMIARY
 62
     3
100
AcDbLine
 10
353.170084
 20
722.384231
 30
0.0
 11
355.142557
 21
722.384231
 31
0.0
  0
TEXT
  5
CBFA
100
AcDbEntity
  8
1
100
AcDbText
 10
327.4605
 20
727.488961
 30
0.0
 40
3.0
  1
2
 41
0.65
  7
ITALIC
100
AcDbText
  0
LINE
  5
CBFB
100
AcDbEntity
  8
WYMIARY
 62
     3
100
AcDbLine
 10
328.894981
 20
723.772357
 30
0.0
 11
328.894981
 21
725.768968
 31
0.0
  0
LINE
  5
CBFC
100
AcDbEntity
  8
WYMIARY
 62
     3
100
AcDbLine
 10
325.534382
 20
723.772357
 30
0.0
 11
327.506855
 21
723.772357
 31
0.0
  0
LINE
  5
CBFD
100
AcDbEntity
  8
WYMIARY
 62
     3
100
AcDbLine
 10
327.506855
 20
723.772357
 30
0.0
 11
327.506855
 21
725.768968
 31
0.0
  0
LINE
  5
CBFE
100
AcDbEntity
  8
WYMIARY
 62
     3
100
AcDbLine
 10
327.506855
 20
725.768968
 30
0.0
 11
328.894981
 21
725.768968
 31
0.0
  0
LINE
  5
CBFF
100
AcDbEntity
  8
WYMIARY
 62
     3
100
AcDbLine
 10
328.894981
 20
723.772357
 30
0.0
 11
331.074021
 21
723.772357
 31
0.0
  0
TEXT
  5
CC00
100
AcDbEntity
  8
1
100
AcDbText
 10
339.468308
 20
727.488961
 30
0.0
 40
3.0
  1
4
 41
0.65
  7
ITALIC
100
AcDbText
  0
LINE
  5
CC01
100
AcDbEntity
  8
WYMIARY
 62
     3
100
AcDbLine
 10
339.506855
 20
725.768968
 30
0.0
 11
340.894981
 21
725.768968
 31
0.0
  0
LINE
  5
CC02
100
AcDbEntity
  8
WYMIARY
 62
     3
100
AcDbLine
 10
340.894981
 20
723.772357
 30
0.0
 11
340.894981
 21
725.768968
 31
0.0
  0
LINE
  5
CC03
100
AcDbEntity
  8
WYMIARY
 62
     3
100
AcDbLine
 10
339.506855
 20
723.772357
 30
0.0
 11
339.506855
 21
725.768968
 31
0.0
  0
LINE
  5
CC04
100
AcDbEntity
  8
WYMIARY
 62
     3
100
AcDbLine
 10
340.894981
 20
723.772357
 30
0.0
 11
343.074021
 21
723.772357
 31
0.0
  0
LINE
  5
CC05
100
AcDbEntity
  8
WYMIARY
 62
     3
100
AcDbLine
 10
337.534382
 20
723.772357
 30
0.0
 11
339.506855
 21
723.772357
 31
0.0
  0
CIRCLE
  5
CC06
100
AcDbEntity
  8
WYMIARY
 62
     3
100
AcDbCircle
 10
348.027797
 20
730.049148
 30
0.0
 40
2.25
  0
LINE
  5
CC07
100
AcDbEntity
  8
WYMIARY
 62
     3
100
AcDbLine
 10
355.142557
 20
723.772357
 30
0.0
 11
355.142557
 21
725.768968
 31
0.0
  0
LINE
  5
CC08
100
AcDbEntity
  8
WYMIARY
 62
     3
100
AcDbLine
 10
353.170084
 20
723.772357
 30
0.0
 11
355.142557
 21
723.772357
 31
0.0
  0
TEXT
  5
CC09
100
AcDbEntity
  8
1
100
AcDbText
 10
346.726454
 20
723.763505
 30
0.0
 40
3.0
  1
A2
 41
0.65
  7
ITALIC
100
AcDbText
  0
LINE
  5
CC0A
100
AcDbEntity
  8
WYMIARY
 62
     3
100
AcDbLine
 10
395.268369
 20
723.772357
 30
0.0
 11
395.268369
 21
722.384231
 31
0.0
  0
LINE
  5
CC0B
100
AcDbEntity
  8
WYMIARY
 62
     3
100
AcDbLine
 10
365.259822
 20
723.772357
 30
0.0
 11
365.259822
 21
722.384231
 31
0.0
  0
LINE
  5
CC0C
100
AcDbEntity
  8
WYMIARY
 62
     3
100
AcDbLine
 10
370.799462
 20
723.772357
 30
0.0
 11
370.799462
 21
722.384231
 31
0.0
  0
LINE
  5
CC0D
100
AcDbEntity
  8
WYMIARY
 62
     3
100
AcDbLine
 10
358.709724
 20
723.772357
 30
0.0
 11
358.709724
 21
722.384231
 31
0.0
  0
CIRCLE
  5
CC0E
100
AcDbEntity
  8
WYMIARY
 62
     3
100
AcDbCircle
 10
367.927797
 20
722.999148
 30
0.0
 40
3.75
  0
LINE
  5
CC0F
100
AcDbEntity
  8
WYMIARY
 62
     3
100
AcDbLine
 10
365.259822
 20
722.384231
 30
0.0
 11
367.232296
 21
722.384231
 31
0.0
  0
LINE
  5
CC10
100
AcDbEntity
  8
WYMIARY
 62
     3
100
AcDbLine
 10
356.530683
 20
720.229328
 30
0.0
 11
356.530683
 21
722.384231
 31
0.0
  0
LINE
  5
CC11
100
AcDbEntity
  8
WYMIARY
 62
     3
100
AcDbLine
 10
356.530683
 20
722.384231
 30
0.0
 11
358.709724
 21
722.384231
 31
0.0
  0
LINE
  5
CC12
100
AcDbEntity
  8
WYMIARY
 62
     3
100
AcDbLine
 10
368.620422
 20
722.384231
 30
0.0
 11
370.799462
 21
722.384231
 31
0.0
  0
LINE
  5
CC13
100
AcDbEntity
  8
WYMIARY
 62
     3
100
AcDbLine
 10
367.232296
 20
720.229328
 30
0.0
 11
367.232296
 21
722.384231
 31
0.0
  0
LINE
  5
CC14
100
AcDbEntity
  8
WYMIARY
 62
     3
100
AcDbLine
 10
368.620422
 20
720.229328
 30
0.0
 11
368.620422
 21
722.384231
 31
0.0
  0
LINE
  5
CC15
100
AcDbEntity
  8
WYMIARY
 62
     3
100
AcDbLine
 10
367.232296
 20
720.229328
 30
0.0
 11
368.620422
 21
720.229328
 31
0.0
  0
LINE
  5
CC16
100
AcDbEntity
  8
WYMIARY
 62
     3
100
AcDbLine
 10
397.240842
 20
720.229328
 30
0.0
 11
397.240842
 21
722.384231
 31
0.0
  0
LINE
  5
CC17
100
AcDbEntity
  8
WYMIARY
 62
     3
100
AcDbLine
 10
395.268369
 20
722.384231
 30
0.0
 11
397.240842
 21
722.384231
 31
0.0
  0
LINE
  5
CC18
100
AcDbEntity
  8
WYMIARY
 62
     3
100
AcDbLine
 10
365.259822
 20
723.772357
 30
0.0
 11
367.232296
 21
723.772357
 31
0.0
  0
LINE
  5
CC19
100
AcDbEntity
  8
WYMIARY
 62
     3
100
AcDbLine
 10
356.530683
 20
723.772357
 30
0.0
 11
356.530683
 21
725.768968
 31
0.0
  0
LINE
  5
CC1A
100
AcDbEntity
  8
WYMIARY
 62
     3
100
AcDbLine
 10
356.530683
 20
723.772357
 30
0.0
 11
358.709724
 21
723.772357
 31
0.0
  0
TEXT
  5
CC1B
100
AcDbEntity
  8
1
100
AcDbText
 10
367.348587
 20
727.488961
 30
0.0
 40
3.0
  1
8
 41
0.65
  7
ITALIC
100
AcDbText
  0
LINE
  5
CC1C
100
AcDbEntity
  8
WYMIARY
 62
     3
100
AcDbLine
 10
368.620422
 20
723.772357
 30
0.0
 11
370.799462
 21
723.772357
 31
0.0
  0
LINE
  5
CC1D
100
AcDbEntity
  8
WYMIARY
 62
     3
100
AcDbLine
 10
368.620422
 20
723.772357
 30
0.0
 11
368.620422
 21
725.768968
 31
0.0
  0
LINE
  5
CC1E
100
AcDbEntity
  8
WYMIARY
 62
     3
100
AcDbLine
 10
367.232296
 20
723.772357
 30
0.0
 11
367.232296
 21
725.768968
 31
0.0
  0
LINE
  5
CC1F
100
AcDbEntity
  8
WYMIARY
 62
     3
100
AcDbLine
 10
367.232296
 20
725.768968
 30
0.0
 11
368.620422
 21
725.768968
 31
0.0
  0
LINE
  5
CC20
100
AcDbEntity
  8
WYMIARY
 62
     3
100
AcDbLine
 10
397.240842
 20
723.772357
 30
0.0
 11
397.240842
 21
725.768968
 31
0.0
  0
LINE
  5
CC21
100
AcDbEntity
  8
WYMIARY
 62
     3
100
AcDbLine
 10
395.268369
 20
723.772357
 30
0.0
 11
397.240842
 21
723.772357
 31
0.0
  0
LINE
  5
CC22
100
AcDbEntity
  8
WYMIARY
 62
     3
100
AcDbLine
 10
374.677797
 20
797.599148
 30
0.0
 11
321.377797
 21
797.599148
 31
0.0
  0
TEXT
  5
CC23
100
AcDbEntity
  8
1
100
AcDbText
 10
355.219501
 20
780.830694
 30
0.0
 40
3.0
  1
5
 41
0.65
  7
ITALIC
100
AcDbText
  0
LINE
  5
CC24
100
AcDbEntity
  8
WYMIARY
 62
     3
100
AcDbLine
 10
355.142557
 20
785.429328
 30
0.0
 11
356.530683
 21
785.429328
 31
0.0
  0
LINE
  5
CC25
100
AcDbEntity
  8
WYMIARY
 62
     3
100
AcDbLine
 10
355.142557
 20
790.968968
 30
0.0
 11
356.530683
 21
790.968968
 31
0.0
  0
LINE
  5
CC26
100
AcDbEntity
  8
WYMIARY
 62
     3
100
AcDbLine
 10
374.677797
 20
778.099148
 30
0.0
 11
321.377797
 21
778.099148
 31
0.0
  0
CIRCLE
  5
CC27
100
AcDbEntity
  8
WYMIARY
 62
     3
100
AcDbCircle
 10
355.927797
 20
788.199148
 30
0.0
 40
3.75
  0
LINE
  5
CC28
100
AcDbEntity
  8
WYMIARY
 62
     3
100
AcDbLine
 10
355.142557
 20
790.968968
 30
0.0
 11
355.142557
 21
788.814064
 31
0.0
  0
LINE
  5
CC29
100
AcDbEntity
  8
WYMIARY
 62
     3
100
AcDbLine
 10
347.544406
 20
790.335346
 30
0.0
 11
347.544406
 21
788.937718
 31
0.0
  0
LINE
  5
CC2A
100
AcDbEntity
  8
WYMIARY
 62
     3
100
AcDbLine
 10
348.516094
 20
790.335346
 30
0.0
 11
348.516094
 21
788.937718
 31
0.0
  0
LINE
  5
CC2B
100
AcDbEntity
  8
WYMIARY
 62
     3
100
AcDbLine
 10
340.894981
 20
790.968968
 30
0.0
 11
340.894981
 21
788.814064
 31
0.0
  0
LINE
  5
CC2C
100
AcDbEntity
  8
WYMIARY
 62
     3
100
AcDbLine
 10
339.506855
 20
790.968968
 30
0.0
 11
339.506855
 21
788.814064
 31
0.0
  0
LINE
  5
CC2D
100
AcDbEntity
  8
WYMIARY
 62
     3
100
AcDbLine
 10
328.894981
 20
790.968968
 30
0.0
 11
328.894981
 21
788.814064
 31
0.0
  0
LINE
  5
CC2E
100
AcDbEntity
  8
WYMIARY
 62
     3
100
AcDbLine
 10
327.506855
 20
790.968968
 30
0.0
 11
327.506855
 21
788.814064
 31
0.0
  0
CIRCLE
  5
CC2F
100
AcDbEntity
  8
WYMIARY
 62
     3
100
AcDbCircle
 10
328.127797
 20
788.199148
 30
0.0
 40
3.75
  0
CIRCLE
  5
CC30
100
AcDbEntity
  8
WYMIARY
 62
     3
100
AcDbCircle
 10
340.127797
 20
788.199148
 30
0.0
 40
3.75
  0
LINE
  5
CC31
100
AcDbEntity
  8
WYMIARY
 62
     3
100
AcDbLine
 10
321.377797
 20
797.599148
 30
0.0
 11
321.377797
 21
788.199148
 31
0.0
  0
CIRCLE
  5
CC32
100
AcDbEntity
  8
WYMIARY
 62
     3
100
AcDbCircle
 10
348.027797
 20
790.849148
 30
0.0
 40
2.25
  0
LINE
  5
CC33
100
AcDbEntity
  8
WYMIARY
 62
     3
100
AcDbLine
 10
331.074021
 20
787.425938
 30
0.0
 11
331.074021
 21
788.814064
 31
0.0
  0
TEXT
  5
CC34
100
AcDbEntity
  8
1
100
AcDbText
 10
327.542782
 20
780.830694
 30
0.0
 40
3.0
  1
1
 41
0.65
  7
ITALIC
100
AcDbText
  0
LINE
  5
CC35
100
AcDbEntity
  8
WYMIARY
 62
     3
100
AcDbLine
 10
328.894981
 20
787.425938
 30
0.0
 11
328.894981
 21
785.429328
 31
0.0
  0
LINE
  5
CC36
100
AcDbEntity
  8
WYMIARY
 62
     3
100
AcDbLine
 10
325.534382
 20
787.425938
 30
0.0
 11
327.506855
 21
787.425938
 31
0.0
  0
LINE
  5
CC37
100
AcDbEntity
  8
WYMIARY
 62
     3
100
AcDbLine
 10
325.534382
 20
788.814064
 30
0.0
 11
327.506855
 21
788.814064
 31
0.0
  0
LINE
  5
CC38
100
AcDbEntity
  8
WYMIARY
 62
     3
100
AcDbLine
 10
325.534382
 20
787.425938
 30
0.0
 11
325.534382
 21
788.814064
 31
0.0
  0
LINE
  5
CC39
100
AcDbEntity
  8
WYMIARY
 62
     3
100
AcDbLine
 10
327.506855
 20
787.425938
 30
0.0
 11
327.506855
 21
785.429328
 31
0.0
  0
LINE
  5
CC3A
100
AcDbEntity
  8
WYMIARY
 62
     3
100
AcDbLine
 10
327.506855
 20
785.429328
 30
0.0
 11
328.894981
 21
785.429328
 31
0.0
  0
LINE
  5
CC3B
100
AcDbEntity
  8
WYMIARY
 62
     3
100
AcDbLine
 10
328.894981
 20
787.425938
 30
0.0
 11
331.074021
 21
787.425938
 31
0.0
  0
LINE
  5
CC3C
100
AcDbEntity
  8
WYMIARY
 62
     3
100
AcDbLine
 10
328.894981
 20
788.814064
 30
0.0
 11
331.074021
 21
788.814064
 31
0.0
  0
TEXT
  5
CC3D
100
AcDbEntity
  8
1
100
AcDbText
 10
339.506136
 20
780.830694
 30
0.0
 40
3.0
  1
3
 41
0.65
  7
ITALIC
100
AcDbText
  0
LINE
  5
CC3E
100
AcDbEntity
  8
WYMIARY
 62
     3
100
AcDbLine
 10
339.506855
 20
787.425938
 30
0.0
 11
339.506855
 21
785.429328
 31
0.0
  0
LINE
  5
CC3F
100
AcDbEntity
  8
WYMIARY
 62
     3
100
AcDbLine
 10
340.894981
 20
787.425938
 30
0.0
 11
340.894981
 21
785.429328
 31
0.0
  0
LINE
  5
CC40
100
AcDbEntity
  8
WYMIARY
 62
     3
100
AcDbLine
 10
340.894981
 20
787.425938
 30
0.0
 11
343.074021
 21
787.425938
 31
0.0
  0
LINE
  5
CC41
100
AcDbEntity
  8
WYMIARY
 62
     3
100
AcDbLine
 10
340.894981
 20
788.814064
 30
0.0
 11
343.074021
 21
788.814064
 31
0.0
  0
LINE
  5
CC42
100
AcDbEntity
  8
WYMIARY
 62
     3
100
AcDbLine
 10
343.074021
 20
787.425938
 30
0.0
 11
343.074021
 21
788.814064
 31
0.0
  0
LINE
  5
CC43
100
AcDbEntity
  8
WYMIARY
 62
     3
100
AcDbLine
 10
339.506855
 20
785.429328
 30
0.0
 11
340.894981
 21
785.429328
 31
0.0
  0
LINE
  5
CC44
100
AcDbEntity
  8
WYMIARY
 62
     3
100
AcDbLine
 10
337.534382
 20
787.425938
 30
0.0
 11
337.534382
 21
788.814064
 31
0.0
  0
LINE
  5
CC45
100
AcDbEntity
  8
WYMIARY
 62
     3
100
AcDbLine
 10
337.534382
 20
787.425938
 30
0.0
 11
339.506855
 21
787.425938
 31
0.0
  0
LINE
  5
CC46
100
AcDbEntity
  8
WYMIARY
 62
     3
100
AcDbLine
 10
337.534382
 20
788.814064
 30
0.0
 11
339.506855
 21
788.814064
 31
0.0
  0
LINE
  5
CC47
100
AcDbEntity
  8
WYMIARY
 62
     3
100
AcDbLine
 10
355.142557
 20
787.425938
 30
0.0
 11
355.142557
 21
785.429328
 31
0.0
  0
TEXT
  5
CC48
100
AcDbEntity
  8
1
100
AcDbText
 10
346.726454
 20
785.223542
 30
0.0
 40
3.0
  1
A1
 41
0.65
  7
ITALIC
100
AcDbText
  0
LINE
  5
CC49
100
AcDbEntity
  8
WYMIARY
 62
     3
100
AcDbLine
 10
347.544406
 20
788.937718
 30
0.0
 11
348.516094
 21
788.937718
 31
0.0
  0
LINE
  5
CC4A
100
AcDbEntity
  8
WYMIARY
 62
     3
100
AcDbLine
 10
353.170084
 20
787.425938
 30
0.0
 11
353.170084
 21
788.814064
 31
0.0
  0
CIRCLE
  5
CC4B
100
AcDbEntity
  8
WYMIARY
 62
     3
100
AcDbCircle
 10
348.027797
 20
781.149148
 30
0.0
 40
2.25
  0
LINE
  5
CC4C
100
AcDbEntity
  8
WYMIARY
 62
     3
100
AcDbLine
 10
353.170084
 20
788.814064
 30
0.0
 11
355.142557
 21
788.814064
 31
0.0
  0
LINE
  5
CC4D
100
AcDbEntity
  8
WYMIARY
 62
     3
100
AcDbLine
 10
353.170084
 20
787.425938
 30
0.0
 11
355.142557
 21
787.425938
 31
0.0
  0
LINE
  5
CC4E
100
AcDbEntity
  8
WYMIARY
 62
     3
100
AcDbLine
 10
321.377797
 20
797.599148
 30
0.0
 11
340.127797
 21
797.599148
 31
0.0
  0
LINE
  5
CC4F
100
AcDbEntity
  8
WYMIARY
 62
     3
100
AcDbLine
 10
321.377797
 20
797.599148
 30
0.0
 11
328.127797
 21
797.599148
 31
0.0
  0
LINE
  5
CC50
100
AcDbEntity
  8
WYMIARY
 62
     3
100
AcDbLine
 10
327.506855
 20
790.968968
 30
0.0
 11
328.894981
 21
790.968968
 31
0.0
  0
LINE
  5
CC51
100
AcDbEntity
  8
WYMIARY
 62
     3
100
AcDbLine
 10
327.506855
 20
790.968968
 30
0.0
 11
328.894981
 21
790.968968
 31
0.0
  0
LINE
  5
CC52
100
AcDbEntity
  8
WYMIARY
 62
     3
100
AcDbLine
 10
327.506855
 20
790.968968
 30
0.0
 11
328.894981
 21
790.968968
 31
0.0
  0
LINE
  5
CC53
100
AcDbEntity
  8
WYMIARY
 62
     3
100
AcDbLine
 10
339.506855
 20
790.968968
 30
0.0
 11
340.894981
 21
790.968968
 31
0.0
  0
LINE
  5
CC54
100
AcDbEntity
  8
WYMIARY
 62
     3
100
AcDbLine
 10
339.506855
 20
790.968968
 30
0.0
 11
340.894981
 21
790.968968
 31
0.0
  0
LINE
  5
CC55
100
AcDbEntity
  8
WYMIARY
 62
     3
100
AcDbLine
 10
339.506855
 20
790.968968
 30
0.0
 11
340.894981
 21
790.968968
 31
0.0
  0
LINE
  5
CC56
100
AcDbEntity
  8
WYMIARY
 62
     3
100
AcDbLine
 10
347.544406
 20
792.815466
 30
0.0
 11
348.516094
 21
792.815466
 31
0.0
  0
LINE
  5
CC57
100
AcDbEntity
  8
WYMIARY
 62
     3
100
AcDbLine
 10
347.544406
 20
792.815466
 30
0.0
 11
348.516094
 21
792.815466
 31
0.0
  0
LINE
  5
CC58
100
AcDbEntity
  8
WYMIARY
 62
     3
100
AcDbLine
 10
347.544406
 20
792.815466
 30
0.0
 11
348.516094
 21
792.815466
 31
0.0
  0
LINE
  5
CC59
100
AcDbEntity
  8
WYMIARY
 62
     3
100
AcDbLine
 10
348.516094
 20
791.307034
 30
0.0
 11
350.041422
 21
791.307034
 31
0.0
  0
LINE
  5
CC5A
100
AcDbEntity
  8
WYMIARY
 62
     3
100
AcDbLine
 10
348.516094
 20
790.335346
 30
0.0
 11
350.041422
 21
790.335346
 31
0.0
  0
LINE
  5
CC5B
100
AcDbEntity
  8
WYMIARY
 62
     3
100
AcDbLine
 10
350.041422
 20
790.335346
 30
0.0
 11
350.041422
 21
791.307034
 31
0.0
  0
LINE
  5
CC5C
100
AcDbEntity
  8
WYMIARY
 62
     3
100
AcDbLine
 10
346.163675
 20
790.335346
 30
0.0
 11
346.163675
 21
791.307034
 31
0.0
  0
LINE
  5
CC5D
100
AcDbEntity
  8
WYMIARY
 62
     3
100
AcDbLine
 10
346.163675
 20
790.335346
 30
0.0
 11
347.544406
 21
790.335346
 31
0.0
  0
LINE
  5
CC5E
100
AcDbEntity
  8
WYMIARY
 62
     3
100
AcDbLine
 10
346.163675
 20
791.307034
 30
0.0
 11
347.544406
 21
791.307034
 31
0.0
  0
LINE
  5
CC5F
100
AcDbEntity
  8
WYMIARY
 62
     3
100
AcDbLine
 10
348.516094
 20
792.815466
 30
0.0
 11
348.516094
 21
791.307034
 31
0.0
  0
LINE
  5
CC60
100
AcDbEntity
  8
WYMIARY
 62
     3
100
AcDbLine
 10
347.544406
 20
792.815466
 30
0.0
 11
347.544406
 21
791.307034
 31
0.0
  0
LINE
  5
CC61
100
AcDbEntity
  8
WYMIARY
 62
     3
100
AcDbLine
 10
397.240842
 20
790.968968
 30
0.0
 11
397.240842
 21
788.814064
 31
0.0
  0
LINE
  5
CC62
100
AcDbEntity
  8
WYMIARY
 62
     3
100
AcDbLine
 10
368.620422
 20
790.968968
 30
0.0
 11
368.620422
 21
788.814064
 31
0.0
  0
LINE
  5
CC63
100
AcDbEntity
  8
WYMIARY
 62
     3
100
AcDbLine
 10
367.232296
 20
790.968968
 30
0.0
 11
367.232296
 21
788.814064
 31
0.0
  0
CIRCLE
  5
CC64
100
AcDbEntity
  8
WYMIARY
 62
     3
100
AcDbCircle
 10
367.927797
 20
788.199148
 30
0.0
 40
3.75
  0
LINE
  5
CC65
100
AcDbEntity
  8
WYMIARY
 62
     3
100
AcDbLine
 10
356.530683
 20
790.968968
 30
0.0
 11
356.530683
 21
788.814064
 31
0.0
  0
LINE
  5
CC66
100
AcDbEntity
  8
WYMIARY
 62
     3
100
AcDbLine
 10
391.111784
 20
797.599148
 30
0.0
 11
391.111784
 21
788.199148
 31
0.0
  0
LINE
  5
CC67
100
AcDbEntity
  8
WYMIARY
 62
     3
100
AcDbLine
 10
391.111784
 20
797.599148
 30
0.0
 11
391.111784
 21
788.199148
 31
0.0
  0
LINE
  5
CC68
100
AcDbEntity
  8
WYMIARY
 62
     3
100
AcDbLine
 10
365.259822
 20
788.814064
 30
0.0
 11
367.232296
 21
788.814064
 31
0.0
  0
LINE
  5
CC69
100
AcDbEntity
  8
WYMIARY
 62
     3
100
AcDbLine
 10
365.259822
 20
787.425938
 30
0.0
 11
367.232296
 21
787.425938
 31
0.0
  0
LINE
  5
CC6A
100
AcDbEntity
  8
WYMIARY
 62
     3
100
AcDbLine
 10
365.259822
 20
787.425938
 30
0.0
 11
365.259822
 21
788.814064
 31
0.0
  0
LINE
  5
CC6B
100
AcDbEntity
  8
WYMIARY
 62
     3
100
AcDbLine
 10
356.530683
 20
788.814064
 30
0.0
 11
358.709724
 21
788.814064
 31
0.0
  0
LINE
  5
CC6C
100
AcDbEntity
  8
WYMIARY
 62
     3
100
AcDbLine
 10
358.709724
 20
787.425938
 30
0.0
 11
358.709724
 21
788.814064
 31
0.0
  0
LINE
  5
CC6D
100
AcDbEntity
  8
WYMIARY
 62
     3
100
AcDbLine
 10
356.530683
 20
787.425938
 30
0.0
 11
358.709724
 21
787.425938
 31
0.0
  0
LINE
  5
CC6E
100
AcDbEntity
  8
WYMIARY
 62
     3
100
AcDbLine
 10
356.530683
 20
787.425938
 30
0.0
 11
356.530683
 21
785.429328
 31
0.0
  0
TEXT
  5
CC6F
100
AcDbEntity
  8
1
100
AcDbText
 10
367.155949
 20
780.830694
 30
0.0
 40
3.0
  1
7
 41
0.65
  7
ITALIC
100
AcDbText
  0
LINE
  5
CC70
100
AcDbEntity
  8
WYMIARY
 62
     3
100
AcDbLine
 10
368.620422
 20
788.814064
 30
0.0
 11
370.799462
 21
788.814064
 31
0.0
  0
LINE
  5
CC71
100
AcDbEntity
  8
WYMIARY
 62
     3
100
AcDbLine
 10
368.620422
 20
787.425938
 30
0.0
 11
370.799462
 21
787.425938
 31
0.0
  0
LINE
  5
CC72
100
AcDbEntity
  8
WYMIARY
 62
     3
100
AcDbLine
 10
367.232296
 20
785.429328
 30
0.0
 11
368.620422
 21
785.429328
 31
0.0
  0
LINE
  5
CC73
100
AcDbEntity
  8
WYMIARY
 62
     3
100
AcDbLine
 10
367.232296
 20
787.425938
 30
0.0
 11
367.232296
 21
785.429328
 31
0.0
  0
LINE
  5
CC74
100
AcDbEntity
  8
WYMIARY
 62
     3
100
AcDbLine
 10
368.620422
 20
787.425938
 30
0.0
 11
368.620422
 21
785.429328
 31
0.0
  0
LINE
  5
CC75
100
AcDbEntity
  8
WYMIARY
 62
     3
100
AcDbLine
 10
370.799462
 20
787.425938
 30
0.0
 11
370.799462
 21
788.814064
 31
0.0
  0
LINE
  5
CC76
100
AcDbEntity
  8
WYMIARY
 62
     3
100
AcDbLine
 10
397.240842
 20
787.425938
 30
0.0
 11
397.240842
 21
785.429328
 31
0.0
  0
LINE
  5
CC77
100
AcDbEntity
  8
WYMIARY
 62
     3
100
AcDbLine
 10
395.268369
 20
787.425938
 30
0.0
 11
395.268369
 21
788.814064
 31
0.0
  0
LINE
  5
CC78
100
AcDbEntity
  8
WYMIARY
 62
     3
100
AcDbLine
 10
395.268369
 20
788.814064
 30
0.0
 11
397.240842
 21
788.814064
 31
0.0
  0
LINE
  5
CC79
100
AcDbEntity
  8
WYMIARY
 62
     3
100
AcDbLine
 10
395.268369
 20
787.425938
 30
0.0
 11
397.240842
 21
787.425938
 31
0.0
  0
TEXT
  5
CC7A
100
AcDbEntity
  8
1
100
AcDbText
 10
397.276769
 20
780.830694
 30
0.0
 40
3.0
  1
1
 41
0.65
  7
ITALIC
100
AcDbText
  0
LINE
  5
CC7B
100
AcDbEntity
  8
WYMIARY
 62
     3
100
AcDbLine
 10
367.232296
 20
790.968968
 30
0.0
 11
368.620422
 21
790.968968
 31
0.0
  0
LINE
  5
CC7C
100
AcDbEntity
  8
WYMIARY
 62
     3
100
AcDbLine
 10
391.111784
 20
797.599148
 30
0.0
 11
397.861784
 21
797.599148
 31
0.0
  0
LINE
  5
CC7D
100
AcDbEntity
  8
WYMIARY
 62
     3
100
AcDbLine
 10
444.411784
 20
713.599148
 30
0.0
 11
444.411784
 21
797.599148
 31
0.0
  0
CIRCLE
  5
CC7E
100
AcDbEntity
  8
WYMIARY
 62
     3
100
AcDbCircle
 10
437.661784
 20
722.999148
 30
0.0
 40
3.75
  0
LINE
  5
CC7F
100
AcDbEntity
  8
WYMIARY
 62
     3
100
AcDbLine
 10
434.993809
 20
723.772357
 30
0.0
 11
434.993809
 21
722.384231
 31
0.0
  0
LINE
  5
CC80
100
AcDbEntity
  8
WYMIARY
 62
     3
100
AcDbLine
 10
440.533449
 20
723.772357
 30
0.0
 11
440.533449
 21
722.384231
 31
0.0
  0
LINE
  5
CC81
100
AcDbEntity
  8
WYMIARY
 62
     3
100
AcDbLine
 10
428.443711
 20
723.772357
 30
0.0
 11
428.443711
 21
722.384231
 31
0.0
  0
LINE
  5
CC82
100
AcDbEntity
  8
WYMIARY
 62
     3
100
AcDbLine
 10
422.904071
 20
723.772357
 30
0.0
 11
422.904071
 21
722.384231
 31
0.0
  0
LINE
  5
CC83
100
AcDbEntity
  8
WYMIARY
 62
     3
100
AcDbLine
 10
407.268369
 20
723.772357
 30
0.0
 11
407.268369
 21
722.384231
 31
0.0
  0
LINE
  5
CC84
100
AcDbEntity
  8
WYMIARY
 62
     3
100
AcDbLine
 10
412.808008
 20
723.772357
 30
0.0
 11
412.808008
 21
722.384231
 31
0.0
  0
LINE
  5
CC85
100
AcDbEntity
  8
WYMIARY
 62
     3
100
AcDbLine
 10
400.808008
 20
723.772357
 30
0.0
 11
400.808008
 21
722.384231
 31
0.0
  0
CIRCLE
  5
CC86
100
AcDbEntity
  8
WYMIARY
 62
     3
100
AcDbCircle
 10
425.661784
 20
722.999148
 30
0.0
 40
3.75
  0
CIRCLE
  5
CC87
100
AcDbEntity
  8
WYMIARY
 62
     3
100
AcDbCircle
 10
409.861784
 20
722.999148
 30
0.0
 40
3.75
  0
LINE
  5
CC88
100
AcDbEntity
  8
WYMIARY
 62
     3
100
AcDbLine
 10
418.250081
 20
719.891262
 30
0.0
 11
419.775409
 21
719.891262
 31
0.0
  0
LINE
  5
CC89
100
AcDbEntity
  8
WYMIARY
 62
     3
100
AcDbLine
 10
418.250081
 20
720.86295
 30
0.0
 11
419.775409
 21
720.86295
 31
0.0
  0
CIRCLE
  5
CC8A
100
AcDbEntity
  8
WYMIARY
 62
     3
100
AcDbCircle
 10
417.761784
 20
720.349148
 30
0.0
 40
2.25
  0
LINE
  5
CC8B
100
AcDbEntity
  8
WYMIARY
 62
     3
100
AcDbLine
 10
407.268369
 20
722.384231
 30
0.0
 11
409.240842
 21
722.384231
 31
0.0
  0
LINE
  5
CC8C
100
AcDbEntity
  8
WYMIARY
 62
     3
100
AcDbLine
 10
398.628968
 20
722.384231
 30
0.0
 11
400.808008
 21
722.384231
 31
0.0
  0
LINE
  5
CC8D
100
AcDbEntity
  8
WYMIARY
 62
     3
100
AcDbLine
 10
398.628968
 20
720.229328
 30
0.0
 11
398.628968
 21
722.384231
 31
0.0
  0
LINE
  5
CC8E
100
AcDbEntity
  8
WYMIARY
 62
     3
100
AcDbLine
 10
417.278393
 20
722.260577
 30
0.0
 11
418.250081
 21
722.260577
 31
0.0
  0
LINE
  5
CC8F
100
AcDbEntity
  8
WYMIARY
 62
     3
100
AcDbLine
 10
415.897662
 20
720.86295
 30
0.0
 11
415.897662
 21
719.891262
 31
0.0
  0
LINE
  5
CC90
100
AcDbEntity
  8
WYMIARY
 62
     3
100
AcDbLine
 10
417.278393
 20
718.382829
 30
0.0
 11
418.250081
 21
718.382829
 31
0.0
  0
LINE
  5
CC91
100
AcDbEntity
  8
WYMIARY
 62
     3
100
AcDbLine
 10
417.278393
 20
718.382829
 30
0.0
 11
418.250081
 21
718.382829
 31
0.0
  0
LINE
  5
CC92
100
AcDbEntity
  8
WYMIARY
 62
     3
100
AcDbLine
 10
417.278393
 20
718.382829
 30
0.0
 11
418.250081
 21
718.382829
 31
0.0
  0
LINE
  5
CC93
100
AcDbEntity
  8
WYMIARY
 62
     3
100
AcDbLine
 10
415.897662
 20
719.891262
 30
0.0
 11
417.278393
 21
719.891262
 31
0.0
  0
LINE
  5
CC94
100
AcDbEntity
  8
WYMIARY
 62
     3
100
AcDbLine
 10
417.278393
 20
718.382829
 30
0.0
 11
417.278393
 21
719.891262
 31
0.0
  0
LINE
  5
CC95
100
AcDbEntity
  8
WYMIARY
 62
     3
100
AcDbLine
 10
418.250081
 20
718.382829
 30
0.0
 11
418.250081
 21
719.891262
 31
0.0
  0
LINE
  5
CC96
100
AcDbEntity
  8
WYMIARY
 62
     3
100
AcDbLine
 10
418.250081
 20
720.86295
 30
0.0
 11
418.250081
 21
722.260577
 31
0.0
  0
LINE
  5
CC97
100
AcDbEntity
  8
WYMIARY
 62
     3
100
AcDbLine
 10
417.278393
 20
720.86295
 30
0.0
 11
417.278393
 21
722.260577
 31
0.0
  0
LINE
  5
CC98
100
AcDbEntity
  8
WYMIARY
 62
     3
100
AcDbLine
 10
415.897662
 20
720.86295
 30
0.0
 11
417.278393
 21
720.86295
 31
0.0
  0
LINE
  5
CC99
100
AcDbEntity
  8
WYMIARY
 62
     3
100
AcDbLine
 10
410.628968
 20
722.384231
 30
0.0
 11
412.808008
 21
722.384231
 31
0.0
  0
LINE
  5
CC9A
100
AcDbEntity
  8
WYMIARY
 62
     3
100
AcDbLine
 10
409.240842
 20
720.229328
 30
0.0
 11
409.240842
 21
722.384231
 31
0.0
  0
LINE
  5
CC9B
100
AcDbEntity
  8
WYMIARY
 62
     3
100
AcDbLine
 10
410.628968
 20
720.229328
 30
0.0
 11
410.628968
 21
722.384231
 31
0.0
  0
LINE
  5
CC9C
100
AcDbEntity
  8
WYMIARY
 62
     3
100
AcDbLine
 10
409.240842
 20
720.229328
 30
0.0
 11
410.628968
 21
720.229328
 31
0.0
  0
LINE
  5
CC9D
100
AcDbEntity
  8
WYMIARY
 62
     3
100
AcDbLine
 10
409.240842
 20
720.229328
 30
0.0
 11
410.628968
 21
720.229328
 31
0.0
  0
LINE
  5
CC9E
100
AcDbEntity
  8
WYMIARY
 62
     3
100
AcDbLine
 10
409.240842
 20
720.229328
 30
0.0
 11
410.628968
 21
720.229328
 31
0.0
  0
LINE
  5
CC9F
100
AcDbEntity
  8
WYMIARY
 62
     3
100
AcDbLine
 10
426.26467
 20
722.384231
 30
0.0
 11
428.443711
 21
722.384231
 31
0.0
  0
LINE
  5
CCA0
100
AcDbEntity
  8
WYMIARY
 62
     3
100
AcDbLine
 10
424.876544
 20
720.229328
 30
0.0
 11
426.26467
 21
720.229328
 31
0.0
  0
LINE
  5
CCA1
100
AcDbEntity
  8
WYMIARY
 62
     3
100
AcDbLine
 10
424.876544
 20
720.229328
 30
0.0
 11
424.876544
 21
722.384231
 31
0.0
  0
LINE
  5
CCA2
100
AcDbEntity
  8
WYMIARY
 62
     3
100
AcDbLine
 10
426.26467
 20
720.229328
 30
0.0
 11
426.26467
 21
722.384231
 31
0.0
  0
LINE
  5
CCA3
100
AcDbEntity
  8
WYMIARY
 62
     3
100
AcDbLine
 10
419.775409
 20
720.86295
 30
0.0
 11
419.775409
 21
719.891262
 31
0.0
  0
LINE
  5
CCA4
100
AcDbEntity
  8
WYMIARY
 62
     3
100
AcDbLine
 10
422.904071
 20
722.384231
 30
0.0
 11
424.876544
 21
722.384231
 31
0.0
  0
LINE
  5
CCA5
100
AcDbEntity
  8
WYMIARY
 62
     3
100
AcDbLine
 10
438.354409
 20
722.384231
 30
0.0
 11
440.533449
 21
722.384231
 31
0.0
  0
LINE
  5
CCA6
100
AcDbEntity
  8
WYMIARY
 62
     3
100
AcDbLine
 10
436.966283
 20
720.229328
 30
0.0
 11
438.354409
 21
720.229328
 31
0.0
  0
LINE
  5
CCA7
100
AcDbEntity
  8
WYMIARY
 62
     3
100
AcDbLine
 10
438.354409
 20
720.229328
 30
0.0
 11
438.354409
 21
722.384231
 31
0.0
  0
LINE
  5
CCA8
100
AcDbEntity
  8
WYMIARY
 62
     3
100
AcDbLine
 10
436.966283
 20
720.229328
 30
0.0
 11
436.966283
 21
722.384231
 31
0.0
  0
LINE
  5
CCA9
100
AcDbEntity
  8
WYMIARY
 62
     3
100
AcDbLine
 10
434.993809
 20
722.384231
 30
0.0
 11
436.966283
 21
722.384231
 31
0.0
  0
CIRCLE
  5
CCAA
100
AcDbEntity
  8
WYMIARY
 62
     3
100
AcDbCircle
 10
417.761784
 20
730.049148
 30
0.0
 40
2.25
  0
TEXT
  5
CCAB
100
AcDbEntity
  8
1
100
AcDbText
 10
416.460441
 20
723.763505
 30
0.0
 40
3.0
  1
A2
 41
0.65
  7
ITALIC
100
AcDbText
  0
LINE
  5
CCAC
100
AcDbEntity
  8
WYMIARY
 62
     3
100
AcDbLine
 10
407.268369
 20
723.772357
 30
0.0
 11
409.240842
 21
723.772357
 31
0.0
  0
LINE
  5
CCAD
100
AcDbEntity
  8
WYMIARY
 62
     3
100
AcDbLine
 10
398.628968
 20
723.772357
 30
0.0
 11
400.808008
 21
723.772357
 31
0.0
  0
LINE
  5
CCAE
100
AcDbEntity
  8
WYMIARY
 62
     3
100
AcDbLine
 10
398.628968
 20
723.772357
 30
0.0
 11
398.628968
 21
725.768968
 31
0.0
  0
TEXT
  5
CCAF
100
AcDbEntity
  8
1
100
AcDbText
 10
409.202295
 20
727.488961
 30
0.0
 40
3.0
  1
4
 41
0.65
  7
ITALIC
100
AcDbText
  0
LINE
  5
CCB0
100
AcDbEntity
  8
WYMIARY
 62
     3
100
AcDbLine
 10
410.628968
 20
723.772357
 30
0.0
 11
412.808008
 21
723.772357
 31
0.0
  0
LINE
  5
CCB1
100
AcDbEntity
  8
WYMIARY
 62
     3
100
AcDbLine
 10
409.240842
 20
723.772357
 30
0.0
 11
409.240842
 21
725.768968
 31
0.0
  0
LINE
  5
CCB2
100
AcDbEntity
  8
WYMIARY
 62
     3
100
AcDbLine
 10
410.628968
 20
723.772357
 30
0.0
 11
410.628968
 21
725.768968
 31
0.0
  0
LINE
  5
CCB3
100
AcDbEntity
  8
WYMIARY
 62
     3
100
AcDbLine
 10
409.240842
 20
725.768968
 30
0.0
 11
410.628968
 21
725.768968
 31
0.0
  0
TEXT
  5
CCB4
100
AcDbEntity
  8
1
100
AcDbText
 10
424.993846
 20
727.488961
 30
0.0
 40
3.0
  1
6
 41
0.65
  7
ITALIC
100
AcDbText
  0
LINE
  5
CCB5
100
AcDbEntity
  8
WYMIARY
 62
     3
100
AcDbLine
 10
426.26467
 20
723.772357
 30
0.0
 11
428.443711
 21
723.772357
 31
0.0
  0
LINE
  5
CCB6
100
AcDbEntity
  8
WYMIARY
 62
     3
100
AcDbLine
 10
426.26467
 20
723.772357
 30
0.0
 11
426.26467
 21
725.768968
 31
0.0
  0
LINE
  5
CCB7
100
AcDbEntity
  8
WYMIARY
 62
     3
100
AcDbLine
 10
424.876544
 20
723.772357
 30
0.0
 11
424.876544
 21
725.768968
 31
0.0
  0
LINE
  5
CCB8
100
AcDbEntity
  8
WYMIARY
 62
     3
100
AcDbLine
 10
424.876544
 20
725.768968
 30
0.0
 11
426.26467
 21
725.768968
 31
0.0
  0
LINE
  5
CCB9
100
AcDbEntity
  8
WYMIARY
 62
     3
100
AcDbLine
 10
422.904071
 20
723.772357
 30
0.0
 11
424.876544
 21
723.772357
 31
0.0
  0
TEXT
  5
CCBA
100
AcDbEntity
  8
1
100
AcDbText
 10
436.112487
 20
727.488961
 30
0.0
 40
3.0
  1
R8
 41
0.65
  7
ITALIC
100
AcDbText
  0
LINE
  5
CCBB
100
AcDbEntity
  8
WYMIARY
 62
     3
100
AcDbLine
 10
438.354409
 20
723.772357
 30
0.0
 11
440.533449
 21
723.772357
 31
0.0
  0
LINE
  5
CCBC
100
AcDbEntity
  8
WYMIARY
 62
     3
100
AcDbLine
 10
436.966283
 20
725.768968
 30
0.0
 11
438.354409
 21
725.768968
 31
0.0
  0
LINE
  5
CCBD
100
AcDbEntity
  8
WYMIARY
 62
     3
100
AcDbLine
 10
436.966283
 20
723.772357
 30
0.0
 11
436.966283
 21
725.768968
 31
0.0
  0
LINE
  5
CCBE
100
AcDbEntity
  8
WYMIARY
 62
     3
100
AcDbLine
 10
438.354409
 20
723.772357
 30
0.0
 11
438.354409
 21
725.768968
 31
0.0
  0
LINE
  5
CCBF
100
AcDbEntity
  8
WYMIARY
 62
     3
100
AcDbLine
 10
434.993809
 20
723.772357
 30
0.0
 11
436.966283
 21
723.772357
 31
0.0
  0
CIRCLE
  5
CCC0
100
AcDbEntity
  8
WYMIARY
 62
     3
100
AcDbCircle
 10
437.661784
 20
788.199148
 30
0.0
 40
3.75
  0
LINE
  5
CCC1
100
AcDbEntity
  8
WYMIARY
 62
     3
100
AcDbLine
 10
436.966283
 20
790.968968
 30
0.0
 11
436.966283
 21
788.814064
 31
0.0
  0
LINE
  5
CCC2
100
AcDbEntity
  8
WYMIARY
 62
     3
100
AcDbLine
 10
438.354409
 20
790.968968
 30
0.0
 11
438.354409
 21
788.814064
 31
0.0
  0
LINE
  5
CCC3
100
AcDbEntity
  8
WYMIARY
 62
     3
100
AcDbLine
 10
426.26467
 20
790.968968
 30
0.0
 11
426.26467
 21
788.814064
 31
0.0
  0
LINE
  5
CCC4
100
AcDbEntity
  8
WYMIARY
 62
     3
100
AcDbLine
 10
424.876544
 20
790.968968
 30
0.0
 11
424.876544
 21
788.814064
 31
0.0
  0
LINE
  5
CCC5
100
AcDbEntity
  8
WYMIARY
 62
     3
100
AcDbLine
 10
418.250081
 20
790.335346
 30
0.0
 11
418.250081
 21
788.937718
 31
0.0
  0
LINE
  5
CCC6
100
AcDbEntity
  8
WYMIARY
 62
     3
100
AcDbLine
 10
417.278393
 20
790.335346
 30
0.0
 11
417.278393
 21
788.937718
 31
0.0
  0
LINE
  5
CCC7
100
AcDbEntity
  8
WYMIARY
 62
     3
100
AcDbLine
 10
409.240842
 20
790.968968
 30
0.0
 11
409.240842
 21
788.814064
 31
0.0
  0
LINE
  5
CCC8
100
AcDbEntity
  8
WYMIARY
 62
     3
100
AcDbLine
 10
410.628968
 20
790.968968
 30
0.0
 11
410.628968
 21
788.814064
 31
0.0
  0
LINE
  5
CCC9
100
AcDbEntity
  8
WYMIARY
 62
     3
100
AcDbLine
 10
398.628968
 20
790.968968
 30
0.0
 11
398.628968
 21
788.814064
 31
0.0
  0
CIRCLE
  5
CCCA
100
AcDbEntity
  8
WYMIARY
 62
     3
100
AcDbCircle
 10
409.861784
 20
788.199148
 30
0.0
 40
3.75
  0
CIRCLE
  5
CCCB
100
AcDbEntity
  8
WYMIARY
 62
     3
100
AcDbCircle
 10
425.661784
 20
788.199148
 30
0.0
 40
3.75
  0
CIRCLE
  5
CCCC
100
AcDbEntity
  8
WYMIARY
 62
     3
100
AcDbCircle
 10
417.761784
 20
790.849148
 30
0.0
 40
2.25
  0
CIRCLE
  5
CCCD
100
AcDbEntity
  8
WYMIARY
 62
     3
100
AcDbCircle
 10
417.761784
 20
781.149148
 30
0.0
 40
2.25
  0
LINE
  5
CCCE
100
AcDbEntity
  8
WYMIARY
 62
     3
100
AcDbLine
 10
407.268369
 20
788.814064
 30
0.0
 11
409.240842
 21
788.814064
 31
0.0
  0
LINE
  5
CCCF
100
AcDbEntity
  8
WYMIARY
 62
     3
100
AcDbLine
 10
407.268369
 20
787.425938
 30
0.0
 11
409.240842
 21
787.425938
 31
0.0
  0
LINE
  5
CCD0
100
AcDbEntity
  8
WYMIARY
 62
     3
100
AcDbLine
 10
407.268369
 20
787.425938
 30
0.0
 11
407.268369
 21
788.814064
 31
0.0
  0
LINE
  5
CCD1
100
AcDbEntity
  8
WYMIARY
 62
     3
100
AcDbLine
 10
398.628968
 20
788.814064
 30
0.0
 11
400.808008
 21
788.814064
 31
0.0
  0
LINE
  5
CCD2
100
AcDbEntity
  8
WYMIARY
 62
     3
100
AcDbLine
 10
398.628968
 20
787.425938
 30
0.0
 11
400.808008
 21
787.425938
 31
0.0
  0
LINE
  5
CCD3
100
AcDbEntity
  8
WYMIARY
 62
     3
100
AcDbLine
 10
398.628968
 20
787.425938
 30
0.0
 11
398.628968
 21
785.429328
 31
0.0
  0
LINE
  5
CCD4
100
AcDbEntity
  8
WYMIARY
 62
     3
100
AcDbLine
 10
400.808008
 20
787.425938
 30
0.0
 11
400.808008
 21
788.814064
 31
0.0
  0
LINE
  5
CCD5
100
AcDbEntity
  8
WYMIARY
 62
     3
100
AcDbLine
 10
417.278393
 20
788.937718
 30
0.0
 11
418.250081
 21
788.937718
 31
0.0
  0
TEXT
  5
CCD6
100
AcDbEntity
  8
1
100
AcDbText
 10
416.460441
 20
785.223542
 30
0.0
 40
3.0
  1
A1
 41
0.65
  7
ITALIC
100
AcDbText
  0
LINE
  5
CCD7
100
AcDbEntity
  8
WYMIARY
 62
     3
100
AcDbLine
 10
409.240842
 20
785.429328
 30
0.0
 11
410.628968
 21
785.429328
 31
0.0
  0
LINE
  5
CCD8
100
AcDbEntity
  8
WYMIARY
 62
     3
100
AcDbLine
 10
412.808008
 20
787.425938
 30
0.0
 11
412.808008
 21
788.814064
 31
0.0
  0
LINE
  5
CCD9
100
AcDbEntity
  8
WYMIARY
 62
     3
100
AcDbLine
 10
410.628968
 20
788.814064
 30
0.0
 11
412.808008
 21
788.814064
 31
0.0
  0
LINE
  5
CCDA
100
AcDbEntity
  8
WYMIARY
 62
     3
100
AcDbLine
 10
410.628968
 20
787.425938
 30
0.0
 11
412.808008
 21
787.425938
 31
0.0
  0
LINE
  5
CCDB
100
AcDbEntity
  8
WYMIARY
 62
     3
100
AcDbLine
 10
410.628968
 20
787.425938
 30
0.0
 11
410.628968
 21
785.429328
 31
0.0
  0
LINE
  5
CCDC
100
AcDbEntity
  8
WYMIARY
 62
     3
100
AcDbLine
 10
409.240842
 20
787.425938
 30
0.0
 11
409.240842
 21
785.429328
 31
0.0
  0
TEXT
  5
CCDD
100
AcDbEntity
  8
1
100
AcDbText
 10
409.240123
 20
780.830694
 30
0.0
 40
3.0
  1
3
 41
0.65
  7
ITALIC
100
AcDbText
  0
LINE
  5
CCDE
100
AcDbEntity
  8
WYMIARY
 62
     3
100
AcDbLine
 10
426.26467
 20
787.425938
 30
0.0
 11
428.443711
 21
787.425938
 31
0.0
  0
LINE
  5
CCDF
100
AcDbEntity
  8
WYMIARY
 62
     3
100
AcDbLine
 10
426.26467
 20
788.814064
 30
0.0
 11
428.443711
 21
788.814064
 31
0.0
  0
LINE
  5
CCE0
100
AcDbEntity
  8
WYMIARY
 62
     3
100
AcDbLine
 10
424.876544
 20
785.429328
 30
0.0
 11
426.26467
 21
785.429328
 31
0.0
  0
LINE
  5
CCE1
100
AcDbEntity
  8
WYMIARY
 62
     3
100
AcDbLine
 10
424.876544
 20
787.425938
 30
0.0
 11
424.876544
 21
785.429328
 31
0.0
  0
LINE
  5
CCE2
100
AcDbEntity
  8
WYMIARY
 62
     3
100
AcDbLine
 10
426.26467
 20
787.425938
 30
0.0
 11
426.26467
 21
785.429328
 31
0.0
  0
TEXT
  5
CCE3
100
AcDbEntity
  8
1
100
AcDbText
 10
424.953488
 20
780.830694
 30
0.0
 40
3.0
  1
5
 41
0.65
  7
ITALIC
100
AcDbText
  0
LINE
  5
CCE4
100
AcDbEntity
  8
WYMIARY
 62
     3
100
AcDbLine
 10
428.443711
 20
787.425938
 30
0.0
 11
428.443711
 21
788.814064
 31
0.0
  0
LINE
  5
CCE5
100
AcDbEntity
  8
WYMIARY
 62
     3
100
AcDbLine
 10
422.904071
 20
787.425938
 30
0.0
 11
422.904071
 21
788.814064
 31
0.0
  0
LINE
  5
CCE6
100
AcDbEntity
  8
WYMIARY
 62
     3
100
AcDbLine
 10
422.904071
 20
787.425938
 30
0.0
 11
424.876544
 21
787.425938
 31
0.0
  0
LINE
  5
CCE7
100
AcDbEntity
  8
WYMIARY
 62
     3
100
AcDbLine
 10
422.904071
 20
788.814064
 30
0.0
 11
424.876544
 21
788.814064
 31
0.0
  0
LINE
  5
CCE8
100
AcDbEntity
  8
WYMIARY
 62
     3
100
AcDbLine
 10
438.354409
 20
787.425938
 30
0.0
 11
440.533449
 21
787.425938
 31
0.0
  0
LINE
  5
CCE9
100
AcDbEntity
  8
WYMIARY
 62
     3
100
AcDbLine
 10
438.354409
 20
788.814064
 30
0.0
 11
440.533449
 21
788.814064
 31
0.0
  0
TEXT
  5
CCEA
100
AcDbEntity
  8
1
100
AcDbText
 10
436.3356
 20
780.830694
 30
0.0
 40
3.0
  1
R7
 41
0.65
  7
ITALIC
100
AcDbText
  0
LINE
  5
CCEB
100
AcDbEntity
  8
WYMIARY
 62
     3
100
AcDbLine
 10
438.354409
 20
787.425938
 30
0.0
 11
438.354409
 21
785.429328
 31
0.0
  0
LINE
  5
CCEC
100
AcDbEntity
  8
WYMIARY
 62
     3
100
AcDbLine
 10
436.966283
 20
787.425938
 30
0.0
 11
436.966283
 21
785.429328
 31
0.0
  0
LINE
  5
CCED
100
AcDbEntity
  8
WYMIARY
 62
     3
100
AcDbLine
 10
436.966283
 20
785.429328
 30
0.0
 11
438.354409
 21
785.429328
 31
0.0
  0
LINE
  5
CCEE
100
AcDbEntity
  8
WYMIARY
 62
     3
100
AcDbLine
 10
434.993809
 20
787.425938
 30
0.0
 11
434.993809
 21
788.814064
 31
0.0
  0
LINE
  5
CCEF
100
AcDbEntity
  8
WYMIARY
 62
     3
100
AcDbLine
 10
434.993809
 20
787.425938
 30
0.0
 11
436.966283
 21
787.425938
 31
0.0
  0
LINE
  5
CCF0
100
AcDbEntity
  8
WYMIARY
 62
     3
100
AcDbLine
 10
434.993809
 20
788.814064
 30
0.0
 11
436.966283
 21
788.814064
 31
0.0
  0
LINE
  5
CCF1
100
AcDbEntity
  8
WYMIARY
 62
     3
100
AcDbLine
 10
440.533449
 20
787.425938
 30
0.0
 11
440.533449
 21
788.814064
 31
0.0
  0
LINE
  5
CCF2
100
AcDbEntity
  8
WYMIARY
 62
     3
100
AcDbLine
 10
418.250081
 20
790.335346
 30
0.0
 11
419.775409
 21
790.335346
 31
0.0
  0
LINE
  5
CCF3
100
AcDbEntity
  8
WYMIARY
 62
     3
100
AcDbLine
 10
418.250081
 20
791.307034
 30
0.0
 11
419.775409
 21
791.307034
 31
0.0
  0
LINE
  5
CCF4
100
AcDbEntity
  8
WYMIARY
 62
     3
100
AcDbLine
 10
417.278393
 20
792.815466
 30
0.0
 11
418.250081
 21
792.815466
 31
0.0
  0
LINE
  5
CCF5
100
AcDbEntity
  8
WYMIARY
 62
     3
100
AcDbLine
 10
417.278393
 20
792.815466
 30
0.0
 11
418.250081
 21
792.815466
 31
0.0
  0
LINE
  5
CCF6
100
AcDbEntity
  8
WYMIARY
 62
     3
100
AcDbLine
 10
417.278393
 20
792.815466
 30
0.0
 11
418.250081
 21
792.815466
 31
0.0
  0
LINE
  5
CCF7
100
AcDbEntity
  8
WYMIARY
 62
     3
100
AcDbLine
 10
415.897662
 20
791.307034
 30
0.0
 11
417.278393
 21
791.307034
 31
0.0
  0
LINE
  5
CCF8
100
AcDbEntity
  8
WYMIARY
 62
     3
100
AcDbLine
 10
415.897662
 20
790.335346
 30
0.0
 11
417.278393
 21
790.335346
 31
0.0
  0
LINE
  5
CCF9
100
AcDbEntity
  8
WYMIARY
 62
     3
100
AcDbLine
 10
415.897662
 20
790.335346
 30
0.0
 11
415.897662
 21
791.307034
 31
0.0
  0
LINE
  5
CCFA
100
AcDbEntity
  8
WYMIARY
 62
     3
100
AcDbLine
 10
409.240842
 20
790.968968
 30
0.0
 11
410.628968
 21
790.968968
 31
0.0
  0
LINE
  5
CCFB
100
AcDbEntity
  8
WYMIARY
 62
     3
100
AcDbLine
 10
409.240842
 20
790.968968
 30
0.0
 11
410.628968
 21
790.968968
 31
0.0
  0
LINE
  5
CCFC
100
AcDbEntity
  8
WYMIARY
 62
     3
100
AcDbLine
 10
409.240842
 20
790.968968
 30
0.0
 11
410.628968
 21
790.968968
 31
0.0
  0
LINE
  5
CCFD
100
AcDbEntity
  8
WYMIARY
 62
     3
100
AcDbLine
 10
417.278393
 20
792.815466
 30
0.0
 11
417.278393
 21
791.307034
 31
0.0
  0
LINE
  5
CCFE
100
AcDbEntity
  8
WYMIARY
 62
     3
100
AcDbLine
 10
418.250081
 20
792.815466
 30
0.0
 11
418.250081
 21
791.307034
 31
0.0
  0
LINE
  5
CCFF
100
AcDbEntity
  8
WYMIARY
 62
     3
100
AcDbLine
 10
424.876544
 20
790.968968
 30
0.0
 11
426.26467
 21
790.968968
 31
0.0
  0
LINE
  5
CD00
100
AcDbEntity
  8
WYMIARY
 62
     3
100
AcDbLine
 10
419.775409
 20
790.335346
 30
0.0
 11
419.775409
 21
791.307034
 31
0.0
  0
LINE
  5
CD01
100
AcDbEntity
  8
WYMIARY
 62
     3
100
AcDbLine
 10
436.966283
 20
790.968968
 30
0.0
 11
438.354409
 21
790.968968
 31
0.0
  0
TEXT
  5
CD02
100
AcDbEntity
  8
1
100
AcDbText
 10
374.272774
 20
826.419038
 30
0.0
 40
5.0
  1
RIK63
 41
0.75
  7
ITALIC
100
AcDbText
  0
ENDSEC
  0
SECTION
  2
OBJECTS
  0
DICTIONARY
  5
C
100
AcDbDictionary
  3
ACAD_GROUP
350
D
  3
ACAD_MLINESTYLE
350
E
  3
ACDBVARIABLEDICTIONARY
350
C1B
  0
DICTIONARY
  5
D
102
{ACAD_REACTORS
330
C
102
}
100
AcDbDictionary
  0
DICTIONARY
  5
E
102
{ACAD_REACTORS
330
C
102
}
100
AcDbDictionary
  3
STANDARD
350
1B
  0
DICTIONARY
  5
C1B
102
{ACAD_REACTORS
330
C
102
}
100
AcDbDictionary
  3
SORTENTS
350
C1C
  0
MLINESTYLE
  5
1B
102
{ACAD_REACTORS
330
E
102
}
100
AcDbMlineStyle
  2
STANDARD
 70
     0
  3

 62
     0
 51
90.0
 52
90.0
 71
     2
 49
0.5
 62
   256
  6
BYLAYER
 49
-0.5
 62
   256
  6
BYLAYER
  0
DICTIONARYVAR
  5
C1C
102
{ACAD_REACTORS
330
C1B
102
}
100
DictionaryVariables
280
     0
  1
96
  0
ENDSEC
  0
EOF
