  0
SECTION
  2
HEADER
  9
$ACADVER
  1
AC1014
  9
$ACADMAINTVER
 70
     0
  9
$DWGCODEPAGE
  3
ANSI_1250
  9
$INSBASE
 10
0.0
 20
0.0
 30
0.0
  9
$EXTMIN
 10
284.410837
 20
552.649937
 30
0.0
  9
$EXTMAX
 10
687.671651
 20
849.649937
 30
0.0
  9
$LIMMIN
 10
0.0
 20
0.0
  9
$LIMMAX
 10
420.0
 20
297.0
  9
$ORTHOMODE
 70
     1
  9
$REGENMODE
 70
     1
  9
$FILLMODE
 70
     1
  9
$QTEXTMODE
 70
     0
  9
$MIRRTEXT
 70
     1
  9
$DRAGMODE
 70
     2
  9
$LTSCALE
 40
6.0
  9
$OSMODE
 70
     1
  9
$ATTMODE
 70
     1
  9
$TEXTSIZE
 40
3.5
  9
$TRACEWID
 40
0.05
  9
$TEXTSTYLE
  7
ITALIC
  9
$CLAYER
  8
WYMIARY
  9
$CELTYPE
  6
BYLAYER
  9
$CECOLOR
 62
     3
  9
$CELTSCALE
 40
1.0
  9
$DELOBJ
 70
     1
  9
$DISPSILH
 70
     0
  9
$DIMSCALE
 40
1.0
  9
$DIMASZ
 40
3.5
  9
$DIMEXO
 40
1.5
  9
$DIMDLI
 40
7.0
  9
$DIMRND
 40
0.0
  9
$DIMDLE
 40
0.0
  9
$DIMEXE
 40
1.5
  9
$DIMTP
 40
0.1
  9
$DIMTM
 40
0.0
  9
$DIMTXT
 40
1.8
  9
$DIMCEN
 40
-1.0
  9
$DIMTSZ
 40
0.0
  9
$DIMTOL
 70
     0
  9
$DIMLIM
 70
     0
  9
$DIMTIH
 70
     0
  9
$DIMTOH
 70
     0
  9
$DIMSE1
 70
     0
  9
$DIMSE2
 70
     0
  9
$DIMTAD
 70
     1
  9
$DIMZIN
 70
     0
  9
$DIMBLK
  1

  9
$DIMASO
 70
     1
  9
$DIMSHO
 70
     0
  9
$DIMPOST
  1

  9
$DIMAPOST
  1

  9
$DIMALT
 70
     0
  9
$DIMALTD
 70
     2
  9
$DIMALTF
 40
25.4
  9
$DIMLFAC
 40
1.0
  9
$DIMTOFL
 70
     0
  9
$DIMTVP
 40
0.0
  9
$DIMTIX
 70
     0
  9
$DIMSOXD
 70
     0
  9
$DIMSAH
 70
     0
  9
$DIMBLK1
  1

  9
$DIMBLK2
  1

  9
$DIMSTYLE
  2
STANDARD
  9
$DIMCLRD
 70
     0
  9
$DIMCLRE
 70
     0
  9
$DIMCLRT
 70
     0
  9
$DIMTFAC
 40
1.0
  9
$DIMGAP
 40
0.75
  9
$DIMJUST
 70
     0
  9
$DIMSD1
 70
     0
  9
$DIMSD2
 70
     0
  9
$DIMTOLJ
 70
     1
  9
$DIMTZIN
 70
     0
  9
$DIMALTZ
 70
     0
  9
$DIMALTTZ
 70
     0
  9
$DIMFIT
 70
     3
  9
$DIMUPT
 70
     0
  9
$DIMUNIT
 70
     2
  9
$DIMDEC
 70
     2
  9
$DIMTDEC
 70
     4
  9
$DIMALTU
 70
     2
  9
$DIMALTTD
 70
     2
  9
$DIMTXSTY
  7
STANDARD
  9
$DIMAUNIT
 70
     0
  9
$LUNITS
 70
     2
  9
$LUPREC
 70
     2
  9
$SKETCHINC
 40
0.1
  9
$FILLETRAD
 40
0.1
  9
$AUNITS
 70
     0
  9
$AUPREC
 70
     2
  9
$MENU
  1
ACAD
  9
$ELEVATION
 40
0.0
  9
$PELEVATION
 40
0.0
  9
$THICKNESS
 40
0.0
  9
$LIMCHECK
 70
     0
  9
$BLIPMODE
 70
     0
  9
$CHAMFERA
 40
0.0
  9
$CHAMFERB
 40
0.0
  9
$CHAMFERC
 40
0.0
  9
$CHAMFERD
 40
0.0
  9
$SKPOLY
 70
     0
  9
$TDCREATE
 40
2448721.399136690
  9
$TDUPDATE
 40
2454652.605298541
  9
$TDINDWG
 40
1.9569372338
  9
$TDUSRTIMER
 40
1.9569372338
  9
$USRTIMER
 70
     1
  9
$ANGBASE
 50
0.0
  9
$ANGDIR
 70
     0
  9
$PDMODE
 70
     0
  9
$PDSIZE
 40
0.0
  9
$PLINEWID
 40
0.5
  9
$COORDS
 70
     2
  9
$SPLFRAME
 70
     0
  9
$SPLINETYPE
 70
     6
  9
$SPLINESEGS
 70
     8
  9
$ATTDIA
 70
     0
  9
$ATTREQ
 70
     1
  9
$HANDLING
 70
     1
  9
$HANDSEED
  5
D217
  9
$SURFTAB1
 70
     6
  9
$SURFTAB2
 70
     6
  9
$SURFTYPE
 70
     6
  9
$SURFU
 70
     6
  9
$SURFV
 70
     6
  9
$UCSNAME
  2

  9
$UCSORG
 10
0.0
 20
0.0
 30
0.0
  9
$UCSXDIR
 10
1.0
 20
0.0
 30
0.0
  9
$UCSYDIR
 10
0.0
 20
1.0
 30
0.0
  9
$PUCSNAME
  2

  9
$PUCSORG
 10
0.0
 20
0.0
 30
0.0
  9
$PUCSXDIR
 10
1.0
 20
0.0
 30
0.0
  9
$PUCSYDIR
 10
0.0
 20
1.0
 30
0.0
  9
$USERI1
 70
     0
  9
$USERI2
 70
     0
  9
$USERI3
 70
     0
  9
$USERI4
 70
     0
  9
$USERI5
 70
     0
  9
$USERR1
 40
0.0
  9
$USERR2
 40
0.0
  9
$USERR3
 40
0.0
  9
$USERR4
 40
0.0
  9
$USERR5
 40
0.0
  9
$WORLDVIEW
 70
     1
  9
$SHADEDGE
 70
     3
  9
$SHADEDIF
 70
    70
  9
$TILEMODE
 70
     1
  9
$MAXACTVP
 70
    16
  9
$PINSBASE
 10
0.0
 20
0.0
 30
0.0
  9
$PLIMCHECK
 70
     0
  9
$PEXTMIN
 10
1.000000E+20
 20
1.000000E+20
 30
1.000000E+20
  9
$PEXTMAX
 10
-1.000000E+20
 20
-1.000000E+20
 30
-1.000000E+20
  9
$PLIMMIN
 10
0.0
 20
0.0
  9
$PLIMMAX
 10
12.0
 20
9.0
  9
$UNITMODE
 70
     0
  9
$VISRETAIN
 70
     0
  9
$PLINEGEN
 70
     0
  9
$PSLTSCALE
 70
     0
  9
$TREEDEPTH
 70
  3020
  9
$PICKSTYLE
 70
     0
  9
$CMLSTYLE
  2
STANDARD
  9
$CMLJUST
 70
     0
  9
$CMLSCALE
 40
1.0
  9
$PROXYGRAPHICS
 70
     1
  9
$MEASUREMENT
 70
     0
  0
ENDSEC
  0
SECTION
  2
CLASSES
  0
CLASS
  1
HATCH
  2
AcDbHatch
  3
"ACAD_SEDONA"
 90
        0
280
     0
281
     1
  0
CLASS
  1
LWPOLYLINE
  2
AcDbPolyline
  3
"AutoCAD"
 90
        0
280
     0
281
     1
  0
CLASS
  1
DICTIONARYVAR
  2
AcDbDictionaryVar
  3
"AutoCAD"
 90
        0
280
     0
281
     0
  0
ENDSEC
  0
SECTION
  2
TABLES
  0
TABLE
  2
VPORT
  5
8
100
AcDbSymbolTable
 70
     2
  0
VPORT
  5
D216
100
AcDbSymbolTableRecord
100
AcDbViewportTableRecord
  2
*ACTIVE
 70
     0
 10
0.0
 20
0.0
 11
1.0
 21
1.0
 12
573.943057
 22
770.006384
 13
0.0
 23
0.0
 14
1.0
 24
1.0
 15
5.0
 25
5.0
 16
0.0
 26
0.0
 36
1.0
 17
0.0
 27
0.0
 37
0.0
 40
92.047946
 41
2.008696
 42
50.0
 43
0.0
 44
0.0
 50
0.0
 51
0.0
 71
     0
 72
   100
 73
     1
 74
     0
 75
     0
 76
     0
 77
     0
 78
     0
  0
ENDTAB
  0
TABLE
  2
LTYPE
  5
5
100
AcDbSymbolTable
 70
     4
  0
LTYPE
  5
12
100
AcDbSymbolTableRecord
100
AcDbLinetypeTableRecord
  2
BYBLOCK
 70
     0
  3

 72
    65
 73
     0
 40
0.0
  0
LTYPE
  5
13
100
AcDbSymbolTableRecord
100
AcDbLinetypeTableRecord
  2
BYLAYER
 70
     0
  3

 72
    65
 73
     0
 40
0.0
  0
LTYPE
  5
14
100
AcDbSymbolTableRecord
100
AcDbLinetypeTableRecord
  2
CONTINUOUS
 70
     0
  3
Solid line
 72
    65
 73
     0
 40
0.0
  0
LTYPE
  5
1D
100
AcDbSymbolTableRecord
100
AcDbLinetypeTableRecord
  2
CENTER
 70
     0
  3
____ _ ____ _ ____ _ ____ _ ____ _ ____ _ ____
 72
    65
 73
     4
 40
2.0
 49
1.25
 74
     0
 49
-0.25
 74
     0
 49
0.25
 74
     0
 49
-0.25
 74
     0
  0
LTYPE
  5
1E
100
AcDbSymbolTableRecord
100
AcDbLinetypeTableRecord
  2
HIDDEN
 70
     0
  3
_ _ _ _ _ _ _ _ _ _ _ _ _ _ _ _ _ _ _ _ _ _ _
 72
    65
 73
     2
 40
0.375
 49
0.25
 74
     0
 49
-0.125
 74
     0
  0
LTYPE
  5
8093
100
AcDbSymbolTableRecord
100
AcDbLinetypeTableRecord
  2
PHANTOM
 70
     0
  3
Phantom ______  __  __  ______  __  __  ______
 72
    65
 73
     6
 40
12.7
 49
6.35
 74
     0
 49
-1.27
 74
     0
 49
1.27
 74
     0
 49
-1.27
 74
     0
 49
1.27
 74
     0
 49
-1.27
 74
     0
  0
ENDTAB
  0
TABLE
  2
LAYER
  5
2
100
AcDbSymbolTable
 70
     8
  0
LAYER
  5
F
100
AcDbSymbolTableRecord
100
AcDbLayerTableRecord
  2
0
 70
     0
 62
     7
  6
CONTINUOUS
  0
LAYER
  5
21
100
AcDbSymbolTableRecord
100
AcDbLayerTableRecord
  2
1
 70
     0
 62
     3
  6
CONTINUOUS
  0
LAYER
  5
22
100
AcDbSymbolTableRecord
100
AcDbLayerTableRecord
  2
2
 70
     0
 62
     6
  6
CONTINUOUS
  0
LAYER
  5
23
100
AcDbSymbolTableRecord
100
AcDbLayerTableRecord
  2
3
 70
     0
 62
     4
  6
HIDDEN
  0
LAYER
  5
24
100
AcDbSymbolTableRecord
100
AcDbLayerTableRecord
  2
OSIE
 70
     0
 62
     2
  6
CENTER
  0
LAYER
  5
25
100
AcDbSymbolTableRecord
100
AcDbLayerTableRecord
  2
WY
 70
     0
 62
     1
  6
CONTINUOUS
  0
LAYER
  5
26
100
AcDbSymbolTableRecord
100
AcDbLayerTableRecord
  2
DEFPOINTS
 70
     0
 62
     7
  6
CONTINUOUS
  0
LAYER
  5
464
100
AcDbSymbolTableRecord
100
AcDbLayerTableRecord
  2
WYMIARY
 70
     0
 62
     1
  6
CONTINUOUS
  0
ENDTAB
  0
TABLE
  2
STYLE
  5
3
100
AcDbSymbolTable
 70
     2
  0
STYLE
  5
10
100
AcDbSymbolTableRecord
100
AcDbTextStyleTableRecord
  2
STANDARD
 70
     0
 40
0.0
 41
1.0
 50
0.0
 71
     0
 42
6.0
  3
txt
  4

  0
STYLE
  5
1C
100
AcDbSymbolTableRecord
100
AcDbTextStyleTableRecord
  2
ITALIC
 70
     0
 40
0.0
 41
1.0
 50
15.0
 71
     0
 42
3.5
  3
simplex
  4

  0
ENDTAB
  0
TABLE
  2
VIEW
  5
6
100
AcDbSymbolTable
 70
     0
  0
ENDTAB
  0
TABLE
  2
UCS
  5
7
100
AcDbSymbolTable
 70
     0
  0
ENDTAB
  0
TABLE
  2
APPID
  5
9
100
AcDbSymbolTable
 70
     1
  0
APPID
  5
11
100
AcDbSymbolTableRecord
100
AcDbRegAppTableRecord
  2
ACAD
 70
     0
  0
ENDTAB
  0
TABLE
  2
DIMSTYLE
  5
A
100
AcDbSymbolTable
 70
     1
  0
DIMSTYLE
105
3B
102
{ACAD_REACTORS
330
C7B1
330
C7BE
330
C7EF
330
C823
102
}
100
AcDbSymbolTableRecord
100
AcDbDimStyleTableRecord
  2
STANDARD
 70
     0
  3

  4

  5

  6

  7

 40
1.0
 41
3.5
 42
1.5
 43
7.0
 44
1.5
 45
0.0
 46
0.0
 47
0.1
 48
0.0
140
3.6
141
-1.0
142
0.0
143
25.4
144
1.0
145
0.0
146
1.0
147
1.5
 71
     0
 72
     0
 73
     0
 74
     0
 75
     0
 76
     0
 77
     1
 78
     0
170
     0
171
     2
172
     0
173
     0
174
     0
175
     0
176
     0
177
     0
178
     0
270
     2
271
     2
272
     4
273
     2
274
     2
340
10
275
     0
280
     0
281
     0
282
     0
283
     1
284
     0
285
     0
286
     0
287
     3
288
     0
  0
ENDTAB
  0
TABLE
  2
BLOCK_RECORD
  5
1
100
AcDbSymbolTable
 70
    17
  0
BLOCK_RECORD
  5
18
100
AcDbSymbolTableRecord
100
AcDbBlockTableRecord
  2
*MODEL_SPACE
  0
BLOCK_RECORD
  5
15
100
AcDbSymbolTableRecord
100
AcDbBlockTableRecord
  2
*PAPER_SPACE
  0
BLOCK_RECORD
  5
7EA0
100
AcDbSymbolTableRecord
100
AcDbBlockTableRecord
  2
A$C312173AA
  0
BLOCK_RECORD
  5
7F70
100
AcDbSymbolTableRecord
100
AcDbBlockTableRecord
  2
A$C54971FCD
  0
BLOCK_RECORD
  5
7FC9
100
AcDbSymbolTableRecord
100
AcDbBlockTableRecord
  2
A$C369D6037
  0
BLOCK_RECORD
  5
8081
100
AcDbSymbolTableRecord
100
AcDbBlockTableRecord
  2
A$C3D1C28BF
  0
BLOCK_RECORD
  5
C7A5
100
AcDbSymbolTableRecord
100
AcDbBlockTableRecord
  2
*D4
  0
BLOCK_RECORD
  5
C7B2
100
AcDbSymbolTableRecord
100
AcDbBlockTableRecord
  2
*D5
  0
BLOCK_RECORD
  5
C7E3
100
AcDbSymbolTableRecord
100
AcDbBlockTableRecord
  2
*D6
  0
BLOCK_RECORD
  5
C817
100
AcDbSymbolTableRecord
100
AcDbBlockTableRecord
  2
*D7
  0
BLOCK_RECORD
  5
C83C
100
AcDbSymbolTableRecord
100
AcDbBlockTableRecord
  2
*D8
  0
BLOCK_RECORD
  5
C848
100
AcDbSymbolTableRecord
100
AcDbBlockTableRecord
  2
*D9
  0
BLOCK_RECORD
  5
C854
100
AcDbSymbolTableRecord
100
AcDbBlockTableRecord
  2
*D10
  0
BLOCK_RECORD
  5
C860
100
AcDbSymbolTableRecord
100
AcDbBlockTableRecord
  2
*D11
  0
BLOCK_RECORD
  5
C86C
100
AcDbSymbolTableRecord
100
AcDbBlockTableRecord
  2
*D12
  0
BLOCK_RECORD
  5
C878
100
AcDbSymbolTableRecord
100
AcDbBlockTableRecord
  2
*D13
  0
BLOCK_RECORD
  5
C884
100
AcDbSymbolTableRecord
100
AcDbBlockTableRecord
  2
*D14
  0
BLOCK_RECORD
  5
C890
100
AcDbSymbolTableRecord
100
AcDbBlockTableRecord
  2
*D15
  0
BLOCK_RECORD
  5
C89D
100
AcDbSymbolTableRecord
100
AcDbBlockTableRecord
  2
A$C54740B61
  0
ENDTAB
  0
ENDSEC
  0
SECTION
  2
BLOCKS
  0
BLOCK
  5
29
100
AcDbEntity
  8
0
100
AcDbBlockBegin
  2
*MODEL_SPACE
 70
     0
 10
0.0
 20
0.0
 30
0.0
  3
*MODEL_SPACE
  1

  0
ENDBLK
  5
2A
100
AcDbEntity
  8
0
100
AcDbBlockEnd
  0
BLOCK
  5
27
100
AcDbEntity
 67
     1
  8
0
100
AcDbBlockBegin
  2
*PAPER_SPACE
 70
     0
 10
0.0
 20
0.0
 30
0.0
  3
*PAPER_SPACE
  1

  0
ENDBLK
  5
28
100
AcDbEntity
 67
     1
  8
0
100
AcDbBlockEnd
  0
BLOCK
  5
7EAF
100
AcDbEntity
  8
0
100
AcDbBlockBegin
  2
A$C312173AA
 70
     0
 10
0.0
 20
0.0
 30
0.0
  3
A$C312173AA
  1

  0
HATCH
  5
7EA1
100
AcDbEntity
  8
1
100
AcDbHatch
 10
0.0
 20
0.0
 30
0.0
210
0.0
220
0.0
230
1.0
  2
SOLID
 70
     1
 71
     1
 91
        1
 92
        7
 72
     0
 73
     1
 93
        4
 10
2.724690422176706
 20
5.013136352600668
 10
5.058157912552363
 20
1.095673373491763
 10
5.076413282682712
 20
1.095673373491763
 10
7.382430158279476
 20
5.013136352600668
 97
        4
330
7EA6
330
7EAA
330
7EA5
330
7EA8
 75
     0
 76
     1
 47
0.057765
 98
        1
 10
5.461965
 20
4.283681
  0
HATCH
  5
7EA2
100
AcDbEntity
  8
1
100
AcDbHatch
 10
0.0
 20
0.0
 30
0.0
210
0.0
220
0.0
230
1.0
  2
SOLID
 70
     1
 71
     1
 91
        1
 92
        7
 72
     0
 73
     1
 93
        4
 10
2.724690422176706
 20
5.013136352600668
 10
5.058157912552363
 20
1.095673373491763
 10
5.076413282682712
 20
1.095673373491763
 10
7.382430158279476
 20
5.013136352600668
 97
        4
330
7EA4
330
7EA9
330
7EA3
330
7EA7
 75
     0
 76
     1
 47
0.057765
 98
        1
 10
5.461965
 20
4.283681
  0
LINE
  5
7EA3
102
{ACAD_REACTORS
330
7EA2
102
}
100
AcDbEntity
  8
1
100
AcDbLine
 10
7.376974
 20
1.095673
 30
0.0
 11
2.719445
 21
1.095673
 31
0.0
  0
LINE
  5
7EA4
102
{ACAD_REACTORS
330
7EA2
102
}
100
AcDbEntity
  8
1
100
AcDbLine
 10
2.716507
 20
5.013136
 30
0.0
 11
7.38243
 21
5.013136
 31
0.0
  0
LINE
  5
7EA5
102
{ACAD_REACTORS
330
7EA1
102
}
100
AcDbEntity
  8
1
100
AcDbLine
 10
7.376974
 20
1.095673
 30
0.0
 11
2.719445
 21
1.095673
 31
0.0
  0
LINE
  5
7EA6
102
{ACAD_REACTORS
330
7EA1
102
}
100
AcDbEntity
  8
1
100
AcDbLine
 10
2.716507
 20
5.013136
 30
0.0
 11
7.38243
 21
5.013136
 31
0.0
  0
LINE
  5
7EA7
102
{ACAD_REACTORS
330
7EA2
102
}
100
AcDbEntity
  8
1
100
AcDbLine
 10
7.38243
 20
5.013136
 30
0.0
 11
5.049469
 21
1.0499
 31
0.0
  0
LINE
  5
7EA8
102
{ACAD_REACTORS
330
7EA1
102
}
100
AcDbEntity
  8
1
100
AcDbLine
 10
7.38243
 20
5.013136
 30
0.0
 11
5.049469
 21
1.0499
 31
0.0
  0
LINE
  5
7EA9
102
{ACAD_REACTORS
330
7EA2
102
}
100
AcDbEntity
  8
1
100
AcDbLine
 10
5.048209
 20
1.112376
 30
0.0
 11
2.719445
 21
5.021942
 31
0.0
  0
LINE
  5
7EAA
102
{ACAD_REACTORS
330
7EA1
102
}
100
AcDbEntity
  8
1
100
AcDbLine
 10
5.048209
 20
1.112376
 30
0.0
 11
2.719445
 21
5.021942
 31
0.0
  0
LINE
  5
7EAB
100
AcDbEntity
  8
1
100
AcDbLine
 10
3.176777
 20
2.240563
 30
0.0
 11
1.859991
 21
0.714974
 31
0.0
  0
LINE
  5
7EAC
100
AcDbEntity
  8
1
100
AcDbLine
 10
1.935572
 20
2.29404
 30
0.0
 11
0.618786
 21
0.768452
 31
0.0
  0
HATCH
  5
7EAD
100
AcDbEntity
  8
1
100
AcDbHatch
 10
0.0
 20
0.0
 30
0.0
210
0.0
220
0.0
230
1.0
  2
SOLID
 70
     1
 71
     0
 91
        1
 92
        7
 72
     0
 73
     1
 93
        3
 10
2.13435432304297
 20
0.5079866047149438
 10
1.594971700028992
 20
0.9149117569309055
 10
1.241204476589189
 20
0.0000001052034975
 97
        0
 75
     0
 76
     1
 47
0.009825
 98
        1
 10
1.617082
 20
0.370646
  0
HATCH
  5
7EAE
100
AcDbEntity
  8
1
100
AcDbHatch
 10
0.0
 20
0.0
 30
0.0
210
0.0
220
0.0
230
1.0
  2
SOLID
 70
     1
 71
     0
 91
        1
 92
        7
 72
     0
 73
     1
 93
        3
 10
0.8931496793437361
 20
0.5614642425206
 10
0.3537670563297865
 20
0.9683893947365334
 10
-0.0000001671100733
 20
0.0534777430091538
 97
        0
 75
     0
 76
     1
 47
0.009825
 98
        1
 10
0.375878
 20
0.424123
  0
ENDBLK
  5
7EB0
100
AcDbEntity
  8
0
100
AcDbBlockEnd
  0
BLOCK
  5
7FC7
100
AcDbEntity
  8
0
100
AcDbBlockBegin
  2
A$C54971FCD
 70
     0
 10
0.0
 20
0.0
 30
0.0
  3
A$C54971FCD
  1

  0
LINE
  5
7F71
100
AcDbEntity
  8
1
100
AcDbLine
 10
6.05
 20
1.507465
 30
0.0
 11
5.82196
 21
3.612976
 31
0.0
  0
LINE
  5
7F72
100
AcDbEntity
  8
1
100
AcDbLine
 10
6.019458
 20
1.789458
 30
0.0
 11
6.11805
 21
3.55
 31
0.0
  0
LINE
  5
7F73
100
AcDbEntity
  8
1
100
AcDbLine
 10
4.65
 20
1.507465
 30
0.0
 11
4.878039
 21
3.612976
 31
0.0
  0
LINE
  5
7F74
100
AcDbEntity
  8
1
100
AcDbLine
 10
4.680541
 20
1.789458
 30
0.0
 11
4.581949
 21
3.55
 31
0.0
  0
LINE
  5
7F75
100
AcDbEntity
  8
OSIE
100
AcDbLine
 10
5.35
 20
3.35
 30
0.0
 11
5.35
 21
1.4
 31
0.0
  0
ARC
  5
7F76
100
AcDbEntity
  8
1
100
AcDbCircle
 10
5.35
 20
5.35
 30
0.0
 40
5.259241
100
AcDbArc
 50
205.906088
 51
334.093912
  0
ARC
  5
7F77
100
AcDbEntity
  8
1
100
AcDbCircle
 10
5.35
 20
5.35
 30
0.0
 40
3.622932
100
AcDbArc
 50
259.351483
 51
280.648517
  0
ARC
  5
7F78
100
AcDbEntity
  8
1
100
AcDbCircle
 10
5.35
 20
5.35
 30
0.0
 40
3.905775
100
AcDbArc
 50
259.675564
 51
280.324436
  0
LINE
  5
7F79
100
AcDbEntity
  8
1
100
AcDbLine
 10
4.65
 20
0.399243
 30
0.0
 11
4.65
 21
1.507465
 31
0.0
  0
LINE
  5
7F7A
100
AcDbEntity
  8
1
100
AcDbLine
 10
6.05
 20
0.399243
 30
0.0
 11
6.05
 21
1.507465
 31
0.0
  0
LINE
  5
7F7B
100
AcDbEntity
  8
OSIE
100
AcDbLine
 10
4.35
 20
5.35
 30
0.0
 11
6.35
 21
5.35
 31
0.0
  0
ARC
  5
7F7C
100
AcDbEntity
  8
1
100
AcDbCircle
 10
5.35
 20
5.35
 30
0.0
 40
1.8
100
AcDbArc
 50
74.79935
 51
105.20065
  0
ARC
  5
7F7D
100
AcDbEntity
  8
1
100
AcDbCircle
 10
5.35
 20
5.35
 30
0.0
 40
3.622932
100
AcDbArc
 50
79.351483
 51
100.648517
  0
ARC
  5
7F7E
100
AcDbEntity
  8
1
100
AcDbCircle
 10
5.35
 20
5.35
 30
0.0
 40
3.905775
100
AcDbArc
 50
79.675564
 51
100.324436
  0
ARC
  5
7F7F
100
AcDbEntity
  8
1
100
AcDbCircle
 10
5.35
 20
5.35
 30
0.0
 40
1.8
100
AcDbArc
 50
254.79935
 51
285.20065
  0
LINE
  5
7F80
100
AcDbEntity
  8
OSIE
 48
3.0
100
AcDbLine
 10
2.606298
 20
2.606299
 30
0.0
 11
8.093701
 21
8.093701
 31
0.0
  0
LINE
  5
7F81
100
AcDbEntity
  8
OSIE
 48
3.0
100
AcDbLine
 10
2.606298
 20
8.093701
 30
0.0
 11
8.093701
 21
2.606299
 31
0.0
  0
LINE
  5
7F82
100
AcDbEntity
  8
1
100
AcDbLine
 10
4.680541
 20
8.910542
 30
0.0
 11
4.581949
 21
7.15
 31
0.0
  0
LINE
  5
7F83
100
AcDbEntity
  8
1
100
AcDbLine
 10
4.65
 20
9.192535
 30
0.0
 11
4.878039
 21
7.087024
 31
0.0
  0
LINE
  5
7F84
100
AcDbEntity
  8
OSIE
100
AcDbLine
 10
5.35
 20
7.35
 30
0.0
 11
5.35
 21
9.3
 31
0.0
  0
LINE
  5
7F85
100
AcDbEntity
  8
1
100
AcDbLine
 10
3.55
 20
6.11805
 30
0.0
 11
4.295348
 21
6.404652
 31
0.0
  0
LINE
  5
7F86
100
AcDbEntity
  8
1
100
AcDbLine
 10
4.536087
 20
6.163912
 30
0.0
 11
4.878039
 21
7.087024
 31
0.0
  0
LINE
  5
7F87
100
AcDbEntity
  8
1
100
AcDbLine
 10
3.612975
 20
5.82196
 30
0.0
 11
4.536087
 21
6.163912
 31
0.0
  0
ARC
  5
7F88
100
AcDbEntity
  8
1
100
AcDbCircle
 10
5.35
 20
5.35
 30
0.0
 40
1.8
100
AcDbArc
 50
180.0
 51
195.20065
  0
LINE
  5
7F89
100
AcDbEntity
  8
1
100
AcDbLine
 10
3.612975
 20
5.82196
 30
0.0
 11
3.55
 21
6.11805
 31
0.0
  0
ARC
  5
7F8A
100
AcDbEntity
  8
1
100
AcDbCircle
 10
5.35
 20
5.35
 30
0.0
 40
1.8
100
AcDbArc
 50
164.79935
 51
180.0
  0
LINE
  5
7F8B
100
AcDbEntity
  8
1
100
AcDbLine
 10
4.295348
 20
6.404652
 30
0.0
 11
4.582681
 21
7.16307
 31
0.0
  0
LINE
  5
7F8C
100
AcDbEntity
  8
1
100
AcDbLine
 10
4.878039
 20
7.087024
 30
0.0
 11
4.581949
 21
7.15
 31
0.0
  0
ARC
  5
7F8D
100
AcDbEntity
  8
1
100
AcDbCircle
 10
5.35
 20
5.35
 30
0.0
 40
3.905775
100
AcDbArc
 50
180.0
 51
190.324436
  0
ARC
  5
7F8E
100
AcDbEntity
  8
1
100
AcDbCircle
 10
5.35
 20
5.35
 30
0.0
 40
3.905775
100
AcDbArc
 50
169.675564
 51
180.0
  0
ARC
  5
7F8F
100
AcDbEntity
  8
1
100
AcDbCircle
 10
5.35
 20
5.35
 30
0.0
 40
3.622932
100
AcDbArc
 50
180.0
 51
190.648517
  0
ARC
  5
7F90
100
AcDbEntity
  8
1
100
AcDbCircle
 10
5.35
 20
5.35
 30
0.0
 40
3.622932
100
AcDbArc
 50
169.351483
 51
180.0
  0
LINE
  5
7F91
100
AcDbEntity
  8
1
100
AcDbLine
 10
1.507465
 20
4.65
 30
0.0
 11
3.612975
 21
4.87804
 31
0.0
  0
LINE
  5
7F92
100
AcDbEntity
  8
1
100
AcDbLine
 10
1.507465
 20
6.05
 30
0.0
 11
3.612975
 21
5.82196
 31
0.0
  0
LINE
  5
7F93
100
AcDbEntity
  8
1
100
AcDbLine
 10
1.789458
 20
6.019459
 30
0.0
 11
3.55
 21
6.11805
 31
0.0
  0
LINE
  5
7F94
100
AcDbEntity
  8
OSIE
100
AcDbLine
 10
3.35
 20
5.35
 30
0.0
 11
1.4
 21
5.35
 31
0.0
  0
LINE
  5
7F95
100
AcDbEntity
  8
1
100
AcDbLine
 10
4.295348
 20
4.295348
 30
0.0
 11
4.582681
 21
3.53693
 31
0.0
  0
LINE
  5
7F96
100
AcDbEntity
  8
1
100
AcDbLine
 10
4.878039
 20
3.612976
 30
0.0
 11
4.581949
 21
3.55
 31
0.0
  0
LINE
  5
7F97
100
AcDbEntity
  8
1
100
AcDbLine
 10
4.536087
 20
4.536088
 30
0.0
 11
4.878039
 21
3.612976
 31
0.0
  0
LINE
  5
7F98
100
AcDbEntity
  8
1
100
AcDbLine
 10
3.55
 20
4.58195
 30
0.0
 11
4.295348
 21
4.295348
 31
0.0
  0
LINE
  5
7F99
100
AcDbEntity
  8
OSIE
100
AcDbLine
 10
5.35
 20
4.35
 30
0.0
 11
5.35
 21
6.35
 31
0.0
  0
LINE
  5
7F9A
100
AcDbEntity
  8
1
100
AcDbLine
 10
3.612975
 20
4.87804
 30
0.0
 11
4.536087
 21
4.536088
 31
0.0
  0
LINE
  5
7F9B
100
AcDbEntity
  8
1
100
AcDbLine
 10
1.789458
 20
4.680542
 30
0.0
 11
3.55
 21
4.58195
 31
0.0
  0
LINE
  5
7F9C
100
AcDbEntity
  8
1
100
AcDbLine
 10
3.612975
 20
4.87804
 30
0.0
 11
3.55
 21
4.58195
 31
0.0
  0
LINE
  5
7F9D
100
AcDbEntity
  8
1
100
AcDbLine
 10
4.65
 20
10.300758
 30
0.0
 11
4.65
 21
9.192535
 31
0.0
  0
LINE
  5
7F9E
100
AcDbEntity
  8
1
100
AcDbLine
 10
6.019458
 20
8.910542
 30
0.0
 11
6.11805
 21
7.15
 31
0.0
  0
LINE
  5
7F9F
100
AcDbEntity
  8
1
100
AcDbLine
 10
6.05
 20
9.192535
 30
0.0
 11
5.82196
 21
7.087024
 31
0.0
  0
ARC
  5
7FA0
100
AcDbEntity
  8
1
100
AcDbCircle
 10
5.35
 20
5.35
 30
0.0
 40
3.622932
100
AcDbArc
 50
349.351483
 51
360.0
  0
ARC
  5
7FA1
100
AcDbEntity
  8
1
100
AcDbCircle
 10
5.35
 20
5.35
 30
0.0
 40
3.905775
100
AcDbArc
 50
349.675564
 51
360.0
  0
ARC
  5
7FA2
100
AcDbEntity
  8
1
100
AcDbCircle
 10
5.35
 20
5.35
 30
0.0
 40
3.622932
100
AcDbArc
 50
0.0
 51
10.648517
  0
ARC
  5
7FA3
100
AcDbEntity
  8
1
100
AcDbCircle
 10
5.35
 20
5.35
 30
0.0
 40
3.905775
100
AcDbArc
 50
0.0
 51
10.324436
  0
LINE
  5
7FA4
100
AcDbEntity
  8
1
100
AcDbLine
 10
6.404651
 20
6.404652
 30
0.0
 11
7.16307
 21
6.117318
 31
0.0
  0
LINE
  5
7FA5
100
AcDbEntity
  8
1
100
AcDbLine
 10
5.82196
 20
7.087024
 30
0.0
 11
6.163912
 21
6.163912
 31
0.0
  0
LINE
  5
7FA6
100
AcDbEntity
  8
1
100
AcDbLine
 10
6.163912
 20
6.163912
 30
0.0
 11
7.087024
 21
5.82196
 31
0.0
  0
ARC
  5
7FA7
100
AcDbEntity
  8
1
100
AcDbCircle
 10
5.35
 20
5.35
 30
0.0
 40
1.8
100
AcDbArc
 50
344.79935
 51
360.0
  0
ARC
  5
7FA8
100
AcDbEntity
  8
1
100
AcDbCircle
 10
5.35
 20
5.35
 30
0.0
 40
1.8
100
AcDbArc
 50
0.0
 51
15.20065
  0
LINE
  5
7FA9
100
AcDbEntity
  8
1
100
AcDbLine
 10
7.087024
 20
5.82196
 30
0.0
 11
7.15
 21
6.11805
 31
0.0
  0
LINE
  5
7FAA
100
AcDbEntity
  8
1
100
AcDbLine
 10
6.11805
 20
7.15
 30
0.0
 11
6.404651
 21
6.404652
 31
0.0
  0
LINE
  5
7FAB
100
AcDbEntity
  8
1
100
AcDbLine
 10
5.82196
 20
7.087024
 30
0.0
 11
6.11805
 21
7.15
 31
0.0
  0
LINE
  5
7FAC
100
AcDbEntity
  8
1
100
AcDbLine
 10
6.11805
 20
3.55
 30
0.0
 11
6.404651
 21
4.295348
 31
0.0
  0
LINE
  5
7FAD
100
AcDbEntity
  8
1
100
AcDbLine
 10
5.82196
 20
3.612976
 30
0.0
 11
6.11805
 21
3.55
 31
0.0
  0
LINE
  5
7FAE
100
AcDbEntity
  8
1
100
AcDbLine
 10
5.82196
 20
3.612976
 30
0.0
 11
6.163912
 21
4.536088
 31
0.0
  0
LINE
  5
7FAF
100
AcDbEntity
  8
1
100
AcDbLine
 10
6.404651
 20
4.295348
 30
0.0
 11
7.16307
 21
4.582682
 31
0.0
  0
LINE
  5
7FB0
100
AcDbEntity
  8
1
100
AcDbLine
 10
6.163912
 20
4.536088
 30
0.0
 11
7.087024
 21
4.87804
 31
0.0
  0
LINE
  5
7FB1
100
AcDbEntity
  8
1
100
AcDbLine
 10
7.087024
 20
4.87804
 30
0.0
 11
7.15
 21
4.58195
 31
0.0
  0
LINE
  5
7FB2
100
AcDbEntity
  8
1
100
AcDbLine
 10
9.192535
 20
4.65
 30
0.0
 11
7.087024
 21
4.87804
 31
0.0
  0
LINE
  5
7FB3
100
AcDbEntity
  8
1
100
AcDbLine
 10
8.910542
 20
4.680542
 30
0.0
 11
7.15
 21
4.58195
 31
0.0
  0
LINE
  5
7FB4
100
AcDbEntity
  8
1
100
AcDbLine
 10
8.910542
 20
6.019459
 30
0.0
 11
7.15
 21
6.11805
 31
0.0
  0
LINE
  5
7FB5
100
AcDbEntity
  8
1
100
AcDbLine
 10
9.192535
 20
6.05
 30
0.0
 11
7.087024
 21
5.82196
 31
0.0
  0
LINE
  5
7FB6
100
AcDbEntity
  8
OSIE
100
AcDbLine
 10
7.35
 20
5.35
 30
0.0
 11
9.3
 21
5.35
 31
0.0
  0
LINE
  5
7FB7
100
AcDbEntity
  8
1
100
AcDbLine
 10
10.556845
 20
6.539065
 30
0.0
 11
10.660275
 21
5.948524
 31
0.0
  0
LINE
  5
7FB8
100
AcDbEntity
  8
1
100
AcDbLine
 10
10.15
 20
7.664915
 30
0.0
 11
10.385993
 21
7.113751
 31
0.0
  0
LINE
  5
7FB9
100
AcDbEntity
  8
1
100
AcDbLine
 10
10.385993
 20
7.113751
 30
0.0
 11
10.556845
 21
6.539065
 31
0.0
  0
LINE
  5
7FBA
100
AcDbEntity
  8
1
100
AcDbLine
 10
10.080746
 20
7.647749
 30
0.0
 11
10.15
 21
7.580424
 31
0.0
  0
LINE
  5
7FBB
100
AcDbEntity
  8
1
100
AcDbLine
 10
10.660275
 20
5.948524
 30
0.0
 11
10.694906
 21
5.35
 31
0.0
  0
LINE
  5
7FBC
100
AcDbEntity
  8
1
100
AcDbLine
 10
10.694906
 20
5.35
 30
0.0
 11
10.660275
 21
4.751477
 31
0.0
  0
LINE
  5
7FBD
100
AcDbEntity
  8
1
100
AcDbLine
 10
10.556845
 20
4.160935
 30
0.0
 11
10.385993
 21
3.58625
 31
0.0
  0
LINE
  5
7FBE
100
AcDbEntity
  8
1
100
AcDbLine
 10
10.385993
 20
3.58625
 30
0.0
 11
10.15
 21
3.035085
 31
0.0
  0
LINE
  5
7FBF
100
AcDbEntity
  8
1
100
AcDbLine
 10
10.080746
 20
3.052252
 30
0.0
 11
10.15
 21
3.119576
 31
0.0
  0
LINE
  5
7FC0
100
AcDbEntity
  8
1
100
AcDbLine
 10
10.660275
 20
4.751477
 30
0.0
 11
10.556845
 21
4.160935
 31
0.0
  0
LINE
  5
7FC1
100
AcDbEntity
  8
1
100
AcDbLine
 10
6.05
 20
10.300758
 30
0.0
 11
6.05
 21
9.192535
 31
0.0
  0
ARC
  5
7FC2
100
AcDbEntity
  8
1
100
AcDbCircle
 10
5.35
 20
5.35
 30
0.0
 40
5.0
100
AcDbArc
 50
0.0
 51
180.0
  0
CIRCLE
  5
7FC3
100
AcDbEntity
  8
1
100
AcDbCircle
 10
5.35
 20
5.35
 30
0.0
 40
5.35
  0
ARC
  5
7FC4
100
AcDbEntity
  8
1
100
AcDbCircle
 10
5.35
 20
5.35
 30
0.0
 40
5.0
100
AcDbArc
 50
180.0
 51
0.0
  0
ARC
  5
7FC5
100
AcDbEntity
  8
1
100
AcDbCircle
 10
5.35
 20
5.35
 30
0.0
 40
5.259241
100
AcDbArc
 50
25.906088
 51
154.093912
  0
LINE
  5
7FC6
100
AcDbEntity
  8
1
100
AcDbLine
 10
0.314006
 20
3.58625
 30
0.0
 11
0.143155
 21
4.160935
 31
0.0
  0
ENDBLK
  5
7FC8
100
AcDbEntity
  8
0
100
AcDbBlockEnd
  0
BLOCK
  5
7FCB
100
AcDbEntity
  8
0
100
AcDbBlockBegin
  2
A$C369D6037
 70
     0
 10
0.0
 20
0.0
 30
0.0
  3
A$C369D6037
  1

  0
INSERT
  5
7FCA
100
AcDbEntity
  8
1
100
AcDbBlockReference
  2
A$C312173AA
 10
0.0
 20
0.0
 30
0.0
  0
ENDBLK
  5
7FCC
100
AcDbEntity
  8
0
100
AcDbBlockEnd
  0
BLOCK
  5
8091
100
AcDbEntity
  8
0
 62
     3
100
AcDbBlockBegin
  2
A$C3D1C28BF
 70
     0
 10
0.0
 20
0.0
 30
0.0
  3
A$C3D1C28BF
  1

  0
LINE
  5
8082
100
AcDbEntity
  8
WYMIARY
 62
     3
100
AcDbLine
 10
60.772901
 20
28.671415
 30
0.0
 11
21.812605
 21
56.839707
 31
0.0
  0
LINE
  5
8083
100
AcDbEntity
  8
WYMIARY
 62
     3
100
AcDbLine
 10
87.562069
 20
22.937132
 30
0.0
 11
109.230664
 21
55.263482
 31
0.0
  0
LINE
  5
8084
100
AcDbEntity
  8
WYMIARY
 62
     3
100
AcDbLine
 10
73.784782
 20
19.496562
 30
0.0
 11
73.784782
 21
49.697118
 31
0.0
  0
LINE
  5
8085
100
AcDbEntity
  8
WYMIARY
 62
     3
100
AcDbLine
 10
88.327474
 20
0.0
 30
0.0
 11
149.559859
 21
49.697118
 31
0.0
  0
TEXT
  5
8086
100
AcDbEntity
  8
WY
 62
     3
100
AcDbText
 10
94.795662
 20
57.462112
 30
0.0
 40
2.0
  1
Description plate GZT4-0035
 51
15.0
  7
ITALIC
100
AcDbText
  0
TEXT
  5
8087
100
AcDbEntity
  8
WY
 62
     3
100
AcDbText
 10
94.795662
 20
60.76955
 30
0.0
 40
2.0
  1
Płytka do opisu GZT4-0035
 51
15.0
  7
ITALIC
100
AcDbText
  0
TEXT
  5
8088
100
AcDbEntity
  8
WY
 62
     3
100
AcDbText
 10
-0.000001
 20
58.652527
 30
0.0
 40
2.0
  1
Retainer / retractor clip GZT80-0040
 51
15.0
  7
ITALIC
100
AcDbText
  0
TEXT
  5
8089
100
AcDbEntity
  8
WY
 62
     3
100
AcDbText
 10
0.183542
 20
61.683112
 30
0.0
 40
2.0
  1
Obejma wyrzutnikowa GZT80-0040
 51
15.0
  7
ITALIC
100
AcDbText
  0
TEXT
  5
808A
100
AcDbEntity
  8
WY
 62
     3
100
AcDbText
 10
63.255465
 20
54.536716
 30
0.0
 40
2.0
  1
Przekaźnik R2
 51
15.0
  7
ITALIC
100
AcDbText
  0
TEXT
  5
808B
100
AcDbEntity
  8
WY
 62
     3
100
AcDbText
 10
63.255465
 20
51.229278
 30
0.0
 40
2.0
  1
Relay R2
 51
15.0
  7
ITALIC
100
AcDbText
  0
TEXT
  5
808C
100
AcDbEntity
  8
WY
 62
     3
100
AcDbText
 10
145.711378
 20
51.660487
 30
0.0
 40
2.0
  1
Socket GZM2
 51
15.0
  7
ITALIC
100
AcDbText
  0
TEXT
  5
808D
100
AcDbEntity
  8
WY
 62
     3
100
AcDbText
 10
145.711378
 20
54.967926
 30
0.0
 40
2.0
  1
Gniazdo GZM2
 51
15.0
  7
ITALIC
100
AcDbText
  0
TEXT
  5
808E
100
AcDbEntity
  8
WY
 62
     3
100
AcDbText
 10
0.97021
 20
41.467875
 30
0.0
 40
2.0
  1
Moduł typu M...
 51
15.0
  7
ITALIC
100
AcDbText
  0
LINE
  5
808F
100
AcDbEntity
  8
WYMIARY
 62
     3
100
AcDbLine
 10
45.273452
 20
9.557138
 30
0.0
 11
10.638884
 21
36.508268
 31
0.0
  0
TEXT
  5
8090
100
AcDbEntity
  8
WY
 62
     3
100
AcDbText
 10
0.97021
 20
38.160437
 30
0.0
 40
2.0
  1
Module type M...
 51
15.0
  7
ITALIC
100
AcDbText
  0
ENDBLK
  5
8092
100
AcDbEntity
  8
0
 62
     3
100
AcDbBlockEnd
  0
BLOCK
  5
C806
100
AcDbEntity
  8
0
100
AcDbBlockBegin
  2
*D4
 70
     1
 10
0.0
 20
0.0
 30
0.0
  3
*D4
  1

  0
LINE
  5
C807
100
AcDbEntity
  8
0
  6
BYBLOCK
 62
     0
100
AcDbLine
 10
559.4983
 20
799.120391
 30
0.0
 11
559.4983
 21
814.472939
 31
0.0
  0
LINE
  5
C808
100
AcDbEntity
  8
0
  6
BYBLOCK
 62
     0
100
AcDbLine
 10
594.4983
 20
802.370391
 30
0.0
 11
594.4983
 21
814.472939
 31
0.0
  0
LINE
  5
C809
100
AcDbEntity
  8
0
  6
BYBLOCK
 62
     0
100
AcDbLine
 10
562.9983
 20
812.972939
 30
0.0
 11
590.9983
 21
812.972939
 31
0.0
  0
SOLID
  5
C80A
100
AcDbEntity
  8
0
  6
BYBLOCK
 62
     0
100
AcDbTrace
 10
562.9983
 20
813.556273
 30
0.0
 11
562.9983
 21
812.389606
 31
0.0
 12
559.4983
 22
812.972939
 32
0.0
 13
559.4983
 23
812.972939
 33
0.0
  0
SOLID
  5
C80B
100
AcDbEntity
  8
0
  6
BYBLOCK
 62
     0
100
AcDbTrace
 10
590.9983
 20
813.556273
 30
0.0
 11
590.9983
 21
812.389606
 31
0.0
 12
594.4983
 22
812.972939
 32
0.0
 13
594.4983
 23
812.972939
 33
0.0
  0
MTEXT
  5
C80C
100
AcDbEntity
  8
0
  6
BYBLOCK
 62
     0
100
AcDbMText
 10
576.9983
 20
814.622939
 30
0.0
 40
1.8
 41
0.0
 71
     5
 72
     1
  1
\A1;35.00
  0
POINT
  5
C80D
100
AcDbEntity
  8
DEFPOINTS
  6
BYBLOCK
 62
     0
100
AcDbPoint
 10
559.4983
 20
797.620391
 30
0.0
  0
POINT
  5
C80E
100
AcDbEntity
  8
DEFPOINTS
  6
BYBLOCK
 62
     0
100
AcDbPoint
 10
594.4983
 20
800.870391
 30
0.0
  0
POINT
  5
C80F
100
AcDbEntity
  8
DEFPOINTS
  6
BYBLOCK
 62
     0
100
AcDbPoint
 10
594.4983
 20
812.972939
 30
0.0
  0
ENDBLK
  5
C810
100
AcDbEntity
  8
0
100
AcDbBlockEnd
  0
BLOCK
  5
D20B
100
AcDbEntity
  8
0
100
AcDbBlockBegin
  2
*D5
 70
     1
 10
0.0
 20
0.0
 30
0.0
  3
*D5
  1

  0
LINE
  5
D20C
100
AcDbEntity
  8
0
  6
BYBLOCK
 62
     0
100
AcDbLine
 10
595.9983
 20
800.870391
 30
0.0
 11
618.127842
 21
800.870391
 31
0.0
  0
LINE
  5
D20D
100
AcDbEntity
  8
0
  6
BYBLOCK
 62
     0
100
AcDbLine
 10
595.9983
 20
738.370391
 30
0.0
 11
618.127842
 21
738.370391
 31
0.0
  0
LINE
  5
D20E
100
AcDbEntity
  8
0
  6
BYBLOCK
 62
     0
100
AcDbLine
 10
616.627842
 20
797.370391
 30
0.0
 11
616.627842
 21
741.870391
 31
0.0
  0
SOLID
  5
D20F
100
AcDbEntity
  8
0
  6
BYBLOCK
 62
     0
100
AcDbTrace
 10
616.044509
 20
797.370391
 30
0.0
 11
617.211175
 21
797.370391
 31
0.0
 12
616.627842
 22
800.870391
 32
0.0
 13
616.627842
 23
800.870391
 33
0.0
  0
SOLID
  5
D210
100
AcDbEntity
  8
0
  6
BYBLOCK
 62
     0
100
AcDbTrace
 10
616.044509
 20
741.870391
 30
0.0
 11
617.211175
 21
741.870391
 31
0.0
 12
616.627842
 22
738.370391
 32
0.0
 13
616.627842
 23
738.370391
 33
0.0
  0
MTEXT
  5
D211
100
AcDbEntity
  8
0
  6
BYBLOCK
 62
     0
100
AcDbMText
 10
614.977842
 20
769.620391
 30
0.0
 40
1.8
 41
0.0
 71
     5
 72
     1
  1
\A1;62.50
 11
0.0
 21
1.0
 31
0.0
  0
POINT
  5
D212
100
AcDbEntity
  8
DEFPOINTS
  6
BYBLOCK
 62
     0
100
AcDbPoint
 10
594.4983
 20
800.870391
 30
0.0
  0
POINT
  5
D213
100
AcDbEntity
  8
DEFPOINTS
  6
BYBLOCK
 62
     0
100
AcDbPoint
 10
594.4983
 20
738.370391
 30
0.0
  0
POINT
  5
D214
100
AcDbEntity
  8
DEFPOINTS
  6
BYBLOCK
 62
     0
100
AcDbPoint
 10
616.627842
 20
738.370391
 30
0.0
  0
ENDBLK
  5
D215
100
AcDbEntity
  8
0
100
AcDbBlockEnd
  0
BLOCK
  5
C7FB
100
AcDbEntity
  8
0
100
AcDbBlockBegin
  2
*D6
 70
     1
 10
0.0
 20
0.0
 30
0.0
  3
*D6
  1

  0
LINE
  5
C7FC
100
AcDbEntity
  8
0
  6
BYBLOCK
 62
     0
100
AcDbLine
 10
595.9983
 20
791.370391
 30
0.0
 11
610.459904
 21
791.370391
 31
0.0
  0
LINE
  5
C7FD
100
AcDbEntity
  8
0
  6
BYBLOCK
 62
     0
100
AcDbLine
 10
595.9983
 20
747.870391
 30
0.0
 11
610.459904
 21
747.870391
 31
0.0
  0
LINE
  5
C7FE
100
AcDbEntity
  8
0
  6
BYBLOCK
 62
     0
100
AcDbLine
 10
608.959904
 20
787.870391
 30
0.0
 11
608.959904
 21
751.370391
 31
0.0
  0
SOLID
  5
C7FF
100
AcDbEntity
  8
0
  6
BYBLOCK
 62
     0
100
AcDbTrace
 10
608.376571
 20
787.870391
 30
0.0
 11
609.543237
 21
787.870391
 31
0.0
 12
608.959904
 22
791.370391
 32
0.0
 13
608.959904
 23
791.370391
 33
0.0
  0
SOLID
  5
C800
100
AcDbEntity
  8
0
  6
BYBLOCK
 62
     0
100
AcDbTrace
 10
608.376571
 20
751.370391
 30
0.0
 11
609.543237
 21
751.370391
 31
0.0
 12
608.959904
 22
747.870391
 32
0.0
 13
608.959904
 23
747.870391
 33
0.0
  0
MTEXT
  5
C801
100
AcDbEntity
  8
0
  6
BYBLOCK
 62
     0
100
AcDbMText
 10
607.309904
 20
769.620391
 30
0.0
 40
1.8
 41
0.0
 71
     5
 72
     1
  1
\A1;43.50
 11
0.0
 21
1.0
 31
0.0
  0
POINT
  5
C802
100
AcDbEntity
  8
DEFPOINTS
  6
BYBLOCK
 62
     0
100
AcDbPoint
 10
594.4983
 20
791.370391
 30
0.0
  0
POINT
  5
C803
100
AcDbEntity
  8
DEFPOINTS
  6
BYBLOCK
 62
     0
100
AcDbPoint
 10
594.4983
 20
747.870391
 30
0.0
  0
POINT
  5
C804
100
AcDbEntity
  8
DEFPOINTS
  6
BYBLOCK
 62
     0
100
AcDbPoint
 10
608.959904
 20
747.870391
 30
0.0
  0
ENDBLK
  5
C805
100
AcDbEntity
  8
0
100
AcDbBlockEnd
  0
BLOCK
  5
C824
100
AcDbEntity
  8
0
100
AcDbBlockBegin
  2
*D7
 70
     1
 10
0.0
 20
0.0
 30
0.0
  3
*D7
  1

  0
LINE
  5
C825
100
AcDbEntity
  8
0
  6
BYBLOCK
 62
     0
100
AcDbLine
 10
562.7483
 20
794.620391
 30
0.0
 11
550.10865
 21
794.620391
 31
0.0
  0
LINE
  5
C826
100
AcDbEntity
  8
0
  6
BYBLOCK
 62
     0
100
AcDbLine
 10
562.7483
 20
744.620391
 30
0.0
 11
550.10865
 21
744.620391
 31
0.0
  0
LINE
  5
C827
100
AcDbEntity
  8
0
  6
BYBLOCK
 62
     0
100
AcDbLine
 10
551.60865
 20
791.120391
 30
0.0
 11
551.60865
 21
748.120391
 31
0.0
  0
SOLID
  5
C828
100
AcDbEntity
  8
0
  6
BYBLOCK
 62
     0
100
AcDbTrace
 10
551.025316
 20
791.120391
 30
0.0
 11
552.191983
 21
791.120391
 31
0.0
 12
551.60865
 22
794.620391
 32
0.0
 13
551.60865
 23
794.620391
 33
0.0
  0
SOLID
  5
C829
100
AcDbEntity
  8
0
  6
BYBLOCK
 62
     0
100
AcDbTrace
 10
551.025316
 20
748.120391
 30
0.0
 11
552.191983
 21
748.120391
 31
0.0
 12
551.60865
 22
744.620391
 32
0.0
 13
551.60865
 23
744.620391
 33
0.0
  0
MTEXT
  5
C82A
100
AcDbEntity
  8
0
  6
BYBLOCK
 62
     0
100
AcDbMText
 10
549.95865
 20
769.620391
 30
0.0
 40
1.8
 41
0.0
 71
     5
 72
     1
  1
\A1;50.00
 11
0.0
 21
1.0
 31
0.0
  0
POINT
  5
C82B
100
AcDbEntity
  8
DEFPOINTS
  6
BYBLOCK
 62
     0
100
AcDbPoint
 10
564.2483
 20
794.620391
 30
0.0
  0
POINT
  5
C82C
100
AcDbEntity
  8
DEFPOINTS
  6
BYBLOCK
 62
     0
100
AcDbPoint
 10
564.2483
 20
744.620391
 30
0.0
  0
POINT
  5
C82D
100
AcDbEntity
  8
DEFPOINTS
  6
BYBLOCK
 62
     0
100
AcDbPoint
 10
551.60865
 20
744.620391
 30
0.0
  0
ENDBLK
  5
C82E
100
AcDbEntity
  8
0
100
AcDbBlockEnd
  0
BLOCK
  5
C846
100
AcDbEntity
  8
0
100
AcDbBlockBegin
  2
*D8
 70
     1
 10
0.0
 20
0.0
 30
0.0
  3
*D8
  1

  0
LINE
  5
C83D
100
AcDbEntity
  8
0
  6
BYBLOCK
 62
     0
100
AcDbLine
 10
559.4983
 20
799.120391
 30
0.0
 11
559.4983
 21
814.472939
 31
0.0
  0
LINE
  5
C83E
100
AcDbEntity
  8
0
  6
BYBLOCK
 62
     0
100
AcDbLine
 10
594.4983
 20
802.370391
 30
0.0
 11
594.4983
 21
814.472939
 31
0.0
  0
LINE
  5
C83F
100
AcDbEntity
  8
0
  6
BYBLOCK
 62
     0
100
AcDbLine
 10
562.9983
 20
812.972939
 30
0.0
 11
590.9983
 21
812.972939
 31
0.0
  0
SOLID
  5
C840
100
AcDbEntity
  8
0
  6
BYBLOCK
 62
     0
100
AcDbTrace
 10
562.9983
 20
813.556273
 30
0.0
 11
562.9983
 21
812.389606
 31
0.0
 12
559.4983
 22
812.972939
 32
0.0
 13
559.4983
 23
812.972939
 33
0.0
  0
SOLID
  5
C841
100
AcDbEntity
  8
0
  6
BYBLOCK
 62
     0
100
AcDbTrace
 10
590.9983
 20
813.556273
 30
0.0
 11
590.9983
 21
812.389606
 31
0.0
 12
594.4983
 22
812.972939
 32
0.0
 13
594.4983
 23
812.972939
 33
0.0
  0
MTEXT
  5
C842
100
AcDbEntity
  8
0
  6
BYBLOCK
 62
     0
100
AcDbMText
 10
576.9983
 20
814.622939
 30
0.0
 40
1.8
 41
0.0
 71
     5
 72
     1
  1
\A1;35.00
  0
POINT
  5
C843
100
AcDbEntity
  8
DEFPOINTS
  6
BYBLOCK
 62
     0
100
AcDbPoint
 10
559.4983
 20
797.620391
 30
0.0
  0
POINT
  5
C844
100
AcDbEntity
  8
DEFPOINTS
  6
BYBLOCK
 62
     0
100
AcDbPoint
 10
594.4983
 20
800.870391
 30
0.0
  0
POINT
  5
C845
100
AcDbEntity
  8
DEFPOINTS
  6
BYBLOCK
 62
     0
100
AcDbPoint
 10
594.4983
 20
812.972939
 30
0.0
  0
ENDBLK
  5
C847
100
AcDbEntity
  8
0
100
AcDbBlockEnd
  0
BLOCK
  5
C852
100
AcDbEntity
  8
0
100
AcDbBlockBegin
  2
*D9
 70
     1
 10
0.0
 20
0.0
 30
0.0
  3
*D9
  1

  0
LINE
  5
C849
100
AcDbEntity
  8
0
  6
BYBLOCK
 62
     0
100
AcDbLine
 10
595.9983
 20
800.870391
 30
0.0
 11
618.127842
 21
800.870391
 31
0.0
  0
LINE
  5
C84A
100
AcDbEntity
  8
0
  6
BYBLOCK
 62
     0
100
AcDbLine
 10
570.7983
 20
738.370391
 30
0.0
 11
618.127842
 21
738.370391
 31
0.0
  0
LINE
  5
C84B
100
AcDbEntity
  8
0
  6
BYBLOCK
 62
     0
100
AcDbLine
 10
616.627842
 20
797.370391
 30
0.0
 11
616.627842
 21
741.870391
 31
0.0
  0
SOLID
  5
C84C
100
AcDbEntity
  8
0
  6
BYBLOCK
 62
     0
100
AcDbTrace
 10
616.044509
 20
797.370391
 30
0.0
 11
617.211175
 21
797.370391
 31
0.0
 12
616.627842
 22
800.870391
 32
0.0
 13
616.627842
 23
800.870391
 33
0.0
  0
SOLID
  5
C84D
100
AcDbEntity
  8
0
  6
BYBLOCK
 62
     0
100
AcDbTrace
 10
616.044509
 20
741.870391
 30
0.0
 11
617.211175
 21
741.870391
 31
0.0
 12
616.627842
 22
738.370391
 32
0.0
 13
616.627842
 23
738.370391
 33
0.0
  0
MTEXT
  5
C84E
100
AcDbEntity
  8
0
  6
BYBLOCK
 62
     0
100
AcDbMText
 10
614.977842
 20
769.620391
 30
0.0
 40
1.8
 41
0.0
 71
     5
 72
     1
  1
\A1;62.50
 11
0.0
 21
1.0
 31
0.0
  0
POINT
  5
C84F
100
AcDbEntity
  8
DEFPOINTS
  6
BYBLOCK
 62
     0
100
AcDbPoint
 10
594.4983
 20
800.870391
 30
0.0
  0
POINT
  5
C850
100
AcDbEntity
  8
DEFPOINTS
  6
BYBLOCK
 62
     0
100
AcDbPoint
 10
569.2983
 20
738.370391
 30
0.0
  0
POINT
  5
C851
100
AcDbEntity
  8
DEFPOINTS
  6
BYBLOCK
 62
     0
100
AcDbPoint
 10
616.627842
 20
738.370391
 30
0.0
  0
ENDBLK
  5
C853
100
AcDbEntity
  8
0
100
AcDbBlockEnd
  0
BLOCK
  5
C85E
100
AcDbEntity
  8
0
100
AcDbBlockBegin
  2
*D10
 70
     1
 10
0.0
 20
0.0
 30
0.0
  3
*D10
  1

  0
LINE
  5
C855
100
AcDbEntity
  8
0
  6
BYBLOCK
 62
     0
100
AcDbLine
 10
595.9983
 20
791.370391
 30
0.0
 11
610.459904
 21
791.370391
 31
0.0
  0
LINE
  5
C856
100
AcDbEntity
  8
0
  6
BYBLOCK
 62
     0
100
AcDbLine
 10
595.9983
 20
747.870391
 30
0.0
 11
610.459904
 21
747.870391
 31
0.0
  0
LINE
  5
C857
100
AcDbEntity
  8
0
  6
BYBLOCK
 62
     0
100
AcDbLine
 10
608.959904
 20
787.870391
 30
0.0
 11
608.959904
 21
751.370391
 31
0.0
  0
SOLID
  5
C858
100
AcDbEntity
  8
0
  6
BYBLOCK
 62
     0
100
AcDbTrace
 10
608.376571
 20
787.870391
 30
0.0
 11
609.543237
 21
787.870391
 31
0.0
 12
608.959904
 22
791.370391
 32
0.0
 13
608.959904
 23
791.370391
 33
0.0
  0
SOLID
  5
C859
100
AcDbEntity
  8
0
  6
BYBLOCK
 62
     0
100
AcDbTrace
 10
608.376571
 20
751.370391
 30
0.0
 11
609.543237
 21
751.370391
 31
0.0
 12
608.959904
 22
747.870391
 32
0.0
 13
608.959904
 23
747.870391
 33
0.0
  0
MTEXT
  5
C85A
100
AcDbEntity
  8
0
  6
BYBLOCK
 62
     0
100
AcDbMText
 10
607.309904
 20
769.620391
 30
0.0
 40
1.8
 41
0.0
 71
     5
 72
     1
  1
\A1;43.50
 11
0.0
 21
1.0
 31
0.0
  0
POINT
  5
C85B
100
AcDbEntity
  8
DEFPOINTS
  6
BYBLOCK
 62
     0
100
AcDbPoint
 10
594.4983
 20
791.370391
 30
0.0
  0
POINT
  5
C85C
100
AcDbEntity
  8
DEFPOINTS
  6
BYBLOCK
 62
     0
100
AcDbPoint
 10
594.4983
 20
747.870391
 30
0.0
  0
POINT
  5
C85D
100
AcDbEntity
  8
DEFPOINTS
  6
BYBLOCK
 62
     0
100
AcDbPoint
 10
608.959904
 20
747.870391
 30
0.0
  0
ENDBLK
  5
C85F
100
AcDbEntity
  8
0
100
AcDbBlockEnd
  0
BLOCK
  5
C86A
100
AcDbEntity
  8
0
100
AcDbBlockBegin
  2
*D11
 70
     1
 10
0.0
 20
0.0
 30
0.0
  3
*D11
  1

  0
LINE
  5
C861
100
AcDbEntity
  8
0
  6
BYBLOCK
 62
     0
100
AcDbLine
 10
562.7483
 20
794.620391
 30
0.0
 11
550.10865
 21
794.620391
 31
0.0
  0
LINE
  5
C862
100
AcDbEntity
  8
0
  6
BYBLOCK
 62
     0
100
AcDbLine
 10
562.7483
 20
744.620391
 30
0.0
 11
550.10865
 21
744.620391
 31
0.0
  0
LINE
  5
C863
100
AcDbEntity
  8
0
  6
BYBLOCK
 62
     0
100
AcDbLine
 10
551.60865
 20
791.120391
 30
0.0
 11
551.60865
 21
748.120391
 31
0.0
  0
SOLID
  5
C864
100
AcDbEntity
  8
0
  6
BYBLOCK
 62
     0
100
AcDbTrace
 10
551.025316
 20
791.120391
 30
0.0
 11
552.191983
 21
791.120391
 31
0.0
 12
551.60865
 22
794.620391
 32
0.0
 13
551.60865
 23
794.620391
 33
0.0
  0
SOLID
  5
C865
100
AcDbEntity
  8
0
  6
BYBLOCK
 62
     0
100
AcDbTrace
 10
551.025316
 20
748.120391
 30
0.0
 11
552.191983
 21
748.120391
 31
0.0
 12
551.60865
 22
744.620391
 32
0.0
 13
551.60865
 23
744.620391
 33
0.0
  0
MTEXT
  5
C866
100
AcDbEntity
  8
0
  6
BYBLOCK
 62
     0
100
AcDbMText
 10
549.95865
 20
769.620391
 30
0.0
 40
1.8
 41
0.0
 71
     5
 72
     1
  1
\A1;50.00
 11
0.0
 21
1.0
 31
0.0
  0
POINT
  5
C867
100
AcDbEntity
  8
DEFPOINTS
  6
BYBLOCK
 62
     0
100
AcDbPoint
 10
564.2483
 20
794.620391
 30
0.0
  0
POINT
  5
C868
100
AcDbEntity
  8
DEFPOINTS
  6
BYBLOCK
 62
     0
100
AcDbPoint
 10
564.2483
 20
744.620391
 30
0.0
  0
POINT
  5
C869
100
AcDbEntity
  8
DEFPOINTS
  6
BYBLOCK
 62
     0
100
AcDbPoint
 10
551.60865
 20
744.620391
 30
0.0
  0
ENDBLK
  5
C86B
100
AcDbEntity
  8
0
100
AcDbBlockEnd
  0
BLOCK
  5
C876
100
AcDbEntity
  8
0
100
AcDbBlockBegin
  2
*D12
 70
     1
 10
0.0
 20
0.0
 30
0.0
  3
*D12
  1

  0
LINE
  5
C86D
100
AcDbEntity
  8
0
  6
BYBLOCK
 62
     0
100
AcDbLine
 10
517.86931
 20
802.370391
 30
0.0
 11
517.86931
 21
823.138576
 31
0.0
  0
LINE
  5
C86E
100
AcDbEntity
  8
0
  6
BYBLOCK
 62
     0
100
AcDbLine
 10
574.86931
 20
792.870391
 30
0.0
 11
574.86931
 21
823.138576
 31
0.0
  0
LINE
  5
C86F
100
AcDbEntity
  8
0
  6
BYBLOCK
 62
     0
100
AcDbLine
 10
521.36931
 20
821.638576
 30
0.0
 11
571.36931
 21
821.638576
 31
0.0
  0
SOLID
  5
C870
100
AcDbEntity
  8
0
  6
BYBLOCK
 62
     0
100
AcDbTrace
 10
521.36931
 20
822.22191
 30
0.0
 11
521.36931
 21
821.055243
 31
0.0
 12
517.86931
 22
821.638576
 32
0.0
 13
517.86931
 23
821.638576
 33
0.0
  0
SOLID
  5
C871
100
AcDbEntity
  8
0
  6
BYBLOCK
 62
     0
100
AcDbTrace
 10
571.36931
 20
822.22191
 30
0.0
 11
571.36931
 21
821.055243
 31
0.0
 12
574.86931
 22
821.638576
 32
0.0
 13
574.86931
 23
821.638576
 33
0.0
  0
MTEXT
  5
C872
100
AcDbEntity
  8
0
  6
BYBLOCK
 62
     0
100
AcDbMText
 10
546.36931
 20
823.288576
 30
0.0
 40
1.8
 41
0.0
 71
     5
 72
     1
  1
\A1;57.00
  0
POINT
  5
C873
100
AcDbEntity
  8
DEFPOINTS
  6
BYBLOCK
 62
     0
100
AcDbPoint
 10
517.86931
 20
800.870391
 30
0.0
  0
POINT
  5
C874
100
AcDbEntity
  8
DEFPOINTS
  6
BYBLOCK
 62
     0
100
AcDbPoint
 10
574.86931
 20
791.370391
 30
0.0
  0
POINT
  5
C875
100
AcDbEntity
  8
DEFPOINTS
  6
BYBLOCK
 62
     0
100
AcDbPoint
 10
574.86931
 20
821.638576
 30
0.0
  0
ENDBLK
  5
C877
100
AcDbEntity
  8
0
100
AcDbBlockEnd
  0
BLOCK
  5
C882
100
AcDbEntity
  8
0
100
AcDbBlockBegin
  2
*D13
 70
     1
 10
0.0
 20
0.0
 30
0.0
  3
*D13
  1

  0
LINE
  5
C879
100
AcDbEntity
  8
0
  6
BYBLOCK
 62
     0
100
AcDbLine
 10
517.86931
 20
802.370391
 30
0.0
 11
517.86931
 21
817.369786
 31
0.0
  0
LINE
  5
C87A
100
AcDbEntity
  8
0
  6
BYBLOCK
 62
     0
100
AcDbLine
 10
554.36931
 20
802.370391
 30
0.0
 11
554.36931
 21
817.369786
 31
0.0
  0
LINE
  5
C87B
100
AcDbEntity
  8
0
  6
BYBLOCK
 62
     0
100
AcDbLine
 10
521.36931
 20
815.869786
 30
0.0
 11
550.86931
 21
815.869786
 31
0.0
  0
SOLID
  5
C87C
100
AcDbEntity
  8
0
  6
BYBLOCK
 62
     0
100
AcDbTrace
 10
521.36931
 20
816.45312
 30
0.0
 11
521.36931
 21
815.286453
 31
0.0
 12
517.86931
 22
815.869786
 32
0.0
 13
517.86931
 23
815.869786
 33
0.0
  0
SOLID
  5
C87D
100
AcDbEntity
  8
0
  6
BYBLOCK
 62
     0
100
AcDbTrace
 10
550.86931
 20
816.45312
 30
0.0
 11
550.86931
 21
815.286453
 31
0.0
 12
554.36931
 22
815.869786
 32
0.0
 13
554.36931
 23
815.869786
 33
0.0
  0
MTEXT
  5
C87E
100
AcDbEntity
  8
0
  6
BYBLOCK
 62
     0
100
AcDbMText
 10
536.11931
 20
817.519786
 30
0.0
 40
1.8
 41
0.0
 71
     5
 72
     1
  1
\A1;36.50
  0
POINT
  5
C87F
100
AcDbEntity
  8
DEFPOINTS
  6
BYBLOCK
 62
     0
100
AcDbPoint
 10
517.86931
 20
800.870391
 30
0.0
  0
POINT
  5
C880
100
AcDbEntity
  8
DEFPOINTS
  6
BYBLOCK
 62
     0
100
AcDbPoint
 10
554.36931
 20
800.870391
 30
0.0
  0
POINT
  5
C881
100
AcDbEntity
  8
DEFPOINTS
  6
BYBLOCK
 62
     0
100
AcDbPoint
 10
554.36931
 20
815.869786
 30
0.0
  0
ENDBLK
  5
C883
100
AcDbEntity
  8
0
100
AcDbBlockEnd
  0
BLOCK
  5
C88E
100
AcDbEntity
  8
0
100
AcDbBlockBegin
  2
*D14
 70
     1
 10
0.0
 20
0.0
 30
0.0
  3
*D14
  1

  0
LINE
  5
C885
100
AcDbEntity
  8
0
  6
BYBLOCK
 62
     0
100
AcDbLine
 10
517.86931
 20
802.370391
 30
0.0
 11
517.86931
 21
810.941706
 31
0.0
  0
LINE
  5
C886
100
AcDbEntity
  8
0
  6
BYBLOCK
 62
     0
100
AcDbLine
 10
536.86931
 20
802.370391
 30
0.0
 11
536.86931
 21
810.941706
 31
0.0
  0
LINE
  5
C887
100
AcDbEntity
  8
0
  6
BYBLOCK
 62
     0
100
AcDbLine
 10
521.36931
 20
809.441706
 30
0.0
 11
533.36931
 21
809.441706
 31
0.0
  0
SOLID
  5
C888
100
AcDbEntity
  8
0
  6
BYBLOCK
 62
     0
100
AcDbTrace
 10
521.36931
 20
810.025039
 30
0.0
 11
521.36931
 21
808.858373
 31
0.0
 12
517.86931
 22
809.441706
 32
0.0
 13
517.86931
 23
809.441706
 33
0.0
  0
SOLID
  5
C889
100
AcDbEntity
  8
0
  6
BYBLOCK
 62
     0
100
AcDbTrace
 10
533.36931
 20
810.025039
 30
0.0
 11
533.36931
 21
808.858373
 31
0.0
 12
536.86931
 22
809.441706
 32
0.0
 13
536.86931
 23
809.441706
 33
0.0
  0
MTEXT
  5
C88A
100
AcDbEntity
  8
0
  6
BYBLOCK
 62
     0
100
AcDbMText
 10
527.36931
 20
811.091706
 30
0.0
 40
1.8
 41
0.0
 71
     5
 72
     1
  1
\A1;19.00
  0
POINT
  5
C88B
100
AcDbEntity
  8
DEFPOINTS
  6
BYBLOCK
 62
     0
100
AcDbPoint
 10
517.86931
 20
800.870391
 30
0.0
  0
POINT
  5
C88C
100
AcDbEntity
  8
DEFPOINTS
  6
BYBLOCK
 62
     0
100
AcDbPoint
 10
536.86931
 20
800.870391
 30
0.0
  0
POINT
  5
C88D
100
AcDbEntity
  8
DEFPOINTS
  6
BYBLOCK
 62
     0
100
AcDbPoint
 10
536.86931
 20
809.441706
 30
0.0
  0
ENDBLK
  5
C88F
100
AcDbEntity
  8
0
100
AcDbBlockEnd
  0
BLOCK
  5
C89B
100
AcDbEntity
  8
0
100
AcDbBlockBegin
  2
*D15
 70
     1
 10
0.0
 20
0.0
 30
0.0
  3
*D15
  1

  0
LINE
  5
C891
100
AcDbEntity
  8
0
  6
BYBLOCK
 62
     0
100
AcDbLine
 10
517.86931
 20
736.870391
 30
0.0
 11
517.86931
 21
725.530416
 31
0.0
  0
LINE
  5
C892
100
AcDbEntity
  8
0
  6
BYBLOCK
 62
     0
100
AcDbLine
 10
522.36931
 20
736.870391
 30
0.0
 11
522.36931
 21
725.530416
 31
0.0
  0
LINE
  5
C893
100
AcDbEntity
  8
0
  6
BYBLOCK
 62
     0
100
AcDbLine
 10
514.36931
 20
727.030416
 30
0.0
 11
510.86931
 21
727.030416
 31
0.0
  0
LINE
  5
C894
100
AcDbEntity
  8
0
  6
BYBLOCK
 62
     0
100
AcDbLine
 10
525.86931
 20
727.030416
 30
0.0
 11
535.96931
 21
727.030416
 31
0.0
  0
SOLID
  5
C895
100
AcDbEntity
  8
0
  6
BYBLOCK
 62
     0
100
AcDbTrace
 10
514.36931
 20
727.61375
 30
0.0
 11
514.36931
 21
726.447083
 31
0.0
 12
517.86931
 22
727.030416
 32
0.0
 13
517.86931
 23
727.030416
 33
0.0
  0
SOLID
  5
C896
100
AcDbEntity
  8
0
  6
BYBLOCK
 62
     0
100
AcDbTrace
 10
525.86931
 20
727.61375
 30
0.0
 11
525.86931
 21
726.447083
 31
0.0
 12
522.36931
 22
727.030416
 32
0.0
 13
522.36931
 23
727.030416
 33
0.0
  0
MTEXT
  5
C897
100
AcDbEntity
  8
0
  6
BYBLOCK
 62
     0
100
AcDbMText
 10
532.66931
 20
728.680416
 30
0.0
 40
1.8
 41
0.0
 71
     5
 72
     1
  1
\A1;4.50
  0
POINT
  5
C898
100
AcDbEntity
  8
DEFPOINTS
  6
BYBLOCK
 62
     0
100
AcDbPoint
 10
517.86931
 20
738.370391
 30
0.0
  0
POINT
  5
C899
100
AcDbEntity
  8
DEFPOINTS
  6
BYBLOCK
 62
     0
100
AcDbPoint
 10
522.36931
 20
738.370391
 30
0.0
  0
POINT
  5
C89A
100
AcDbEntity
  8
DEFPOINTS
  6
BYBLOCK
 62
     0
100
AcDbPoint
 10
522.36931
 20
727.030416
 30
0.0
  0
ENDBLK
  5
C89C
100
AcDbEntity
  8
0
100
AcDbBlockEnd
  0
BLOCK
  5
CB4A
100
AcDbEntity
  8
0
 62
     3
100
AcDbBlockBegin
  2
A$C54740B61
 70
     0
 10
0.0
 20
0.0
 30
0.0
  3
A$C54740B61
  1

  0
LINE
  5
C89E
100
AcDbEntity
  8
WYMIARY
 62
     3
100
AcDbLine
 10
244.291362
 20
205.273305
 30
0.0
 11
236.422621
 21
229.405293
 31
0.0
  0
LINE
  5
C89F
100
AcDbEntity
  8
WYMIARY
 62
     3
100
AcDbLine
 10
244.291362
 20
205.273305
 30
0.0
 11
236.422621
 21
229.405293
 31
0.0
  0
TEXT
  5
C8A0
100
AcDbEntity
  8
1
100
AcDbText
 10
230.788818
 20
171.235642
 30
0.0
 40
5.0
  1
RIK21-10-...
 41
0.75
  7
ITALIC
100
AcDbText
  0
LINE
  5
C8A1
100
AcDbEntity
  8
WYMIARY
 62
     3
100
AcDbLine
 10
284.771643
 20
217.348502
 30
0.0
 11
226.295429
 21
217.348502
 31
0.0
  0
LINE
  5
C8A2
100
AcDbEntity
  8
2
100
AcDbLine
 10
398.260813
 20
292.0
 30
0.0
 11
213.260813
 21
292.0
 31
0.0
  0
LINE
  5
C8A3
100
AcDbEntity
  8
2
100
AcDbLine
 10
403.260813
 20
297.0
 30
0.0
 11
213.260813
 21
297.0
 31
0.0
  0
TEXT
  5
C8A4
100
AcDbEntity
  8
1
100
AcDbText
 10
231.19674
 20
8.797457
 30
0.0
 40
5.0
  1
A4
 51
15.0
  7
ITALIC
100
AcDbText
  0
TEXT
  5
C8A5
100
AcDbEntity
  8
WY
100
AcDbText
 10
230.631382
 20
16.329369
 30
0.0
 40
2.0
  1
Format
 51
15.0
  7
ITALIC
100
AcDbText
  0
LINE
  5
C8A6
100
AcDbEntity
  8
WY
  6
CONTINUOUS
 62
     3
100
AcDbLine
 10
398.260813
 20
19.689837
 30
0.0
 11
213.260813
 21
19.689837
 31
0.0
  0
LINE
  5
C8A7
100
AcDbEntity
  8
2
100
AcDbLine
 10
213.260813
 20
5.0
 30
0.0
 11
398.260813
 21
5.0
 31
0.0
  0
LINE
  5
C8A8
100
AcDbEntity
  8
2
 62
     6
100
AcDbLine
 10
201.630406
 20
0.0
 30
0.0
 11
403.260813
 21
0.0
 31
0.0
  0
DIMENSION
  5
C8A9
100
AcDbEntity
  8
WYMIARY
 62
     1
100
AcDbDimension
  2
*D15
 10
36.328065
 20
136.992252
 30
0.0
 11
46.628065
 21
138.642252
 31
0.0
 12
-486.041244
 22
-590.038164
 32
0.0
  3
STANDARD
100
AcDbAlignedDimension
 13
31.828065
 23
148.332226
 33
0.0
 14
36.328065
 24
148.332226
 34
0.0
100
AcDbRotatedDimension
1001
ACAD
1000
DSTYLE
1002
{
1070
   140
1040
1.8
1070
   147
1040
0.75
1002
}
  0
LINE
  5
C8AA
100
AcDbEntity
  8
WYMIARY
 62
     6
100
AcDbLine
 10
213.260813
 20
292.0
 30
0.0
 11
213.260813
 21
5.0
 31
0.0
  0
LINE
  5
C8AB
100
AcDbEntity
  8
WYMIARY
 62
     6
100
AcDbLine
 10
201.630406
 20
0.0
 30
0.0
 11
201.630406
 21
297.0
 31
0.0
  0
LINE
  5
C8AC
100
AcDbEntity
  8
2
100
AcDbLine
 10
201.630406
 20
0.0
 30
0.0
 11
201.630406
 21
297.0
 31
0.0
  0
LINE
  5
C8AD
100
AcDbEntity
  8
WYMIARY
 62
     6
100
AcDbLine
 10
201.630406
 20
0.0
 30
0.0
 11
201.630406
 21
297.0
 31
0.0
  0
LINE
  5
C8AE
100
AcDbEntity
  8
2
100
AcDbLine
 10
201.630406
 20
0.0
 30
0.0
 11
201.630406
 21
297.0
 31
0.0
  0
LINE
  5
C8AF
100
AcDbEntity
  8
WYMIARY
 62
     6
100
AcDbLine
 10
201.630406
 20
0.0
 30
0.0
 11
201.630406
 21
297.0
 31
0.0
  0
LINE
  5
C8B0
100
AcDbEntity
  8
WYMIARY
 62
     6
100
AcDbLine
 10
201.630406
 20
0.0
 30
0.0
 11
201.630406
 21
297.0
 31
0.0
  0
LINE
  5
C8B1
100
AcDbEntity
  8
WYMIARY
 62
     6
100
AcDbLine
 10
201.630406
 20
0.0
 30
0.0
 11
201.630406
 21
297.0
 31
0.0
  0
LINE
  5
C8B2
100
AcDbEntity
  8
2
100
AcDbLine
 10
201.630406
 20
0.0
 30
0.0
 11
201.630406
 21
297.0
 31
0.0
  0
LINE
  5
C8B3
100
AcDbEntity
  8
2
100
AcDbLine
 10
196.630406
 20
5.0
 30
0.0
 11
196.630406
 21
292.0
 31
0.0
  0
LINE
  5
C8B4
100
AcDbEntity
  8
WYMIARY
 62
     6
100
AcDbLine
 10
11.630406
 20
292.0
 30
0.0
 11
11.630406
 21
5.0
 31
0.0
  0
LINE
  5
C8B5
100
AcDbEntity
  8
WYMIARY
 62
     6
100
AcDbLine
 10
0.0
 20
0.0
 30
0.0
 11
0.0
 21
297.0
 31
0.0
  0
TEXT
  5
C8B6
100
AcDbEntity
  8
WY
100
AcDbText
 10
78.376162
 20
11.60401
 30
0.0
 40
2.0
  1
02-02-2008
 51
15.0
  7
ITALIC
100
AcDbText
  0
LINE
  5
C8B7
100
AcDbEntity
  8
2
 62
     6
100
AcDbLine
 10
0.0
 20
0.0
 30
0.0
 11
201.630406
 21
0.0
 31
0.0
  0
LINE
  5
C8B8
100
AcDbEntity
  8
2
100
AcDbLine
 10
11.630406
 20
5.0
 30
0.0
 11
196.630406
 21
5.0
 31
0.0
  0
LINE
  5
C8B9
100
AcDbEntity
  8
WY
  6
CONTINUOUS
 62
     3
100
AcDbLine
 10
196.630406
 20
19.689837
 30
0.0
 11
11.630406
 21
19.689837
 31
0.0
  0
TEXT
  5
C8BA
100
AcDbEntity
  8
1
100
AcDbText
 10
14.26074
 20
8.797457
 30
0.0
 40
5.0
  1
1:1
 51
15.0
  7
ITALIC
100
AcDbText
  0
TEXT
  5
C8BB
100
AcDbEntity
  8
WY
100
AcDbText
 10
16.895521
 20
16.373844
 30
0.0
 40
2.0
  1
Skala
 51
15.0
  7
ITALIC
100
AcDbText
  0
LINE
  5
C8BC
100
AcDbEntity
  8
WYMIARY
 62
     3
100
AcDbLine
 10
26.630406
 20
19.689837
 30
0.0
 11
26.630406
 21
5.0
 31
0.0
  0
LINE
  5
C8BD
100
AcDbEntity
  8
WYMIARY
 62
     3
100
AcDbLine
 10
93.426582
 20
104.512243
 30
0.0
 11
93.426582
 21
48.512243
 31
0.0
  0
LINE
  5
C8BE
100
AcDbEntity
  8
WYMIARY
 62
     3
100
AcDbLine
 10
58.426582
 20
104.512243
 30
0.0
 11
58.426582
 21
48.512243
 31
0.0
  0
LINE
  5
C8BF
100
AcDbEntity
  8
WYMIARY
 62
     3
100
AcDbLine
 10
58.426582
 20
76.512243
 30
0.0
 11
58.426582
 21
49.012243
 31
0.0
  0
LINE
  5
C8C0
100
AcDbEntity
  8
WYMIARY
 62
     3
100
AcDbLine
 10
58.426582
 20
76.512243
 30
0.0
 11
58.426582
 21
51.512243
 31
0.0
  0
LINE
  5
C8C1
100
AcDbEntity
  8
WYMIARY
 62
     3
100
AcDbLine
 10
58.426582
 20
76.512243
 30
0.0
 11
58.426582
 21
54.762243
 31
0.0
  0
TEXT
  5
C8C2
100
AcDbEntity
  8
1
100
AcDbText
 10
56.946067
 20
35.446527
 30
0.0
 40
5.0
  1
RIK21-10-
 41
0.75
  7
ITALIC
100
AcDbText
  0
LINE
  5
C8C3
100
AcDbEntity
  8
WYMIARY
 62
     4
100
AcDbLine
 10
61.68118
 20
55.311744
 30
0.0
 11
62.935137
 21
57.090728
 31
0.0
  0
LINE
  5
C8C4
100
AcDbEntity
  8
WYMIARY
 62
     4
100
AcDbLine
 10
62.715398
 20
58.360104
 30
0.0
 11
64.010467
 21
60.197413
 31
0.0
  0
ARC
  5
C8C5
100
AcDbEntity
  8
WYMIARY
 62
     4
100
AcDbCircle
 10
63.176582
 20
51.512243
 30
0.0
 40
2.0
100
AcDbArc
 50
356.852491
 51
181.588096
  0
LINE
  5
C8C6
100
AcDbEntity
  8
WYMIARY
 62
     3
100
AcDbLine
 10
58.426582
 20
54.762243
 30
0.0
 11
93.426582
 21
54.762243
 31
0.0
  0
LINE
  5
C8C7
100
AcDbEntity
  8
WYMIARY
 62
     3
100
AcDbLine
 10
58.426582
 20
45.262243
 30
0.0
 11
68.226582
 21
45.262243
 31
0.0
  0
CIRCLE
  5
C8C8
100
AcDbEntity
  8
WYMIARY
 62
     4
100
AcDbCircle
 10
62.801582
 20
57.862243
 30
0.0
 40
3.1
  0
LINE
  5
C8C9
100
AcDbEntity
  8
0
100
AcDbLine
 10
44.458567
 20
17.030079
 30
0.0
 11
48.77009
 21
17.030079
 31
0.0
  0
ELLIPSE
  5
C8CA
100
AcDbEntity
  8
0
100
AcDbEllipse
 10
46.438859
 20
8.937306
 30
0.0
 11
3.015746449176212
 21
0.7746519372140012
 31
0.0
210
0.0
220
0.0
230
1.0
 40
0.846775
 41
1.29973646820557
 42
2.479974117225238
1001
ACAD
1000
ASC_BOUNDS
1002
{
1070
    19
1002
}
  0
ELLIPSE
  5
C8CB
100
AcDbEntity
  8
0
100
AcDbEllipse
 10
46.208354
 20
9.872487
 30
0.0
 11
2.960559210508897
 21
0.3570763225581005
 31
0.0
210
0.0
220
0.0
230
0.9999999999999998
 40
0.820999
 41
1.335209029023201
 42
2.503032872947537
1001
ACAD
1000
ASC_BOUNDS
1002
{
1070
    19
1002
}
  0
LINE
  5
C8CC
100
AcDbEntity
  8
0
100
AcDbLine
 10
44.458567
 20
7.416263
 30
0.0
 11
48.77009
 21
7.416263
 31
0.0
1001
ACAD
1000
ASC_BOUNDS
1002
{
1070
    19
1002
}
  0
TEXT
  5
C8CD
100
AcDbEntity
  8
WY
100
AcDbText
 10
29.000975
 20
16.329369
 30
0.0
 40
2.0
  1
Format
 51
15.0
  7
ITALIC
100
AcDbText
  0
TEXT
  5
C8CE
100
AcDbEntity
  8
1
100
AcDbText
 10
29.566334
 20
8.797457
 30
0.0
 40
5.0
  1
A4
 51
15.0
  7
ITALIC
100
AcDbText
  0
LINE
  5
C8CF
100
AcDbEntity
  8
WYMIARY
 62
     3
100
AcDbLine
 10
41.630406
 20
19.689837
 30
0.0
 11
41.630406
 21
5.0
 31
0.0
  0
ELLIPSE
  5
C8D0
100
AcDbEntity
  8
0
100
AcDbEllipse
 10
44.458567
 20
16.260974
 30
0.0
 11
0.8021437979128704
 21
0.000000000000038
 31
0.0
210
0.0
220
0.0
230
1.0
 40
0.958812
 41
1.570796326794851
 42
3.141592653589743
1001
ACAD
1000
ASC_BOUNDS
1002
{
1070
    19
1002
}
  0
LINE
  5
C8D1
100
AcDbEntity
  8
0
100
AcDbLine
 10
43.656423
 20
13.461283
 30
0.0
 11
43.656423
 21
12.896138
 31
0.0
1001
ACAD
1000
ASC_BOUNDS
1002
{
1070
    19
1002
}
  0
LINE
  5
C8D2
100
AcDbEntity
  8
0
100
AcDbLine
 10
43.656423
 20
11.742481
 30
0.0
 11
43.656423
 21
11.034514
 31
0.0
1001
ACAD
1000
ASC_BOUNDS
1002
{
1070
    19
1002
}
  0
LINE
  5
C8D3
100
AcDbEntity
  8
0
100
AcDbLine
 10
43.656423
 20
13.461283
 30
0.0
 11
43.656423
 21
16.260974
 31
0.0
1001
ACAD
1000
ASC_BOUNDS
1002
{
1070
    19
1002
}
  0
ELLIPSE
  5
C8D4
100
AcDbEntity
  8
0
100
AcDbEllipse
 10
44.458567
 20
8.185369
 30
0.0
 11
-0.8021437979128705
 21
0.0000000000000154
 31
0.0
210
0.0
220
0.0
230
1.0
 40
0.958812
 41
0.00000000000002
 42
1.570796326794914
1001
ACAD
1000
ASC_BOUNDS
1002
{
1070
    19
1002
}
  0
LINE
  5
C8D5
100
AcDbEntity
  8
0
100
AcDbLine
 10
43.656423
 20
9.895061
 30
0.0
 11
43.656423
 21
8.185369
 31
0.0
1001
ACAD
1000
ASC_BOUNDS
1002
{
1070
    19
1002
}
  0
LINE
  5
C8D6
100
AcDbEntity
  8
0
100
AcDbLine
 10
42.453207
 20
11.742481
 30
0.0
 11
42.754011
 21
11.742481
 31
0.0
1001
ACAD
1000
ASC_BOUNDS
1002
{
1070
    19
1002
}
  0
ELLIPSE
  5
C8D7
100
AcDbEntity
  8
0
100
AcDbEllipse
 10
43.656423
 20
11.742481
 30
0.0
 11
-1.203215696869327
 21
0.0000000000001967
 31
0.0
210
0.0
220
0.0
230
1.0
 40
0.958812
 41
-1.570796326794739
 42
0.0000000000001705
1001
ACAD
1000
ASC_BOUNDS
1002
{
1070
    19
1002
}
  0
LINE
  5
C8D8
100
AcDbEntity
  8
0
100
AcDbLine
 10
43.656423
 20
11.742481
 30
0.0
 11
42.754011
 21
11.742481
 31
0.0
1001
ACAD
1000
ASC_BOUNDS
1002
{
1070
    19
1002
}
  0
ARC
  5
C8D9
100
AcDbEntity
  8
0
100
AcDbCircle
 10
54.188491
 20
14.361264
 30
0.0
 40
0.3375
100
AcDbArc
 50
360.0
 51
180.0
  0
ARC
  5
C8DA
100
AcDbEntity
  8
0
100
AcDbCircle
 10
54.75765
 20
14.34127
 30
0.0
 40
1.377457
100
AcDbArc
 50
16.265061
 51
130.527299
  0
LINE
  5
C8DB
100
AcDbEntity
  8
0
100
AcDbLine
 10
52.320449
 20
15.60367
 30
0.0
 11
53.862564
 21
15.60367
 31
0.0
1001
ACAD
1000
ASC_BOUNDS
1002
{
1070
    19
1002
}
  0
LINE
  5
C8DC
100
AcDbEntity
  8
0
100
AcDbLine
 10
53.862564
 20
15.60367
 30
0.0
 11
53.862564
 21
15.38827
 31
0.0
  0
ELLIPSE
  5
C8DD
100
AcDbEntity
  8
0
100
AcDbEllipse
 10
48.77009
 20
16.260974
 30
0.0
 11
-0.8021437979128705
 21
0.000000000000038
 31
0.0
210
0.0
220
0.0
230
1.0
 40
0.958812
 41
3.141592653589842
 42
4.712388980384734
1001
ACAD
1000
ASC_BOUNDS
1002
{
1070
    19
1002
}
  0
LINE
  5
C8DE
100
AcDbEntity
  8
0
100
AcDbLine
 10
49.572234
 20
15.155385
 30
0.0
 11
49.572234
 21
16.260974
 31
0.0
1001
ACAD
1000
ASC_BOUNDS
1002
{
1070
    19
1002
}
  0
ELLIPSE
  5
C8DF
100
AcDbEntity
  8
0
100
AcDbEllipse
 10
49.572234
 20
12.896138
 30
0.0
 11
1.203215696869352
 21
0.0000000000000893
 31
0.0
210
0.0
220
0.0
230
1.0
 40
0.958812
 41
4.712388980384611
 42
6.283185307179508
1001
ACAD
1000
ASC_BOUNDS
1002
{
1070
    19
1002
}
  0
LINE
  5
C8E0
100
AcDbEntity
  8
0
100
AcDbLine
 10
49.572234
 20
12.896138
 30
0.0
 11
50.474645
 21
12.896138
 31
0.0
1001
ACAD
1000
ASC_BOUNDS
1002
{
1070
    19
1002
}
  0
LINE
  5
C8E1
100
AcDbEntity
  8
0
100
AcDbLine
 10
50.775449
 20
12.896138
 30
0.0
 11
50.474645
 21
12.896138
 31
0.0
1001
ACAD
1000
ASC_BOUNDS
1002
{
1070
    19
1002
}
  0
ELLIPSE
  5
C8E2
100
AcDbEntity
  8
0
100
AcDbEllipse
 10
46.546085
 20
15.509539
 30
0.0
 11
-4.072692107280919
 21
0.0000000000000925
 31
0.0
210
0.0
220
0.0
230
1.0
 40
0.958812
 41
1.587553347046634
 42
2.408388587343224
1001
ACAD
1000
ASC_BOUNDS
1002
{
1070
    19
1002
}
  0
ELLIPSE
  5
C8E3
100
AcDbEntity
  8
0
100
AcDbEllipse
 10
46.589261
 20
15.17942
 30
0.0
 11
2.983077570132104
 21
0.0000000000002996
 31
0.0
210
0.0
220
0.0
230
1.0
 40
0.958812
 41
-1.562393163247347
 42
0.0084031635475457
1001
ACAD
1000
ASC_BOUNDS
1002
{
1070
    19
1002
}
  0
LINE
  5
C8E4
100
AcDbEntity
  8
0
100
AcDbLine
 10
52.320449
 20
9.015264
 30
0.0
 11
53.862564
 21
9.015264
 31
0.0
1001
ACAD
1000
ASC_BOUNDS
1002
{
1070
    19
1002
}
  0
LINE
  5
C8E5
100
AcDbEntity
  8
0
100
AcDbLine
 10
53.850992
 20
9.015264
 30
0.0
 11
53.862564
 21
9.022759
 31
0.0
  0
ELLIPSE
  5
C8E6
100
AcDbEntity
  8
0
100
AcDbEllipse
 10
48.77009
 20
8.185369
 30
0.0
 11
0.8021437979128704
 21
0.0000000000001602
 31
0.0
210
0.0
220
0.0
230
1.0
 40
0.958812
 41
4.712388980384497
 42
6.283185307179378
1001
ACAD
1000
ASC_BOUNDS
1002
{
1070
    19
1002
}
  0
LINE
  5
C8E7
100
AcDbEntity
  8
0
100
AcDbLine
 10
49.572234
 20
8.185369
 30
0.0
 11
49.572234
 21
11.742481
 31
0.0
1001
ACAD
1000
ASC_BOUNDS
1002
{
1070
    19
1002
}
  0
LINE
  5
C8E8
100
AcDbEntity
  8
0
100
AcDbLine
 10
52.320449
 20
9.015264
 30
0.0
 11
52.320449
 21
15.60367
 31
0.0
1001
ACAD
1000
ASC_BOUNDS
1002
{
1070
    19
1002
}
  0
LINE
  5
C8E9
100
AcDbEntity
  8
0
100
AcDbLine
 10
53.850991
 20
14.361264
 30
0.0
 11
53.862564
 21
9.015264
 31
0.0
  0
LINE
  5
C8EA
100
AcDbEntity
  8
0
100
AcDbLine
 10
61.107976
 20
17.211264
 30
0.0
 11
62.652976
 21
17.211264
 31
0.0
  0
LINE
  5
C8EB
100
AcDbEntity
  8
0
100
AcDbLine
 10
60.420976
 20
11.81167
 30
0.0
 11
60.420976
 21
14.41447
 31
0.0
  0
LINE
  5
C8EC
100
AcDbEntity
  8
0
100
AcDbLine
 10
60.420976
 20
11.13667
 30
0.0
 11
60.420976
 21
10.236264
 31
0.0
  0
LINE
  5
C8ED
100
AcDbEntity
  8
0
100
AcDbLine
 10
58.153232
 20
15.60367
 30
0.0
 11
59.007976
 21
15.60367
 31
0.0
  0
LINE
  5
C8EE
100
AcDbEntity
  8
0
100
AcDbLine
 10
56.754976
 20
10.236264
 30
0.0
 11
56.754976
 21
14.41447
 31
0.0
  0
LINE
  5
C8EF
100
AcDbEntity
  8
0
100
AcDbLine
 10
56.079976
 20
12.93607
 30
0.0
 11
56.079976
 21
14.72707
 31
0.0
1001
ACAD
1000
ASC_BOUNDS
1002
{
1070
    19
1002
}
  0
LINE
  5
C8F0
100
AcDbEntity
  8
0
100
AcDbLine
 10
58.296976
 20
14.361264
 30
0.0
 11
58.296976
 21
12.71167
 31
0.0
  0
LINE
  5
C8F1
100
AcDbEntity
  8
0
100
AcDbLine
 10
58.971976
 20
14.361264
 30
0.0
 11
58.971976
 21
12.71167
 31
0.0
  0
ARC
  5
C8F2
100
AcDbEntity
  8
0
100
AcDbCircle
 10
58.634476
 20
10.252764
 30
0.0
 40
0.3375
100
AcDbArc
 50
180.0
 51
0.0
  0
LINE
  5
C8F3
100
AcDbEntity
  8
0
100
AcDbLine
 10
58.296976
 20
11.81167
 30
0.0
 11
58.296976
 21
10.252764
 31
0.0
  0
LINE
  5
C8F4
100
AcDbEntity
  8
0
100
AcDbLine
 10
58.971976
 20
11.13667
 30
0.0
 11
58.971976
 21
10.252764
 31
0.0
  0
LINE
  5
C8F5
100
AcDbEntity
  8
0
100
AcDbLine
 10
58.296976
 20
12.71167
 30
0.0
 11
58.971976
 21
12.71167
 31
0.0
  0
LINE
  5
C8F6
100
AcDbEntity
  8
0
100
AcDbLine
 10
58.296976
 20
11.81167
 30
0.0
 11
58.296976
 21
10.236264
 31
0.0
  0
ARC
  5
C8F7
100
AcDbEntity
  8
0
100
AcDbCircle
 10
58.634476
 20
14.361264
 30
0.0
 40
0.3375
100
AcDbArc
 50
360.0
 51
180.0
  0
LINE
  5
C8F8
100
AcDbEntity
  8
0
100
AcDbLine
 10
54.525991
 20
14.361264
 30
0.0
 11
54.537564
 21
12.93607
 31
0.0
  0
LINE
  5
C8F9
100
AcDbEntity
  8
0
100
AcDbLine
 10
54.537564
 20
12.93607
 30
0.0
 11
56.079976
 21
12.93607
 31
0.0
  0
LINE
  5
C8FA
100
AcDbEntity
  8
0
100
AcDbLine
 10
54.869903
 20
12.93607
 30
0.0
 11
56.079976
 21
12.93607
 31
0.0
  0
ARC
  5
C8FB
100
AcDbEntity
  8
0
100
AcDbCircle
 10
58.160604
 20
14.17837
 30
0.0
 40
1.425319
100
AcDbArc
 50
89.703671
 51
170.465171
  0
LINE
  5
C8FC
100
AcDbEntity
  8
0
100
AcDbLine
 10
58.971976
 20
11.13667
 30
0.0
 11
60.420976
 21
11.13667
 31
0.0
  0
LINE
  5
C8FD
100
AcDbEntity
  8
0
100
AcDbLine
 10
60.420976
 20
11.81167
 30
0.0
 11
58.296976
 21
11.81167
 31
0.0
  0
ARC
  5
C8FE
100
AcDbEntity
  8
0
100
AcDbCircle
 10
59.015347
 20
14.17837
 30
0.0
 40
1.425319
100
AcDbArc
 50
9.534829
 51
90.296329
  0
LINE
  5
C8FF
100
AcDbEntity
  8
0
100
AcDbLine
 10
62.652976
 20
9.015264
 30
0.0
 11
61.107976
 21
9.015264
 31
0.0
  0
LINE
  5
C900
100
AcDbEntity
  8
0
100
AcDbLine
 10
58.153232
 20
9.047064
 30
0.0
 11
59.007976
 21
9.047064
 31
0.0
  0
LINE
  5
C901
100
AcDbEntity
  8
0
100
AcDbLine
 10
62.652976
 20
17.211264
 30
0.0
 11
62.652976
 21
9.015264
 31
0.0
  0
LINE
  5
C902
100
AcDbEntity
  8
0
100
AcDbLine
 10
61.107976
 20
9.015264
 30
0.0
 11
61.107976
 21
17.211264
 31
0.0
  0
ARC
  5
C903
100
AcDbEntity
  8
0
100
AcDbCircle
 10
58.160604
 20
10.472364
 30
0.0
 40
1.425319
100
AcDbArc
 50
189.534829
 51
270.296329
  0
ARC
  5
C904
100
AcDbEntity
  8
0
100
AcDbCircle
 10
59.015347
 20
10.472364
 30
0.0
 40
1.425319
100
AcDbArc
 50
269.703671
 51
350.465171
  0
LINE
  5
C905
100
AcDbEntity
  8
WYMIARY
 62
     4
100
AcDbLine
 10
61.17735
 20
51.567671
 30
0.0
 11
61.17735
 21
49.012243
 31
0.0
  0
LINE
  5
C906
100
AcDbEntity
  8
WYMIARY
 62
     4
100
AcDbLine
 10
58.426582
 20
49.012243
 30
0.0
 11
61.17735
 21
49.012243
 31
0.0
  0
LINE
  5
C907
100
AcDbEntity
  8
WYMIARY
 62
     3
100
AcDbLine
 10
58.426582
 20
48.512243
 30
0.0
 11
58.426582
 21
45.262243
 31
0.0
  0
LINE
  5
C908
100
AcDbEntity
  8
WYMIARY
 62
     3
100
AcDbLine
 10
58.426582
 20
54.762243
 30
0.0
 11
58.426582
 21
60.962243
 31
0.0
  0
LINE
  5
C909
100
AcDbEntity
  8
WYMIARY
 62
     4
100
AcDbLine
 10
60.948715
 20
55.853719
 30
0.0
 11
61.68118
 21
55.311744
 31
0.0
  0
LINE
  5
C90A
100
AcDbEntity
  8
WYMIARY
 62
     4
100
AcDbLine
 10
60.948715
 20
55.853719
 30
0.0
 11
62.190579
 21
57.615547
 31
0.0
  0
LINE
  5
C90B
100
AcDbEntity
  8
WYMIARY
 62
     4
100
AcDbLine
 10
60.960921
 20
59.596787
 30
0.0
 11
62.715398
 21
58.360104
 31
0.0
  0
LINE
  5
C90C
100
AcDbEntity
  8
WYMIARY
 62
     4
100
AcDbLine
 10
60.424691
 20
58.860274
 30
0.0
 11
62.190579
 21
57.615547
 31
0.0
  0
LINE
  5
C90D
100
AcDbEntity
  8
WYMIARY
 62
     4
100
AcDbLine
 10
60.424691
 20
58.860274
 30
0.0
 11
60.960921
 21
59.596787
 31
0.0
  0
TEXT
  5
C90E
100
AcDbEntity
  8
1
 62
     4
100
AcDbText
 10
59.63076
 20
61.447781
 30
0.0
 40
2.0
  1
2
 41
0.75
  7
ITALIC
100
AcDbText
  0
ARC
  5
C90F
100
AcDbEntity
  8
0
100
AcDbCircle
 10
70.168137
 20
14.124104
 30
0.0
 40
1.488419
100
AcDbArc
 50
11.634268
 51
90.699113
  0
ARC
  5
C910
100
AcDbEntity
  8
0
100
AcDbCircle
 10
70.168137
 20
10.503572
 30
0.0
 40
1.488419
100
AcDbArc
 50
269.300887
 51
348.365732
  0
LINE
  5
C911
100
AcDbEntity
  8
0
100
AcDbLine
 10
69.219976
 20
15.612412
 30
0.0
 11
70.149976
 21
15.612412
 31
0.0
  0
LINE
  5
C912
100
AcDbEntity
  8
0
100
AcDbLine
 10
67.743976
 20
10.203412
 30
0.0
 11
67.743976
 21
14.424264
 31
0.0
  0
LINE
  5
C913
100
AcDbEntity
  8
0
100
AcDbLine
 10
70.022476
 20
14.361264
 30
0.0
 11
70.022476
 21
10.252764
 31
0.0
  0
LINE
  5
C914
100
AcDbEntity
  8
0
100
AcDbLine
 10
69.347476
 20
14.361264
 30
0.0
 11
69.347476
 21
10.252764
 31
0.0
  0
ARC
  5
C915
100
AcDbEntity
  8
0
100
AcDbCircle
 10
69.684976
 20
10.252764
 30
0.0
 40
0.3375
100
AcDbArc
 50
180.0
 51
0.0
  0
ARC
  5
C916
100
AcDbEntity
  8
0
100
AcDbCircle
 10
69.684976
 20
14.361264
 30
0.0
 40
0.3375
100
AcDbArc
 50
360.0
 51
180.0
  0
LINE
  5
C917
100
AcDbEntity
  8
0
100
AcDbLine
 10
64.851976
 20
15.612264
 30
0.0
 11
64.851976
 21
15.324264
 31
0.0
  0
LINE
  5
C918
100
AcDbEntity
  8
0
100
AcDbLine
 10
63.306976
 20
15.612264
 30
0.0
 11
64.851976
 21
15.612264
 31
0.0
  0
ARC
  5
C919
100
AcDbEntity
  8
0
100
AcDbCircle
 10
65.189476
 20
14.361264
 30
0.0
 40
0.3375
100
AcDbArc
 50
360.0
 51
180.0
  0
ARC
  5
C91A
100
AcDbEntity
  8
0
100
AcDbCircle
 10
65.189476
 20
10.252764
 30
0.0
 40
0.3375
100
AcDbArc
 50
180.0
 51
0.0
  0
LINE
  5
C91B
100
AcDbEntity
  8
0
100
AcDbLine
 10
64.851976
 20
14.361264
 30
0.0
 11
64.851976
 21
10.252764
 31
0.0
  0
LINE
  5
C91C
100
AcDbEntity
  8
0
100
AcDbLine
 10
65.526976
 20
14.361264
 30
0.0
 11
65.526976
 21
10.252764
 31
0.0
  0
LINE
  5
C91D
100
AcDbEntity
  8
0
100
AcDbLine
 10
67.068976
 20
14.583264
 30
0.0
 11
67.068976
 21
10.179264
 31
0.0
  0
ARC
  5
C91E
100
AcDbEntity
  8
0
100
AcDbCircle
 10
65.711003
 20
14.207365
 30
0.0
 40
1.409039
100
AcDbArc
 50
15.47255
 51
127.56454
  0
ARC
  5
C91F
100
AcDbEntity
  8
0
100
AcDbCircle
 10
69.201815
 20
14.124104
 30
0.0
 40
1.488419
100
AcDbArc
 50
89.300887
 51
168.365732
  0
LINE
  5
C920
100
AcDbEntity
  8
0
100
AcDbLine
 10
69.219976
 20
9.015264
 30
0.0
 11
70.149976
 21
9.015264
 31
0.0
  0
LINE
  5
C921
100
AcDbEntity
  8
0
100
AcDbLine
 10
65.535022
 20
9.015264
 30
0.0
 11
66.072976
 21
9.015264
 31
0.0
  0
LINE
  5
C922
100
AcDbEntity
  8
0
100
AcDbLine
 10
64.851976
 20
7.416264
 30
0.0
 11
63.306976
 21
7.416264
 31
0.0
  0
ARC
  5
C923
100
AcDbEntity
  8
0
100
AcDbCircle
 10
69.201815
 20
10.503572
 30
0.0
 40
1.488419
100
AcDbArc
 50
191.634268
 51
270.699113
  0
ARC
  5
C924
100
AcDbEntity
  8
0
100
AcDbCircle
 10
65.940882
 20
10.136416
 30
0.0
 40
1.128907
100
AcDbArc
 50
276.719576
 51
2.175194
  0
LINE
  5
C925
100
AcDbEntity
  8
0
100
AcDbLine
 10
63.306976
 20
7.416264
 30
0.0
 11
63.306976
 21
15.612264
 31
0.0
  0
ARC
  5
C926
100
AcDbEntity
  8
0
100
AcDbCircle
 10
65.501556
 20
9.724764
 30
0.0
 40
0.709955
100
AcDbArc
 50
203.80008
 51
272.051918
  0
LINE
  5
C927
100
AcDbEntity
  8
0
100
AcDbLine
 10
64.851976
 20
9.438264
 30
0.0
 11
64.851976
 21
7.416264
 31
0.0
  0
LINE
  5
C928
100
AcDbEntity
  8
0
100
AcDbLine
 10
72.300976
 20
17.211264
 30
0.0
 11
73.845976
 21
17.211264
 31
0.0
  0
LINE
  5
C929
100
AcDbEntity
  8
0
100
AcDbLine
 10
71.625976
 20
14.424264
 30
0.0
 11
71.625976
 21
10.203412
 31
0.0
  0
LINE
  5
C92A
100
AcDbEntity
  8
0
100
AcDbLine
 10
73.845976
 20
9.015264
 30
0.0
 11
72.300976
 21
9.015264
 31
0.0
  0
LINE
  5
C92B
100
AcDbEntity
  8
1
100
AcDbLine
 10
77.428619
 20
5.0
 30
0.0
 11
77.428619
 21
19.689837
 31
0.0
  0
LINE
  5
C92C
100
AcDbEntity
  8
0
100
AcDbLine
 10
72.300976
 20
9.015264
 30
0.0
 11
72.300976
 21
17.211264
 31
0.0
  0
LINE
  5
C92D
100
AcDbEntity
  8
0
100
AcDbLine
 10
73.845976
 20
17.211264
 30
0.0
 11
73.845976
 21
9.015264
 31
0.0
  0
TEXT
  5
C92E
100
AcDbEntity
  8
WY
100
AcDbText
 10
82.807532
 20
16.149239
 30
0.0
 40
2.0
  1
Data
 51
15.0
  7
ITALIC
100
AcDbText
  0
LINE
  5
C92F
100
AcDbEntity
  8
WYMIARY
 62
     4
100
AcDbLine
 10
78.460921
 20
59.596787
 30
0.0
 11
80.215398
 21
58.360104
 31
0.0
  0
LINE
  5
C930
100
AcDbEntity
  8
WYMIARY
 62
     4
100
AcDbLine
 10
79.18118
 20
55.311744
 30
0.0
 11
80.435137
 21
57.090728
 31
0.0
  0
LINE
  5
C931
100
AcDbEntity
  8
WYMIARY
 62
     3
100
AcDbLine
 10
68.226582
 20
48.512243
 30
0.0
 11
93.426582
 21
48.512243
 31
0.0
  0
CIRCLE
  5
C932
100
AcDbEntity
  8
WYMIARY
 62
     4
100
AcDbCircle
 10
80.301582
 20
57.862243
 30
0.0
 40
3.1
  0
LINE
  5
C933
100
AcDbEntity
  8
WYMIARY
 62
     4
100
AcDbLine
 10
66.173565
 20
49.012243
 30
0.0
 11
66.173565
 21
54.762243
 31
0.0
  0
LINE
  5
C934
100
AcDbEntity
  8
WYMIARY
 62
     4
100
AcDbLine
 10
65.173565
 20
51.402429
 30
0.0
 11
65.173565
 21
49.012243
 31
0.0
  0
LINE
  5
C935
100
AcDbEntity
  8
WYMIARY
 62
     4
100
AcDbLine
 10
65.173565
 20
49.012243
 30
0.0
 11
66.173565
 21
49.012243
 31
0.0
  0
LINE
  5
C936
100
AcDbEntity
  8
WYMIARY
 62
     4
100
AcDbLine
 10
65.173565
 20
49.012243
 30
0.0
 11
66.173565
 21
49.012243
 31
0.0
  0
LINE
  5
C937
100
AcDbEntity
  8
WYMIARY
 62
     3
100
AcDbLine
 10
68.226582
 20
45.262243
 30
0.0
 11
68.226582
 21
48.512243
 31
0.0
  0
LINE
  5
C938
100
AcDbEntity
  8
WYMIARY
 62
     4
100
AcDbLine
 10
71.465398
 20
58.360104
 30
0.0
 11
72.760467
 21
60.197413
 31
0.0
  0
LINE
  5
C939
100
AcDbEntity
  8
WYMIARY
 62
     4
100
AcDbLine
 10
70.43118
 20
55.311744
 30
0.0
 11
71.685137
 21
57.090728
 31
0.0
  0
CIRCLE
  5
C93A
100
AcDbEntity
  8
WYMIARY
 62
     4
100
AcDbCircle
 10
71.551582
 20
57.862243
 30
0.0
 40
3.1
  0
LINE
  5
C93B
100
AcDbEntity
  8
WYMIARY
 62
     4
100
AcDbLine
 10
69.174691
 20
58.860274
 30
0.0
 11
69.710921
 21
59.596787
 31
0.0
  0
LINE
  5
C93C
100
AcDbEntity
  8
WYMIARY
 62
     4
100
AcDbLine
 10
69.174691
 20
58.860274
 30
0.0
 11
70.940579
 21
57.615547
 31
0.0
  0
LINE
  5
C93D
100
AcDbEntity
  8
WYMIARY
 62
     4
100
AcDbLine
 10
69.710921
 20
59.596787
 30
0.0
 11
71.465398
 21
58.360104
 31
0.0
  0
LINE
  5
C93E
100
AcDbEntity
  8
WYMIARY
 62
     4
100
AcDbLine
 10
69.698715
 20
55.853719
 30
0.0
 11
70.940579
 21
57.615547
 31
0.0
  0
LINE
  5
C93F
100
AcDbEntity
  8
WYMIARY
 62
     4
100
AcDbLine
 10
69.698715
 20
55.853719
 30
0.0
 11
70.43118
 21
55.311744
 31
0.0
  0
LINE
  5
C940
100
AcDbEntity
  8
WYMIARY
 62
     4
100
AcDbLine
 10
64.673494
 20
55.865408
 30
0.0
 11
65.246217
 21
56.576199
 31
0.0
  0
TEXT
  5
C941
100
AcDbEntity
  8
1
 62
     4
100
AcDbText
 10
68.38076
 20
61.447781
 30
0.0
 40
2.0
  1
4
 41
0.75
  7
ITALIC
100
AcDbText
  0
LINE
  5
C942
100
AcDbEntity
  8
WYMIARY
 62
     4
100
AcDbLine
 10
64.010467
 20
60.197413
 30
0.0
 11
64.76893
 21
59.692322
 31
0.0
  0
LINE
  5
C943
100
AcDbEntity
  8
WYMIARY
 62
     4
100
AcDbLine
 10
63.459956
 20
57.835286
 30
0.0
 11
64.76893
 21
59.692322
 31
0.0
  0
LINE
  5
C944
100
AcDbEntity
  8
WYMIARY
 62
     4
100
AcDbLine
 10
63.459956
 20
57.835286
 30
0.0
 11
65.246217
 21
56.576199
 31
0.0
  0
LINE
  5
C945
100
AcDbEntity
  8
WYMIARY
 62
     4
100
AcDbLine
 10
62.935137
 20
57.090728
 30
0.0
 11
64.673494
 21
55.865408
 31
0.0
  0
LINE
  5
C946
100
AcDbEntity
  8
WYMIARY
 62
     4
100
AcDbLine
 10
77.924691
 20
58.860274
 30
0.0
 11
78.460921
 21
59.596787
 31
0.0
  0
LINE
  5
C947
100
AcDbEntity
  8
WYMIARY
 62
     4
100
AcDbLine
 10
77.924691
 20
58.860274
 30
0.0
 11
79.690579
 21
57.615547
 31
0.0
  0
LINE
  5
C948
100
AcDbEntity
  8
WYMIARY
 62
     4
100
AcDbLine
 10
78.448715
 20
55.853719
 30
0.0
 11
79.690579
 21
57.615547
 31
0.0
  0
LINE
  5
C949
100
AcDbEntity
  8
WYMIARY
 62
     4
100
AcDbLine
 10
78.448715
 20
55.853719
 30
0.0
 11
79.18118
 21
55.311744
 31
0.0
  0
LINE
  5
C94A
100
AcDbEntity
  8
WYMIARY
 62
     4
100
AcDbLine
 10
73.423494
 20
55.865408
 30
0.0
 11
73.996217
 21
56.576199
 31
0.0
  0
TEXT
  5
C94B
100
AcDbEntity
  8
1
 62
     4
100
AcDbText
 10
77.13076
 20
61.447781
 30
0.0
 40
2.0
  1
6
 41
0.75
  7
ITALIC
100
AcDbText
  0
LINE
  5
C94C
100
AcDbEntity
  8
WYMIARY
 62
     4
100
AcDbLine
 10
71.685137
 20
57.090728
 30
0.0
 11
73.423494
 21
55.865408
 31
0.0
  0
LINE
  5
C94D
100
AcDbEntity
  8
WYMIARY
 62
     4
100
AcDbLine
 10
72.209956
 20
57.835286
 30
0.0
 11
73.996217
 21
56.576199
 31
0.0
  0
LINE
  5
C94E
100
AcDbEntity
  8
WYMIARY
 62
     4
100
AcDbLine
 10
72.209956
 20
57.835286
 30
0.0
 11
73.51893
 21
59.692322
 31
0.0
  0
LINE
  5
C94F
100
AcDbEntity
  8
WYMIARY
 62
     4
100
AcDbLine
 10
72.760467
 20
60.197413
 30
0.0
 11
73.51893
 21
59.692322
 31
0.0
  0
LINE
  5
C950
100
AcDbEntity
  8
WYMIARY
 62
     4
100
AcDbLine
 10
87.210921
 20
59.596787
 30
0.0
 11
88.965398
 21
58.360104
 31
0.0
  0
LINE
  5
C951
100
AcDbEntity
  8
WYMIARY
 62
     4
100
AcDbLine
 10
87.93118
 20
55.311744
 30
0.0
 11
89.185137
 21
57.090728
 31
0.0
  0
CIRCLE
  5
C952
100
AcDbEntity
  8
WYMIARY
 62
     4
100
AcDbCircle
 10
89.051582
 20
57.862243
 30
0.0
 40
3.1
  0
LINE
  5
C953
100
AcDbEntity
  8
WYMIARY
 62
     4
100
AcDbLine
 10
86.674691
 20
58.860274
 30
0.0
 11
87.210921
 21
59.596787
 31
0.0
  0
LINE
  5
C954
100
AcDbEntity
  8
WYMIARY
 62
     4
100
AcDbLine
 10
86.674691
 20
58.860274
 30
0.0
 11
88.440579
 21
57.615547
 31
0.0
  0
LINE
  5
C955
100
AcDbEntity
  8
WYMIARY
 62
     4
100
AcDbLine
 10
87.198715
 20
55.853719
 30
0.0
 11
88.440579
 21
57.615547
 31
0.0
  0
LINE
  5
C956
100
AcDbEntity
  8
WYMIARY
 62
     4
100
AcDbLine
 10
87.198715
 20
55.853719
 30
0.0
 11
87.93118
 21
55.311744
 31
0.0
  0
LINE
  5
C957
100
AcDbEntity
  8
WYMIARY
 62
     4
100
AcDbLine
 10
82.173494
 20
55.865408
 30
0.0
 11
82.746217
 21
56.576199
 31
0.0
  0
TEXT
  5
C958
100
AcDbEntity
  8
1
 62
     4
100
AcDbText
 10
85.88076
 20
61.447781
 30
0.0
 40
2.0
  1
14
 41
0.75
  7
ITALIC
100
AcDbText
  0
LINE
  5
C959
100
AcDbEntity
  8
WYMIARY
 62
     4
100
AcDbLine
 10
80.215398
 20
58.360104
 30
0.0
 11
81.510467
 21
60.197413
 31
0.0
  0
LINE
  5
C95A
100
AcDbEntity
  8
WYMIARY
 62
     4
100
AcDbLine
 10
80.435137
 20
57.090728
 30
0.0
 11
82.173494
 21
55.865408
 31
0.0
  0
LINE
  5
C95B
100
AcDbEntity
  8
WYMIARY
 62
     4
100
AcDbLine
 10
80.959956
 20
57.835286
 30
0.0
 11
82.746217
 21
56.576199
 31
0.0
  0
LINE
  5
C95C
100
AcDbEntity
  8
WYMIARY
 62
     4
100
AcDbLine
 10
80.959956
 20
57.835286
 30
0.0
 11
82.26893
 21
59.692322
 31
0.0
  0
LINE
  5
C95D
100
AcDbEntity
  8
WYMIARY
 62
     4
100
AcDbLine
 10
81.510467
 20
60.197413
 30
0.0
 11
82.26893
 21
59.692322
 31
0.0
  0
LINE
  5
C95E
100
AcDbEntity
  8
WYMIARY
 62
     4
100
AcDbLine
 10
90.923494
 20
55.865408
 30
0.0
 11
91.496217
 21
56.576199
 31
0.0
  0
LINE
  5
C95F
100
AcDbEntity
  8
WYMIARY
 62
     4
100
AcDbLine
 10
88.965398
 20
58.360104
 30
0.0
 11
90.260467
 21
60.197413
 31
0.0
  0
LINE
  5
C960
100
AcDbEntity
  8
WYMIARY
 62
     4
100
AcDbLine
 10
89.185137
 20
57.090728
 30
0.0
 11
90.923494
 21
55.865408
 31
0.0
  0
LINE
  5
C961
100
AcDbEntity
  8
WYMIARY
 62
     4
100
AcDbLine
 10
89.709956
 20
57.835286
 30
0.0
 11
91.496217
 21
56.576199
 31
0.0
  0
LINE
  5
C962
100
AcDbEntity
  8
WYMIARY
 62
     4
100
AcDbLine
 10
89.709956
 20
57.835286
 30
0.0
 11
91.01893
 21
59.692322
 31
0.0
  0
LINE
  5
C963
100
AcDbEntity
  8
WYMIARY
 62
     4
100
AcDbLine
 10
90.260467
 20
60.197413
 30
0.0
 11
91.01893
 21
59.692322
 31
0.0
  0
LINE
  5
C964
100
AcDbEntity
  8
WYMIARY
 62
     3
100
AcDbLine
 10
58.426582
 20
104.512243
 30
0.0
 11
63.176582
 21
104.512243
 31
0.0
  0
LINE
  5
C965
100
AcDbEntity
  8
WYMIARY
 62
     4
100
AcDbLine
 10
61.68118
 20
92.611744
 30
0.0
 11
62.935137
 21
94.390728
 31
0.0
  0
LINE
  5
C966
100
AcDbEntity
  8
WYMIARY
 62
     4
100
AcDbLine
 10
62.715398
 20
95.660104
 30
0.0
 11
64.010467
 21
97.497413
 31
0.0
  0
ARC
  5
C967
100
AcDbEntity
  8
WYMIARY
 62
     4
100
AcDbCircle
 10
63.176582
 20
101.512243
 30
0.0
 40
2.0
100
AcDbArc
 50
174.334226
 51
9.119732
  0
LINE
  5
C968
100
AcDbEntity
  8
WYMIARY
 62
     3
100
AcDbLine
 10
58.426582
 20
98.262243
 30
0.0
 11
93.426582
 21
98.262243
 31
0.0
  0
LINE
  5
C969
100
AcDbEntity
  8
WYMIARY
 62
     3
100
AcDbLine
 10
58.426582
 20
104.512243
 30
0.0
 11
83.626582
 21
104.512243
 31
0.0
  0
CIRCLE
  5
C96A
100
AcDbEntity
  8
WYMIARY
 62
     4
100
AcDbCircle
 10
62.801582
 20
95.162243
 30
0.0
 40
3.1
  0
LINE
  5
C96B
100
AcDbEntity
  8
WYMIARY
 62
     3
100
AcDbLine
 10
58.426582
 20
76.512243
 30
0.0
 11
58.426582
 21
104.012243
 31
0.0
  0
LINE
  5
C96C
100
AcDbEntity
  8
WYMIARY
 62
     3
100
AcDbLine
 10
58.426582
 20
76.512243
 30
0.0
 11
58.426582
 21
101.512243
 31
0.0
  0
LINE
  5
C96D
100
AcDbEntity
  8
WYMIARY
 62
     3
100
AcDbLine
 10
58.426582
 20
76.512243
 30
0.0
 11
58.426582
 21
98.262243
 31
0.0
  0
LINE
  5
C96E
100
AcDbEntity
  8
WYMIARY
 62
     4
100
AcDbLine
 10
58.426582
 20
104.012243
 30
0.0
 11
61.186352
 21
104.012243
 31
0.0
  0
LINE
  5
C96F
100
AcDbEntity
  8
WYMIARY
 62
     4
100
AcDbLine
 10
61.186352
 20
101.709693
 30
0.0
 11
61.186352
 21
104.012243
 31
0.0
  0
LINE
  5
C970
100
AcDbEntity
  8
WYMIARY
 62
     4
100
AcDbLine
 10
60.424691
 20
96.160274
 30
0.0
 11
62.190579
 21
94.915547
 31
0.0
  0
LINE
  5
C971
100
AcDbEntity
  8
WYMIARY
 62
     4
100
AcDbLine
 10
60.960921
 20
96.896787
 30
0.0
 11
62.715398
 21
95.660104
 31
0.0
  0
LINE
  5
C972
100
AcDbEntity
  8
WYMIARY
 62
     4
100
AcDbLine
 10
60.948715
 20
93.153719
 30
0.0
 11
62.190579
 21
94.915547
 31
0.0
  0
LINE
  5
C973
100
AcDbEntity
  8
WYMIARY
 62
     4
100
AcDbLine
 10
60.424691
 20
96.160274
 30
0.0
 11
60.960921
 21
96.896787
 31
0.0
  0
LINE
  5
C974
100
AcDbEntity
  8
WYMIARY
 62
     4
100
AcDbLine
 10
60.948715
 20
93.153719
 30
0.0
 11
61.68118
 21
92.611744
 31
0.0
  0
TEXT
  5
C975
100
AcDbEntity
  8
1
 62
     4
100
AcDbText
 10
60.195302
 20
89.871815
 30
0.0
 40
2.0
  1
1
 41
0.75
  7
ITALIC
100
AcDbText
  0
LINE
  5
C976
100
AcDbEntity
  8
WYMIARY
 62
     3
100
AcDbLine
 10
93.426582
 20
104.512243
 30
0.0
 11
93.426582
 21
107.762243
 31
0.0
  0
LINE
  5
C977
100
AcDbEntity
  8
WYMIARY
 62
     3
100
AcDbLine
 10
83.626582
 20
107.762243
 30
0.0
 11
83.626582
 21
104.512243
 31
0.0
  0
LINE
  5
C978
100
AcDbEntity
  8
WYMIARY
 62
     4
100
AcDbLine
 10
79.18118
 20
92.611744
 30
0.0
 11
80.435137
 21
94.390728
 31
0.0
  0
LINE
  5
C979
100
AcDbEntity
  8
WYMIARY
 62
     4
100
AcDbLine
 10
78.460921
 20
96.896787
 30
0.0
 11
80.215398
 21
95.660104
 31
0.0
  0
CIRCLE
  5
C97A
100
AcDbEntity
  8
WYMIARY
 62
     4
100
AcDbCircle
 10
80.301582
 20
95.162243
 30
0.0
 40
3.1
  0
LINE
  5
C97B
100
AcDbEntity
  8
WYMIARY
 62
     4
100
AcDbLine
 10
70.43118
 20
92.611744
 30
0.0
 11
71.685137
 21
94.390728
 31
0.0
  0
LINE
  5
C97C
100
AcDbEntity
  8
WYMIARY
 62
     4
100
AcDbLine
 10
71.465398
 20
95.660104
 30
0.0
 11
72.760467
 21
97.497413
 31
0.0
  0
CIRCLE
  5
C97D
100
AcDbEntity
  8
WYMIARY
 62
     4
100
AcDbCircle
 10
71.551582
 20
95.162243
 30
0.0
 40
3.1
  0
LINE
  5
C97E
100
AcDbEntity
  8
WYMIARY
 62
     4
100
AcDbLine
 10
66.1513
 20
104.012243
 30
0.0
 11
66.1513
 21
98.262243
 31
0.0
  0
LINE
  5
C97F
100
AcDbEntity
  8
WYMIARY
 62
     4
100
AcDbLine
 10
65.1513
 20
104.012243
 30
0.0
 11
66.1513
 21
104.012243
 31
0.0
  0
LINE
  5
C980
100
AcDbEntity
  8
WYMIARY
 62
     4
100
AcDbLine
 10
65.1513
 20
104.012243
 30
0.0
 11
66.1513
 21
104.012243
 31
0.0
  0
LINE
  5
C981
100
AcDbEntity
  8
WYMIARY
 62
     4
100
AcDbLine
 10
65.1513
 20
101.829239
 30
0.0
 11
65.1513
 21
104.012243
 31
0.0
  0
LINE
  5
C982
100
AcDbEntity
  8
WYMIARY
 62
     4
100
AcDbLine
 10
64.673494
 20
93.165408
 30
0.0
 11
65.246217
 21
93.876199
 31
0.0
  0
LINE
  5
C983
100
AcDbEntity
  8
WYMIARY
 62
     4
100
AcDbLine
 10
69.698715
 20
93.153719
 30
0.0
 11
70.43118
 21
92.611744
 31
0.0
  0
LINE
  5
C984
100
AcDbEntity
  8
WYMIARY
 62
     4
100
AcDbLine
 10
69.698715
 20
93.153719
 30
0.0
 11
70.940579
 21
94.915547
 31
0.0
  0
LINE
  5
C985
100
AcDbEntity
  8
WYMIARY
 62
     4
100
AcDbLine
 10
69.710921
 20
96.896787
 30
0.0
 11
71.465398
 21
95.660104
 31
0.0
  0
LINE
  5
C986
100
AcDbEntity
  8
WYMIARY
 62
     4
100
AcDbLine
 10
69.174691
 20
96.160274
 30
0.0
 11
70.940579
 21
94.915547
 31
0.0
  0
LINE
  5
C987
100
AcDbEntity
  8
WYMIARY
 62
     4
100
AcDbLine
 10
69.174691
 20
96.160274
 30
0.0
 11
69.710921
 21
96.896787
 31
0.0
  0
TEXT
  5
C988
100
AcDbEntity
  8
1
 62
     4
100
AcDbText
 10
68.945302
 20
89.871815
 30
0.0
 40
2.0
  1
3
 41
0.75
  7
ITALIC
100
AcDbText
  0
LINE
  5
C989
100
AcDbEntity
  8
WYMIARY
 62
     4
100
AcDbLine
 10
64.010467
 20
97.497413
 30
0.0
 11
64.76893
 21
96.992322
 31
0.0
  0
LINE
  5
C98A
100
AcDbEntity
  8
WYMIARY
 62
     4
100
AcDbLine
 10
62.935137
 20
94.390728
 30
0.0
 11
64.673494
 21
93.165408
 31
0.0
  0
LINE
  5
C98B
100
AcDbEntity
  8
WYMIARY
 62
     4
100
AcDbLine
 10
63.459956
 20
95.135286
 30
0.0
 11
65.246217
 21
93.876199
 31
0.0
  0
LINE
  5
C98C
100
AcDbEntity
  8
WYMIARY
 62
     4
100
AcDbLine
 10
63.459956
 20
95.135286
 30
0.0
 11
64.76893
 21
96.992322
 31
0.0
  0
LINE
  5
C98D
100
AcDbEntity
  8
WYMIARY
 62
     4
100
AcDbLine
 10
73.423494
 20
93.165408
 30
0.0
 11
73.996217
 21
93.876199
 31
0.0
  0
LINE
  5
C98E
100
AcDbEntity
  8
WYMIARY
 62
     4
100
AcDbLine
 10
78.448715
 20
93.153719
 30
0.0
 11
79.18118
 21
92.611744
 31
0.0
  0
LINE
  5
C98F
100
AcDbEntity
  8
WYMIARY
 62
     4
100
AcDbLine
 10
78.448715
 20
93.153719
 30
0.0
 11
79.690579
 21
94.915547
 31
0.0
  0
LINE
  5
C990
100
AcDbEntity
  8
WYMIARY
 62
     4
100
AcDbLine
 10
77.924691
 20
96.160274
 30
0.0
 11
79.690579
 21
94.915547
 31
0.0
  0
LINE
  5
C991
100
AcDbEntity
  8
WYMIARY
 62
     4
100
AcDbLine
 10
77.924691
 20
96.160274
 30
0.0
 11
78.460921
 21
96.896787
 31
0.0
  0
TEXT
  5
C992
100
AcDbEntity
  8
1
 62
     4
100
AcDbText
 10
77.695302
 20
89.871815
 30
0.0
 40
2.0
  1
5
 41
0.75
  7
ITALIC
100
AcDbText
  0
LINE
  5
C993
100
AcDbEntity
  8
WYMIARY
 62
     4
100
AcDbLine
 10
72.760467
 20
97.497413
 30
0.0
 11
73.51893
 21
96.992322
 31
0.0
  0
LINE
  5
C994
100
AcDbEntity
  8
WYMIARY
 62
     4
100
AcDbLine
 10
72.209956
 20
95.135286
 30
0.0
 11
73.51893
 21
96.992322
 31
0.0
  0
LINE
  5
C995
100
AcDbEntity
  8
WYMIARY
 62
     4
100
AcDbLine
 10
72.209956
 20
95.135286
 30
0.0
 11
73.996217
 21
93.876199
 31
0.0
  0
LINE
  5
C996
100
AcDbEntity
  8
WYMIARY
 62
     4
100
AcDbLine
 10
71.685137
 20
94.390728
 30
0.0
 11
73.423494
 21
93.165408
 31
0.0
  0
LINE
  5
C997
100
AcDbEntity
  8
WYMIARY
 62
     4
100
AcDbLine
 10
87.93118
 20
92.611744
 30
0.0
 11
89.185137
 21
94.390728
 31
0.0
  0
LINE
  5
C998
100
AcDbEntity
  8
WYMIARY
 62
     4
100
AcDbLine
 10
87.210921
 20
96.896787
 30
0.0
 11
88.965398
 21
95.660104
 31
0.0
  0
CIRCLE
  5
C999
100
AcDbEntity
  8
WYMIARY
 62
     4
100
AcDbCircle
 10
89.051582
 20
95.162243
 30
0.0
 40
3.1
  0
LINE
  5
C99A
100
AcDbEntity
  8
WYMIARY
 62
     4
100
AcDbLine
 10
82.173494
 20
93.165408
 30
0.0
 11
82.746217
 21
93.876199
 31
0.0
  0
LINE
  5
C99B
100
AcDbEntity
  8
WYMIARY
 62
     4
100
AcDbLine
 10
87.198715
 20
93.153719
 30
0.0
 11
87.93118
 21
92.611744
 31
0.0
  0
LINE
  5
C99C
100
AcDbEntity
  8
WYMIARY
 62
     4
100
AcDbLine
 10
87.198715
 20
93.153719
 30
0.0
 11
88.440579
 21
94.915547
 31
0.0
  0
LINE
  5
C99D
100
AcDbEntity
  8
WYMIARY
 62
     4
100
AcDbLine
 10
86.674691
 20
96.160274
 30
0.0
 11
88.440579
 21
94.915547
 31
0.0
  0
LINE
  5
C99E
100
AcDbEntity
  8
WYMIARY
 62
     4
100
AcDbLine
 10
86.674691
 20
96.160274
 30
0.0
 11
87.210921
 21
96.896787
 31
0.0
  0
TEXT
  5
C99F
100
AcDbEntity
  8
1
 62
     4
100
AcDbText
 10
86.445302
 20
89.871815
 30
0.0
 40
2.0
  1
13
 41
0.75
  7
ITALIC
100
AcDbText
  0
LINE
  5
C9A0
100
AcDbEntity
  8
WYMIARY
 62
     4
100
AcDbLine
 10
80.215398
 20
95.660104
 30
0.0
 11
81.510467
 21
97.497413
 31
0.0
  0
LINE
  5
C9A1
100
AcDbEntity
  8
WYMIARY
 62
     4
100
AcDbLine
 10
81.510467
 20
97.497413
 30
0.0
 11
82.26893
 21
96.992322
 31
0.0
  0
LINE
  5
C9A2
100
AcDbEntity
  8
WYMIARY
 62
     4
100
AcDbLine
 10
80.959956
 20
95.135286
 30
0.0
 11
82.26893
 21
96.992322
 31
0.0
  0
LINE
  5
C9A3
100
AcDbEntity
  8
WYMIARY
 62
     4
100
AcDbLine
 10
80.959956
 20
95.135286
 30
0.0
 11
82.746217
 21
93.876199
 31
0.0
  0
LINE
  5
C9A4
100
AcDbEntity
  8
WYMIARY
 62
     4
100
AcDbLine
 10
80.435137
 20
94.390728
 30
0.0
 11
82.173494
 21
93.165408
 31
0.0
  0
LINE
  5
C9A5
100
AcDbEntity
  8
WYMIARY
 62
     4
100
AcDbLine
 10
90.923494
 20
93.165408
 30
0.0
 11
91.496217
 21
93.876199
 31
0.0
  0
LINE
  5
C9A6
100
AcDbEntity
  8
WYMIARY
 62
     4
100
AcDbLine
 10
88.965398
 20
95.660104
 30
0.0
 11
90.260467
 21
97.497413
 31
0.0
  0
LINE
  5
C9A7
100
AcDbEntity
  8
WYMIARY
 62
     4
100
AcDbLine
 10
90.260467
 20
97.497413
 30
0.0
 11
91.01893
 21
96.992322
 31
0.0
  0
LINE
  5
C9A8
100
AcDbEntity
  8
WYMIARY
 62
     4
100
AcDbLine
 10
89.709956
 20
95.135286
 30
0.0
 11
91.01893
 21
96.992322
 31
0.0
  0
LINE
  5
C9A9
100
AcDbEntity
  8
WYMIARY
 62
     4
100
AcDbLine
 10
89.709956
 20
95.135286
 30
0.0
 11
91.496217
 21
93.876199
 31
0.0
  0
LINE
  5
C9AA
100
AcDbEntity
  8
WYMIARY
 62
     4
100
AcDbLine
 10
89.185137
 20
94.390728
 30
0.0
 11
90.923494
 21
93.165408
 31
0.0
  0
LINE
  5
C9AB
100
AcDbEntity
  8
WYMIARY
 62
     3
100
AcDbLine
 10
93.426582
 20
107.762243
 30
0.0
 11
83.626582
 21
107.762243
 31
0.0
  0
LINE
  5
C9AC
100
AcDbEntity
  8
WYMIARY
 62
     3
100
AcDbLine
 10
126.395176
 20
76.512243
 30
0.0
 11
126.395176
 21
54.762243
 31
0.0
  0
LINE
  5
C9AD
100
AcDbEntity
  8
WYMIARY
 62
     3
100
AcDbLine
 10
126.395176
 20
76.512243
 30
0.0
 11
126.395176
 21
51.512243
 31
0.0
  0
LINE
  5
C9AE
100
AcDbEntity
  8
WYMIARY
 62
     3
100
AcDbLine
 10
126.395176
 20
76.512243
 30
0.0
 11
126.395176
 21
49.012243
 31
0.0
  0
LINE
  5
C9AF
100
AcDbEntity
  8
WYMIARY
 62
     3
100
AcDbLine
 10
126.395176
 20
104.512243
 30
0.0
 11
126.395176
 21
48.512243
 31
0.0
  0
LINE
  5
C9B0
100
AcDbEntity
  8
WYMIARY
 62
     3
100
AcDbLine
 10
161.395176
 20
104.512243
 30
0.0
 11
161.395176
 21
48.512243
 31
0.0
  0
TEXT
  5
C9B1
100
AcDbEntity
  8
1
100
AcDbText
 10
128.136998
 20
36.099359
 30
0.0
 40
5.0
  1
RIK21-01-
 41
0.75
  7
ITALIC
100
AcDbText
  0
LINE
  5
C9B2
100
AcDbEntity
  8
WYMIARY
 62
     4
100
AcDbLine
 10
130.903732
 20
57.090728
 30
0.0
 11
132.642088
 21
55.865408
 31
0.0
  0
LINE
  5
C9B3
100
AcDbEntity
  8
WYMIARY
 62
     4
100
AcDbLine
 10
131.42855
 20
57.835286
 30
0.0
 11
133.214812
 21
56.576199
 31
0.0
  0
LINE
  5
C9B4
100
AcDbEntity
  8
WYMIARY
 62
     4
100
AcDbLine
 10
131.42855
 20
57.835286
 30
0.0
 11
132.737524
 21
59.692322
 31
0.0
  0
LINE
  5
C9B5
100
AcDbEntity
  8
WYMIARY
 62
     4
100
AcDbLine
 10
131.979061
 20
60.197413
 30
0.0
 11
132.737524
 21
59.692322
 31
0.0
  0
CIRCLE
  5
C9B6
100
AcDbEntity
  8
WYMIARY
 62
     4
100
AcDbCircle
 10
130.770176
 20
57.862243
 30
0.0
 40
3.1
  0
LINE
  5
C9B7
100
AcDbEntity
  8
WYMIARY
 62
     3
100
AcDbLine
 10
126.395176
 20
45.262243
 30
0.0
 11
136.195176
 21
45.262243
 31
0.0
  0
LINE
  5
C9B8
100
AcDbEntity
  8
WYMIARY
 62
     3
100
AcDbLine
 10
126.395176
 20
54.762243
 30
0.0
 11
161.395176
 21
54.762243
 31
0.0
  0
ARC
  5
C9B9
100
AcDbEntity
  8
WYMIARY
 62
     4
100
AcDbCircle
 10
131.145176
 20
51.512243
 30
0.0
 40
2.0
100
AcDbArc
 50
356.852491
 51
181.588096
  0
TEXT
  5
C9BA
100
AcDbEntity
  8
WY
100
AcDbText
 10
101.520952
 20
16.599248
 30
0.0
 40
2.0
  1
Draw. No.
 51
15.0
  7
ITALIC
100
AcDbText
  0
TEXT
  5
C9BB
100
AcDbEntity
  8
1
100
AcDbText
 10
101.868066
 20
9.064009
 30
0.0
 40
3.0
  1
RIK21-01
 41
0.65
  7
ITALIC
100
AcDbText
  0
LINE
  5
C9BC
100
AcDbEntity
  8
WYMIARY
 62
     3
100
AcDbLine
 10
100.331943
 20
19.689837
 30
0.0
 11
100.331943
 21
5.0
 31
0.0
  0
LINE
  5
C9BD
100
AcDbEntity
  8
WYMIARY
 62
     3
100
AcDbLine
 10
126.395176
 20
48.512243
 30
0.0
 11
126.395176
 21
45.262243
 31
0.0
  0
LINE
  5
C9BE
100
AcDbEntity
  8
WYMIARY
 62
     4
100
AcDbLine
 10
126.395176
 20
49.012243
 30
0.0
 11
129.145944
 21
49.012243
 31
0.0
  0
LINE
  5
C9BF
100
AcDbEntity
  8
WYMIARY
 62
     4
100
AcDbLine
 10
129.145944
 20
51.567671
 30
0.0
 11
129.145944
 21
49.012243
 31
0.0
  0
TEXT
  5
C9C0
100
AcDbEntity
  8
1
 62
     4
100
AcDbText
 10
127.599354
 20
61.447781
 30
0.0
 40
2.0
  1
2
 41
0.75
  7
ITALIC
100
AcDbText
  0
LINE
  5
C9C1
100
AcDbEntity
  8
WYMIARY
 62
     4
100
AcDbLine
 10
128.393285
 20
58.860274
 30
0.0
 11
128.929516
 21
59.596787
 31
0.0
  0
LINE
  5
C9C2
100
AcDbEntity
  8
WYMIARY
 62
     4
100
AcDbLine
 10
128.393285
 20
58.860274
 30
0.0
 11
130.159174
 21
57.615547
 31
0.0
  0
LINE
  5
C9C3
100
AcDbEntity
  8
WYMIARY
 62
     4
100
AcDbLine
 10
128.929516
 20
59.596787
 30
0.0
 11
130.683992
 21
58.360104
 31
0.0
  0
LINE
  5
C9C4
100
AcDbEntity
  8
WYMIARY
 62
     4
100
AcDbLine
 10
128.91731
 20
55.853719
 30
0.0
 11
130.159174
 21
57.615547
 31
0.0
  0
LINE
  5
C9C5
100
AcDbEntity
  8
WYMIARY
 62
     4
100
AcDbLine
 10
130.683992
 20
58.360104
 30
0.0
 11
131.979061
 21
60.197413
 31
0.0
  0
LINE
  5
C9C6
100
AcDbEntity
  8
WYMIARY
 62
     4
100
AcDbLine
 10
129.649774
 20
55.311744
 30
0.0
 11
130.903732
 21
57.090728
 31
0.0
  0
LINE
  5
C9C7
100
AcDbEntity
  8
WYMIARY
 62
     4
100
AcDbLine
 10
128.91731
 20
55.853719
 30
0.0
 11
129.649774
 21
55.311744
 31
0.0
  0
LINE
  5
C9C8
100
AcDbEntity
  8
WYMIARY
 62
     3
100
AcDbLine
 10
126.395176
 20
54.762243
 30
0.0
 11
126.395176
 21
60.962243
 31
0.0
  0
TEXT
  5
C9C9
100
AcDbEntity
  8
1
100
AcDbText
 10
143.348047
 20
9.064009
 30
0.0
 40
5.0
  1
RIK21
 41
0.75
  7
ITALIC
100
AcDbText
  0
TEXT
  5
C9CA
100
AcDbEntity
  8
WY
100
AcDbText
 10
143.544188
 20
16.599248
 30
0.0
 40
2.0
  1
Product type
 51
15.0
  7
ITALIC
100
AcDbText
  0
LINE
  5
C9CB
100
AcDbEntity
  8
1
100
AcDbLine
 10
141.35299
 20
5.0
 30
0.0
 11
141.35299
 21
19.689837
 31
0.0
  0
LINE
  5
C9CC
100
AcDbEntity
  8
WYMIARY
 62
     4
100
AcDbLine
 10
149.479061
 20
60.197413
 30
0.0
 11
150.237524
 21
59.692322
 31
0.0
  0
LINE
  5
C9CD
100
AcDbEntity
  8
WYMIARY
 62
     4
100
AcDbLine
 10
148.92855
 20
57.835286
 30
0.0
 11
150.237524
 21
59.692322
 31
0.0
  0
LINE
  5
C9CE
100
AcDbEntity
  8
WYMIARY
 62
     4
100
AcDbLine
 10
148.92855
 20
57.835286
 30
0.0
 11
150.714812
 21
56.576199
 31
0.0
  0
LINE
  5
C9CF
100
AcDbEntity
  8
WYMIARY
 62
     4
100
AcDbLine
 10
148.403732
 20
57.090728
 30
0.0
 11
150.142088
 21
55.865408
 31
0.0
  0
CIRCLE
  5
C9D0
100
AcDbEntity
  8
WYMIARY
 62
     4
100
AcDbCircle
 10
148.270176
 20
57.862243
 30
0.0
 40
3.1
  0
LINE
  5
C9D1
100
AcDbEntity
  8
WYMIARY
 62
     3
100
AcDbLine
 10
136.195176
 20
48.512243
 30
0.0
 11
161.395176
 21
48.512243
 31
0.0
  0
LINE
  5
C9D2
100
AcDbEntity
  8
WYMIARY
 62
     4
100
AcDbLine
 10
134.142159
 20
49.012243
 30
0.0
 11
134.142159
 21
54.762243
 31
0.0
  0
LINE
  5
C9D3
100
AcDbEntity
  8
WYMIARY
 62
     3
100
AcDbLine
 10
136.195176
 20
45.262243
 30
0.0
 11
136.195176
 21
48.512243
 31
0.0
  0
LINE
  5
C9D4
100
AcDbEntity
  8
WYMIARY
 62
     4
100
AcDbLine
 10
133.142159
 20
49.012243
 30
0.0
 11
134.142159
 21
49.012243
 31
0.0
  0
LINE
  5
C9D5
100
AcDbEntity
  8
WYMIARY
 62
     4
100
AcDbLine
 10
133.142159
 20
49.012243
 30
0.0
 11
134.142159
 21
49.012243
 31
0.0
  0
LINE
  5
C9D6
100
AcDbEntity
  8
WYMIARY
 62
     4
100
AcDbLine
 10
133.142159
 20
51.402429
 30
0.0
 11
133.142159
 21
49.012243
 31
0.0
  0
LINE
  5
C9D7
100
AcDbEntity
  8
WYMIARY
 62
     4
100
AcDbLine
 10
140.729061
 20
60.197413
 30
0.0
 11
141.487524
 21
59.692322
 31
0.0
  0
LINE
  5
C9D8
100
AcDbEntity
  8
WYMIARY
 62
     4
100
AcDbLine
 10
140.17855
 20
57.835286
 30
0.0
 11
141.487524
 21
59.692322
 31
0.0
  0
LINE
  5
C9D9
100
AcDbEntity
  8
WYMIARY
 62
     4
100
AcDbLine
 10
140.17855
 20
57.835286
 30
0.0
 11
141.964812
 21
56.576199
 31
0.0
  0
LINE
  5
C9DA
100
AcDbEntity
  8
WYMIARY
 62
     4
100
AcDbLine
 10
139.653732
 20
57.090728
 30
0.0
 11
141.392088
 21
55.865408
 31
0.0
  0
CIRCLE
  5
C9DB
100
AcDbEntity
  8
WYMIARY
 62
     4
100
AcDbCircle
 10
139.520176
 20
57.862243
 30
0.0
 40
3.1
  0
TEXT
  5
C9DC
100
AcDbEntity
  8
1
 62
     4
100
AcDbText
 10
136.349354
 20
61.447781
 30
0.0
 40
2.0
  1
4
 41
0.75
  7
ITALIC
100
AcDbText
  0
LINE
  5
C9DD
100
AcDbEntity
  8
WYMIARY
 62
     4
100
AcDbLine
 10
132.642088
 20
55.865408
 30
0.0
 11
133.214812
 21
56.576199
 31
0.0
  0
LINE
  5
C9DE
100
AcDbEntity
  8
WYMIARY
 62
     4
100
AcDbLine
 10
137.66731
 20
55.853719
 30
0.0
 11
138.399774
 21
55.311744
 31
0.0
  0
LINE
  5
C9DF
100
AcDbEntity
  8
WYMIARY
 62
     4
100
AcDbLine
 10
138.399774
 20
55.311744
 30
0.0
 11
139.653732
 21
57.090728
 31
0.0
  0
LINE
  5
C9E0
100
AcDbEntity
  8
WYMIARY
 62
     4
100
AcDbLine
 10
139.433992
 20
58.360104
 30
0.0
 11
140.729061
 21
60.197413
 31
0.0
  0
LINE
  5
C9E1
100
AcDbEntity
  8
WYMIARY
 62
     4
100
AcDbLine
 10
137.66731
 20
55.853719
 30
0.0
 11
138.909174
 21
57.615547
 31
0.0
  0
LINE
  5
C9E2
100
AcDbEntity
  8
WYMIARY
 62
     4
100
AcDbLine
 10
137.679516
 20
59.596787
 30
0.0
 11
139.433992
 21
58.360104
 31
0.0
  0
LINE
  5
C9E3
100
AcDbEntity
  8
WYMIARY
 62
     4
100
AcDbLine
 10
137.143285
 20
58.860274
 30
0.0
 11
138.909174
 21
57.615547
 31
0.0
  0
LINE
  5
C9E4
100
AcDbEntity
  8
WYMIARY
 62
     4
100
AcDbLine
 10
137.143285
 20
58.860274
 30
0.0
 11
137.679516
 21
59.596787
 31
0.0
  0
TEXT
  5
C9E5
100
AcDbEntity
  8
1
 62
     4
100
AcDbText
 10
145.099354
 20
61.447781
 30
0.0
 40
2.0
  1
6
 41
0.75
  7
ITALIC
100
AcDbText
  0
LINE
  5
C9E6
100
AcDbEntity
  8
WYMIARY
 62
     4
100
AcDbLine
 10
141.392088
 20
55.865408
 30
0.0
 11
141.964812
 21
56.576199
 31
0.0
  0
LINE
  5
C9E7
100
AcDbEntity
  8
WYMIARY
 62
     4
100
AcDbLine
 10
146.41731
 20
55.853719
 30
0.0
 11
147.149774
 21
55.311744
 31
0.0
  0
LINE
  5
C9E8
100
AcDbEntity
  8
WYMIARY
 62
     4
100
AcDbLine
 10
147.149774
 20
55.311744
 30
0.0
 11
148.403732
 21
57.090728
 31
0.0
  0
LINE
  5
C9E9
100
AcDbEntity
  8
WYMIARY
 62
     4
100
AcDbLine
 10
148.183992
 20
58.360104
 30
0.0
 11
149.479061
 21
60.197413
 31
0.0
  0
LINE
  5
C9EA
100
AcDbEntity
  8
WYMIARY
 62
     4
100
AcDbLine
 10
146.41731
 20
55.853719
 30
0.0
 11
147.659174
 21
57.615547
 31
0.0
  0
LINE
  5
C9EB
100
AcDbEntity
  8
WYMIARY
 62
     4
100
AcDbLine
 10
146.429516
 20
59.596787
 30
0.0
 11
148.183992
 21
58.360104
 31
0.0
  0
LINE
  5
C9EC
100
AcDbEntity
  8
WYMIARY
 62
     4
100
AcDbLine
 10
145.893285
 20
58.860274
 30
0.0
 11
147.659174
 21
57.615547
 31
0.0
  0
LINE
  5
C9ED
100
AcDbEntity
  8
WYMIARY
 62
     4
100
AcDbLine
 10
145.893285
 20
58.860274
 30
0.0
 11
146.429516
 21
59.596787
 31
0.0
  0
LINE
  5
C9EE
100
AcDbEntity
  8
WYMIARY
 62
     4
100
AcDbLine
 10
158.229061
 20
60.197413
 30
0.0
 11
158.987524
 21
59.692322
 31
0.0
  0
LINE
  5
C9EF
100
AcDbEntity
  8
WYMIARY
 62
     4
100
AcDbLine
 10
157.67855
 20
57.835286
 30
0.0
 11
158.987524
 21
59.692322
 31
0.0
  0
LINE
  5
C9F0
100
AcDbEntity
  8
WYMIARY
 62
     4
100
AcDbLine
 10
157.67855
 20
57.835286
 30
0.0
 11
159.464812
 21
56.576199
 31
0.0
  0
LINE
  5
C9F1
100
AcDbEntity
  8
WYMIARY
 62
     4
100
AcDbLine
 10
157.153732
 20
57.090728
 30
0.0
 11
158.892088
 21
55.865408
 31
0.0
  0
CIRCLE
  5
C9F2
100
AcDbEntity
  8
WYMIARY
 62
     4
100
AcDbCircle
 10
157.020176
 20
57.862243
 30
0.0
 40
3.1
  0
TEXT
  5
C9F3
100
AcDbEntity
  8
1
 62
     4
100
AcDbText
 10
153.849354
 20
61.447781
 30
0.0
 40
2.0
  1
22
 41
0.75
  7
ITALIC
100
AcDbText
  0
LINE
  5
C9F4
100
AcDbEntity
  8
WYMIARY
 62
     4
100
AcDbLine
 10
150.142088
 20
55.865408
 30
0.0
 11
150.714812
 21
56.576199
 31
0.0
  0
LINE
  5
C9F5
100
AcDbEntity
  8
WYMIARY
 62
     4
100
AcDbLine
 10
155.16731
 20
55.853719
 30
0.0
 11
155.899774
 21
55.311744
 31
0.0
  0
LINE
  5
C9F6
100
AcDbEntity
  8
WYMIARY
 62
     4
100
AcDbLine
 10
155.899774
 20
55.311744
 30
0.0
 11
157.153732
 21
57.090728
 31
0.0
  0
LINE
  5
C9F7
100
AcDbEntity
  8
WYMIARY
 62
     4
100
AcDbLine
 10
156.933992
 20
58.360104
 30
0.0
 11
158.229061
 21
60.197413
 31
0.0
  0
LINE
  5
C9F8
100
AcDbEntity
  8
WYMIARY
 62
     4
100
AcDbLine
 10
155.16731
 20
55.853719
 30
0.0
 11
156.409174
 21
57.615547
 31
0.0
  0
LINE
  5
C9F9
100
AcDbEntity
  8
WYMIARY
 62
     4
100
AcDbLine
 10
155.179516
 20
59.596787
 30
0.0
 11
156.933992
 21
58.360104
 31
0.0
  0
LINE
  5
C9FA
100
AcDbEntity
  8
WYMIARY
 62
     4
100
AcDbLine
 10
154.643285
 20
58.860274
 30
0.0
 11
156.409174
 21
57.615547
 31
0.0
  0
LINE
  5
C9FB
100
AcDbEntity
  8
WYMIARY
 62
     4
100
AcDbLine
 10
154.643285
 20
58.860274
 30
0.0
 11
155.179516
 21
59.596787
 31
0.0
  0
LINE
  5
C9FC
100
AcDbEntity
  8
WYMIARY
 62
     4
100
AcDbLine
 10
158.892088
 20
55.865408
 30
0.0
 11
159.464812
 21
56.576199
 31
0.0
  0
LINE
  5
C9FD
100
AcDbEntity
  8
WYMIARY
 62
     4
100
AcDbLine
 10
131.42855
 20
95.135286
 30
0.0
 11
132.737524
 21
96.992322
 31
0.0
  0
LINE
  5
C9FE
100
AcDbEntity
  8
WYMIARY
 62
     4
100
AcDbLine
 10
131.42855
 20
95.135286
 30
0.0
 11
133.214812
 21
93.876199
 31
0.0
  0
LINE
  5
C9FF
100
AcDbEntity
  8
WYMIARY
 62
     4
100
AcDbLine
 10
130.903732
 20
94.390728
 30
0.0
 11
132.642088
 21
93.165408
 31
0.0
  0
LINE
  5
CA00
100
AcDbEntity
  8
WYMIARY
 62
     4
100
AcDbLine
 10
131.979061
 20
97.497413
 30
0.0
 11
132.737524
 21
96.992322
 31
0.0
  0
CIRCLE
  5
CA01
100
AcDbEntity
  8
WYMIARY
 62
     4
100
AcDbCircle
 10
130.770176
 20
95.162243
 30
0.0
 40
3.1
  0
LINE
  5
CA02
100
AcDbEntity
  8
WYMIARY
 62
     3
100
AcDbLine
 10
126.395176
 20
104.512243
 30
0.0
 11
151.595176
 21
104.512243
 31
0.0
  0
LINE
  5
CA03
100
AcDbEntity
  8
WYMIARY
 62
     3
100
AcDbLine
 10
126.395176
 20
98.262243
 30
0.0
 11
161.395176
 21
98.262243
 31
0.0
  0
ARC
  5
CA04
100
AcDbEntity
  8
WYMIARY
 62
     4
100
AcDbCircle
 10
131.145176
 20
101.512243
 30
0.0
 40
2.0
100
AcDbArc
 50
174.334226
 51
9.119732
  0
LINE
  5
CA05
100
AcDbEntity
  8
WYMIARY
 62
     3
100
AcDbLine
 10
126.395176
 20
76.512243
 30
0.0
 11
126.395176
 21
98.262243
 31
0.0
  0
LINE
  5
CA06
100
AcDbEntity
  8
WYMIARY
 62
     3
100
AcDbLine
 10
126.395176
 20
76.512243
 30
0.0
 11
126.395176
 21
101.512243
 31
0.0
  0
LINE
  5
CA07
100
AcDbEntity
  8
WYMIARY
 62
     3
100
AcDbLine
 10
126.395176
 20
76.512243
 30
0.0
 11
126.395176
 21
104.012243
 31
0.0
  0
TEXT
  5
CA08
100
AcDbEntity
  8
1
 62
     4
100
AcDbText
 10
128.163897
 20
89.871815
 30
0.0
 40
2.0
  1
1
 41
0.75
  7
ITALIC
100
AcDbText
  0
LINE
  5
CA09
100
AcDbEntity
  8
WYMIARY
 62
     4
100
AcDbLine
 10
130.683992
 20
95.660104
 30
0.0
 11
131.979061
 21
97.497413
 31
0.0
  0
LINE
  5
CA0A
100
AcDbEntity
  8
WYMIARY
 62
     4
100
AcDbLine
 10
128.91731
 20
93.153719
 30
0.0
 11
129.649774
 21
92.611744
 31
0.0
  0
LINE
  5
CA0B
100
AcDbEntity
  8
WYMIARY
 62
     4
100
AcDbLine
 10
128.393285
 20
96.160274
 30
0.0
 11
128.929516
 21
96.896787
 31
0.0
  0
LINE
  5
CA0C
100
AcDbEntity
  8
WYMIARY
 62
     4
100
AcDbLine
 10
128.91731
 20
93.153719
 30
0.0
 11
130.159174
 21
94.915547
 31
0.0
  0
LINE
  5
CA0D
100
AcDbEntity
  8
WYMIARY
 62
     4
100
AcDbLine
 10
129.649774
 20
92.611744
 30
0.0
 11
130.903732
 21
94.390728
 31
0.0
  0
LINE
  5
CA0E
100
AcDbEntity
  8
WYMIARY
 62
     4
100
AcDbLine
 10
128.929516
 20
96.896787
 30
0.0
 11
130.683992
 21
95.660104
 31
0.0
  0
LINE
  5
CA0F
100
AcDbEntity
  8
WYMIARY
 62
     4
100
AcDbLine
 10
128.393285
 20
96.160274
 30
0.0
 11
130.159174
 21
94.915547
 31
0.0
  0
LINE
  5
CA10
100
AcDbEntity
  8
WYMIARY
 62
     3
100
AcDbLine
 10
126.395176
 20
104.512243
 30
0.0
 11
131.145176
 21
104.512243
 31
0.0
  0
LINE
  5
CA11
100
AcDbEntity
  8
WYMIARY
 62
     4
100
AcDbLine
 10
129.154947
 20
101.709693
 30
0.0
 11
129.154947
 21
104.012243
 31
0.0
  0
LINE
  5
CA12
100
AcDbEntity
  8
WYMIARY
 62
     4
100
AcDbLine
 10
126.395176
 20
104.012243
 30
0.0
 11
129.154947
 21
104.012243
 31
0.0
  0
LINE
  5
CA13
100
AcDbEntity
  8
WYMIARY
 62
     3
100
AcDbLine
 10
161.395176
 20
104.512243
 30
0.0
 11
161.395176
 21
107.762243
 31
0.0
  0
LINE
  5
CA14
100
AcDbEntity
  8
WYMIARY
 62
     3
100
AcDbLine
 10
151.595176
 20
107.762243
 30
0.0
 11
151.595176
 21
104.512243
 31
0.0
  0
LINE
  5
CA15
100
AcDbEntity
  8
WYMIARY
 62
     4
100
AcDbLine
 10
148.403732
 20
94.390728
 30
0.0
 11
150.142088
 21
93.165408
 31
0.0
  0
LINE
  5
CA16
100
AcDbEntity
  8
WYMIARY
 62
     4
100
AcDbLine
 10
148.92855
 20
95.135286
 30
0.0
 11
150.714812
 21
93.876199
 31
0.0
  0
LINE
  5
CA17
100
AcDbEntity
  8
WYMIARY
 62
     4
100
AcDbLine
 10
148.92855
 20
95.135286
 30
0.0
 11
150.237524
 21
96.992322
 31
0.0
  0
LINE
  5
CA18
100
AcDbEntity
  8
WYMIARY
 62
     4
100
AcDbLine
 10
149.479061
 20
97.497413
 30
0.0
 11
150.237524
 21
96.992322
 31
0.0
  0
CIRCLE
  5
CA19
100
AcDbEntity
  8
WYMIARY
 62
     4
100
AcDbCircle
 10
148.270176
 20
95.162243
 30
0.0
 40
3.1
  0
LINE
  5
CA1A
100
AcDbEntity
  8
WYMIARY
 62
     4
100
AcDbLine
 10
139.653732
 20
94.390728
 30
0.0
 11
141.392088
 21
93.165408
 31
0.0
  0
LINE
  5
CA1B
100
AcDbEntity
  8
WYMIARY
 62
     4
100
AcDbLine
 10
140.17855
 20
95.135286
 30
0.0
 11
141.964812
 21
93.876199
 31
0.0
  0
LINE
  5
CA1C
100
AcDbEntity
  8
WYMIARY
 62
     4
100
AcDbLine
 10
140.17855
 20
95.135286
 30
0.0
 11
141.487524
 21
96.992322
 31
0.0
  0
LINE
  5
CA1D
100
AcDbEntity
  8
WYMIARY
 62
     4
100
AcDbLine
 10
140.729061
 20
97.497413
 30
0.0
 11
141.487524
 21
96.992322
 31
0.0
  0
CIRCLE
  5
CA1E
100
AcDbEntity
  8
WYMIARY
 62
     4
100
AcDbCircle
 10
139.520176
 20
95.162243
 30
0.0
 40
3.1
  0
TEXT
  5
CA1F
100
AcDbEntity
  8
1
 62
     4
100
AcDbText
 10
136.913897
 20
89.871815
 30
0.0
 40
2.0
  1
3
 41
0.75
  7
ITALIC
100
AcDbText
  0
LINE
  5
CA20
100
AcDbEntity
  8
WYMIARY
 62
     4
100
AcDbLine
 10
137.143285
 20
96.160274
 30
0.0
 11
137.679516
 21
96.896787
 31
0.0
  0
LINE
  5
CA21
100
AcDbEntity
  8
WYMIARY
 62
     4
100
AcDbLine
 10
137.143285
 20
96.160274
 30
0.0
 11
138.909174
 21
94.915547
 31
0.0
  0
LINE
  5
CA22
100
AcDbEntity
  8
WYMIARY
 62
     4
100
AcDbLine
 10
137.679516
 20
96.896787
 30
0.0
 11
139.433992
 21
95.660104
 31
0.0
  0
LINE
  5
CA23
100
AcDbEntity
  8
WYMIARY
 62
     4
100
AcDbLine
 10
137.66731
 20
93.153719
 30
0.0
 11
138.909174
 21
94.915547
 31
0.0
  0
LINE
  5
CA24
100
AcDbEntity
  8
WYMIARY
 62
     4
100
AcDbLine
 10
139.433992
 20
95.660104
 30
0.0
 11
140.729061
 21
97.497413
 31
0.0
  0
LINE
  5
CA25
100
AcDbEntity
  8
WYMIARY
 62
     4
100
AcDbLine
 10
138.399774
 20
92.611744
 30
0.0
 11
139.653732
 21
94.390728
 31
0.0
  0
LINE
  5
CA26
100
AcDbEntity
  8
WYMIARY
 62
     4
100
AcDbLine
 10
137.66731
 20
93.153719
 30
0.0
 11
138.399774
 21
92.611744
 31
0.0
  0
LINE
  5
CA27
100
AcDbEntity
  8
WYMIARY
 62
     4
100
AcDbLine
 10
132.642088
 20
93.165408
 30
0.0
 11
133.214812
 21
93.876199
 31
0.0
  0
LINE
  5
CA28
100
AcDbEntity
  8
WYMIARY
 62
     4
100
AcDbLine
 10
133.119895
 20
101.829239
 30
0.0
 11
133.119895
 21
104.012243
 31
0.0
  0
LINE
  5
CA29
100
AcDbEntity
  8
WYMIARY
 62
     4
100
AcDbLine
 10
133.119895
 20
104.012243
 30
0.0
 11
134.119895
 21
104.012243
 31
0.0
  0
LINE
  5
CA2A
100
AcDbEntity
  8
WYMIARY
 62
     4
100
AcDbLine
 10
133.119895
 20
104.012243
 30
0.0
 11
134.119895
 21
104.012243
 31
0.0
  0
LINE
  5
CA2B
100
AcDbEntity
  8
WYMIARY
 62
     4
100
AcDbLine
 10
134.119895
 20
104.012243
 30
0.0
 11
134.119895
 21
98.262243
 31
0.0
  0
TEXT
  5
CA2C
100
AcDbEntity
  8
1
 62
     4
100
AcDbText
 10
145.663897
 20
89.871815
 30
0.0
 40
2.0
  1
5
 41
0.75
  7
ITALIC
100
AcDbText
  0
LINE
  5
CA2D
100
AcDbEntity
  8
WYMIARY
 62
     4
100
AcDbLine
 10
145.893285
 20
96.160274
 30
0.0
 11
146.429516
 21
96.896787
 31
0.0
  0
LINE
  5
CA2E
100
AcDbEntity
  8
WYMIARY
 62
     4
100
AcDbLine
 10
145.893285
 20
96.160274
 30
0.0
 11
147.659174
 21
94.915547
 31
0.0
  0
LINE
  5
CA2F
100
AcDbEntity
  8
WYMIARY
 62
     4
100
AcDbLine
 10
146.429516
 20
96.896787
 30
0.0
 11
148.183992
 21
95.660104
 31
0.0
  0
LINE
  5
CA30
100
AcDbEntity
  8
WYMIARY
 62
     4
100
AcDbLine
 10
146.41731
 20
93.153719
 30
0.0
 11
147.659174
 21
94.915547
 31
0.0
  0
LINE
  5
CA31
100
AcDbEntity
  8
WYMIARY
 62
     4
100
AcDbLine
 10
148.183992
 20
95.660104
 30
0.0
 11
149.479061
 21
97.497413
 31
0.0
  0
LINE
  5
CA32
100
AcDbEntity
  8
WYMIARY
 62
     4
100
AcDbLine
 10
147.149774
 20
92.611744
 30
0.0
 11
148.403732
 21
94.390728
 31
0.0
  0
LINE
  5
CA33
100
AcDbEntity
  8
WYMIARY
 62
     4
100
AcDbLine
 10
146.41731
 20
93.153719
 30
0.0
 11
147.149774
 21
92.611744
 31
0.0
  0
LINE
  5
CA34
100
AcDbEntity
  8
WYMIARY
 62
     4
100
AcDbLine
 10
141.392088
 20
93.165408
 30
0.0
 11
141.964812
 21
93.876199
 31
0.0
  0
LINE
  5
CA35
100
AcDbEntity
  8
WYMIARY
 62
     4
100
AcDbLine
 10
157.153732
 20
94.390728
 30
0.0
 11
158.892088
 21
93.165408
 31
0.0
  0
LINE
  5
CA36
100
AcDbEntity
  8
WYMIARY
 62
     4
100
AcDbLine
 10
157.67855
 20
95.135286
 30
0.0
 11
159.464812
 21
93.876199
 31
0.0
  0
LINE
  5
CA37
100
AcDbEntity
  8
WYMIARY
 62
     4
100
AcDbLine
 10
157.67855
 20
95.135286
 30
0.0
 11
158.987524
 21
96.992322
 31
0.0
  0
LINE
  5
CA38
100
AcDbEntity
  8
WYMIARY
 62
     4
100
AcDbLine
 10
158.229061
 20
97.497413
 30
0.0
 11
158.987524
 21
96.992322
 31
0.0
  0
CIRCLE
  5
CA39
100
AcDbEntity
  8
WYMIARY
 62
     4
100
AcDbCircle
 10
157.020176
 20
95.162243
 30
0.0
 40
3.1
  0
TEXT
  5
CA3A
100
AcDbEntity
  8
1
 62
     4
100
AcDbText
 10
154.413897
 20
89.871815
 30
0.0
 40
2.0
  1
21
 41
0.75
  7
ITALIC
100
AcDbText
  0
LINE
  5
CA3B
100
AcDbEntity
  8
WYMIARY
 62
     4
100
AcDbLine
 10
154.643285
 20
96.160274
 30
0.0
 11
155.179516
 21
96.896787
 31
0.0
  0
LINE
  5
CA3C
100
AcDbEntity
  8
WYMIARY
 62
     4
100
AcDbLine
 10
154.643285
 20
96.160274
 30
0.0
 11
156.409174
 21
94.915547
 31
0.0
  0
LINE
  5
CA3D
100
AcDbEntity
  8
WYMIARY
 62
     4
100
AcDbLine
 10
155.179516
 20
96.896787
 30
0.0
 11
156.933992
 21
95.660104
 31
0.0
  0
LINE
  5
CA3E
100
AcDbEntity
  8
WYMIARY
 62
     4
100
AcDbLine
 10
155.16731
 20
93.153719
 30
0.0
 11
156.409174
 21
94.915547
 31
0.0
  0
LINE
  5
CA3F
100
AcDbEntity
  8
WYMIARY
 62
     4
100
AcDbLine
 10
156.933992
 20
95.660104
 30
0.0
 11
158.229061
 21
97.497413
 31
0.0
  0
LINE
  5
CA40
100
AcDbEntity
  8
WYMIARY
 62
     4
100
AcDbLine
 10
155.899774
 20
92.611744
 30
0.0
 11
157.153732
 21
94.390728
 31
0.0
  0
LINE
  5
CA41
100
AcDbEntity
  8
WYMIARY
 62
     4
100
AcDbLine
 10
155.16731
 20
93.153719
 30
0.0
 11
155.899774
 21
92.611744
 31
0.0
  0
LINE
  5
CA42
100
AcDbEntity
  8
WYMIARY
 62
     4
100
AcDbLine
 10
150.142088
 20
93.165408
 30
0.0
 11
150.714812
 21
93.876199
 31
0.0
  0
LINE
  5
CA43
100
AcDbEntity
  8
WYMIARY
 62
     4
100
AcDbLine
 10
158.892088
 20
93.165408
 30
0.0
 11
159.464812
 21
93.876199
 31
0.0
  0
LINE
  5
CA44
100
AcDbEntity
  8
WYMIARY
 62
     3
100
AcDbLine
 10
161.395176
 20
107.762243
 30
0.0
 11
151.595176
 21
107.762243
 31
0.0
  0
TEXT
  5
CA45
100
AcDbEntity
  8
WY
100
AcDbText
 10
218.525928
 20
16.373844
 30
0.0
 40
2.0
  1
Skala
 51
15.0
  7
ITALIC
100
AcDbText
  0
LINE
  5
CA46
100
AcDbEntity
  8
WYMIARY
 62
     3
100
AcDbLine
 10
228.260813
 20
19.689837
 30
0.0
 11
228.260813
 21
5.0
 31
0.0
  0
TEXT
  5
CA47
100
AcDbEntity
  8
1
100
AcDbText
 10
89.861936
 20
273.769101
 30
0.0
 40
5.0
  1
RIK21
 41
0.75
  7
ITALIC
100
AcDbText
  0
LINE
  5
CA48
100
AcDbEntity
  8
2
100
AcDbLine
 10
201.630406
 20
297.0
 30
0.0
 11
11.630406
 21
297.0
 31
0.0
  0
LINE
  5
CA49
100
AcDbEntity
  8
2
100
AcDbLine
 10
196.630406
 20
292.0
 30
0.0
 11
11.630406
 21
292.0
 31
0.0
  0
LINE
  5
CA4A
100
AcDbEntity
  8
WYMIARY
 62
     3
100
AcDbLine
 10
31.828065
 20
197.082226
 30
0.0
 11
31.828065
 21
216.927699
 31
0.0
  0
DIMENSION
  5
CA4B
100
AcDbEntity
  8
WYMIARY
 62
     1
100
AcDbDimension
  2
*D12
 10
88.828065
 20
231.600412
 30
0.0
 11
60.328065
 21
231.600412
 31
0.0
 12
-486.041244
 22
-590.038164
 32
0.0
 70
   128
  3
STANDARD
100
AcDbAlignedDimension
 13
31.828065
 23
210.832226
 33
0.0
 14
88.828065
 24
201.332226
 34
0.0
100
AcDbRotatedDimension
1001
ACAD
1000
DSTYLE
1002
{
1070
   140
1040
1.8
1070
   147
1040
0.75
1002
}
  0
LINE
  5
CA4C
100
AcDbEntity
  8
WYMIARY
 62
     3
100
AcDbLine
 10
79.828065
 20
201.332226
 30
0.0
 11
79.828065
 21
210.832226
 31
0.0
  0
LINE
  5
CA4D
100
AcDbEntity
  8
WYMIARY
 62
     3
100
AcDbLine
 10
64.828065
 20
153.032226
 30
0.0
 11
59.828065
 21
148.332226
 31
0.0
  0
LINE
  5
CA4E
100
AcDbEntity
  8
WYMIARY
 62
     3
100
AcDbLine
 10
59.828065
 20
153.032226
 30
0.0
 11
64.828065
 21
153.032226
 31
0.0
  0
LINE
  5
CA4F
100
AcDbEntity
  8
WYMIARY
 62
     3
100
AcDbLine
 10
72.628065
 20
153.032226
 30
0.0
 11
36.328065
 21
153.032226
 31
0.0
  0
LINE
  5
CA50
100
AcDbEntity
  8
WYMIARY
 62
     3
100
AcDbLine
 10
36.328065
 20
162.082226
 30
0.0
 11
36.328065
 21
197.082226
 31
0.0
  0
LINE
  5
CA51
100
AcDbEntity
  8
WYMIARY
 62
     3
100
AcDbLine
 10
59.828065
 20
148.332226
 30
0.0
 11
41.828065
 21
148.332226
 31
0.0
  0
LINE
  5
CA52
100
AcDbEntity
  8
WYMIARY
 62
     3
100
AcDbLine
 10
41.828065
 20
148.332226
 30
0.0
 11
59.828065
 21
148.332226
 31
0.0
  0
LINE
  5
CA53
100
AcDbEntity
  8
WYMIARY
 62
     3
100
AcDbLine
 10
31.828065
 20
148.332226
 30
0.0
 11
31.828065
 21
162.082226
 31
0.0
  0
LINE
  5
CA54
100
AcDbEntity
  8
WYMIARY
 62
     3
100
AcDbLine
 10
36.328065
 20
153.032226
 30
0.0
 11
36.328065
 21
148.332226
 31
0.0
  0
LINE
  5
CA55
100
AcDbEntity
  8
WYMIARY
 62
     3
100
AcDbLine
 10
36.328065
 20
148.332226
 30
0.0
 11
31.828065
 21
148.332226
 31
0.0
  0
LINE
  5
CA56
100
AcDbEntity
  8
WYMIARY
 62
     3
100
AcDbLine
 10
41.828065
 20
153.032226
 30
0.0
 11
41.828065
 21
148.332226
 31
0.0
  0
LINE
  5
CA57
100
AcDbEntity
  8
WYMIARY
 62
     3
100
AcDbLine
 10
36.828065
 20
153.032226
 30
0.0
 11
41.828065
 21
153.032226
 31
0.0
  0
LINE
  5
CA58
100
AcDbEntity
  8
WYMIARY
 62
     3
100
AcDbLine
 10
31.828065
 20
162.082226
 30
0.0
 11
36.328065
 21
162.082226
 31
0.0
  0
LINE
  5
CA59
100
AcDbEntity
  8
WYMIARY
 62
     3
100
AcDbLine
 10
59.828065
 20
153.032226
 30
0.0
 11
54.828065
 21
153.032226
 31
0.0
  0
LINE
  5
CA5A
100
AcDbEntity
  8
WYMIARY
 62
     3
100
AcDbLine
 10
33.724477
 20
194.35051
 30
0.0
 11
35.091021
 21
197.082226
 31
0.0
  0
LINE
  5
CA5B
100
AcDbEntity
  8
WYMIARY
 62
     3
100
AcDbLine
 10
31.828065
 20
197.082226
 30
0.0
 11
33.724477
 21
194.35051
 31
0.0
  0
LINE
  5
CA5C
100
AcDbEntity
  8
WYMIARY
 62
     3
100
AcDbLine
 10
31.828065
 20
197.082226
 30
0.0
 11
36.328065
 21
197.082226
 31
0.0
  0
LINE
  5
CA5D
100
AcDbEntity
  8
WYMIARY
 62
     3
100
AcDbLine
 10
88.828065
 20
201.332226
 30
0.0
 11
88.828065
 21
157.832226
 31
0.0
  0
LINE
  5
CA5E
100
AcDbEntity
  8
WYMIARY
 62
     3
100
AcDbLine
 10
88.828065
 20
157.832226
 30
0.0
 11
79.828065
 21
157.832226
 31
0.0
  0
LINE
  5
CA5F
100
AcDbEntity
  8
WYMIARY
 62
     3
100
AcDbLine
 10
79.828065
 20
157.832226
 30
0.0
 11
79.828065
 21
148.332226
 31
0.0
  0
LINE
  5
CA60
100
AcDbEntity
  8
WYMIARY
 62
     3
100
AcDbLine
 10
72.628065
 20
153.032226
 30
0.0
 11
72.628065
 21
148.332226
 31
0.0
  0
LINE
  5
CA61
100
AcDbEntity
  8
WYMIARY
 62
     3
100
AcDbLine
 10
79.828065
 20
148.332226
 30
0.0
 11
72.628065
 21
148.332226
 31
0.0
  0
LINE
  5
CA62
100
AcDbEntity
  8
WYMIARY
 62
     3
100
AcDbLine
 10
79.828065
 20
148.332226
 30
0.0
 11
78.828065
 21
148.332226
 31
0.0
  0
LINE
  5
CA63
100
AcDbEntity
  8
WYMIARY
 62
     3
100
AcDbLine
 10
79.828065
 20
148.332226
 30
0.0
 11
78.828065
 21
148.332226
 31
0.0
  0
LINE
  5
CA64
100
AcDbEntity
  8
WYMIARY
 62
     3
100
AcDbLine
 10
88.828065
 20
201.332226
 30
0.0
 11
79.828065
 21
201.332226
 31
0.0
  0
DIMENSION
  5
CA65
100
AcDbEntity
  8
WYMIARY
 62
     1
100
AcDbDimension
  2
*D13
 10
68.328065
 20
225.831622
 30
0.0
 11
50.078065
 21
225.831622
 31
0.0
 12
-486.041244
 22
-590.038164
 32
0.0
 70
   128
  3
STANDARD
100
AcDbAlignedDimension
 13
31.828065
 23
210.832226
 33
0.0
 14
68.328065
 24
210.832226
 34
0.0
100
AcDbRotatedDimension
1001
ACAD
1000
DSTYLE
1002
{
1070
   140
1040
1.8
1070
   147
1040
0.75
1002
}
  0
LINE
  5
CA66
100
AcDbEntity
  8
WYMIARY
 62
     3
100
AcDbLine
 10
59.828065
 20
210.832226
 30
0.0
 11
64.828065
 21
206.132226
 31
0.0
  0
LINE
  5
CA67
100
AcDbEntity
  8
WYMIARY
 62
     3
100
AcDbLine
 10
59.828065
 20
206.132226
 30
0.0
 11
64.828065
 21
206.132226
 31
0.0
  0
LINE
  5
CA68
100
AcDbEntity
  8
WYMIARY
 62
     3
100
AcDbLine
 10
72.628065
 20
206.132226
 30
0.0
 11
36.328065
 21
206.132226
 31
0.0
  0
DIMENSION
  5
CA69
100
AcDbEntity
  8
WYMIARY
 62
     1
100
AcDbDimension
  2
*D14
 10
50.828065
 20
219.403542
 30
0.0
 11
41.328065
 21
221.053542
 31
0.0
 12
-486.041244
 22
-590.038164
 32
0.0
  3
STANDARD
100
AcDbAlignedDimension
 13
31.828065
 23
210.832226
 33
0.0
 14
50.828065
 24
210.832226
 34
0.0
100
AcDbRotatedDimension
1001
ACAD
1000
DSTYLE
1002
{
1070
   140
1040
1.8
1070
   147
1040
0.75
1002
}
  0
LINE
  5
CA6A
100
AcDbEntity
  8
WYMIARY
 62
     3
100
AcDbLine
 10
59.828065
 20
210.832226
 30
0.0
 11
41.828065
 21
210.832226
 31
0.0
  0
LINE
  5
CA6B
100
AcDbEntity
  8
WYMIARY
 62
     3
100
AcDbLine
 10
41.828065
 20
210.832226
 30
0.0
 11
59.828065
 21
210.832226
 31
0.0
  0
LINE
  5
CA6C
100
AcDbEntity
  8
WYMIARY
 62
     3
100
AcDbLine
 10
36.328065
 20
210.832226
 30
0.0
 11
31.828065
 21
210.832226
 31
0.0
  0
LINE
  5
CA6D
100
AcDbEntity
  8
WYMIARY
 62
     3
100
AcDbLine
 10
36.328065
 20
210.832226
 30
0.0
 11
36.328065
 21
206.132226
 31
0.0
  0
LINE
  5
CA6E
100
AcDbEntity
  8
WYMIARY
 62
     3
100
AcDbLine
 10
31.828065
 20
210.832226
 30
0.0
 11
36.328065
 21
210.832226
 31
0.0
  0
LINE
  5
CA6F
100
AcDbEntity
  8
WYMIARY
 62
     3
100
AcDbLine
 10
41.828065
 20
206.132226
 30
0.0
 11
41.828065
 21
210.832226
 31
0.0
  0
LINE
  5
CA70
100
AcDbEntity
  8
WYMIARY
 62
     3
100
AcDbLine
 10
59.828065
 20
206.132226
 30
0.0
 11
54.828065
 21
206.132226
 31
0.0
  0
LINE
  5
CA71
100
AcDbEntity
  8
WYMIARY
 62
     3
100
AcDbLine
 10
59.828065
 20
206.132226
 30
0.0
 11
54.828065
 21
206.132226
 31
0.0
  0
LINE
  5
CA72
100
AcDbEntity
  8
WYMIARY
 62
     3
100
AcDbLine
 10
72.628065
 20
210.832226
 30
0.0
 11
72.628065
 21
206.132226
 31
0.0
  0
LINE
  5
CA73
100
AcDbEntity
  8
WYMIARY
 62
     3
100
AcDbLine
 10
79.828065
 20
210.832226
 30
0.0
 11
72.628065
 21
210.832226
 31
0.0
  0
LINE
  5
CA74
100
AcDbEntity
  8
WYMIARY
 62
     6
100
AcDbLine
 10
11.630406
 20
297.0
 30
0.0
 11
0.0
 21
297.0
 31
0.0
  0
DIMENSION
  5
CA75
100
AcDbEntity
  8
WYMIARY
 62
     1
100
AcDbDimension
  2
*D10
 10
175.85678
 20
157.832226
 30
0.0
 11
174.20678
 21
179.582226
 31
0.0
 12
-433.103124
 22
-590.038164
 32
0.0
  3
STANDARD
100
AcDbAlignedDimension
 13
161.395176
 23
201.332226
 33
0.0
 14
161.395176
 24
157.832226
 34
0.0
 50
90.0
100
AcDbRotatedDimension
1001
ACAD
1000
DSTYLE
1002
{
1070
   140
1040
1.8
1070
   147
1040
0.75
1002
}
  0
DIMENSION
  5
CA76
100
AcDbEntity
  8
WYMIARY
 62
     1
100
AcDbDimension
  2
*D9
 10
183.524718
 20
148.332226
 30
0.0
 11
181.874718
 21
179.582226
 31
0.0
 12
-433.103124
 22
-590.038164
 32
0.0
  3
STANDARD
100
AcDbAlignedDimension
 13
161.395176
 23
210.832226
 33
0.0
 14
136.195176
 24
148.332226
 34
0.0
 50
90.0
100
AcDbRotatedDimension
1001
ACAD
1000
DSTYLE
1002
{
1070
   140
1040
1.8
1070
   147
1040
0.75
1002
}
  0
DIMENSION
  5
CA77
100
AcDbEntity
  8
WYMIARY
 62
     1
100
AcDbDimension
  2
*D11
 10
118.505526
 20
154.582226
 30
0.0
 11
116.855526
 21
179.582226
 31
0.0
 12
-433.103124
 22
-590.038164
 32
0.0
  3
STANDARD
100
AcDbAlignedDimension
 13
131.145176
 23
204.582226
 33
0.0
 14
131.145176
 24
154.582226
 34
0.0
 50
90.0
100
AcDbRotatedDimension
1001
ACAD
1000
DSTYLE
1002
{
1070
   140
1040
1.8
1070
   147
1040
0.75
1002
}
  0
LINE
  5
CA78
100
AcDbEntity
  8
WYMIARY
 62
     4
100
AcDbLine
 10
134.119895
 20
207.082226
 30
0.0
 11
134.119895
 21
201.332226
 31
0.0
  0
LINE
  5
CA79
100
AcDbEntity
  8
WYMIARY
 62
     3
100
AcDbLine
 10
126.395176
 20
179.582226
 30
0.0
 11
126.395176
 21
207.082226
 31
0.0
  0
ARC
  5
CA7A
100
AcDbEntity
  8
WYMIARY
 62
     4
100
AcDbCircle
 10
131.145176
 20
204.582226
 30
0.0
 40
2.0
100
AcDbArc
 50
174.334226
 51
9.119732
  0
LINE
  5
CA7B
100
AcDbEntity
  8
WYMIARY
 62
     3
100
AcDbLine
 10
126.395176
 20
179.582226
 30
0.0
 11
126.395176
 21
204.582226
 31
0.0
  0
LINE
  5
CA7C
100
AcDbEntity
  8
WYMIARY
 62
     3
100
AcDbLine
 10
161.395176
 20
207.582226
 30
0.0
 11
161.395176
 21
151.582226
 31
0.0
  0
LINE
  5
CA7D
100
AcDbEntity
  8
WYMIARY
 62
     3
100
AcDbLine
 10
126.395176
 20
207.582226
 30
0.0
 11
126.395176
 21
151.582226
 31
0.0
  0
ARC
  5
CA7E
100
AcDbEntity
  8
WYMIARY
 62
     4
100
AcDbCircle
 10
131.145176
 20
154.582226
 30
0.0
 40
2.0
100
AcDbArc
 50
356.852491
 51
181.588096
  0
LINE
  5
CA7F
100
AcDbEntity
  8
WYMIARY
 62
     3
100
AcDbLine
 10
126.395176
 20
157.832226
 30
0.0
 11
161.395176
 21
157.832226
 31
0.0
  0
LINE
  5
CA80
100
AcDbEntity
  8
WYMIARY
 62
     3
100
AcDbLine
 10
126.395176
 20
201.332226
 30
0.0
 11
161.395176
 21
201.332226
 31
0.0
  0
LINE
  5
CA81
100
AcDbEntity
  8
WYMIARY
 62
     3
100
AcDbLine
 10
126.395176
 20
148.332226
 30
0.0
 11
136.195176
 21
148.332226
 31
0.0
  0
LINE
  5
CA82
100
AcDbEntity
  8
WYMIARY
 62
     3
100
AcDbLine
 10
126.395176
 20
179.582226
 30
0.0
 11
126.395176
 21
152.082226
 31
0.0
  0
LINE
  5
CA83
100
AcDbEntity
  8
WYMIARY
 62
     3
100
AcDbLine
 10
126.395176
 20
179.582226
 30
0.0
 11
126.395176
 21
154.582226
 31
0.0
  0
LINE
  5
CA84
100
AcDbEntity
  8
WYMIARY
 62
     3
100
AcDbLine
 10
126.395176
 20
179.582226
 30
0.0
 11
126.395176
 21
157.832226
 31
0.0
  0
LINE
  5
CA85
100
AcDbEntity
  8
WYMIARY
 62
     4
100
AcDbLine
 10
129.145944
 20
154.637654
 30
0.0
 11
129.145944
 21
152.082226
 31
0.0
  0
LINE
  5
CA86
100
AcDbEntity
  8
WYMIARY
 62
     4
100
AcDbLine
 10
126.395176
 20
152.082226
 30
0.0
 11
129.145944
 21
152.082226
 31
0.0
  0
LINE
  5
CA87
100
AcDbEntity
  8
WYMIARY
 62
     3
100
AcDbLine
 10
126.395176
 20
151.582226
 30
0.0
 11
126.395176
 21
148.332226
 31
0.0
  0
LINE
  5
CA88
100
AcDbEntity
  8
WYMIARY
 62
     3
100
AcDbLine
 10
126.395176
 20
179.582226
 30
0.0
 11
126.395176
 21
201.332226
 31
0.0
  0
LINE
  5
CA89
100
AcDbEntity
  8
WYMIARY
 62
     3
100
AcDbLine
 10
136.195176
 20
151.582226
 30
0.0
 11
161.395176
 21
151.582226
 31
0.0
  0
LINE
  5
CA8A
100
AcDbEntity
  8
WYMIARY
 62
     4
100
AcDbLine
 10
134.142159
 20
152.082226
 30
0.0
 11
134.142159
 21
157.832226
 31
0.0
  0
LINE
  5
CA8B
100
AcDbEntity
  8
WYMIARY
 62
     4
100
AcDbLine
 10
133.142159
 20
154.472413
 30
0.0
 11
133.142159
 21
152.082226
 31
0.0
  0
LINE
  5
CA8C
100
AcDbEntity
  8
WYMIARY
 62
     4
100
AcDbLine
 10
133.142159
 20
152.082226
 30
0.0
 11
134.142159
 21
152.082226
 31
0.0
  0
LINE
  5
CA8D
100
AcDbEntity
  8
WYMIARY
 62
     4
100
AcDbLine
 10
133.142159
 20
152.082226
 30
0.0
 11
134.142159
 21
152.082226
 31
0.0
  0
LINE
  5
CA8E
100
AcDbEntity
  8
WYMIARY
 62
     3
100
AcDbLine
 10
136.195176
 20
148.332226
 30
0.0
 11
136.195176
 21
151.582226
 31
0.0
  0
DIMENSION
  5
CA8F
100
AcDbEntity
  8
WYMIARY
 62
     1
100
AcDbDimension
  2
*D8
 10
161.395176
 20
222.934775
 30
0.0
 11
143.895176
 21
224.584775
 31
0.0
 12
-433.103124
 22
-590.038164
 32
0.0
  3
STANDARD
100
AcDbAlignedDimension
 13
126.395176
 23
207.582226
 33
0.0
 14
161.395176
 24
210.832226
 34
0.0
100
AcDbRotatedDimension
1001
ACAD
1000
DSTYLE
1002
{
1070
   140
1040
1.8
1070
   147
1040
0.75
1002
}
  0
LINE
  5
CA90
100
AcDbEntity
  8
WYMIARY
 62
     3
100
AcDbLine
 10
126.395176
 20
207.582226
 30
0.0
 11
151.595176
 21
207.582226
 31
0.0
  0
LINE
  5
CA91
100
AcDbEntity
  8
WYMIARY
 62
     4
100
AcDbLine
 10
126.395176
 20
207.082226
 30
0.0
 11
129.154947
 21
207.082226
 31
0.0
  0
LINE
  5
CA92
100
AcDbEntity
  8
WYMIARY
 62
     4
100
AcDbLine
 10
129.154947
 20
204.779677
 30
0.0
 11
129.154947
 21
207.082226
 31
0.0
  0
LINE
  5
CA93
100
AcDbEntity
  8
WYMIARY
 62
     3
100
AcDbLine
 10
126.395176
 20
207.582226
 30
0.0
 11
131.145176
 21
207.582226
 31
0.0
  0
LINE
  5
CA94
100
AcDbEntity
  8
WYMIARY
 62
     4
100
AcDbLine
 10
133.119895
 20
207.082226
 30
0.0
 11
134.119895
 21
207.082226
 31
0.0
  0
LINE
  5
CA95
100
AcDbEntity
  8
WYMIARY
 62
     4
100
AcDbLine
 10
133.119895
 20
207.082226
 30
0.0
 11
134.119895
 21
207.082226
 31
0.0
  0
LINE
  5
CA96
100
AcDbEntity
  8
WYMIARY
 62
     4
100
AcDbLine
 10
133.119895
 20
204.899222
 30
0.0
 11
133.119895
 21
207.082226
 31
0.0
  0
LINE
  5
CA97
100
AcDbEntity
  8
WYMIARY
 62
     3
100
AcDbLine
 10
161.395176
 20
210.832226
 30
0.0
 11
151.595176
 21
210.832226
 31
0.0
  0
LINE
  5
CA98
100
AcDbEntity
  8
WYMIARY
 62
     3
100
AcDbLine
 10
151.595176
 20
210.832226
 30
0.0
 11
151.595176
 21
207.582226
 31
0.0
  0
LINE
  5
CA99
100
AcDbEntity
  8
WYMIARY
 62
     3
100
AcDbLine
 10
161.395176
 20
207.582226
 30
0.0
 11
161.395176
 21
210.832226
 31
0.0
  0
LINE
  5
CA9A
100
AcDbEntity
  8
WYMIARY
 62
     3
100
AcDbLine
 10
230.232801
 20
181.122911
 30
0.0
 11
230.232801
 21
205.273305
 31
0.0
  0
TEXT
  5
CA9B
100
AcDbEntity
  8
1
100
AcDbText
 10
223.307436
 20
181.130007
 30
0.0
 40
5.0
  1
2
 41
0.75
  7
ITALIC
100
AcDbText
  0
LINE
  5
CA9C
100
AcDbEntity
  8
WYMIARY
 62
     3
100
AcDbLine
 10
230.232801
 20
229.423699
 30
0.0
 11
230.232801
 21
253.574092
 31
0.0
  0
LINE
  5
CA9D
100
AcDbEntity
  8
WYMIARY
 62
     3
100
AcDbLine
 10
230.232801
 20
205.273305
 30
0.0
 11
222.364059
 21
229.405293
 31
0.0
  0
TEXT
  5
CA9E
100
AcDbEntity
  8
1
100
AcDbText
 10
223.307436
 20
248.862113
 30
0.0
 40
5.0
  1
1
 41
0.75
  7
ITALIC
100
AcDbText
  0
LINE
  5
CA9F
100
AcDbEntity
  8
WYMIARY
 62
     6
100
AcDbLine
 10
213.260813
 20
297.0
 30
0.0
 11
201.630406
 21
297.0
 31
0.0
  0
LINE
  5
CAA0
100
AcDbEntity
  8
2
100
AcDbLine
 10
398.260813
 20
5.0
 30
0.0
 11
398.260813
 21
292.0
 31
0.0
  0
LINE
  5
CAA1
100
AcDbEntity
  8
2
100
AcDbLine
 10
403.260813
 20
0.0
 30
0.0
 11
403.260813
 21
297.0
 31
0.0
  0
LINE
  5
CAA2
100
AcDbEntity
  8
WYMIARY
 62
     6
100
AcDbLine
 10
403.260813
 20
0.0
 30
0.0
 11
403.260813
 21
297.0
 31
0.0
  0
LINE
  5
CAA3
100
AcDbEntity
  8
WYMIARY
 62
     6
100
AcDbLine
 10
403.260813
 20
0.0
 30
0.0
 11
403.260813
 21
297.0
 31
0.0
  0
LINE
  5
CAA4
100
AcDbEntity
  8
WYMIARY
 62
     6
100
AcDbLine
 10
403.260813
 20
0.0
 30
0.0
 11
403.260813
 21
297.0
 31
0.0
  0
LINE
  5
CAA5
100
AcDbEntity
  8
2
100
AcDbLine
 10
403.260813
 20
0.0
 30
0.0
 11
403.260813
 21
297.0
 31
0.0
  0
LINE
  5
CAA6
100
AcDbEntity
  8
WYMIARY
 62
     6
100
AcDbLine
 10
403.260813
 20
0.0
 30
0.0
 11
403.260813
 21
297.0
 31
0.0
  0
LINE
  5
CAA7
100
AcDbEntity
  8
2
100
AcDbLine
 10
403.260813
 20
0.0
 30
0.0
 11
403.260813
 21
297.0
 31
0.0
  0
LINE
  5
CAA8
100
AcDbEntity
  8
WYMIARY
 62
     6
100
AcDbLine
 10
403.260813
 20
0.0
 30
0.0
 11
403.260813
 21
297.0
 31
0.0
  0
TEXT
  5
CAA9
100
AcDbEntity
  8
WY
100
AcDbText
 10
303.151358
 20
16.599248
 30
0.0
 40
2.0
  1
Draw. No.
 51
15.0
  7
ITALIC
100
AcDbText
  0
TEXT
  5
CAAA
100
AcDbEntity
  8
1
100
AcDbText
 10
303.498473
 20
9.064009
 30
0.0
 40
3.0
  1
RIK21-02
 41
0.65
  7
ITALIC
100
AcDbText
  0
LINE
  5
CAAB
100
AcDbEntity
  8
0
100
AcDbLine
 10
270.850382
 20
9.015264
 30
0.0
 11
271.780382
 21
9.015264
 31
0.0
  0
ARC
  5
CAAC
100
AcDbEntity
  8
0
100
AcDbCircle
 10
271.315382
 20
14.361264
 30
0.0
 40
0.3375
100
AcDbArc
 50
360.0
 51
180.0
  0
ARC
  5
CAAD
100
AcDbEntity
  8
0
100
AcDbCircle
 10
271.315382
 20
10.252764
 30
0.0
 40
0.3375
100
AcDbArc
 50
180.0
 51
0.0
  0
LINE
  5
CAAE
100
AcDbEntity
  8
0
100
AcDbLine
 10
270.850382
 20
15.612412
 30
0.0
 11
271.780382
 21
15.612412
 31
0.0
  0
LINE
  5
CAAF
100
AcDbEntity
  8
0
100
AcDbLine
 10
245.28683
 20
11.742481
 30
0.0
 11
244.384418
 21
11.742481
 31
0.0
1001
ACAD
1000
ASC_BOUNDS
1002
{
1070
    19
1002
}
  0
ELLIPSE
  5
CAB0
100
AcDbEntity
  8
0
100
AcDbEllipse
 10
245.28683
 20
11.742481
 30
0.0
 11
-1.203215696869327
 21
0.0000000000001967
 31
0.0
210
0.0
220
0.0
230
1.0
 40
0.958812
 41
-1.570796326794739
 42
0.0000000000001705
1001
ACAD
1000
ASC_BOUNDS
1002
{
1070
    19
1002
}
  0
LINE
  5
CAB1
100
AcDbEntity
  8
0
100
AcDbLine
 10
244.083614
 20
11.742481
 30
0.0
 11
244.384418
 21
11.742481
 31
0.0
1001
ACAD
1000
ASC_BOUNDS
1002
{
1070
    19
1002
}
  0
LINE
  5
CAB2
100
AcDbEntity
  8
WYMIARY
 62
     3
100
AcDbLine
 10
243.260813
 20
19.689837
 30
0.0
 11
243.260813
 21
5.0
 31
0.0
  0
LINE
  5
CAB3
100
AcDbEntity
  8
0
100
AcDbLine
 10
251.20264
 20
8.185369
 30
0.0
 11
251.20264
 21
11.742481
 31
0.0
1001
ACAD
1000
ASC_BOUNDS
1002
{
1070
    19
1002
}
  0
ELLIPSE
  5
CAB4
100
AcDbEntity
  8
0
100
AcDbEllipse
 10
250.400497
 20
8.185369
 30
0.0
 11
0.8021437979128704
 21
0.0000000000001602
 31
0.0
210
0.0
220
0.0
230
1.0
 40
0.958812
 41
4.712388980384497
 42
6.283185307179378
1001
ACAD
1000
ASC_BOUNDS
1002
{
1070
    19
1002
}
  0
ELLIPSE
  5
CAB5
100
AcDbEntity
  8
0
100
AcDbEllipse
 10
248.219668
 20
15.17942
 30
0.0
 11
2.983077570132104
 21
0.0000000000002996
 31
0.0
210
0.0
220
0.0
230
1.0
 40
0.958812
 41
-1.562393163247347
 42
0.0084031635475457
1001
ACAD
1000
ASC_BOUNDS
1002
{
1070
    19
1002
}
  0
ELLIPSE
  5
CAB6
100
AcDbEntity
  8
0
100
AcDbEllipse
 10
248.176492
 20
15.509539
 30
0.0
 11
-4.072692107280919
 21
0.0000000000000925
 31
0.0
210
0.0
220
0.0
230
1.0
 40
0.958812
 41
1.587553347046634
 42
2.408388587343224
1001
ACAD
1000
ASC_BOUNDS
1002
{
1070
    19
1002
}
  0
LINE
  5
CAB7
100
AcDbEntity
  8
0
100
AcDbLine
 10
252.405856
 20
12.896138
 30
0.0
 11
252.105052
 21
12.896138
 31
0.0
1001
ACAD
1000
ASC_BOUNDS
1002
{
1070
    19
1002
}
  0
LINE
  5
CAB8
100
AcDbEntity
  8
0
100
AcDbLine
 10
251.20264
 20
12.896138
 30
0.0
 11
252.105052
 21
12.896138
 31
0.0
1001
ACAD
1000
ASC_BOUNDS
1002
{
1070
    19
1002
}
  0
ELLIPSE
  5
CAB9
100
AcDbEntity
  8
0
100
AcDbEllipse
 10
251.20264
 20
12.896138
 30
0.0
 11
1.203215696869352
 21
0.0000000000000893
 31
0.0
210
0.0
220
0.0
230
1.0
 40
0.958812
 41
4.712388980384611
 42
6.283185307179508
1001
ACAD
1000
ASC_BOUNDS
1002
{
1070
    19
1002
}
  0
LINE
  5
CABA
100
AcDbEntity
  8
0
100
AcDbLine
 10
251.20264
 20
15.155385
 30
0.0
 11
251.20264
 21
16.260974
 31
0.0
1001
ACAD
1000
ASC_BOUNDS
1002
{
1070
    19
1002
}
  0
ELLIPSE
  5
CABB
100
AcDbEntity
  8
0
100
AcDbEllipse
 10
250.400497
 20
16.260974
 30
0.0
 11
-0.8021437979128705
 21
0.000000000000038
 31
0.0
210
0.0
220
0.0
230
1.0
 40
0.958812
 41
3.141592653589842
 42
4.712388980384734
1001
ACAD
1000
ASC_BOUNDS
1002
{
1070
    19
1002
}
  0
LINE
  5
CABC
100
AcDbEntity
  8
0
100
AcDbLine
 10
245.28683
 20
9.895061
 30
0.0
 11
245.28683
 21
8.185369
 31
0.0
1001
ACAD
1000
ASC_BOUNDS
1002
{
1070
    19
1002
}
  0
ELLIPSE
  5
CABD
100
AcDbEntity
  8
0
100
AcDbEllipse
 10
246.088974
 20
8.185369
 30
0.0
 11
-0.8021437979128705
 21
0.0000000000000154
 31
0.0
210
0.0
220
0.0
230
1.0
 40
0.958812
 41
0.00000000000002
 42
1.570796326794914
1001
ACAD
1000
ASC_BOUNDS
1002
{
1070
    19
1002
}
  0
LINE
  5
CABE
100
AcDbEntity
  8
0
100
AcDbLine
 10
245.28683
 20
13.461283
 30
0.0
 11
245.28683
 21
16.260974
 31
0.0
1001
ACAD
1000
ASC_BOUNDS
1002
{
1070
    19
1002
}
  0
LINE
  5
CABF
100
AcDbEntity
  8
0
100
AcDbLine
 10
245.28683
 20
11.742481
 30
0.0
 11
245.28683
 21
11.034514
 31
0.0
1001
ACAD
1000
ASC_BOUNDS
1002
{
1070
    19
1002
}
  0
LINE
  5
CAC0
100
AcDbEntity
  8
0
100
AcDbLine
 10
245.28683
 20
13.461283
 30
0.0
 11
245.28683
 21
12.896138
 31
0.0
1001
ACAD
1000
ASC_BOUNDS
1002
{
1070
    19
1002
}
  0
ELLIPSE
  5
CAC1
100
AcDbEntity
  8
0
100
AcDbEllipse
 10
246.088974
 20
16.260974
 30
0.0
 11
0.8021437979128704
 21
0.000000000000038
 31
0.0
210
0.0
220
0.0
230
1.0
 40
0.958812
 41
1.570796326794851
 42
3.141592653589743
1001
ACAD
1000
ASC_BOUNDS
1002
{
1070
    19
1002
}
  0
LINE
  5
CAC2
100
AcDbEntity
  8
0
100
AcDbLine
 10
246.088974
 20
7.416263
 30
0.0
 11
250.400497
 21
7.416263
 31
0.0
1001
ACAD
1000
ASC_BOUNDS
1002
{
1070
    19
1002
}
  0
ELLIPSE
  5
CAC3
100
AcDbEntity
  8
0
100
AcDbEllipse
 10
247.83876
 20
9.872487
 30
0.0
 11
2.960559210508897
 21
0.3570763225581005
 31
0.0
210
0.0
220
0.0
230
0.9999999999999998
 40
0.820999
 41
1.335209029023201
 42
2.503032872947537
1001
ACAD
1000
ASC_BOUNDS
1002
{
1070
    19
1002
}
  0
ELLIPSE
  5
CAC4
100
AcDbEntity
  8
0
100
AcDbEllipse
 10
248.069266
 20
8.937306
 30
0.0
 11
3.015746449176212
 21
0.7746519372140012
 31
0.0
210
0.0
220
0.0
230
1.0
 40
0.846775
 41
1.29973646820557
 42
2.479974117225238
1001
ACAD
1000
ASC_BOUNDS
1002
{
1070
    19
1002
}
  0
LINE
  5
CAC5
100
AcDbEntity
  8
0
100
AcDbLine
 10
246.088974
 20
17.030079
 30
0.0
 11
250.400497
 21
17.030079
 31
0.0
  0
LINE
  5
CAC6
100
AcDbEntity
  8
0
100
AcDbLine
 10
262.051382
 20
11.13667
 30
0.0
 11
262.051382
 21
10.236264
 31
0.0
  0
LINE
  5
CAC7
100
AcDbEntity
  8
0
100
AcDbLine
 10
262.051382
 20
11.81167
 30
0.0
 11
262.051382
 21
14.41447
 31
0.0
  0
LINE
  5
CAC8
100
AcDbEntity
  8
0
100
AcDbLine
 10
259.783639
 20
9.047064
 30
0.0
 11
260.638382
 21
9.047064
 31
0.0
  0
ARC
  5
CAC9
100
AcDbEntity
  8
0
100
AcDbCircle
 10
260.264882
 20
14.361264
 30
0.0
 40
0.3375
100
AcDbArc
 50
360.0
 51
180.0
  0
LINE
  5
CACA
100
AcDbEntity
  8
0
100
AcDbLine
 10
259.927382
 20
11.81167
 30
0.0
 11
259.927382
 21
10.236264
 31
0.0
  0
LINE
  5
CACB
100
AcDbEntity
  8
0
100
AcDbLine
 10
259.927382
 20
12.71167
 30
0.0
 11
260.602382
 21
12.71167
 31
0.0
  0
LINE
  5
CACC
100
AcDbEntity
  8
0
100
AcDbLine
 10
260.602382
 20
11.13667
 30
0.0
 11
260.602382
 21
10.252764
 31
0.0
  0
LINE
  5
CACD
100
AcDbEntity
  8
0
100
AcDbLine
 10
259.927382
 20
11.81167
 30
0.0
 11
259.927382
 21
10.252764
 31
0.0
  0
ARC
  5
CACE
100
AcDbEntity
  8
0
100
AcDbCircle
 10
260.264882
 20
10.252764
 30
0.0
 40
0.3375
100
AcDbArc
 50
180.0
 51
0.0
  0
LINE
  5
CACF
100
AcDbEntity
  8
0
100
AcDbLine
 10
260.602382
 20
14.361264
 30
0.0
 11
260.602382
 21
12.71167
 31
0.0
  0
LINE
  5
CAD0
100
AcDbEntity
  8
0
100
AcDbLine
 10
259.927382
 20
14.361264
 30
0.0
 11
259.927382
 21
12.71167
 31
0.0
  0
LINE
  5
CAD1
100
AcDbEntity
  8
0
100
AcDbLine
 10
259.783639
 20
15.60367
 30
0.0
 11
260.638382
 21
15.60367
 31
0.0
  0
ARC
  5
CAD2
100
AcDbEntity
  8
0
100
AcDbCircle
 10
260.645754
 20
10.472364
 30
0.0
 40
1.425319
100
AcDbArc
 50
269.703671
 51
350.465171
  0
ARC
  5
CAD3
100
AcDbEntity
  8
0
100
AcDbCircle
 10
260.645754
 20
14.17837
 30
0.0
 40
1.425319
100
AcDbArc
 50
9.534829
 51
90.296329
  0
LINE
  5
CAD4
100
AcDbEntity
  8
0
100
AcDbLine
 10
262.051382
 20
11.81167
 30
0.0
 11
259.927382
 21
11.81167
 31
0.0
  0
LINE
  5
CAD5
100
AcDbEntity
  8
0
100
AcDbLine
 10
260.602382
 20
11.13667
 30
0.0
 11
262.051382
 21
11.13667
 31
0.0
  0
LINE
  5
CAD6
100
AcDbEntity
  8
0
100
AcDbLine
 10
255.481398
 20
14.361264
 30
0.0
 11
255.492971
 21
9.015264
 31
0.0
  0
LINE
  5
CAD7
100
AcDbEntity
  8
0
100
AcDbLine
 10
255.481398
 20
9.015264
 30
0.0
 11
255.492971
 21
9.022759
 31
0.0
  0
ARC
  5
CAD8
100
AcDbEntity
  8
0
100
AcDbCircle
 10
256.388057
 20
14.34127
 30
0.0
 40
1.377457
100
AcDbArc
 50
16.265061
 51
130.527299
  0
LINE
  5
CAD9
100
AcDbEntity
  8
0
100
AcDbLine
 10
256.500309
 20
12.93607
 30
0.0
 11
257.710382
 21
12.93607
 31
0.0
  0
LINE
  5
CADA
100
AcDbEntity
  8
0
100
AcDbLine
 10
256.167971
 20
12.93607
 30
0.0
 11
257.710382
 21
12.93607
 31
0.0
  0
ARC
  5
CADB
100
AcDbEntity
  8
0
100
AcDbCircle
 10
255.818898
 20
14.361264
 30
0.0
 40
0.3375
100
AcDbArc
 50
360.0
 51
180.0
  0
LINE
  5
CADC
100
AcDbEntity
  8
0
100
AcDbLine
 10
256.156398
 20
14.361264
 30
0.0
 11
256.167971
 21
12.93607
 31
0.0
  0
LINE
  5
CADD
100
AcDbEntity
  8
0
100
AcDbLine
 10
257.710382
 20
12.93607
 30
0.0
 11
257.710382
 21
14.72707
 31
0.0
1001
ACAD
1000
ASC_BOUNDS
1002
{
1070
    19
1002
}
  0
LINE
  5
CADE
100
AcDbEntity
  8
0
100
AcDbLine
 10
258.385382
 20
10.236264
 30
0.0
 11
258.385382
 21
14.41447
 31
0.0
  0
LINE
  5
CADF
100
AcDbEntity
  8
0
100
AcDbLine
 10
255.492971
 20
15.60367
 30
0.0
 11
255.492971
 21
15.38827
 31
0.0
  0
LINE
  5
CAE0
100
AcDbEntity
  8
0
100
AcDbLine
 10
253.950856
 20
9.015264
 30
0.0
 11
253.950856
 21
15.60367
 31
0.0
1001
ACAD
1000
ASC_BOUNDS
1002
{
1070
    19
1002
}
  0
LINE
  5
CAE1
100
AcDbEntity
  8
0
100
AcDbLine
 10
253.950856
 20
9.015264
 30
0.0
 11
255.492971
 21
9.015264
 31
0.0
1001
ACAD
1000
ASC_BOUNDS
1002
{
1070
    19
1002
}
  0
LINE
  5
CAE2
100
AcDbEntity
  8
0
100
AcDbLine
 10
253.950856
 20
15.60367
 30
0.0
 11
255.492971
 21
15.60367
 31
0.0
1001
ACAD
1000
ASC_BOUNDS
1002
{
1070
    19
1002
}
  0
ARC
  5
CAE3
100
AcDbEntity
  8
0
100
AcDbCircle
 10
259.791011
 20
10.472364
 30
0.0
 40
1.425319
100
AcDbArc
 50
189.534829
 51
270.296329
  0
ARC
  5
CAE4
100
AcDbEntity
  8
0
100
AcDbCircle
 10
259.791011
 20
14.17837
 30
0.0
 40
1.425319
100
AcDbArc
 50
89.703671
 51
170.465171
  0
LINE
  5
CAE5
100
AcDbEntity
  8
0
100
AcDbLine
 10
270.977882
 20
14.361264
 30
0.0
 11
270.977882
 21
10.252764
 31
0.0
  0
ARC
  5
CAE6
100
AcDbEntity
  8
0
100
AcDbCircle
 10
267.571289
 20
10.136416
 30
0.0
 40
1.128907
100
AcDbArc
 50
276.719576
 51
2.175194
  0
LINE
  5
CAE7
100
AcDbEntity
  8
0
100
AcDbLine
 10
268.699382
 20
14.583264
 30
0.0
 11
268.699382
 21
10.179264
 31
0.0
  0
LINE
  5
CAE8
100
AcDbEntity
  8
0
100
AcDbLine
 10
269.374382
 20
10.203412
 30
0.0
 11
269.374382
 21
14.424264
 31
0.0
  0
LINE
  5
CAE9
100
AcDbEntity
  8
0
100
AcDbLine
 10
266.482382
 20
9.438264
 30
0.0
 11
266.482382
 21
7.416264
 31
0.0
  0
ARC
  5
CAEA
100
AcDbEntity
  8
0
100
AcDbCircle
 10
267.131962
 20
9.724764
 30
0.0
 40
0.709955
100
AcDbArc
 50
203.80008
 51
272.051918
  0
LINE
  5
CAEB
100
AcDbEntity
  8
0
100
AcDbLine
 10
264.937382
 20
7.416264
 30
0.0
 11
264.937382
 21
15.612264
 31
0.0
  0
LINE
  5
CAEC
100
AcDbEntity
  8
0
100
AcDbLine
 10
262.738382
 20
9.015264
 30
0.0
 11
262.738382
 21
17.211264
 31
0.0
  0
LINE
  5
CAED
100
AcDbEntity
  8
0
100
AcDbLine
 10
264.283382
 20
17.211264
 30
0.0
 11
264.283382
 21
9.015264
 31
0.0
  0
LINE
  5
CAEE
100
AcDbEntity
  8
0
100
AcDbLine
 10
266.482382
 20
7.416264
 30
0.0
 11
264.937382
 21
7.416264
 31
0.0
  0
LINE
  5
CAEF
100
AcDbEntity
  8
0
100
AcDbLine
 10
264.283382
 20
9.015264
 30
0.0
 11
262.738382
 21
9.015264
 31
0.0
  0
LINE
  5
CAF0
100
AcDbEntity
  8
0
100
AcDbLine
 10
267.157382
 20
14.361264
 30
0.0
 11
267.157382
 21
10.252764
 31
0.0
  0
LINE
  5
CAF1
100
AcDbEntity
  8
0
100
AcDbLine
 10
266.482382
 20
14.361264
 30
0.0
 11
266.482382
 21
10.252764
 31
0.0
  0
ARC
  5
CAF2
100
AcDbEntity
  8
0
100
AcDbCircle
 10
266.819882
 20
10.252764
 30
0.0
 40
0.3375
100
AcDbArc
 50
180.0
 51
0.0
  0
ARC
  5
CAF3
100
AcDbEntity
  8
0
100
AcDbCircle
 10
266.819882
 20
14.361264
 30
0.0
 40
0.3375
100
AcDbArc
 50
360.0
 51
180.0
  0
LINE
  5
CAF4
100
AcDbEntity
  8
0
100
AcDbLine
 10
264.937382
 20
15.612264
 30
0.0
 11
266.482382
 21
15.612264
 31
0.0
  0
LINE
  5
CAF5
100
AcDbEntity
  8
0
100
AcDbLine
 10
262.738382
 20
17.211264
 30
0.0
 11
264.283382
 21
17.211264
 31
0.0
  0
LINE
  5
CAF6
100
AcDbEntity
  8
0
100
AcDbLine
 10
266.482382
 20
15.612264
 30
0.0
 11
266.482382
 21
15.324264
 31
0.0
  0
LINE
  5
CAF7
100
AcDbEntity
  8
0
100
AcDbLine
 10
267.165429
 20
9.015264
 30
0.0
 11
267.703382
 21
9.015264
 31
0.0
  0
ARC
  5
CAF8
100
AcDbEntity
  8
0
100
AcDbCircle
 10
267.341409
 20
14.207365
 30
0.0
 40
1.409039
100
AcDbArc
 50
15.47255
 51
127.56454
  0
ARC
  5
CAF9
100
AcDbEntity
  8
0
100
AcDbCircle
 10
270.832221
 20
10.503572
 30
0.0
 40
1.488419
100
AcDbArc
 50
191.634268
 51
270.699113
  0
ARC
  5
CAFA
100
AcDbEntity
  8
0
100
AcDbCircle
 10
270.832221
 20
14.124104
 30
0.0
 40
1.488419
100
AcDbArc
 50
89.300887
 51
168.365732
  0
TEXT
  5
CAFB
100
AcDbEntity
  8
WY
100
AcDbText
 10
284.437939
 20
16.149239
 30
0.0
 40
2.0
  1
Data
 51
15.0
  7
ITALIC
100
AcDbText
  0
TEXT
  5
CAFC
100
AcDbEntity
  8
WY
100
AcDbText
 10
280.006569
 20
11.60401
 30
0.0
 40
2.0
  1
02-02-2008
 51
15.0
  7
ITALIC
100
AcDbText
  0
LINE
  5
CAFD
100
AcDbEntity
  8
0
100
AcDbLine
 10
275.476382
 20
17.211264
 30
0.0
 11
275.476382
 21
9.015264
 31
0.0
  0
LINE
  5
CAFE
100
AcDbEntity
  8
1
100
AcDbLine
 10
279.059025
 20
5.0
 30
0.0
 11
279.059025
 21
19.689837
 31
0.0
  0
ARC
  5
CAFF
100
AcDbEntity
  8
0
100
AcDbCircle
 10
271.798543
 20
10.503572
 30
0.0
 40
1.488419
100
AcDbArc
 50
269.300887
 51
348.365732
  0
LINE
  5
CB00
100
AcDbEntity
  8
0
100
AcDbLine
 10
273.931382
 20
9.015264
 30
0.0
 11
273.931382
 21
17.211264
 31
0.0
  0
ARC
  5
CB01
100
AcDbEntity
  8
0
100
AcDbCircle
 10
271.798543
 20
14.124104
 30
0.0
 40
1.488419
100
AcDbArc
 50
11.634268
 51
90.699113
  0
LINE
  5
CB02
100
AcDbEntity
  8
0
100
AcDbLine
 10
273.256382
 20
14.424264
 30
0.0
 11
273.256382
 21
10.203412
 31
0.0
  0
LINE
  5
CB03
100
AcDbEntity
  8
0
100
AcDbLine
 10
271.652882
 20
14.361264
 30
0.0
 11
271.652882
 21
10.252764
 31
0.0
  0
LINE
  5
CB04
100
AcDbEntity
  8
0
100
AcDbLine
 10
275.476382
 20
9.015264
 30
0.0
 11
273.931382
 21
9.015264
 31
0.0
  0
LINE
  5
CB05
100
AcDbEntity
  8
0
100
AcDbLine
 10
273.931382
 20
17.211264
 30
0.0
 11
275.476382
 21
17.211264
 31
0.0
  0
LINE
  5
CB06
100
AcDbEntity
  8
WYMIARY
 62
     3
100
AcDbLine
 10
301.96235
 20
19.689837
 30
0.0
 11
301.96235
 21
5.0
 31
0.0
  0
TEXT
  5
CB07
100
AcDbEntity
  8
WY
100
AcDbText
 10
345.174595
 20
16.599248
 30
0.0
 40
2.0
  1
Product type
 51
15.0
  7
ITALIC
100
AcDbText
  0
TEXT
  5
CB08
100
AcDbEntity
  8
1
100
AcDbText
 10
344.978454
 20
9.064009
 30
0.0
 40
5.0
  1
RIK21
 41
0.75
  7
ITALIC
100
AcDbText
  0
LINE
  5
CB09
100
AcDbEntity
  8
1
100
AcDbLine
 10
342.983397
 20
5.0
 30
0.0
 11
342.983397
 21
19.689837
 31
0.0
  0
LINE
  5
CB0A
100
AcDbEntity
  8
WYMIARY
 62
     3
100
AcDbLine
 10
375.568899
 20
217.348502
 30
0.0
 11
317.092686
 21
217.348502
 31
0.0
  0
TEXT
  5
CB0B
100
AcDbEntity
  8
1
100
AcDbText
 10
267.220864
 20
262.859808
 30
0.0
 40
5.0
  1
Schematy / Diagrams
 41
0.75
  7
ITALIC
100
AcDbText
  0
TEXT
  5
CB0C
100
AcDbEntity
  8
1
100
AcDbText
 10
286.11886
 20
201.949401
 30
0.0
 40
5.0
  1
A2
 41
0.75
  7
ITALIC
100
AcDbText
  0
LINE
  5
CB0D
100
AcDbEntity
  8
WYMIARY
 62
     3
100
AcDbLine
 10
272.408485
 20
181.122911
 30
0.0
 11
272.408485
 21
205.273305
 31
0.0
  0
LINE
  5
CB0E
100
AcDbEntity
  8
WYMIARY
 62
     3
100
AcDbLine
 10
244.291362
 20
181.122911
 30
0.0
 11
244.291362
 21
205.273305
 31
0.0
  0
LINE
  5
CB0F
100
AcDbEntity
  8
WYMIARY
 62
     3
100
AcDbLine
 10
258.349924
 20
181.122911
 30
0.0
 11
258.349924
 21
205.273305
 31
0.0
  0
LINE
  5
CB10
100
AcDbEntity
  8
WYMIARY
 62
     3
100
AcDbLine
 10
244.291362
 20
181.122911
 30
0.0
 11
244.291362
 21
205.273305
 31
0.0
  0
TEXT
  5
CB11
100
AcDbEntity
  8
1
100
AcDbText
 10
237.365997
 20
181.130007
 30
0.0
 40
5.0
  1
4
 41
0.75
  7
ITALIC
100
AcDbText
  0
TEXT
  5
CB12
100
AcDbEntity
  8
1
100
AcDbText
 10
251.424558
 20
181.130007
 30
0.0
 40
5.0
  1
6
 41
0.75
  7
ITALIC
100
AcDbText
  0
TEXT
  5
CB13
100
AcDbEntity
  8
1
100
AcDbText
 10
265.48312
 20
181.130007
 30
0.0
 40
5.0
  1
14
 41
0.75
  7
ITALIC
100
AcDbText
  0
TEXT
  5
CB14
100
AcDbEntity
  8
1
100
AcDbText
 10
286.11886
 20
194.73476
 30
0.0
 40
5.0
  1
(-)
 41
0.75
  7
ITALIC
100
AcDbText
  0
LINE
  5
CB15
100
AcDbEntity
  8
WYMIARY
 62
     3
100
AcDbLine
 10
272.408485
 20
205.273305
 30
0.0
 11
264.539743
 21
229.405293
 31
0.0
  0
LINE
  5
CB16
100
AcDbEntity
  8
WYMIARY
 62
     3
100
AcDbLine
 10
244.291362
 20
229.423699
 30
0.0
 11
244.291362
 21
253.574092
 31
0.0
  0
LINE
  5
CB17
100
AcDbEntity
  8
WYMIARY
 62
     3
100
AcDbLine
 10
258.349924
 20
229.423699
 30
0.0
 11
258.349924
 21
253.574092
 31
0.0
  0
LINE
  5
CB18
100
AcDbEntity
  8
WYMIARY
 62
     3
100
AcDbLine
 10
244.291362
 20
229.423699
 30
0.0
 11
244.291362
 21
253.574092
 31
0.0
  0
LINE
  5
CB19
100
AcDbEntity
  8
WYMIARY
 62
     3
100
AcDbLine
 10
258.349924
 20
205.273305
 30
0.0
 11
250.481182
 21
229.405293
 31
0.0
  0
TEXT
  5
CB1A
100
AcDbEntity
  8
1
100
AcDbText
 10
251.424558
 20
248.862113
 30
0.0
 40
5.0
  1
5
 41
0.75
  7
ITALIC
100
AcDbText
  0
TEXT
  5
CB1B
100
AcDbEntity
  8
1
100
AcDbText
 10
237.365997
 20
248.862113
 30
0.0
 40
5.0
  1
3
 41
0.75
  7
ITALIC
100
AcDbText
  0
TEXT
  5
CB1C
100
AcDbEntity
  8
1
100
AcDbText
 10
265.48312
 20
248.862113
 30
0.0
 40
5.0
  1
13
 41
0.75
  7
ITALIC
100
AcDbText
  0
TEXT
  5
CB1D
100
AcDbEntity
  8
1
100
AcDbText
 10
286.11886
 20
234.638963
 30
0.0
 40
5.0
  1
(+)
 41
0.75
  7
ITALIC
100
AcDbText
  0
LINE
  5
CB1E
100
AcDbEntity
  8
WYMIARY
 62
     3
100
AcDbLine
 10
272.408485
 20
229.423699
 30
0.0
 11
272.408485
 21
253.574092
 31
0.0
  0
TEXT
  5
CB1F
100
AcDbEntity
  8
1
100
AcDbText
 10
286.11886
 20
227.836587
 30
0.0
 40
5.0
  1
A1
 41
0.75
  7
ITALIC
100
AcDbText
  0
LINE
  5
CB20
100
AcDbEntity
  8
WYMIARY
 62
     3
100
AcDbLine
 10
284.771643
 20
222.348502
 30
0.0
 11
294.771643
 21
222.348502
 31
0.0
  0
LINE
  5
CB21
100
AcDbEntity
  8
WYMIARY
 62
     3
100
AcDbLine
 10
294.771643
 20
212.348502
 30
0.0
 11
284.771643
 21
212.348502
 31
0.0
  0
LINE
  5
CB22
100
AcDbEntity
  8
WYMIARY
 62
     3
100
AcDbLine
 10
284.771643
 20
222.348502
 30
0.0
 11
284.771643
 21
212.348502
 31
0.0
  0
LINE
  5
CB23
100
AcDbEntity
  8
WYMIARY
 62
     3
100
AcDbLine
 10
294.771643
 20
222.348502
 30
0.0
 11
294.771643
 21
212.348502
 31
0.0
  0
LINE
  5
CB24
100
AcDbEntity
  8
WYMIARY
 62
     3
100
AcDbLine
 10
289.771643
 20
212.348502
 30
0.0
 11
289.771643
 21
207.348502
 31
0.0
  0
LINE
  5
CB25
100
AcDbEntity
  8
WYMIARY
 62
     3
100
AcDbLine
 10
289.771643
 20
222.348502
 30
0.0
 11
289.771643
 21
227.348502
 31
0.0
  0
LINE
  5
CB26
100
AcDbEntity
  8
WYMIARY
 62
     3
100
AcDbLine
 10
363.205741
 20
181.122911
 30
0.0
 11
363.205741
 21
205.273305
 31
0.0
  0
LINE
  5
CB27
100
AcDbEntity
  8
WYMIARY
 62
     3
100
AcDbLine
 10
335.088618
 20
181.122911
 30
0.0
 11
335.088618
 21
205.273305
 31
0.0
  0
LINE
  5
CB28
100
AcDbEntity
  8
WYMIARY
 62
     3
100
AcDbLine
 10
349.14718
 20
181.122911
 30
0.0
 11
349.14718
 21
205.273305
 31
0.0
  0
LINE
  5
CB29
100
AcDbEntity
  8
WYMIARY
 62
     3
100
AcDbLine
 10
335.088618
 20
181.122911
 30
0.0
 11
335.088618
 21
205.273305
 31
0.0
  0
LINE
  5
CB2A
100
AcDbEntity
  8
WYMIARY
 62
     3
100
AcDbLine
 10
321.030057
 20
181.122911
 30
0.0
 11
321.030057
 21
205.273305
 31
0.0
  0
TEXT
  5
CB2B
100
AcDbEntity
  8
1
100
AcDbText
 10
321.586074
 20
171.235642
 30
0.0
 40
5.0
  1
RIK21-01-...
 41
0.75
  7
ITALIC
100
AcDbText
  0
TEXT
  5
CB2C
100
AcDbEntity
  8
1
100
AcDbText
 10
314.104692
 20
181.130007
 30
0.0
 40
5.0
  1
2
 41
0.75
  7
ITALIC
100
AcDbText
  0
TEXT
  5
CB2D
100
AcDbEntity
  8
1
100
AcDbText
 10
328.163253
 20
181.130007
 30
0.0
 40
5.0
  1
4
 41
0.75
  7
ITALIC
100
AcDbText
  0
TEXT
  5
CB2E
100
AcDbEntity
  8
1
100
AcDbText
 10
356.280376
 20
181.130007
 30
0.0
 40
5.0
  1
22
 41
0.75
  7
ITALIC
100
AcDbText
  0
TEXT
  5
CB2F
100
AcDbEntity
  8
1
100
AcDbText
 10
342.221814
 20
181.130007
 30
0.0
 40
5.0
  1
6
 41
0.75
  7
ITALIC
100
AcDbText
  0
LINE
  5
CB30
100
AcDbEntity
  8
WYMIARY
 62
     3
100
AcDbLine
 10
335.088618
 20
229.423699
 30
0.0
 11
335.088618
 21
253.574092
 31
0.0
  0
LINE
  5
CB31
100
AcDbEntity
  8
WYMIARY
 62
     3
100
AcDbLine
 10
335.088618
 20
229.423699
 30
0.0
 11
335.088618
 21
253.574092
 31
0.0
  0
LINE
  5
CB32
100
AcDbEntity
  8
WYMIARY
 62
     3
100
AcDbLine
 10
321.030057
 20
229.423699
 30
0.0
 11
321.030057
 21
253.574092
 31
0.0
  0
LINE
  5
CB33
100
AcDbEntity
  8
WYMIARY
 62
     3
100
AcDbLine
 10
321.030057
 20
205.273305
 30
0.0
 11
313.161316
 21
229.405293
 31
0.0
  0
LINE
  5
CB34
100
AcDbEntity
  8
WYMIARY
 62
     3
100
AcDbLine
 10
335.088618
 20
205.273305
 30
0.0
 11
327.219877
 21
229.405293
 31
0.0
  0
LINE
  5
CB35
100
AcDbEntity
  8
WYMIARY
 62
     3
100
AcDbLine
 10
335.088618
 20
205.273305
 30
0.0
 11
327.219877
 21
229.405293
 31
0.0
  0
TEXT
  5
CB36
100
AcDbEntity
  8
1
100
AcDbText
 10
314.104692
 20
248.862113
 30
0.0
 40
5.0
  1
1
 41
0.75
  7
ITALIC
100
AcDbText
  0
TEXT
  5
CB37
100
AcDbEntity
  8
1
100
AcDbText
 10
328.163253
 20
248.862113
 30
0.0
 40
5.0
  1
3
 41
0.75
  7
ITALIC
100
AcDbText
  0
LINE
  5
CB38
100
AcDbEntity
  8
WYMIARY
 62
     3
100
AcDbLine
 10
363.205741
 20
229.423699
 30
0.0
 11
363.205741
 21
253.574092
 31
0.0
  0
LINE
  5
CB39
100
AcDbEntity
  8
WYMIARY
 62
     3
100
AcDbLine
 10
349.14718
 20
229.423699
 30
0.0
 11
349.14718
 21
253.574092
 31
0.0
  0
LINE
  5
CB3A
100
AcDbEntity
  8
WYMIARY
 62
     3
100
AcDbLine
 10
349.14718
 20
205.273305
 30
0.0
 11
341.278438
 21
229.405293
 31
0.0
  0
LINE
  5
CB3B
100
AcDbEntity
  8
WYMIARY
 62
     3
100
AcDbLine
 10
363.205741
 20
205.273305
 30
0.0
 11
371.11574
 21
231.687975
 31
0.0
  0
LINE
  5
CB3C
100
AcDbEntity
  8
WYMIARY
 62
     3
100
AcDbLine
 10
363.205741
 20
229.423699
 30
0.0
 11
372.670512
 21
229.423699
 31
0.0
  0
TEXT
  5
CB3D
100
AcDbEntity
  8
1
100
AcDbText
 10
356.280376
 20
248.862113
 30
0.0
 40
5.0
  1
21
 41
0.75
  7
ITALIC
100
AcDbText
  0
TEXT
  5
CB3E
100
AcDbEntity
  8
1
100
AcDbText
 10
342.221814
 20
248.862113
 30
0.0
 40
5.0
  1
5
 41
0.75
  7
ITALIC
100
AcDbText
  0
TEXT
  5
CB3F
100
AcDbEntity
  8
1
100
AcDbText
 10
291.492343
 20
273.769101
 30
0.0
 40
5.0
  1
RIK21
 41
0.75
  7
ITALIC
100
AcDbText
  0
TEXT
  5
CB40
100
AcDbEntity
  8
1
100
AcDbText
 10
376.916116
 20
201.949401
 30
0.0
 40
5.0
  1
A2
 41
0.75
  7
ITALIC
100
AcDbText
  0
TEXT
  5
CB41
100
AcDbEntity
  8
1
100
AcDbText
 10
376.916116
 20
194.73476
 30
0.0
 40
5.0
  1
(-)
 41
0.75
  7
ITALIC
100
AcDbText
  0
TEXT
  5
CB42
100
AcDbEntity
  8
1
100
AcDbText
 10
376.916116
 20
234.638963
 30
0.0
 40
5.0
  1
(+)
 41
0.75
  7
ITALIC
100
AcDbText
  0
LINE
  5
CB43
100
AcDbEntity
  8
WYMIARY
 62
     3
100
AcDbLine
 10
385.568899
 20
222.348502
 30
0.0
 11
385.568899
 21
212.348502
 31
0.0
  0
LINE
  5
CB44
100
AcDbEntity
  8
WYMIARY
 62
     3
100
AcDbLine
 10
375.568899
 20
222.348502
 30
0.0
 11
375.568899
 21
212.348502
 31
0.0
  0
LINE
  5
CB45
100
AcDbEntity
  8
WYMIARY
 62
     3
100
AcDbLine
 10
385.568899
 20
212.348502
 30
0.0
 11
375.568899
 21
212.348502
 31
0.0
  0
LINE
  5
CB46
100
AcDbEntity
  8
WYMIARY
 62
     3
100
AcDbLine
 10
380.568899
 20
212.348502
 30
0.0
 11
380.568899
 21
207.348502
 31
0.0
  0
LINE
  5
CB47
100
AcDbEntity
  8
WYMIARY
 62
     3
100
AcDbLine
 10
375.568899
 20
222.348502
 30
0.0
 11
385.568899
 21
222.348502
 31
0.0
  0
LINE
  5
CB48
100
AcDbEntity
  8
WYMIARY
 62
     3
100
AcDbLine
 10
380.568899
 20
222.348502
 30
0.0
 11
380.568899
 21
227.348502
 31
0.0
  0
TEXT
  5
CB49
100
AcDbEntity
  8
1
100
AcDbText
 10
376.916116
 20
227.836587
 30
0.0
 40
5.0
  1
A1
 41
0.75
  7
ITALIC
100
AcDbText
  0
ENDBLK
  5
CB4B
100
AcDbEntity
  8
0
 62
     3
100
AcDbBlockEnd
  0
ENDSEC
  0
SECTION
  2
ENTITIES
  0
LINE
  5
2D2D
100
AcDbEntity
  8
WYMIARY
 62
     6
100
AcDbLine
 10
486.041244
 20
552.649937
 30
0.0
 11
486.041244
 21
849.649937
 31
0.0
  0
LINE
  5
2D2E
100
AcDbEntity
  8
WYMIARY
 62
     6
100
AcDbLine
 10
497.671651
 20
844.649937
 30
0.0
 11
497.671651
 21
557.649937
 31
0.0
  0
LINE
  5
2D34
100
AcDbEntity
  8
2
100
AcDbLine
 10
682.671651
 20
557.649937
 30
0.0
 11
682.671651
 21
844.649937
 31
0.0
  0
LINE
  5
2D35
100
AcDbEntity
  8
2
100
AcDbLine
 10
687.671651
 20
552.649937
 30
0.0
 11
687.671651
 21
849.649937
 31
0.0
  0
LINE
  5
2D36
100
AcDbEntity
  8
WY
  6
CONTINUOUS
 62
     3
100
AcDbLine
 10
682.671651
 20
572.339774
 30
0.0
 11
497.671651
 21
572.339774
 31
0.0
  0
LINE
  5
2D38
100
AcDbEntity
  8
2
100
AcDbLine
 10
497.671651
 20
557.649937
 30
0.0
 11
682.671651
 21
557.649937
 31
0.0
  0
LINE
  5
2D39
100
AcDbEntity
  8
2
 62
     6
100
AcDbLine
 10
486.041244
 20
552.649937
 30
0.0
 11
687.671651
 21
552.649937
 31
0.0
  0
LINE
  5
2D3A
100
AcDbEntity
  8
0
100
AcDbLine
 10
529.697667
 20
564.392417
 30
0.0
 11
528.795256
 21
564.392417
 31
0.0
1001
ACAD
1000
ASC_BOUNDS
1002
{
1070
    19
1002
}
  0
ELLIPSE
  5
2D3B
100
AcDbEntity
  8
0
100
AcDbEllipse
 10
529.697667
 20
564.392417
 30
0.0
 11
-1.203215696869327
 21
0.0000000000001967
 31
0.0
210
0.0
220
0.0
230
1.0
 40
0.958812
 41
-1.570796326794739
 42
0.0000000000001705
1001
ACAD
1000
ASC_BOUNDS
1002
{
1070
    19
1002
}
  0
TEXT
  5
2D3D
100
AcDbEntity
  8
1
100
AcDbText
 10
515.607578
 20
561.447394
 30
0.0
 40
5.0
  1
A4
 51
15.0
  7
ITALIC
100
AcDbText
  0
TEXT
  5
2D42
100
AcDbEntity
  8
WY
100
AcDbText
 10
502.936765
 20
569.023781
 30
0.0
 40
2.0
  1
Skala
 51
15.0
  7
ITALIC
100
AcDbText
  0
TEXT
  5
2D43
100
AcDbEntity
  8
WY
100
AcDbText
 10
515.042219
 20
568.979306
 30
0.0
 40
2.0
  1
Format
 51
15.0
  7
ITALIC
100
AcDbText
  0
LINE
  5
2D44
100
AcDbEntity
  8
0
100
AcDbLine
 10
528.494452
 20
564.392417
 30
0.0
 11
528.795256
 21
564.392417
 31
0.0
1001
ACAD
1000
ASC_BOUNDS
1002
{
1070
    19
1002
}
  0
LINE
  5
2D45
100
AcDbEntity
  8
0
100
AcDbLine
 10
559.88722
 20
569.861201
 30
0.0
 11
559.88722
 21
561.665201
 31
0.0
  0
LINE
  5
2D46
100
AcDbEntity
  8
0
100
AcDbLine
 10
550.89322
 20
562.088201
 30
0.0
 11
550.89322
 21
560.066201
 31
0.0
  0
ARC
  5
2D47
100
AcDbEntity
  8
0
100
AcDbCircle
 10
551.5428
 20
562.374701
 30
0.0
 40
0.709955
100
AcDbArc
 50
203.80008
 51
272.051918
  0
LINE
  5
2D48
100
AcDbEntity
  8
0
100
AcDbLine
 10
549.34822
 20
560.066201
 30
0.0
 11
549.34822
 21
568.262201
 31
0.0
  0
ARC
  5
2D49
100
AcDbEntity
  8
0
100
AcDbCircle
 10
551.982126
 20
562.786353
 30
0.0
 40
1.128907
100
AcDbArc
 50
276.719576
 51
2.175194
  0
ARC
  5
2D4A
100
AcDbEntity
  8
0
100
AcDbCircle
 10
555.243059
 20
563.153509
 30
0.0
 40
1.488419
100
AcDbArc
 50
191.634268
 51
270.699113
  0
ARC
  5
2D4B
100
AcDbEntity
  8
0
100
AcDbCircle
 10
556.209381
 20
563.153509
 30
0.0
 40
1.488419
100
AcDbArc
 50
269.300887
 51
348.365732
  0
LINE
  5
2D4C
100
AcDbEntity
  8
0
100
AcDbLine
 10
558.34222
 20
561.665201
 30
0.0
 11
558.34222
 21
569.861201
 31
0.0
  0
ARC
  5
2D4D
100
AcDbEntity
  8
0
100
AcDbCircle
 10
545.056591
 20
563.122301
 30
0.0
 40
1.425319
100
AcDbArc
 50
269.703671
 51
350.465171
  0
ARC
  5
2D4E
100
AcDbEntity
  8
0
100
AcDbCircle
 10
544.201848
 20
563.122301
 30
0.0
 40
1.425319
100
AcDbArc
 50
189.534829
 51
270.296329
  0
LINE
  5
2D4F
100
AcDbEntity
  8
0
100
AcDbLine
 10
547.14922
 20
561.665201
 30
0.0
 11
547.14922
 21
569.861201
 31
0.0
  0
LINE
  5
2D50
100
AcDbEntity
  8
0
100
AcDbLine
 10
548.69422
 20
569.861201
 30
0.0
 11
548.69422
 21
561.665201
 31
0.0
  0
LINE
  5
2D51
100
AcDbEntity
  8
0
100
AcDbLine
 10
539.892236
 20
567.011201
 30
0.0
 11
539.903809
 21
561.665201
 31
0.0
  0
LINE
  5
2D52
100
AcDbEntity
  8
0
100
AcDbLine
 10
538.361694
 20
561.665201
 30
0.0
 11
538.361694
 21
568.253607
 31
0.0
1001
ACAD
1000
ASC_BOUNDS
1002
{
1070
    19
1002
}
  0
LINE
  5
2D53
100
AcDbEntity
  8
0
100
AcDbLine
 10
529.697667
 20
562.544998
 30
0.0
 11
529.697667
 21
560.835305
 31
0.0
1001
ACAD
1000
ASC_BOUNDS
1002
{
1070
    19
1002
}
  0
LINE
  5
2D54
100
AcDbEntity
  8
0
100
AcDbLine
 10
535.613478
 20
560.835305
 30
0.0
 11
535.613478
 21
564.392417
 31
0.0
1001
ACAD
1000
ASC_BOUNDS
1002
{
1070
    19
1002
}
  0
LINE
  5
2D55
100
AcDbEntity
  8
1
100
AcDbLine
 10
563.469863
 20
557.649937
 30
0.0
 11
563.469863
 21
572.339774
 31
0.0
  0
LINE
  5
2D56
100
AcDbEntity
  8
0
100
AcDbLine
 10
530.499811
 20
560.0662
 30
0.0
 11
534.811334
 21
560.0662
 31
0.0
1001
ACAD
1000
ASC_BOUNDS
1002
{
1070
    19
1002
}
  0
ELLIPSE
  5
2D57
100
AcDbEntity
  8
0
100
AcDbEllipse
 10
530.499811
 20
560.835305
 30
0.0
 11
-0.8021437979128705
 21
0.0000000000000154
 31
0.0
210
0.0
220
0.0
230
1.0
 40
0.958812
 41
0.00000000000002
 42
1.570796326794914
1001
ACAD
1000
ASC_BOUNDS
1002
{
1070
    19
1002
}
  0
ELLIPSE
  5
2D58
100
AcDbEntity
  8
0
100
AcDbEllipse
 10
534.811334
 20
560.835305
 30
0.0
 11
0.8021437979128704
 21
0.0000000000001602
 31
0.0
210
0.0
220
0.0
230
1.0
 40
0.958812
 41
4.712388980384497
 42
6.283185307179378
1001
ACAD
1000
ASC_BOUNDS
1002
{
1070
    19
1002
}
  0
LINE
  5
2D59
100
AcDbEntity
  8
0
100
AcDbLine
 10
539.892236
 20
561.665201
 30
0.0
 11
539.903809
 21
561.672695
 31
0.0
  0
LINE
  5
2D5A
100
AcDbEntity
  8
0
100
AcDbLine
 10
538.361694
 20
561.665201
 30
0.0
 11
539.903809
 21
561.665201
 31
0.0
1001
ACAD
1000
ASC_BOUNDS
1002
{
1070
    19
1002
}
  0
LINE
  5
2D5B
100
AcDbEntity
  8
0
100
AcDbLine
 10
544.194477
 20
561.697001
 30
0.0
 11
545.04922
 21
561.697001
 31
0.0
  0
LINE
  5
2D5C
100
AcDbEntity
  8
0
100
AcDbLine
 10
550.89322
 20
560.066201
 30
0.0
 11
549.34822
 21
560.066201
 31
0.0
  0
LINE
  5
2D5D
100
AcDbEntity
  8
0
100
AcDbLine
 10
548.69422
 20
561.665201
 30
0.0
 11
547.14922
 21
561.665201
 31
0.0
  0
LINE
  5
2D5E
100
AcDbEntity
  8
0
100
AcDbLine
 10
551.576266
 20
561.665201
 30
0.0
 11
552.11422
 21
561.665201
 31
0.0
  0
LINE
  5
2D5F
100
AcDbEntity
  8
0
100
AcDbLine
 10
555.26122
 20
561.665201
 30
0.0
 11
556.19122
 21
561.665201
 31
0.0
  0
LINE
  5
2D60
100
AcDbEntity
  8
0
100
AcDbLine
 10
559.88722
 20
561.665201
 30
0.0
 11
558.34222
 21
561.665201
 31
0.0
  0
ARC
  5
2D61
100
AcDbEntity
  8
0
100
AcDbCircle
 10
545.056591
 20
566.828307
 30
0.0
 40
1.425319
100
AcDbArc
 50
9.534829
 51
90.296329
  0
LINE
  5
2D62
100
AcDbEntity
  8
0
100
AcDbLine
 10
546.46222
 20
564.461607
 30
0.0
 11
544.33822
 21
564.461607
 31
0.0
  0
LINE
  5
2D63
100
AcDbEntity
  8
0
100
AcDbLine
 10
545.01322
 20
563.786607
 30
0.0
 11
546.46222
 21
563.786607
 31
0.0
  0
LINE
  5
2D64
100
AcDbEntity
  8
0
100
AcDbLine
 10
529.697667
 20
566.11122
 30
0.0
 11
529.697667
 21
568.910911
 31
0.0
1001
ACAD
1000
ASC_BOUNDS
1002
{
1070
    19
1002
}
  0
ELLIPSE
  5
2D65
100
AcDbEntity
  8
0
100
AcDbEllipse
 10
532.630506
 20
567.829357
 30
0.0
 11
2.983077570132104
 21
0.0000000000002996
 31
0.0
210
0.0
220
0.0
230
1.0
 40
0.958812
 41
-1.562393163247347
 42
0.0084031635475457
1001
ACAD
1000
ASC_BOUNDS
1002
{
1070
    19
1002
}
  0
ELLIPSE
  5
2D66
100
AcDbEntity
  8
0
100
AcDbEllipse
 10
532.58733
 20
568.159476
 30
0.0
 11
-4.072692107280919
 21
0.0000000000000925
 31
0.0
210
0.0
220
0.0
230
1.0
 40
0.958812
 41
1.587553347046634
 42
2.408388587343224
1001
ACAD
1000
ASC_BOUNDS
1002
{
1070
    19
1002
}
  0
LINE
  5
2D67
100
AcDbEntity
  8
0
100
AcDbLine
 10
529.697667
 20
564.392417
 30
0.0
 11
529.697667
 21
563.684451
 31
0.0
1001
ACAD
1000
ASC_BOUNDS
1002
{
1070
    19
1002
}
  0
LINE
  5
2D68
100
AcDbEntity
  8
0
100
AcDbLine
 10
529.697667
 20
566.11122
 30
0.0
 11
529.697667
 21
565.546075
 31
0.0
1001
ACAD
1000
ASC_BOUNDS
1002
{
1070
    19
1002
}
  0
ELLIPSE
  5
2D69
100
AcDbEntity
  8
0
100
AcDbEllipse
 10
532.249598
 20
562.522424
 30
0.0
 11
2.960559210508897
 21
0.3570763225581005
 31
0.0
210
0.0
220
0.0
230
0.9999999999999998
 40
0.820999
 41
1.335209029023201
 42
2.503032872947537
1001
ACAD
1000
ASC_BOUNDS
1002
{
1070
    19
1002
}
  0
ELLIPSE
  5
2D6A
100
AcDbEntity
  8
0
100
AcDbEllipse
 10
532.480104
 20
561.587243
 30
0.0
 11
3.015746449176212
 21
0.7746519372140012
 31
0.0
210
0.0
220
0.0
230
1.0
 40
0.846775
 41
1.29973646820557
 42
2.479974117225238
1001
ACAD
1000
ASC_BOUNDS
1002
{
1070
    19
1002
}
  0
LINE
  5
2D6B
100
AcDbEntity
  8
0
100
AcDbLine
 10
536.816694
 20
565.546075
 30
0.0
 11
536.51589
 21
565.546075
 31
0.0
1001
ACAD
1000
ASC_BOUNDS
1002
{
1070
    19
1002
}
  0
LINE
  5
2D6C
100
AcDbEntity
  8
0
100
AcDbLine
 10
535.613478
 20
565.546075
 30
0.0
 11
536.51589
 21
565.546075
 31
0.0
1001
ACAD
1000
ASC_BOUNDS
1002
{
1070
    19
1002
}
  0
ELLIPSE
  5
2D6D
100
AcDbEntity
  8
0
100
AcDbEllipse
 10
535.613478
 20
565.546075
 30
0.0
 11
1.203215696869352
 21
0.0000000000000893
 31
0.0
210
0.0
220
0.0
230
1.0
 40
0.958812
 41
4.712388980384611
 42
6.283185307179508
1001
ACAD
1000
ASC_BOUNDS
1002
{
1070
    19
1002
}
  0
LINE
  5
2D6E
100
AcDbEntity
  8
0
100
AcDbLine
 10
530.499811
 20
569.680016
 30
0.0
 11
534.811334
 21
569.680016
 31
0.0
  0
ELLIPSE
  5
2D6F
100
AcDbEntity
  8
0
100
AcDbEllipse
 10
530.499811
 20
568.910911
 30
0.0
 11
0.8021437979128704
 21
0.000000000000038
 31
0.0
210
0.0
220
0.0
230
1.0
 40
0.958812
 41
1.570796326794851
 42
3.141592653589743
1001
ACAD
1000
ASC_BOUNDS
1002
{
1070
    19
1002
}
  0
LINE
  5
2D70
100
AcDbEntity
  8
0
100
AcDbLine
 10
535.613478
 20
567.805322
 30
0.0
 11
535.613478
 21
568.910911
 31
0.0
1001
ACAD
1000
ASC_BOUNDS
1002
{
1070
    19
1002
}
  0
ELLIPSE
  5
2D71
100
AcDbEntity
  8
0
100
AcDbEllipse
 10
534.811334
 20
568.910911
 30
0.0
 11
-0.8021437979128705
 21
0.000000000000038
 31
0.0
210
0.0
220
0.0
230
1.0
 40
0.958812
 41
3.141592653589842
 42
4.712388980384734
1001
ACAD
1000
ASC_BOUNDS
1002
{
1070
    19
1002
}
  0
ARC
  5
2D72
100
AcDbEntity
  8
0
100
AcDbCircle
 10
540.798894
 20
566.991207
 30
0.0
 40
1.377457
100
AcDbArc
 50
16.265061
 51
130.527299
  0
ARC
  5
2D73
100
AcDbEntity
  8
0
100
AcDbCircle
 10
544.201848
 20
566.828307
 30
0.0
 40
1.425319
100
AcDbArc
 50
89.703671
 51
170.465171
  0
LINE
  5
2D74
100
AcDbEntity
  8
0
100
AcDbLine
 10
540.911147
 20
565.586007
 30
0.0
 11
542.12122
 21
565.586007
 31
0.0
  0
LINE
  5
2D75
100
AcDbEntity
  8
0
100
AcDbLine
 10
540.578809
 20
565.586007
 30
0.0
 11
542.12122
 21
565.586007
 31
0.0
  0
ARC
  5
2D76
100
AcDbEntity
  8
0
100
AcDbCircle
 10
540.229736
 20
567.011201
 30
0.0
 40
0.3375
100
AcDbArc
 50
360.0
 51
180.0
  0
LINE
  5
2D77
100
AcDbEntity
  8
0
100
AcDbLine
 10
540.567236
 20
567.011201
 30
0.0
 11
540.578809
 21
565.586007
 31
0.0
  0
ARC
  5
2D78
100
AcDbEntity
  8
0
100
AcDbCircle
 10
544.67572
 20
567.011201
 30
0.0
 40
0.3375
100
AcDbArc
 50
360.0
 51
180.0
  0
LINE
  5
2D79
100
AcDbEntity
  8
0
100
AcDbLine
 10
544.33822
 20
564.461607
 30
0.0
 11
544.33822
 21
562.886201
 31
0.0
  0
LINE
  5
2D7A
100
AcDbEntity
  8
0
100
AcDbLine
 10
544.33822
 20
565.361607
 30
0.0
 11
545.01322
 21
565.361607
 31
0.0
  0
LINE
  5
2D7B
100
AcDbEntity
  8
0
100
AcDbLine
 10
545.01322
 20
563.786607
 30
0.0
 11
545.01322
 21
562.902701
 31
0.0
  0
LINE
  5
2D7C
100
AcDbEntity
  8
0
100
AcDbLine
 10
544.33822
 20
564.461607
 30
0.0
 11
544.33822
 21
562.902701
 31
0.0
  0
ARC
  5
2D7D
100
AcDbEntity
  8
0
100
AcDbCircle
 10
544.67572
 20
562.902701
 30
0.0
 40
0.3375
100
AcDbArc
 50
180.0
 51
0.0
  0
LINE
  5
2D7E
100
AcDbEntity
  8
0
100
AcDbLine
 10
545.01322
 20
567.011201
 30
0.0
 11
545.01322
 21
565.361607
 31
0.0
  0
LINE
  5
2D7F
100
AcDbEntity
  8
0
100
AcDbLine
 10
544.33822
 20
567.011201
 30
0.0
 11
544.33822
 21
565.361607
 31
0.0
  0
LINE
  5
2D80
100
AcDbEntity
  8
0
100
AcDbLine
 10
542.12122
 20
565.586007
 30
0.0
 11
542.12122
 21
567.377007
 31
0.0
1001
ACAD
1000
ASC_BOUNDS
1002
{
1070
    19
1002
}
  0
LINE
  5
2D81
100
AcDbEntity
  8
0
100
AcDbLine
 10
542.79622
 20
562.886201
 30
0.0
 11
542.79622
 21
567.064407
 31
0.0
  0
LINE
  5
2D82
100
AcDbEntity
  8
0
100
AcDbLine
 10
539.903809
 20
568.253607
 30
0.0
 11
539.903809
 21
568.038207
 31
0.0
  0
LINE
  5
2D83
100
AcDbEntity
  8
0
100
AcDbLine
 10
538.361694
 20
568.253607
 30
0.0
 11
539.903809
 21
568.253607
 31
0.0
1001
ACAD
1000
ASC_BOUNDS
1002
{
1070
    19
1002
}
  0
LINE
  5
2D84
100
AcDbEntity
  8
0
100
AcDbLine
 10
544.194477
 20
568.253607
 30
0.0
 11
545.04922
 21
568.253607
 31
0.0
  0
ARC
  5
2D85
100
AcDbEntity
  8
0
100
AcDbCircle
 10
555.243059
 20
566.77404
 30
0.0
 40
1.488419
100
AcDbArc
 50
89.300887
 51
168.365732
  0
ARC
  5
2D86
100
AcDbEntity
  8
0
100
AcDbCircle
 10
551.752247
 20
566.857302
 30
0.0
 40
1.409039
100
AcDbArc
 50
15.47255
 51
127.56454
  0
LINE
  5
2D87
100
AcDbEntity
  8
0
100
AcDbLine
 10
546.46222
 20
563.786607
 30
0.0
 11
546.46222
 21
562.886201
 31
0.0
  0
LINE
  5
2D88
100
AcDbEntity
  8
0
100
AcDbLine
 10
546.46222
 20
564.461607
 30
0.0
 11
546.46222
 21
567.064407
 31
0.0
  0
LINE
  5
2D89
100
AcDbEntity
  8
0
100
AcDbLine
 10
553.11022
 20
567.233201
 30
0.0
 11
553.11022
 21
562.829201
 31
0.0
  0
LINE
  5
2D8A
100
AcDbEntity
  8
0
100
AcDbLine
 10
551.56822
 20
567.011201
 30
0.0
 11
551.56822
 21
562.902701
 31
0.0
  0
LINE
  5
2D8B
100
AcDbEntity
  8
0
100
AcDbLine
 10
550.89322
 20
567.011201
 30
0.0
 11
550.89322
 21
562.902701
 31
0.0
  0
ARC
  5
2D8C
100
AcDbEntity
  8
0
100
AcDbCircle
 10
551.23072
 20
562.902701
 30
0.0
 40
0.3375
100
AcDbArc
 50
180.0
 51
0.0
  0
ARC
  5
2D8D
100
AcDbEntity
  8
0
100
AcDbCircle
 10
551.23072
 20
567.011201
 30
0.0
 40
0.3375
100
AcDbArc
 50
360.0
 51
180.0
  0
LINE
  5
2D8E
100
AcDbEntity
  8
0
100
AcDbLine
 10
549.34822
 20
568.262201
 30
0.0
 11
550.89322
 21
568.262201
 31
0.0
  0
LINE
  5
2D8F
100
AcDbEntity
  8
0
100
AcDbLine
 10
547.14922
 20
569.861201
 30
0.0
 11
548.69422
 21
569.861201
 31
0.0
  0
LINE
  5
2D90
100
AcDbEntity
  8
0
100
AcDbLine
 10
550.89322
 20
568.262201
 30
0.0
 11
550.89322
 21
567.974201
 31
0.0
  0
ARC
  5
2D91
100
AcDbEntity
  8
0
100
AcDbCircle
 10
556.209381
 20
566.77404
 30
0.0
 40
1.488419
100
AcDbArc
 50
11.634268
 51
90.699113
  0
LINE
  5
2D92
100
AcDbEntity
  8
0
100
AcDbLine
 10
557.66722
 20
567.074201
 30
0.0
 11
557.66722
 21
562.853348
 31
0.0
  0
ARC
  5
2D93
100
AcDbEntity
  8
0
100
AcDbCircle
 10
555.72622
 20
567.011201
 30
0.0
 40
0.3375
100
AcDbArc
 50
360.0
 51
180.0
  0
ARC
  5
2D94
100
AcDbEntity
  8
0
100
AcDbCircle
 10
555.72622
 20
562.902701
 30
0.0
 40
0.3375
100
AcDbArc
 50
180.0
 51
0.0
  0
LINE
  5
2D95
100
AcDbEntity
  8
0
100
AcDbLine
 10
555.38872
 20
567.011201
 30
0.0
 11
555.38872
 21
562.902701
 31
0.0
  0
LINE
  5
2D96
100
AcDbEntity
  8
0
100
AcDbLine
 10
556.06372
 20
567.011201
 30
0.0
 11
556.06372
 21
562.902701
 31
0.0
  0
LINE
  5
2D97
100
AcDbEntity
  8
0
100
AcDbLine
 10
553.78522
 20
562.853348
 30
0.0
 11
553.78522
 21
567.074201
 31
0.0
  0
LINE
  5
2D98
100
AcDbEntity
  8
0
100
AcDbLine
 10
555.26122
 20
568.262348
 30
0.0
 11
556.19122
 21
568.262348
 31
0.0
  0
LINE
  5
2D99
100
AcDbEntity
  8
0
100
AcDbLine
 10
558.34222
 20
569.861201
 30
0.0
 11
559.88722
 21
569.861201
 31
0.0
  0
TEXT
  5
2D9A
100
AcDbEntity
  8
WY
100
AcDbText
 10
564.417407
 20
564.253947
 30
0.0
 40
2.0
  1
02-02-2008
 51
15.0
  7
ITALIC
100
AcDbText
  0
TEXT
  5
2D9B
100
AcDbEntity
  8
WY
100
AcDbText
 10
568.848776
 20
568.799175
 30
0.0
 40
2.0
  1
Data
 51
15.0
  7
ITALIC
100
AcDbText
  0
LINE
  5
2D9E
100
AcDbEntity
  8
1
100
AcDbLine
 10
627.394234
 20
557.649937
 30
0.0
 11
627.394234
 21
572.339774
 31
0.0
  0
TEXT
  5
2D9F
100
AcDbEntity
  8
WY
100
AcDbText
 10
629.585432
 20
569.249185
 30
0.0
 40
2.0
  1
Product type
 51
15.0
  7
ITALIC
100
AcDbText
  0
LINE
  5
2DF2
100
AcDbEntity
  8
2
100
AcDbLine
 10
682.671651
 20
844.649937
 30
0.0
 11
497.671651
 21
844.649937
 31
0.0
  0
LINE
  5
2DF3
100
AcDbEntity
  8
2
100
AcDbLine
 10
687.671651
 20
849.649937
 30
0.0
 11
497.671651
 21
849.649937
 31
0.0
  0
LINE
  5
2E74
100
AcDbEntity
  8
WYMIARY
 62
     6
100
AcDbLine
 10
497.671651
 20
849.649937
 30
0.0
 11
486.041244
 21
849.649937
 31
0.0
  0
MTEXT
  5
31F2
100
AcDbEntity
  8
WYMIARY
100
AcDbMText
 10
780.543201
 20
224.476865
 30
0.0
 40
3.5
 41
15.6
 71
     1
 72
     5
  1

  7
ITALIC
  0
TEXT
  5
478E
100
AcDbEntity
  8
1
100
AcDbText
 10
500.301985
 20
561.447394
 30
0.0
 40
5.0
  1
1:1
 51
15.0
  7
ITALIC
100
AcDbText
  0
LINE
  5
482F
100
AcDbEntity
  8
WYMIARY
 62
     6
100
AcDbLine
 10
687.671651
 20
552.649937
 30
0.0
 11
687.671651
 21
849.649937
 31
0.0
  0
LINE
  5
4AD7
100
AcDbEntity
  8
WYMIARY
 62
     3
100
AcDbLine
 10
512.671651
 20
572.339774
 30
0.0
 11
512.671651
 21
557.649937
 31
0.0
  0
LINE
  5
4AD9
100
AcDbEntity
  8
WYMIARY
 62
     3
100
AcDbLine
 10
527.671651
 20
572.339774
 30
0.0
 11
527.671651
 21
557.649937
 31
0.0
  0
LINE
  5
4ADA
100
AcDbEntity
  8
WYMIARY
 62
     3
100
AcDbLine
 10
586.373187
 20
572.339774
 30
0.0
 11
586.373187
 21
557.649937
 31
0.0
  0
TEXT
  5
4ADB
100
AcDbEntity
  8
WY
100
AcDbText
 10
587.562196
 20
569.249185
 30
0.0
 40
2.0
  1
Draw. No.
 51
15.0
  7
ITALIC
100
AcDbText
  0
TEXT
  5
4ADF
100
AcDbEntity
  8
1
100
AcDbText
 10
587.909311
 20
561.713946
 30
0.0
 40
3.0
  1
RIK21-02A
 41
0.65
  7
ITALIC
100
AcDbText
  0
LINE
  5
4AE9
100
AcDbEntity
  8
WYMIARY
 62
     6
100
AcDbLine
 10
687.671651
 20
552.649937
 30
0.0
 11
687.671651
 21
849.649937
 31
0.0
  0
LINE
  5
6488
100
AcDbEntity
  8
WYMIARY
 62
     6
100
AcDbLine
 10
687.671651
 20
552.649937
 30
0.0
 11
687.671651
 21
849.649937
 31
0.0
  0
LINE
  5
648E
100
AcDbEntity
  8
2
100
AcDbLine
 10
687.671651
 20
552.649937
 30
0.0
 11
687.671651
 21
849.649937
 31
0.0
  0
LINE
  5
6CB6
100
AcDbEntity
  8
WYMIARY
 62
     6
100
AcDbLine
 10
687.671651
 20
552.649937
 30
0.0
 11
687.671651
 21
849.649937
 31
0.0
  0
LINE
  5
6CB8
100
AcDbEntity
  8
2
100
AcDbLine
 10
687.671651
 20
552.649937
 30
0.0
 11
687.671651
 21
849.649937
 31
0.0
  0
TEXT
  5
A05E
100
AcDbEntity
  8
1
100
AcDbText
 10
629.389291
 20
561.713946
 30
0.0
 40
5.0
  1
RIK21
 41
0.75
  7
ITALIC
100
AcDbText
  0
LINE
  5
B2C3
100
AcDbEntity
  8
WYMIARY
 62
     6
100
AcDbLine
 10
687.671651
 20
552.649937
 30
0.0
 11
687.671651
 21
849.649937
 31
0.0
  0
TEXT
  5
BFA4
100
AcDbEntity
  8
1
100
AcDbText
 10
575.90318
 20
826.419038
 30
0.0
 40
5.0
  1
RIK21
 41
0.75
  7
ITALIC
100
AcDbText
  0
LINE
  5
C79B
100
AcDbEntity
  8
WYMIARY
 62
     3
100
AcDbLine
 10
559.4983
 20
797.620391
 30
0.0
 11
559.4983
 21
741.620391
 31
0.0
  0
LINE
  5
C79C
100
AcDbEntity
  8
WYMIARY
 62
     3
100
AcDbLine
 10
559.4983
 20
741.620391
 30
0.0
 11
584.6983
 21
741.620391
 31
0.0
  0
LINE
  5
C79D
100
AcDbEntity
  8
WYMIARY
 62
     3
100
AcDbLine
 10
559.4983
 20
797.620391
 30
0.0
 11
584.6983
 21
797.620391
 31
0.0
  0
LINE
  5
C79E
100
AcDbEntity
  8
WYMIARY
 62
     3
100
AcDbLine
 10
594.4983
 20
797.620391
 30
0.0
 11
594.4983
 21
741.620391
 31
0.0
  0
LINE
  5
C79F
100
AcDbEntity
  8
WYMIARY
 62
     3
100
AcDbLine
 10
594.4983
 20
797.620391
 30
0.0
 11
594.4983
 21
800.870391
 31
0.0
  0
LINE
  5
C7A0
100
AcDbEntity
  8
WYMIARY
 62
     3
100
AcDbLine
 10
594.4983
 20
800.870391
 30
0.0
 11
584.6983
 21
800.870391
 31
0.0
  0
LINE
  5
C7A1
100
AcDbEntity
  8
WYMIARY
 62
     3
100
AcDbLine
 10
584.6983
 20
800.870391
 30
0.0
 11
584.6983
 21
797.620391
 31
0.0
  0
LINE
  5
C7A2
100
AcDbEntity
  8
WYMIARY
 62
     3
100
AcDbLine
 10
584.6983
 20
741.620391
 30
0.0
 11
584.6983
 21
738.370391
 31
0.0
  0
LINE
  5
C7A3
100
AcDbEntity
  8
WYMIARY
 62
     3
100
AcDbLine
 10
584.6983
 20
738.370391
 30
0.0
 11
594.4983
 21
738.370391
 31
0.0
  0
LINE
  5
C7A4
100
AcDbEntity
  8
WYMIARY
 62
     3
100
AcDbLine
 10
594.4983
 20
738.370391
 30
0.0
 11
594.4983
 21
741.620391
 31
0.0
  0
DIMENSION
  5
C7B1
100
AcDbEntity
  8
WYMIARY
 62
     1
100
AcDbDimension
  2
*D4
 10
594.4983
 20
812.972939
 30
0.0
 11
576.9983
 21
814.622939
 31
0.0
 70
    32
  3
STANDARD
100
AcDbAlignedDimension
 13
559.4983
 23
797.620391
 33
0.0
 14
594.4983
 24
800.870391
 34
0.0
100
AcDbRotatedDimension
1001
ACAD
1000
DSTYLE
1002
{
1070
   140
1040
1.8
1070
   147
1040
0.75
1002
}
  0
DIMENSION
  5
C7BE
100
AcDbEntity
  8
WYMIARY
 62
     1
100
AcDbDimension
  2
*D5
 10
616.627842
 20
738.370391
 30
0.0
 11
614.977842
 21
769.620391
 31
0.0
 70
    32
  3
STANDARD
100
AcDbAlignedDimension
 13
594.4983
 23
800.870391
 33
0.0
 14
594.4983
 24
738.370391
 34
0.0
 50
90.0
100
AcDbRotatedDimension
1001
ACAD
1000
DSTYLE
1002
{
1070
   140
1040
1.8
1070
   147
1040
0.75
1002
}
  0
LINE
  5
C7C2
100
AcDbEntity
  8
WYMIARY
 62
     3
100
AcDbLine
 10
559.4983
 20
769.620391
 30
0.0
 11
559.4983
 21
791.370391
 31
0.0
  0
LINE
  5
C7C3
100
AcDbEntity
  8
WYMIARY
 62
     3
100
AcDbLine
 10
559.4983
 20
791.370391
 30
0.0
 11
594.4983
 21
791.370391
 31
0.0
  0
LINE
  5
C7C4
100
AcDbEntity
  8
WYMIARY
 62
     3
100
AcDbLine
 10
559.4983
 20
769.620391
 30
0.0
 11
559.4983
 21
747.870391
 31
0.0
  0
LINE
  5
C7C5
100
AcDbEntity
  8
WYMIARY
 62
     3
100
AcDbLine
 10
559.4983
 20
747.870391
 30
0.0
 11
594.4983
 21
747.870391
 31
0.0
  0
LINE
  5
C7C6
100
AcDbEntity
  8
WYMIARY
 62
     3
100
AcDbLine
 10
559.4983
 20
797.620391
 30
0.0
 11
564.2483
 21
797.620391
 31
0.0
  0
LINE
  5
C7C8
100
AcDbEntity
  8
WYMIARY
 62
     3
100
AcDbLine
 10
559.4983
 20
769.620391
 30
0.0
 11
559.4983
 21
794.620391
 31
0.0
  0
LINE
  5
C7CB
100
AcDbEntity
  8
WYMIARY
 62
     3
100
AcDbLine
 10
559.4983
 20
769.620391
 30
0.0
 11
559.4983
 21
744.620391
 31
0.0
  0
ARC
  5
C7CD
100
AcDbEntity
  8
WYMIARY
 62
     4
100
AcDbCircle
 10
564.2483
 20
794.620391
 30
0.0
 40
2.0
100
AcDbArc
 50
174.334226
 51
9.119732
  0
ARC
  5
C7CE
100
AcDbEntity
  8
WYMIARY
 62
     4
100
AcDbCircle
 10
564.2483
 20
744.620391
 30
0.0
 40
2.0
100
AcDbArc
 50
356.852491
 51
181.588096
  0
LINE
  5
C7CF
100
AcDbEntity
  8
WYMIARY
 62
     4
100
AcDbLine
 10
562.249068
 20
744.675819
 30
0.0
 11
562.249068
 21
742.120391
 31
0.0
  0
LINE
  5
C7D0
100
AcDbEntity
  8
WYMIARY
 62
     4
100
AcDbLine
 10
566.245283
 20
744.510577
 30
0.0
 11
566.245283
 21
742.120391
 31
0.0
  0
LINE
  5
C7D1
100
AcDbEntity
  8
WYMIARY
 62
     4
100
AcDbLine
 10
562.258071
 20
794.817841
 30
0.0
 11
562.258071
 21
797.120391
 31
0.0
  0
LINE
  5
C7D2
100
AcDbEntity
  8
WYMIARY
 62
     4
100
AcDbLine
 10
566.223019
 20
794.937387
 30
0.0
 11
566.223019
 21
797.120391
 31
0.0
  0
LINE
  5
C7D7
100
AcDbEntity
  8
WYMIARY
 62
     3
100
AcDbLine
 10
559.4983
 20
769.620391
 30
0.0
 11
559.4983
 21
797.120391
 31
0.0
  0
LINE
  5
C7D8
100
AcDbEntity
  8
WYMIARY
 62
     4
100
AcDbLine
 10
559.4983
 20
797.120391
 30
0.0
 11
562.258071
 21
797.120391
 31
0.0
  0
LINE
  5
C7D9
100
AcDbEntity
  8
WYMIARY
 62
     3
100
AcDbLine
 10
559.4983
 20
769.620391
 30
0.0
 11
559.4983
 21
742.120391
 31
0.0
  0
LINE
  5
C7DA
100
AcDbEntity
  8
WYMIARY
 62
     4
100
AcDbLine
 10
559.4983
 20
742.120391
 30
0.0
 11
562.249068
 21
742.120391
 31
0.0
  0
LINE
  5
C7DD
100
AcDbEntity
  8
WYMIARY
 62
     4
100
AcDbLine
 10
566.245283
 20
742.120391
 30
0.0
 11
567.245283
 21
742.120391
 31
0.0
  0
LINE
  5
C7DE
100
AcDbEntity
  8
WYMIARY
 62
     4
100
AcDbLine
 10
567.245283
 20
742.120391
 30
0.0
 11
567.245283
 21
747.870391
 31
0.0
  0
LINE
  5
C7DF
100
AcDbEntity
  8
WYMIARY
 62
     4
100
AcDbLine
 10
566.223019
 20
797.120391
 30
0.0
 11
567.223019
 21
797.120391
 31
0.0
  0
LINE
  5
C7E0
100
AcDbEntity
  8
WYMIARY
 62
     4
100
AcDbLine
 10
567.223019
 20
797.120391
 30
0.0
 11
567.223019
 21
791.370391
 31
0.0
  0
LINE
  5
C7E1
100
AcDbEntity
  8
WYMIARY
 62
     4
100
AcDbLine
 10
566.223019
 20
797.120391
 30
0.0
 11
567.223019
 21
797.120391
 31
0.0
  0
LINE
  5
C7E2
100
AcDbEntity
  8
WYMIARY
 62
     4
100
AcDbLine
 10
566.245283
 20
742.120391
 30
0.0
 11
567.245283
 21
742.120391
 31
0.0
  0
DIMENSION
  5
C7EF
100
AcDbEntity
  8
WYMIARY
 62
     1
100
AcDbDimension
  2
*D6
 10
608.959904
 20
747.870391
 30
0.0
 11
607.309904
 21
769.620391
 31
0.0
 70
    32
  3
STANDARD
100
AcDbAlignedDimension
 13
594.4983
 23
791.370391
 33
0.0
 14
594.4983
 24
747.870391
 34
0.0
 50
90.0
100
AcDbRotatedDimension
1001
ACAD
1000
DSTYLE
1002
{
1070
   140
1040
1.8
1070
   147
1040
0.75
1002
}
  0
DIMENSION
  5
C823
100
AcDbEntity
  8
WYMIARY
 62
     1
100
AcDbDimension
  2
*D7
 10
551.60865
 20
744.620391
 30
0.0
 11
549.95865
 21
769.620391
 31
0.0
 70
    32
  3
STANDARD
100
AcDbAlignedDimension
 13
564.2483
 23
794.620391
 33
0.0
 14
564.2483
 24
744.620391
 34
0.0
 50
90.0
100
AcDbRotatedDimension
1001
ACAD
1000
DSTYLE
1002
{
1070
   140
1040
1.8
1070
   147
1040
0.75
1002
}
  0
LINE
  5
CF00
100
AcDbEntity
  8
WYMIARY
 62
     6
100
AcDbLine
 10
284.410837
 20
552.649937
 30
0.0
 11
284.410837
 21
849.649937
 31
0.0
  0
LINE
  5
CF01
100
AcDbEntity
  8
WYMIARY
 62
     6
100
AcDbLine
 10
296.041244
 20
844.649937
 30
0.0
 11
296.041244
 21
557.649937
 31
0.0
  0
LINE
  5
CF02
100
AcDbEntity
  8
2
100
AcDbLine
 10
481.041244
 20
557.649937
 30
0.0
 11
481.041244
 21
844.649937
 31
0.0
  0
LINE
  5
CF03
100
AcDbEntity
  8
2
100
AcDbLine
 10
486.041244
 20
552.649937
 30
0.0
 11
486.041244
 21
849.649937
 31
0.0
  0
LINE
  5
CF04
100
AcDbEntity
  8
WYMIARY
 62
     6
100
AcDbLine
 10
486.041244
 20
552.649937
 30
0.0
 11
486.041244
 21
849.649937
 31
0.0
  0
LINE
  5
CF05
100
AcDbEntity
  8
WYMIARY
 62
     6
100
AcDbLine
 10
486.041244
 20
552.649937
 30
0.0
 11
486.041244
 21
849.649937
 31
0.0
  0
LINE
  5
CF06
100
AcDbEntity
  8
WYMIARY
 62
     6
100
AcDbLine
 10
486.041244
 20
552.649937
 30
0.0
 11
486.041244
 21
849.649937
 31
0.0
  0
LINE
  5
CF07
100
AcDbEntity
  8
2
100
AcDbLine
 10
486.041244
 20
552.649937
 30
0.0
 11
486.041244
 21
849.649937
 31
0.0
  0
LINE
  5
CF08
100
AcDbEntity
  8
WYMIARY
 62
     6
100
AcDbLine
 10
486.041244
 20
552.649937
 30
0.0
 11
486.041244
 21
849.649937
 31
0.0
  0
LINE
  5
CF09
100
AcDbEntity
  8
2
100
AcDbLine
 10
486.041244
 20
552.649937
 30
0.0
 11
486.041244
 21
849.649937
 31
0.0
  0
LINE
  5
CF0A
100
AcDbEntity
  8
WYMIARY
 62
     6
100
AcDbLine
 10
486.041244
 20
552.649937
 30
0.0
 11
486.041244
 21
849.649937
 31
0.0
  0
TEXT
  5
CF0B
100
AcDbEntity
  8
1
100
AcDbText
 10
386.278904
 20
561.713946
 30
0.0
 40
3.0
  1
RIK21-01A
 41
0.65
  7
ITALIC
100
AcDbText
  0
TEXT
  5
CF0C
100
AcDbEntity
  8
WY
100
AcDbText
 10
385.931789
 20
569.249185
 30
0.0
 40
2.0
  1
Draw. No.
 51
15.0
  7
ITALIC
100
AcDbText
  0
LINE
  5
CF0D
100
AcDbEntity
  8
WY
  6
CONTINUOUS
 62
     3
100
AcDbLine
 10
481.041244
 20
572.339774
 30
0.0
 11
296.041244
 21
572.339774
 31
0.0
  0
LINE
  5
CF0E
100
AcDbEntity
  8
2
100
AcDbLine
 10
296.041244
 20
557.649937
 30
0.0
 11
481.041244
 21
557.649937
 31
0.0
  0
LINE
  5
CF0F
100
AcDbEntity
  8
2
 62
     6
100
AcDbLine
 10
284.410837
 20
552.649937
 30
0.0
 11
486.041244
 21
552.649937
 31
0.0
  0
TEXT
  5
CF10
100
AcDbEntity
  8
WY
100
AcDbText
 10
301.306359
 20
569.023781
 30
0.0
 40
2.0
  1
Skala
 51
15.0
  7
ITALIC
100
AcDbText
  0
TEXT
  5
CF11
100
AcDbEntity
  8
1
100
AcDbText
 10
298.671578
 20
561.447394
 30
0.0
 40
5.0
  1
1:1
 51
15.0
  7
ITALIC
100
AcDbText
  0
TEXT
  5
CF12
100
AcDbEntity
  8
1
100
AcDbText
 10
313.977171
 20
561.447394
 30
0.0
 40
5.0
  1
A4
 51
15.0
  7
ITALIC
100
AcDbText
  0
TEXT
  5
CF13
100
AcDbEntity
  8
WY
100
AcDbText
 10
313.411812
 20
568.979306
 30
0.0
 40
2.0
  1
Format
 51
15.0
  7
ITALIC
100
AcDbText
  0
LINE
  5
CF14
100
AcDbEntity
  8
WYMIARY
 62
     3
100
AcDbLine
 10
311.041244
 20
572.339774
 30
0.0
 11
311.041244
 21
557.649937
 31
0.0
  0
ELLIPSE
  5
CF15
100
AcDbEntity
  8
0
100
AcDbEllipse
 10
328.869405
 20
560.835305
 30
0.0
 11
-0.8021437979128705
 21
0.0000000000000154
 31
0.0
210
0.0
220
0.0
230
1.0
 40
0.958812
 41
0.00000000000002
 42
1.570796326794914
1001
ACAD
1000
ASC_BOUNDS
1002
{
1070
    19
1002
}
  0
ELLIPSE
  5
CF16
100
AcDbEntity
  8
0
100
AcDbEllipse
 10
328.869405
 20
568.910911
 30
0.0
 11
0.8021437979128704
 21
0.000000000000038
 31
0.0
210
0.0
220
0.0
230
1.0
 40
0.958812
 41
1.570796326794851
 42
3.141592653589743
1001
ACAD
1000
ASC_BOUNDS
1002
{
1070
    19
1002
}
  0
ELLIPSE
  5
CF17
100
AcDbEntity
  8
0
100
AcDbEllipse
 10
330.619191
 20
562.522424
 30
0.0
 11
2.960559210508897
 21
0.3570763225581005
 31
0.0
210
0.0
220
0.0
230
0.9999999999999998
 40
0.820999
 41
1.335209029023201
 42
2.503032872947537
1001
ACAD
1000
ASC_BOUNDS
1002
{
1070
    19
1002
}
  0
ELLIPSE
  5
CF18
100
AcDbEntity
  8
0
100
AcDbEllipse
 10
330.849697
 20
561.587243
 30
0.0
 11
3.015746449176212
 21
0.7746519372140012
 31
0.0
210
0.0
220
0.0
230
1.0
 40
0.846775
 41
1.29973646820557
 42
2.479974117225238
1001
ACAD
1000
ASC_BOUNDS
1002
{
1070
    19
1002
}
  0
LINE
  5
CF19
100
AcDbEntity
  8
0
100
AcDbLine
 10
328.067261
 20
564.392417
 30
0.0
 11
327.164849
 21
564.392417
 31
0.0
1001
ACAD
1000
ASC_BOUNDS
1002
{
1070
    19
1002
}
  0
ELLIPSE
  5
CF1A
100
AcDbEntity
  8
0
100
AcDbEllipse
 10
328.067261
 20
564.392417
 30
0.0
 11
-1.203215696869327
 21
0.0000000000001967
 31
0.0
210
0.0
220
0.0
230
1.0
 40
0.958812
 41
-1.570796326794739
 42
0.0000000000001705
1001
ACAD
1000
ASC_BOUNDS
1002
{
1070
    19
1002
}
  0
LINE
  5
CF1B
100
AcDbEntity
  8
0
100
AcDbLine
 10
326.864045
 20
564.392417
 30
0.0
 11
327.164849
 21
564.392417
 31
0.0
1001
ACAD
1000
ASC_BOUNDS
1002
{
1070
    19
1002
}
  0
LINE
  5
CF1C
100
AcDbEntity
  8
0
100
AcDbLine
 10
328.067261
 20
562.544998
 30
0.0
 11
328.067261
 21
560.835305
 31
0.0
1001
ACAD
1000
ASC_BOUNDS
1002
{
1070
    19
1002
}
  0
LINE
  5
CF1D
100
AcDbEntity
  8
0
100
AcDbLine
 10
328.067261
 20
566.11122
 30
0.0
 11
328.067261
 21
568.910911
 31
0.0
1001
ACAD
1000
ASC_BOUNDS
1002
{
1070
    19
1002
}
  0
LINE
  5
CF1E
100
AcDbEntity
  8
0
100
AcDbLine
 10
328.067261
 20
564.392417
 30
0.0
 11
328.067261
 21
563.684451
 31
0.0
1001
ACAD
1000
ASC_BOUNDS
1002
{
1070
    19
1002
}
  0
LINE
  5
CF1F
100
AcDbEntity
  8
0
100
AcDbLine
 10
328.067261
 20
566.11122
 30
0.0
 11
328.067261
 21
565.546075
 31
0.0
1001
ACAD
1000
ASC_BOUNDS
1002
{
1070
    19
1002
}
  0
LINE
  5
CF20
100
AcDbEntity
  8
WYMIARY
 62
     3
100
AcDbLine
 10
326.041244
 20
572.339774
 30
0.0
 11
326.041244
 21
557.649937
 31
0.0
  0
LINE
  5
CF21
100
AcDbEntity
  8
0
100
AcDbLine
 10
333.983071
 20
560.835305
 30
0.0
 11
333.983071
 21
564.392417
 31
0.0
1001
ACAD
1000
ASC_BOUNDS
1002
{
1070
    19
1002
}
  0
ELLIPSE
  5
CF22
100
AcDbEntity
  8
0
100
AcDbEllipse
 10
333.180927
 20
560.835305
 30
0.0
 11
0.8021437979128704
 21
0.0000000000001602
 31
0.0
210
0.0
220
0.0
230
1.0
 40
0.958812
 41
4.712388980384497
 42
6.283185307179378
1001
ACAD
1000
ASC_BOUNDS
1002
{
1070
    19
1002
}
  0
ELLIPSE
  5
CF23
100
AcDbEntity
  8
0
100
AcDbEllipse
 10
331.000099
 20
567.829357
 30
0.0
 11
2.983077570132104
 21
0.0000000000002996
 31
0.0
210
0.0
220
0.0
230
1.0
 40
0.958812
 41
-1.562393163247347
 42
0.0084031635475457
1001
ACAD
1000
ASC_BOUNDS
1002
{
1070
    19
1002
}
  0
ELLIPSE
  5
CF24
100
AcDbEntity
  8
0
100
AcDbEllipse
 10
330.956923
 20
568.159476
 30
0.0
 11
-4.072692107280919
 21
0.0000000000000925
 31
0.0
210
0.0
220
0.0
230
1.0
 40
0.958812
 41
1.587553347046634
 42
2.408388587343224
1001
ACAD
1000
ASC_BOUNDS
1002
{
1070
    19
1002
}
  0
LINE
  5
CF25
100
AcDbEntity
  8
0
100
AcDbLine
 10
335.186287
 20
565.546075
 30
0.0
 11
334.885483
 21
565.546075
 31
0.0
1001
ACAD
1000
ASC_BOUNDS
1002
{
1070
    19
1002
}
  0
LINE
  5
CF26
100
AcDbEntity
  8
0
100
AcDbLine
 10
333.983071
 20
565.546075
 30
0.0
 11
334.885483
 21
565.546075
 31
0.0
1001
ACAD
1000
ASC_BOUNDS
1002
{
1070
    19
1002
}
  0
ELLIPSE
  5
CF27
100
AcDbEntity
  8
0
100
AcDbEllipse
 10
333.983071
 20
565.546075
 30
0.0
 11
1.203215696869352
 21
0.0000000000000893
 31
0.0
210
0.0
220
0.0
230
1.0
 40
0.958812
 41
4.712388980384611
 42
6.283185307179508
1001
ACAD
1000
ASC_BOUNDS
1002
{
1070
    19
1002
}
  0
LINE
  5
CF28
100
AcDbEntity
  8
0
100
AcDbLine
 10
333.983071
 20
567.805322
 30
0.0
 11
333.983071
 21
568.910911
 31
0.0
1001
ACAD
1000
ASC_BOUNDS
1002
{
1070
    19
1002
}
  0
ELLIPSE
  5
CF29
100
AcDbEntity
  8
0
100
AcDbEllipse
 10
333.180927
 20
568.910911
 30
0.0
 11
-0.8021437979128705
 21
0.000000000000038
 31
0.0
210
0.0
220
0.0
230
1.0
 40
0.958812
 41
3.141592653589842
 42
4.712388980384734
1001
ACAD
1000
ASC_BOUNDS
1002
{
1070
    19
1002
}
  0
LINE
  5
CF2A
100
AcDbEntity
  8
0
100
AcDbLine
 10
328.869405
 20
560.0662
 30
0.0
 11
333.180927
 21
560.0662
 31
0.0
1001
ACAD
1000
ASC_BOUNDS
1002
{
1070
    19
1002
}
  0
LINE
  5
CF2B
100
AcDbEntity
  8
0
100
AcDbLine
 10
328.869405
 20
569.680016
 30
0.0
 11
333.180927
 21
569.680016
 31
0.0
  0
TEXT
  5
CF35
100
AcDbEntity
  8
1
100
AcDbText
 10
341.356904
 20
729.199164
 30
0.0
 40
5.0
  1
RIK21-10-
 41
0.75
  7
ITALIC
100
AcDbText
  0
LINE
  5
CF36
100
AcDbEntity
  8
0
100
AcDbLine
 10
349.262813
 20
560.066201
 30
0.0
 11
347.717813
 21
560.066201
 31
0.0
  0
LINE
  5
CF37
100
AcDbEntity
  8
0
100
AcDbLine
 10
347.717813
 20
568.262201
 30
0.0
 11
349.262813
 21
568.262201
 31
0.0
  0
ARC
  5
CF38
100
AcDbEntity
  8
0
100
AcDbCircle
 10
342.571442
 20
563.122301
 30
0.0
 40
1.425319
100
AcDbArc
 50
189.534829
 51
270.296329
  0
ARC
  5
CF39
100
AcDbEntity
  8
0
100
AcDbCircle
 10
342.571442
 20
566.828307
 30
0.0
 40
1.425319
100
AcDbArc
 50
89.703671
 51
170.465171
  0
LINE
  5
CF3A
100
AcDbEntity
  8
0
100
AcDbLine
 10
339.28074
 20
565.586007
 30
0.0
 11
340.490813
 21
565.586007
 31
0.0
  0
LINE
  5
CF3B
100
AcDbEntity
  8
0
100
AcDbLine
 10
338.948402
 20
565.586007
 30
0.0
 11
340.490813
 21
565.586007
 31
0.0
  0
LINE
  5
CF3C
100
AcDbEntity
  8
0
100
AcDbLine
 10
338.936829
 20
567.011201
 30
0.0
 11
338.948402
 21
565.586007
 31
0.0
  0
LINE
  5
CF3D
100
AcDbEntity
  8
0
100
AcDbLine
 10
340.490813
 20
565.586007
 30
0.0
 11
340.490813
 21
567.377007
 31
0.0
1001
ACAD
1000
ASC_BOUNDS
1002
{
1070
    19
1002
}
  0
LINE
  5
CF3E
100
AcDbEntity
  8
0
100
AcDbLine
 10
341.165813
 20
562.886201
 30
0.0
 11
341.165813
 21
567.064407
 31
0.0
  0
LINE
  5
CF3F
100
AcDbEntity
  8
0
100
AcDbLine
 10
338.261829
 20
567.011201
 30
0.0
 11
338.273402
 21
561.665201
 31
0.0
  0
LINE
  5
CF40
100
AcDbEntity
  8
0
100
AcDbLine
 10
336.731287
 20
561.665201
 30
0.0
 11
336.731287
 21
568.253607
 31
0.0
1001
ACAD
1000
ASC_BOUNDS
1002
{
1070
    19
1002
}
  0
LINE
  5
CF41
100
AcDbEntity
  8
0
100
AcDbLine
 10
338.261829
 20
561.665201
 30
0.0
 11
338.273402
 21
561.672695
 31
0.0
  0
LINE
  5
CF42
100
AcDbEntity
  8
0
100
AcDbLine
 10
336.731287
 20
561.665201
 30
0.0
 11
338.273402
 21
561.665201
 31
0.0
1001
ACAD
1000
ASC_BOUNDS
1002
{
1070
    19
1002
}
  0
LINE
  5
CF43
100
AcDbEntity
  8
0
100
AcDbLine
 10
338.273402
 20
568.253607
 30
0.0
 11
338.273402
 21
568.038207
 31
0.0
  0
LINE
  5
CF44
100
AcDbEntity
  8
0
100
AcDbLine
 10
336.731287
 20
568.253607
 30
0.0
 11
338.273402
 21
568.253607
 31
0.0
1001
ACAD
1000
ASC_BOUNDS
1002
{
1070
    19
1002
}
  0
ARC
  5
CF45
100
AcDbEntity
  8
0
100
AcDbCircle
 10
339.168487
 20
566.991207
 30
0.0
 40
1.377457
100
AcDbArc
 50
16.265061
 51
130.527299
  0
ARC
  5
CF46
100
AcDbEntity
  8
0
100
AcDbCircle
 10
338.599329
 20
567.011201
 30
0.0
 40
0.3375
100
AcDbArc
 50
360.0
 51
180.0
  0
LINE
  5
CF47
100
AcDbEntity
  8
0
100
AcDbLine
 10
347.717813
 20
560.066201
 30
0.0
 11
347.717813
 21
568.262201
 31
0.0
  0
ARC
  5
CF48
100
AcDbEntity
  8
0
100
AcDbCircle
 10
343.426185
 20
563.122301
 30
0.0
 40
1.425319
100
AcDbArc
 50
269.703671
 51
350.465171
  0
LINE
  5
CF49
100
AcDbEntity
  8
0
100
AcDbLine
 10
345.518813
 20
561.665201
 30
0.0
 11
345.518813
 21
569.861201
 31
0.0
  0
LINE
  5
CF4A
100
AcDbEntity
  8
0
100
AcDbLine
 10
347.063813
 20
569.861201
 30
0.0
 11
347.063813
 21
561.665201
 31
0.0
  0
LINE
  5
CF4B
100
AcDbEntity
  8
0
100
AcDbLine
 10
342.56407
 20
561.697001
 30
0.0
 11
343.418813
 21
561.697001
 31
0.0
  0
LINE
  5
CF4C
100
AcDbEntity
  8
0
100
AcDbLine
 10
347.063813
 20
561.665201
 30
0.0
 11
345.518813
 21
561.665201
 31
0.0
  0
ARC
  5
CF4D
100
AcDbEntity
  8
0
100
AcDbCircle
 10
343.426185
 20
566.828307
 30
0.0
 40
1.425319
100
AcDbArc
 50
9.534829
 51
90.296329
  0
LINE
  5
CF4E
100
AcDbEntity
  8
0
100
AcDbLine
 10
344.831813
 20
564.461607
 30
0.0
 11
342.707813
 21
564.461607
 31
0.0
  0
LINE
  5
CF4F
100
AcDbEntity
  8
0
100
AcDbLine
 10
343.382813
 20
563.786607
 30
0.0
 11
344.831813
 21
563.786607
 31
0.0
  0
ARC
  5
CF50
100
AcDbEntity
  8
0
100
AcDbCircle
 10
343.045313
 20
567.011201
 30
0.0
 40
0.3375
100
AcDbArc
 50
360.0
 51
180.0
  0
LINE
  5
CF51
100
AcDbEntity
  8
0
100
AcDbLine
 10
342.707813
 20
564.461607
 30
0.0
 11
342.707813
 21
562.886201
 31
0.0
  0
LINE
  5
CF52
100
AcDbEntity
  8
0
100
AcDbLine
 10
342.707813
 20
565.361607
 30
0.0
 11
343.382813
 21
565.361607
 31
0.0
  0
LINE
  5
CF53
100
AcDbEntity
  8
0
100
AcDbLine
 10
343.382813
 20
563.786607
 30
0.0
 11
343.382813
 21
562.902701
 31
0.0
  0
LINE
  5
CF54
100
AcDbEntity
  8
0
100
AcDbLine
 10
342.707813
 20
564.461607
 30
0.0
 11
342.707813
 21
562.902701
 31
0.0
  0
ARC
  5
CF55
100
AcDbEntity
  8
0
100
AcDbCircle
 10
343.045313
 20
562.902701
 30
0.0
 40
0.3375
100
AcDbArc
 50
180.0
 51
0.0
  0
LINE
  5
CF56
100
AcDbEntity
  8
0
100
AcDbLine
 10
343.382813
 20
567.011201
 30
0.0
 11
343.382813
 21
565.361607
 31
0.0
  0
LINE
  5
CF57
100
AcDbEntity
  8
0
100
AcDbLine
 10
342.707813
 20
567.011201
 30
0.0
 11
342.707813
 21
565.361607
 31
0.0
  0
LINE
  5
CF58
100
AcDbEntity
  8
0
100
AcDbLine
 10
342.56407
 20
568.253607
 30
0.0
 11
343.418813
 21
568.253607
 31
0.0
  0
LINE
  5
CF59
100
AcDbEntity
  8
0
100
AcDbLine
 10
344.831813
 20
563.786607
 30
0.0
 11
344.831813
 21
562.886201
 31
0.0
  0
LINE
  5
CF5A
100
AcDbEntity
  8
0
100
AcDbLine
 10
344.831813
 20
564.461607
 30
0.0
 11
344.831813
 21
567.064407
 31
0.0
  0
LINE
  5
CF5B
100
AcDbEntity
  8
0
100
AcDbLine
 10
345.518813
 20
569.861201
 30
0.0
 11
347.063813
 21
569.861201
 31
0.0
  0
ARC
  5
CF5C
100
AcDbEntity
  8
0
100
AcDbCircle
 10
354.578974
 20
563.153509
 30
0.0
 40
1.488419
100
AcDbArc
 50
269.300887
 51
348.365732
  0
ARC
  5
CF5D
100
AcDbEntity
  8
0
100
AcDbCircle
 10
354.578974
 20
566.77404
 30
0.0
 40
1.488419
100
AcDbArc
 50
11.634268
 51
90.699113
  0
LINE
  5
CF5E
100
AcDbEntity
  8
0
100
AcDbLine
 10
349.262813
 20
562.088201
 30
0.0
 11
349.262813
 21
560.066201
 31
0.0
  0
ARC
  5
CF5F
100
AcDbEntity
  8
0
100
AcDbCircle
 10
349.912393
 20
562.374701
 30
0.0
 40
0.709955
100
AcDbArc
 50
203.80008
 51
272.051918
  0
ARC
  5
CF60
100
AcDbEntity
  8
0
100
AcDbCircle
 10
350.35172
 20
562.786353
 30
0.0
 40
1.128907
100
AcDbArc
 50
276.719576
 51
2.175194
  0
ARC
  5
CF61
100
AcDbEntity
  8
0
100
AcDbCircle
 10
353.612652
 20
563.153509
 30
0.0
 40
1.488419
100
AcDbArc
 50
191.634268
 51
270.699113
  0
LINE
  5
CF62
100
AcDbEntity
  8
0
100
AcDbLine
 10
349.945859
 20
561.665201
 30
0.0
 11
350.483813
 21
561.665201
 31
0.0
  0
LINE
  5
CF63
100
AcDbEntity
  8
0
100
AcDbLine
 10
353.630813
 20
561.665201
 30
0.0
 11
354.560813
 21
561.665201
 31
0.0
  0
ARC
  5
CF64
100
AcDbEntity
  8
0
100
AcDbCircle
 10
353.612652
 20
566.77404
 30
0.0
 40
1.488419
100
AcDbArc
 50
89.300887
 51
168.365732
  0
ARC
  5
CF65
100
AcDbEntity
  8
0
100
AcDbCircle
 10
350.12184
 20
566.857302
 30
0.0
 40
1.409039
100
AcDbArc
 50
15.47255
 51
127.56454
  0
LINE
  5
CF66
100
AcDbEntity
  8
0
100
AcDbLine
 10
351.479813
 20
567.233201
 30
0.0
 11
351.479813
 21
562.829201
 31
0.0
  0
LINE
  5
CF67
100
AcDbEntity
  8
0
100
AcDbLine
 10
349.937813
 20
567.011201
 30
0.0
 11
349.937813
 21
562.902701
 31
0.0
  0
LINE
  5
CF68
100
AcDbEntity
  8
0
100
AcDbLine
 10
349.262813
 20
567.011201
 30
0.0
 11
349.262813
 21
562.902701
 31
0.0
  0
ARC
  5
CF69
100
AcDbEntity
  8
0
100
AcDbCircle
 10
349.600313
 20
562.902701
 30
0.0
 40
0.3375
100
AcDbArc
 50
180.0
 51
0.0
  0
ARC
  5
CF6A
100
AcDbEntity
  8
0
100
AcDbCircle
 10
349.600313
 20
567.011201
 30
0.0
 40
0.3375
100
AcDbArc
 50
360.0
 51
180.0
  0
LINE
  5
CF6B
100
AcDbEntity
  8
0
100
AcDbLine
 10
349.262813
 20
568.262201
 30
0.0
 11
349.262813
 21
567.974201
 31
0.0
  0
ARC
  5
CF6C
100
AcDbEntity
  8
0
100
AcDbCircle
 10
354.095813
 20
567.011201
 30
0.0
 40
0.3375
100
AcDbArc
 50
360.0
 51
180.0
  0
ARC
  5
CF6D
100
AcDbEntity
  8
0
100
AcDbCircle
 10
354.095813
 20
562.902701
 30
0.0
 40
0.3375
100
AcDbArc
 50
180.0
 51
0.0
  0
LINE
  5
CF6E
100
AcDbEntity
  8
0
100
AcDbLine
 10
353.758313
 20
567.011201
 30
0.0
 11
353.758313
 21
562.902701
 31
0.0
  0
LINE
  5
CF6F
100
AcDbEntity
  8
0
100
AcDbLine
 10
354.433313
 20
567.011201
 30
0.0
 11
354.433313
 21
562.902701
 31
0.0
  0
LINE
  5
CF70
100
AcDbEntity
  8
0
100
AcDbLine
 10
352.154813
 20
562.853348
 30
0.0
 11
352.154813
 21
567.074201
 31
0.0
  0
LINE
  5
CF71
100
AcDbEntity
  8
0
100
AcDbLine
 10
353.630813
 20
568.262348
 30
0.0
 11
354.560813
 21
568.262348
 31
0.0
  0
LINE
  5
CF72
100
AcDbEntity
  8
0
100
AcDbLine
 10
358.256813
 20
569.861201
 30
0.0
 11
358.256813
 21
561.665201
 31
0.0
  0
LINE
  5
CF73
100
AcDbEntity
  8
0
100
AcDbLine
 10
356.711813
 20
561.665201
 30
0.0
 11
356.711813
 21
569.861201
 31
0.0
  0
LINE
  5
CF74
100
AcDbEntity
  8
1
100
AcDbLine
 10
361.839456
 20
557.649937
 30
0.0
 11
361.839456
 21
572.339774
 31
0.0
  0
LINE
  5
CF75
100
AcDbEntity
  8
0
100
AcDbLine
 10
358.256813
 20
561.665201
 30
0.0
 11
356.711813
 21
561.665201
 31
0.0
  0
LINE
  5
CF76
100
AcDbEntity
  8
0
100
AcDbLine
 10
356.036813
 20
567.074201
 30
0.0
 11
356.036813
 21
562.853348
 31
0.0
  0
LINE
  5
CF77
100
AcDbEntity
  8
0
100
AcDbLine
 10
356.711813
 20
569.861201
 30
0.0
 11
358.256813
 21
569.861201
 31
0.0
  0
TEXT
  5
CF9F
100
AcDbEntity
  8
WY
100
AcDbText
 10
362.787
 20
564.253947
 30
0.0
 40
2.0
  1
02-02-2008
 51
15.0
  7
ITALIC
100
AcDbText
  0
TEXT
  5
CFA0
100
AcDbEntity
  8
WY
100
AcDbText
 10
367.218369
 20
568.799175
 30
0.0
 40
2.0
  1
Data
 51
15.0
  7
ITALIC
100
AcDbText
  0
LINE
  5
CFA1
100
AcDbEntity
  8
WYMIARY
 62
     3
100
AcDbLine
 10
384.742781
 20
572.339774
 30
0.0
 11
384.742781
 21
557.649937
 31
0.0
  0
LINE
  5
D004
100
AcDbEntity
  8
WYMIARY
 62
     3
100
AcDbLine
 10
445.806014
 20
801.51488
 30
0.0
 11
436.006014
 21
801.51488
 31
0.0
  0
CIRCLE
  5
D005
100
AcDbEntity
  8
WYMIARY
 62
     4
100
AcDbCircle
 10
441.431014
 20
788.91488
 30
0.0
 40
3.1
  0
LINE
  5
D006
100
AcDbEntity
  8
WYMIARY
 62
     4
100
AcDbLine
 10
442.639899
 20
791.25005
 30
0.0
 11
443.398362
 21
790.744959
 31
0.0
  0
LINE
  5
D007
100
AcDbEntity
  8
WYMIARY
 62
     4
100
AcDbLine
 10
442.089388
 20
788.887923
 30
0.0
 11
443.398362
 21
790.744959
 31
0.0
  0
LINE
  5
D008
100
AcDbEntity
  8
WYMIARY
 62
     4
100
AcDbLine
 10
442.089388
 20
788.887923
 30
0.0
 11
443.875649
 21
787.628836
 31
0.0
  0
LINE
  5
D009
100
AcDbEntity
  8
WYMIARY
 62
     4
100
AcDbLine
 10
441.564569
 20
788.143365
 30
0.0
 11
443.302926
 21
786.918045
 31
0.0
  0
LINE
  5
D00A
100
AcDbEntity
  8
WYMIARY
 62
     3
100
AcDbLine
 10
410.806014
 20
792.01488
 30
0.0
 11
445.806014
 21
792.01488
 31
0.0
  0
CIRCLE
  5
D00B
100
AcDbEntity
  8
WYMIARY
 62
     4
100
AcDbCircle
 10
441.431014
 20
751.61488
 30
0.0
 40
3.1
  0
LINE
  5
D00C
100
AcDbEntity
  8
WYMIARY
 62
     4
100
AcDbLine
 10
441.564569
 20
750.843365
 30
0.0
 11
443.302926
 21
749.618045
 31
0.0
  0
LINE
  5
D00D
100
AcDbEntity
  8
WYMIARY
 62
     4
100
AcDbLine
 10
442.089388
 20
751.587923
 30
0.0
 11
443.875649
 21
750.328836
 31
0.0
  0
LINE
  5
D00E
100
AcDbEntity
  8
WYMIARY
 62
     4
100
AcDbLine
 10
442.089388
 20
751.587923
 30
0.0
 11
443.398362
 21
753.444959
 31
0.0
  0
LINE
  5
D00F
100
AcDbEntity
  8
WYMIARY
 62
     4
100
AcDbLine
 10
442.639899
 20
753.95005
 30
0.0
 11
443.398362
 21
753.444959
 31
0.0
  0
LINE
  5
D010
100
AcDbEntity
  8
WYMIARY
 62
     3
100
AcDbLine
 10
410.806014
 20
742.26488
 30
0.0
 11
436.006014
 21
742.26488
 31
0.0
  0
TEXT
  5
D011
100
AcDbEntity
  8
WY
100
AcDbText
 10
427.955025
 20
569.249185
 30
0.0
 40
2.0
  1
Product type
 51
15.0
  7
ITALIC
100
AcDbText
  0
LINE
  5
D012
100
AcDbEntity
  8
WYMIARY
 62
     3
100
AcDbLine
 10
410.806014
 20
748.51488
 30
0.0
 11
445.806014
 21
748.51488
 31
0.0
  0
LINE
  5
D013
100
AcDbEntity
  8
WYMIARY
 62
     3
100
AcDbLine
 10
410.806014
 20
798.26488
 30
0.0
 11
410.806014
 21
742.26488
 31
0.0
  0
LINE
  5
D014
100
AcDbEntity
  8
WYMIARY
 62
     3
100
AcDbLine
 10
410.806014
 20
770.26488
 30
0.0
 11
410.806014
 21
742.76488
 31
0.0
  0
LINE
  5
D015
100
AcDbEntity
  8
WYMIARY
 62
     3
100
AcDbLine
 10
410.806014
 20
770.26488
 30
0.0
 11
410.806014
 21
745.26488
 31
0.0
  0
LINE
  5
D016
100
AcDbEntity
  8
WYMIARY
 62
     3
100
AcDbLine
 10
410.806014
 20
770.26488
 30
0.0
 11
410.806014
 21
748.51488
 31
0.0
  0
LINE
  5
D017
100
AcDbEntity
  8
WYMIARY
 62
     4
100
AcDbLine
 10
415.09483
 20
752.112742
 30
0.0
 11
416.389899
 21
753.95005
 31
0.0
  0
ARC
  5
D018
100
AcDbEntity
  8
WYMIARY
 62
     4
100
AcDbCircle
 10
415.556014
 20
745.26488
 30
0.0
 40
2.0
100
AcDbArc
 50
356.852491
 51
181.588096
  0
CIRCLE
  5
D01A
100
AcDbEntity
  8
WYMIARY
 62
     4
100
AcDbCircle
 10
415.181014
 20
751.61488
 30
0.0
 40
3.1
  0
LINE
  5
D01B
100
AcDbEntity
  8
WYMIARY
 62
     4
100
AcDbLine
 10
415.839388
 20
751.587923
 30
0.0
 11
417.148362
 21
753.444959
 31
0.0
  0
LINE
  5
D01C
100
AcDbEntity
  8
WYMIARY
 62
     4
100
AcDbLine
 10
415.839388
 20
751.587923
 30
0.0
 11
417.625649
 21
750.328836
 31
0.0
  0
LINE
  5
D01D
100
AcDbEntity
  8
WYMIARY
 62
     4
100
AcDbLine
 10
415.314569
 20
750.843365
 30
0.0
 11
417.052926
 21
749.618045
 31
0.0
  0
TEXT
  5
D01E
100
AcDbEntity
  8
1
100
AcDbText
 10
412.547835
 20
729.851996
 30
0.0
 40
5.0
  1
RIK21-01-
 41
0.75
  7
ITALIC
100
AcDbText
  0
LINE
  5
D01F
100
AcDbEntity
  8
WYMIARY
 62
     4
100
AcDbLine
 10
413.556782
 20
745.320308
 30
0.0
 11
413.556782
 21
742.76488
 31
0.0
  0
LINE
  5
D020
100
AcDbEntity
  8
WYMIARY
 62
     4
100
AcDbLine
 10
410.806014
 20
742.76488
 30
0.0
 11
413.556782
 21
742.76488
 31
0.0
  0
LINE
  5
D022
100
AcDbEntity
  8
WYMIARY
 62
     3
100
AcDbLine
 10
410.806014
 20
748.51488
 30
0.0
 11
410.806014
 21
754.71488
 31
0.0
  0
LINE
  5
D023
100
AcDbEntity
  8
WYMIARY
 62
     4
100
AcDbLine
 10
413.328147
 20
749.606357
 30
0.0
 11
414.060612
 21
749.064381
 31
0.0
  0
LINE
  5
D024
100
AcDbEntity
  8
WYMIARY
 62
     4
100
AcDbLine
 10
414.060612
 20
749.064381
 30
0.0
 11
415.314569
 21
750.843365
 31
0.0
  0
LINE
  5
D025
100
AcDbEntity
  8
WYMIARY
 62
     4
100
AcDbLine
 10
413.328147
 20
749.606357
 30
0.0
 11
414.570011
 21
751.368184
 31
0.0
  0
LINE
  5
D026
100
AcDbEntity
  8
WYMIARY
 62
     4
100
AcDbLine
 10
413.340353
 20
753.349424
 30
0.0
 11
415.09483
 21
752.112742
 31
0.0
  0
LINE
  5
D027
100
AcDbEntity
  8
WYMIARY
 62
     4
100
AcDbLine
 10
412.804123
 20
752.612911
 30
0.0
 11
414.570011
 21
751.368184
 31
0.0
  0
LINE
  5
D028
100
AcDbEntity
  8
WYMIARY
 62
     4
100
AcDbLine
 10
412.804123
 20
752.612911
 30
0.0
 11
413.340353
 21
753.349424
 31
0.0
  0
TEXT
  5
D029
100
AcDbEntity
  8
1
 62
     4
100
AcDbText
 10
412.010192
 20
755.200418
 30
0.0
 40
2.0
  1
2
 41
0.75
  7
ITALIC
100
AcDbText
  0
TEXT
  5
D02A
100
AcDbEntity
  8
1
100
AcDbText
 10
427.758884
 20
561.713946
 30
0.0
 40
5.0
  1
RIK21
 41
0.75
  7
ITALIC
100
AcDbText
  0
LINE
  5
D02B
100
AcDbEntity
  8
1
100
AcDbLine
 10
425.763828
 20
557.649937
 30
0.0
 11
425.763828
 21
572.339774
 31
0.0
  0
LINE
  5
D02C
100
AcDbEntity
  8
WYMIARY
 62
     4
100
AcDbLine
 10
418.552997
 20
742.76488
 30
0.0
 11
418.552997
 21
748.51488
 31
0.0
  0
LINE
  5
D02D
100
AcDbEntity
  8
WYMIARY
 62
     4
100
AcDbLine
 10
417.552997
 20
745.155066
 30
0.0
 11
417.552997
 21
742.76488
 31
0.0
  0
LINE
  5
D02E
100
AcDbEntity
  8
WYMIARY
 62
     4
100
AcDbLine
 10
417.552997
 20
742.76488
 30
0.0
 11
418.552997
 21
742.76488
 31
0.0
  0
LINE
  5
D02F
100
AcDbEntity
  8
WYMIARY
 62
     4
100
AcDbLine
 10
417.552997
 20
742.76488
 30
0.0
 11
418.552997
 21
742.76488
 31
0.0
  0
LINE
  5
D031
100
AcDbEntity
  8
WYMIARY
 62
     4
100
AcDbLine
 10
421.554123
 20
752.612911
 30
0.0
 11
423.320011
 21
751.368184
 31
0.0
  0
LINE
  5
D032
100
AcDbEntity
  8
WYMIARY
 62
     4
100
AcDbLine
 10
422.090353
 20
753.349424
 30
0.0
 11
423.84483
 21
752.112742
 31
0.0
  0
LINE
  5
D033
100
AcDbEntity
  8
WYMIARY
 62
     4
100
AcDbLine
 10
422.078147
 20
749.606357
 30
0.0
 11
423.320011
 21
751.368184
 31
0.0
  0
LINE
  5
D034
100
AcDbEntity
  8
WYMIARY
 62
     4
100
AcDbLine
 10
422.078147
 20
749.606357
 30
0.0
 11
422.810612
 21
749.064381
 31
0.0
  0
CIRCLE
  5
D035
100
AcDbEntity
  8
WYMIARY
 62
     4
100
AcDbCircle
 10
423.931014
 20
751.61488
 30
0.0
 40
3.1
  0
LINE
  5
D036
100
AcDbEntity
  8
WYMIARY
 62
     4
100
AcDbLine
 10
421.554123
 20
752.612911
 30
0.0
 11
422.090353
 21
753.349424
 31
0.0
  0
LINE
  5
D037
100
AcDbEntity
  8
WYMIARY
 62
     4
100
AcDbLine
 10
417.052926
 20
749.618045
 30
0.0
 11
417.625649
 21
750.328836
 31
0.0
  0
TEXT
  5
D038
100
AcDbEntity
  8
1
 62
     4
100
AcDbText
 10
420.760192
 20
755.200418
 30
0.0
 40
2.0
  1
4
 41
0.75
  7
ITALIC
100
AcDbText
  0
LINE
  5
D039
100
AcDbEntity
  8
WYMIARY
 62
     4
100
AcDbLine
 10
416.389899
 20
753.95005
 30
0.0
 11
417.148362
 21
753.444959
 31
0.0
  0
LINE
  5
D03A
100
AcDbEntity
  8
WYMIARY
 62
     4
100
AcDbLine
 10
425.802926
 20
749.618045
 30
0.0
 11
426.375649
 21
750.328836
 31
0.0
  0
LINE
  5
D03B
100
AcDbEntity
  8
WYMIARY
 62
     4
100
AcDbLine
 10
423.84483
 20
752.112742
 30
0.0
 11
425.139899
 21
753.95005
 31
0.0
  0
LINE
  5
D03C
100
AcDbEntity
  8
WYMIARY
 62
     4
100
AcDbLine
 10
422.810612
 20
749.064381
 30
0.0
 11
424.064569
 21
750.843365
 31
0.0
  0
LINE
  5
D03D
100
AcDbEntity
  8
WYMIARY
 62
     4
100
AcDbLine
 10
424.064569
 20
750.843365
 30
0.0
 11
425.802926
 21
749.618045
 31
0.0
  0
LINE
  5
D03E
100
AcDbEntity
  8
WYMIARY
 62
     4
100
AcDbLine
 10
424.589388
 20
751.587923
 30
0.0
 11
426.375649
 21
750.328836
 31
0.0
  0
LINE
  5
D03F
100
AcDbEntity
  8
WYMIARY
 62
     4
100
AcDbLine
 10
424.589388
 20
751.587923
 30
0.0
 11
425.898362
 21
753.444959
 31
0.0
  0
LINE
  5
D040
100
AcDbEntity
  8
WYMIARY
 62
     4
100
AcDbLine
 10
425.139899
 20
753.95005
 30
0.0
 11
425.898362
 21
753.444959
 31
0.0
  0
LINE
  5
D041
100
AcDbEntity
  8
WYMIARY
 62
     4
100
AcDbLine
 10
434.552926
 20
749.618045
 30
0.0
 11
435.125649
 21
750.328836
 31
0.0
  0
LINE
  5
D042
100
AcDbEntity
  8
WYMIARY
 62
     4
100
AcDbLine
 10
430.304123
 20
752.612911
 30
0.0
 11
430.840353
 21
753.349424
 31
0.0
  0
LINE
  5
D043
100
AcDbEntity
  8
WYMIARY
 62
     4
100
AcDbLine
 10
430.304123
 20
752.612911
 30
0.0
 11
432.070011
 21
751.368184
 31
0.0
  0
LINE
  5
D044
100
AcDbEntity
  8
WYMIARY
 62
     4
100
AcDbLine
 10
430.840353
 20
753.349424
 30
0.0
 11
432.59483
 21
752.112742
 31
0.0
  0
LINE
  5
D045
100
AcDbEntity
  8
WYMIARY
 62
     4
100
AcDbLine
 10
430.828147
 20
749.606357
 30
0.0
 11
432.070011
 21
751.368184
 31
0.0
  0
LINE
  5
D046
100
AcDbEntity
  8
WYMIARY
 62
     4
100
AcDbLine
 10
432.59483
 20
752.112742
 30
0.0
 11
433.889899
 21
753.95005
 31
0.0
  0
LINE
  5
D047
100
AcDbEntity
  8
WYMIARY
 62
     4
100
AcDbLine
 10
431.560612
 20
749.064381
 30
0.0
 11
432.814569
 21
750.843365
 31
0.0
  0
LINE
  5
D048
100
AcDbEntity
  8
WYMIARY
 62
     4
100
AcDbLine
 10
430.828147
 20
749.606357
 30
0.0
 11
431.560612
 21
749.064381
 31
0.0
  0
TEXT
  5
D049
100
AcDbEntity
  8
1
 62
     4
100
AcDbText
 10
429.510192
 20
755.200418
 30
0.0
 40
2.0
  1
6
 41
0.75
  7
ITALIC
100
AcDbText
  0
CIRCLE
  5
D04A
100
AcDbEntity
  8
WYMIARY
 62
     4
100
AcDbCircle
 10
432.681014
 20
751.61488
 30
0.0
 40
3.1
  0
LINE
  5
D04B
100
AcDbEntity
  8
WYMIARY
 62
     4
100
AcDbLine
 10
432.814569
 20
750.843365
 30
0.0
 11
434.552926
 21
749.618045
 31
0.0
  0
LINE
  5
D04C
100
AcDbEntity
  8
WYMIARY
 62
     4
100
AcDbLine
 10
433.339388
 20
751.587923
 30
0.0
 11
435.125649
 21
750.328836
 31
0.0
  0
LINE
  5
D04D
100
AcDbEntity
  8
WYMIARY
 62
     4
100
AcDbLine
 10
433.339388
 20
751.587923
 30
0.0
 11
434.648362
 21
753.444959
 31
0.0
  0
LINE
  5
D04E
100
AcDbEntity
  8
WYMIARY
 62
     4
100
AcDbLine
 10
433.889899
 20
753.95005
 30
0.0
 11
434.648362
 21
753.444959
 31
0.0
  0
LINE
  5
D04F
100
AcDbEntity
  8
WYMIARY
 62
     4
100
AcDbLine
 10
439.054123
 20
752.612911
 30
0.0
 11
439.590353
 21
753.349424
 31
0.0
  0
LINE
  5
D050
100
AcDbEntity
  8
WYMIARY
 62
     4
100
AcDbLine
 10
439.054123
 20
752.612911
 30
0.0
 11
440.820011
 21
751.368184
 31
0.0
  0
LINE
  5
D051
100
AcDbEntity
  8
WYMIARY
 62
     4
100
AcDbLine
 10
439.590353
 20
753.349424
 30
0.0
 11
441.34483
 21
752.112742
 31
0.0
  0
LINE
  5
D052
100
AcDbEntity
  8
WYMIARY
 62
     4
100
AcDbLine
 10
439.578147
 20
749.606357
 30
0.0
 11
440.820011
 21
751.368184
 31
0.0
  0
LINE
  5
D053
100
AcDbEntity
  8
WYMIARY
 62
     4
100
AcDbLine
 10
441.34483
 20
752.112742
 30
0.0
 11
442.639899
 21
753.95005
 31
0.0
  0
LINE
  5
D054
100
AcDbEntity
  8
WYMIARY
 62
     4
100
AcDbLine
 10
440.310612
 20
749.064381
 30
0.0
 11
441.564569
 21
750.843365
 31
0.0
  0
LINE
  5
D055
100
AcDbEntity
  8
WYMIARY
 62
     4
100
AcDbLine
 10
439.578147
 20
749.606357
 30
0.0
 11
440.310612
 21
749.064381
 31
0.0
  0
TEXT
  5
D056
100
AcDbEntity
  8
1
 62
     4
100
AcDbText
 10
438.260192
 20
755.200418
 30
0.0
 40
2.0
  1
22
 41
0.75
  7
ITALIC
100
AcDbText
  0
LINE
  5
D057
100
AcDbEntity
  8
WYMIARY
 62
     4
100
AcDbLine
 10
415.09483
 20
789.412742
 30
0.0
 11
416.389899
 21
791.25005
 31
0.0
  0
ARC
  5
D058
100
AcDbEntity
  8
WYMIARY
 62
     4
100
AcDbCircle
 10
415.556014
 20
795.26488
 30
0.0
 40
2.0
100
AcDbArc
 50
174.334226
 51
9.119732
  0
LINE
  5
D059
100
AcDbEntity
  8
WYMIARY
 62
     3
100
AcDbLine
 10
410.806014
 20
798.26488
 30
0.0
 11
436.006014
 21
798.26488
 31
0.0
  0
CIRCLE
  5
D05A
100
AcDbEntity
  8
WYMIARY
 62
     4
100
AcDbCircle
 10
415.181014
 20
788.91488
 30
0.0
 40
3.1
  0
LINE
  5
D05B
100
AcDbEntity
  8
WYMIARY
 62
     4
100
AcDbLine
 10
415.314569
 20
788.143365
 30
0.0
 11
417.052926
 21
786.918045
 31
0.0
  0
LINE
  5
D05C
100
AcDbEntity
  8
WYMIARY
 62
     4
100
AcDbLine
 10
415.839388
 20
788.887923
 30
0.0
 11
417.625649
 21
787.628836
 31
0.0
  0
LINE
  5
D05D
100
AcDbEntity
  8
WYMIARY
 62
     4
100
AcDbLine
 10
415.839388
 20
788.887923
 30
0.0
 11
417.148362
 21
790.744959
 31
0.0
  0
LINE
  5
D05E
100
AcDbEntity
  8
WYMIARY
 62
     4
100
AcDbLine
 10
413.565784
 20
795.462331
 30
0.0
 11
413.565784
 21
797.76488
 31
0.0
  0
LINE
  5
D05F
100
AcDbEntity
  8
WYMIARY
 62
     3
100
AcDbLine
 10
410.806014
 20
770.26488
 30
0.0
 11
410.806014
 21
797.76488
 31
0.0
  0
LINE
  5
D060
100
AcDbEntity
  8
WYMIARY
 62
     3
100
AcDbLine
 10
410.806014
 20
770.26488
 30
0.0
 11
410.806014
 21
795.26488
 31
0.0
  0
LINE
  5
D061
100
AcDbEntity
  8
WYMIARY
 62
     3
100
AcDbLine
 10
410.806014
 20
770.26488
 30
0.0
 11
410.806014
 21
792.01488
 31
0.0
  0
LINE
  5
D062
100
AcDbEntity
  8
WYMIARY
 62
     4
100
AcDbLine
 10
412.804123
 20
789.912911
 30
0.0
 11
414.570011
 21
788.668184
 31
0.0
  0
LINE
  5
D063
100
AcDbEntity
  8
WYMIARY
 62
     4
100
AcDbLine
 10
413.340353
 20
790.649424
 30
0.0
 11
415.09483
 21
789.412742
 31
0.0
  0
LINE
  5
D064
100
AcDbEntity
  8
WYMIARY
 62
     4
100
AcDbLine
 10
414.060612
 20
786.364381
 30
0.0
 11
415.314569
 21
788.143365
 31
0.0
  0
LINE
  5
D065
100
AcDbEntity
  8
WYMIARY
 62
     4
100
AcDbLine
 10
413.328147
 20
786.906357
 30
0.0
 11
414.570011
 21
788.668184
 31
0.0
  0
LINE
  5
D066
100
AcDbEntity
  8
WYMIARY
 62
     4
100
AcDbLine
 10
412.804123
 20
789.912911
 30
0.0
 11
413.340353
 21
790.649424
 31
0.0
  0
LINE
  5
D067
100
AcDbEntity
  8
WYMIARY
 62
     4
100
AcDbLine
 10
413.328147
 20
786.906357
 30
0.0
 11
414.060612
 21
786.364381
 31
0.0
  0
TEXT
  5
D068
100
AcDbEntity
  8
1
 62
     4
100
AcDbText
 10
412.574735
 20
783.624452
 30
0.0
 40
2.0
  1
1
 41
0.75
  7
ITALIC
100
AcDbText
  0
LINE
  5
D069
100
AcDbEntity
  8
WYMIARY
 62
     4
100
AcDbLine
 10
410.806014
 20
797.76488
 30
0.0
 11
413.565784
 21
797.76488
 31
0.0
  0
LINE
  5
D06A
100
AcDbEntity
  8
WYMIARY
 62
     3
100
AcDbLine
 10
410.806014
 20
798.26488
 30
0.0
 11
415.556014
 21
798.26488
 31
0.0
  0
LINE
  5
D06B
100
AcDbEntity
  8
WYMIARY
 62
     4
100
AcDbLine
 10
418.530732
 20
797.76488
 30
0.0
 11
418.530732
 21
792.01488
 31
0.0
  0
LINE
  5
D06C
100
AcDbEntity
  8
WYMIARY
 62
     4
100
AcDbLine
 10
417.530732
 20
795.581876
 30
0.0
 11
417.530732
 21
797.76488
 31
0.0
  0
LINE
  5
D06D
100
AcDbEntity
  8
WYMIARY
 62
     4
100
AcDbLine
 10
422.078147
 20
786.906357
 30
0.0
 11
422.810612
 21
786.364381
 31
0.0
  0
LINE
  5
D06E
100
AcDbEntity
  8
WYMIARY
 62
     4
100
AcDbLine
 10
422.078147
 20
786.906357
 30
0.0
 11
423.320011
 21
788.668184
 31
0.0
  0
LINE
  5
D06F
100
AcDbEntity
  8
WYMIARY
 62
     4
100
AcDbLine
 10
422.090353
 20
790.649424
 30
0.0
 11
423.84483
 21
789.412742
 31
0.0
  0
LINE
  5
D070
100
AcDbEntity
  8
WYMIARY
 62
     4
100
AcDbLine
 10
421.554123
 20
789.912911
 30
0.0
 11
423.320011
 21
788.668184
 31
0.0
  0
CIRCLE
  5
D071
100
AcDbEntity
  8
WYMIARY
 62
     4
100
AcDbCircle
 10
423.931014
 20
788.91488
 30
0.0
 40
3.1
  0
LINE
  5
D072
100
AcDbEntity
  8
WYMIARY
 62
     4
100
AcDbLine
 10
417.052926
 20
786.918045
 30
0.0
 11
417.625649
 21
787.628836
 31
0.0
  0
LINE
  5
D073
100
AcDbEntity
  8
WYMIARY
 62
     4
100
AcDbLine
 10
421.554123
 20
789.912911
 30
0.0
 11
422.090353
 21
790.649424
 31
0.0
  0
TEXT
  5
D074
100
AcDbEntity
  8
1
 62
     4
100
AcDbText
 10
421.324735
 20
783.624452
 30
0.0
 40
2.0
  1
3
 41
0.75
  7
ITALIC
100
AcDbText
  0
LINE
  5
D075
100
AcDbEntity
  8
WYMIARY
 62
     4
100
AcDbLine
 10
416.389899
 20
791.25005
 30
0.0
 11
417.148362
 21
790.744959
 31
0.0
  0
LINE
  5
D076
100
AcDbEntity
  8
WYMIARY
 62
     4
100
AcDbLine
 10
425.802926
 20
786.918045
 30
0.0
 11
426.375649
 21
787.628836
 31
0.0
  0
LINE
  5
D077
100
AcDbEntity
  8
WYMIARY
 62
     4
100
AcDbLine
 10
422.810612
 20
786.364381
 30
0.0
 11
424.064569
 21
788.143365
 31
0.0
  0
LINE
  5
D078
100
AcDbEntity
  8
WYMIARY
 62
     4
100
AcDbLine
 10
423.84483
 20
789.412742
 30
0.0
 11
425.139899
 21
791.25005
 31
0.0
  0
LINE
  5
D079
100
AcDbEntity
  8
WYMIARY
 62
     4
100
AcDbLine
 10
425.139899
 20
791.25005
 30
0.0
 11
425.898362
 21
790.744959
 31
0.0
  0
LINE
  5
D07A
100
AcDbEntity
  8
WYMIARY
 62
     4
100
AcDbLine
 10
424.589388
 20
788.887923
 30
0.0
 11
425.898362
 21
790.744959
 31
0.0
  0
LINE
  5
D07B
100
AcDbEntity
  8
WYMIARY
 62
     4
100
AcDbLine
 10
424.589388
 20
788.887923
 30
0.0
 11
426.375649
 21
787.628836
 31
0.0
  0
LINE
  5
D07C
100
AcDbEntity
  8
WYMIARY
 62
     4
100
AcDbLine
 10
424.064569
 20
788.143365
 30
0.0
 11
425.802926
 21
786.918045
 31
0.0
  0
LINE
  5
D07D
100
AcDbEntity
  8
WYMIARY
 62
     4
100
AcDbLine
 10
434.552926
 20
786.918045
 30
0.0
 11
435.125649
 21
787.628836
 31
0.0
  0
LINE
  5
D07E
100
AcDbEntity
  8
WYMIARY
 62
     4
100
AcDbLine
 10
430.828147
 20
786.906357
 30
0.0
 11
431.560612
 21
786.364381
 31
0.0
  0
LINE
  5
D07F
100
AcDbEntity
  8
WYMIARY
 62
     4
100
AcDbLine
 10
431.560612
 20
786.364381
 30
0.0
 11
432.814569
 21
788.143365
 31
0.0
  0
LINE
  5
D080
100
AcDbEntity
  8
WYMIARY
 62
     4
100
AcDbLine
 10
432.59483
 20
789.412742
 30
0.0
 11
433.889899
 21
791.25005
 31
0.0
  0
LINE
  5
D081
100
AcDbEntity
  8
WYMIARY
 62
     4
100
AcDbLine
 10
430.828147
 20
786.906357
 30
0.0
 11
432.070011
 21
788.668184
 31
0.0
  0
LINE
  5
D082
100
AcDbEntity
  8
WYMIARY
 62
     4
100
AcDbLine
 10
430.840353
 20
790.649424
 30
0.0
 11
432.59483
 21
789.412742
 31
0.0
  0
LINE
  5
D083
100
AcDbEntity
  8
WYMIARY
 62
     4
100
AcDbLine
 10
430.304123
 20
789.912911
 30
0.0
 11
432.070011
 21
788.668184
 31
0.0
  0
LINE
  5
D084
100
AcDbEntity
  8
WYMIARY
 62
     4
100
AcDbLine
 10
430.304123
 20
789.912911
 30
0.0
 11
430.840353
 21
790.649424
 31
0.0
  0
TEXT
  5
D085
100
AcDbEntity
  8
1
 62
     4
100
AcDbText
 10
430.074735
 20
783.624452
 30
0.0
 40
2.0
  1
5
 41
0.75
  7
ITALIC
100
AcDbText
  0
CIRCLE
  5
D086
100
AcDbEntity
  8
WYMIARY
 62
     4
100
AcDbCircle
 10
432.681014
 20
788.91488
 30
0.0
 40
3.1
  0
LINE
  5
D087
100
AcDbEntity
  8
WYMIARY
 62
     4
100
AcDbLine
 10
433.889899
 20
791.25005
 30
0.0
 11
434.648362
 21
790.744959
 31
0.0
  0
LINE
  5
D088
100
AcDbEntity
  8
WYMIARY
 62
     4
100
AcDbLine
 10
433.339388
 20
788.887923
 30
0.0
 11
434.648362
 21
790.744959
 31
0.0
  0
LINE
  5
D089
100
AcDbEntity
  8
WYMIARY
 62
     4
100
AcDbLine
 10
433.339388
 20
788.887923
 30
0.0
 11
435.125649
 21
787.628836
 31
0.0
  0
LINE
  5
D08A
100
AcDbEntity
  8
WYMIARY
 62
     4
100
AcDbLine
 10
432.814569
 20
788.143365
 30
0.0
 11
434.552926
 21
786.918045
 31
0.0
  0
LINE
  5
D08B
100
AcDbEntity
  8
WYMIARY
 62
     4
100
AcDbLine
 10
439.578147
 20
786.906357
 30
0.0
 11
440.310612
 21
786.364381
 31
0.0
  0
LINE
  5
D08C
100
AcDbEntity
  8
WYMIARY
 62
     4
100
AcDbLine
 10
440.310612
 20
786.364381
 30
0.0
 11
441.564569
 21
788.143365
 31
0.0
  0
LINE
  5
D08D
100
AcDbEntity
  8
WYMIARY
 62
     4
100
AcDbLine
 10
441.34483
 20
789.412742
 30
0.0
 11
442.639899
 21
791.25005
 31
0.0
  0
LINE
  5
D08E
100
AcDbEntity
  8
WYMIARY
 62
     4
100
AcDbLine
 10
439.578147
 20
786.906357
 30
0.0
 11
440.820011
 21
788.668184
 31
0.0
  0
LINE
  5
D08F
100
AcDbEntity
  8
WYMIARY
 62
     4
100
AcDbLine
 10
439.590353
 20
790.649424
 30
0.0
 11
441.34483
 21
789.412742
 31
0.0
  0
LINE
  5
D090
100
AcDbEntity
  8
WYMIARY
 62
     4
100
AcDbLine
 10
439.054123
 20
789.912911
 30
0.0
 11
440.820011
 21
788.668184
 31
0.0
  0
LINE
  5
D091
100
AcDbEntity
  8
WYMIARY
 62
     4
100
AcDbLine
 10
439.054123
 20
789.912911
 30
0.0
 11
439.590353
 21
790.649424
 31
0.0
  0
TEXT
  5
D092
100
AcDbEntity
  8
1
 62
     4
100
AcDbText
 10
438.824735
 20
783.624452
 30
0.0
 40
2.0
  1
21
 41
0.75
  7
ITALIC
100
AcDbText
  0
LINE
  5
D093
100
AcDbEntity
  8
WYMIARY
 62
     4
100
AcDbLine
 10
417.530732
 20
797.76488
 30
0.0
 11
418.530732
 21
797.76488
 31
0.0
  0
LINE
  5
D094
100
AcDbEntity
  8
WYMIARY
 62
     4
100
AcDbLine
 10
417.530732
 20
797.76488
 30
0.0
 11
418.530732
 21
797.76488
 31
0.0
  0
LINE
  5
D095
100
AcDbEntity
  8
WYMIARY
 62
     3
100
AcDbLine
 10
436.006014
 20
801.51488
 30
0.0
 11
436.006014
 21
798.26488
 31
0.0
  0
LINE
  5
D096
100
AcDbEntity
  8
WYMIARY
 62
     3
100
AcDbLine
 10
445.806014
 20
798.26488
 30
0.0
 11
445.806014
 21
742.26488
 31
0.0
  0
LINE
  5
D097
100
AcDbEntity
  8
WYMIARY
 62
     4
100
AcDbLine
 10
443.302926
 20
749.618045
 30
0.0
 11
443.875649
 21
750.328836
 31
0.0
  0
LINE
  5
D098
100
AcDbEntity
  8
WYMIARY
 62
     4
100
AcDbLine
 10
443.302926
 20
786.918045
 30
0.0
 11
443.875649
 21
787.628836
 31
0.0
  0
LINE
  5
D099
100
AcDbEntity
  8
WYMIARY
 62
     3
100
AcDbLine
 10
445.806014
 20
798.26488
 30
0.0
 11
445.806014
 21
801.51488
 31
0.0
  0
LINE
  5
D09A
100
AcDbEntity
  8
2
100
AcDbLine
 10
481.041244
 20
844.649937
 30
0.0
 11
296.041244
 21
844.649937
 31
0.0
  0
LINE
  5
D09B
100
AcDbEntity
  8
2
100
AcDbLine
 10
486.041244
 20
849.649937
 30
0.0
 11
296.041244
 21
849.649937
 31
0.0
  0
LINE
  5
D0E4
100
AcDbEntity
  8
WYMIARY
 62
     6
100
AcDbLine
 10
296.041244
 20
849.649937
 30
0.0
 11
284.410837
 21
849.649937
 31
0.0
  0
TEXT
  5
D0E5
100
AcDbEntity
  8
1
100
AcDbText
 10
374.272774
 20
826.419038
 30
0.0
 40
5.0
  1
RIK21
 41
0.75
  7
ITALIC
100
AcDbText
  0
LINE
  5
D137
100
AcDbEntity
  8
WYMIARY
 62
     4
100
AcDbLine
 10
439.590353
 20
798.492483
 30
0.0
 11
441.34483
 21
797.2558
 31
0.0
  0
LINE
  5
D138
100
AcDbEntity
  8
WYMIARY
 62
     4
100
AcDbLine
 10
441.34483
 20
797.2558
 30
0.0
 11
442.639899
 21
799.093109
 31
0.0
  0
LINE
  5
D139
100
AcDbEntity
  8
WYMIARY
 62
     4
100
AcDbLine
 10
442.089388
 20
796.730981
 30
0.0
 11
443.398362
 21
798.588018
 31
0.0
  0
CIRCLE
  5
D13A
100
AcDbEntity
  8
WYMIARY
 62
     4
100
AcDbCircle
 10
441.431014
 20
796.757938
 30
0.0
 40
3.1
  0
LINE
  5
D13B
100
AcDbEntity
  8
WYMIARY
 62
     4
100
AcDbLine
 10
443.302926
 20
794.761103
 30
0.0
 11
443.875649
 21
795.471894
 31
0.0
  0
LINE
  5
D13C
100
AcDbEntity
  8
WYMIARY
 62
     4
100
AcDbLine
 10
440.310612
 20
794.20744
 30
0.0
 11
441.564569
 21
795.986424
 31
0.0
  0
LINE
  5
D13D
100
AcDbEntity
  8
WYMIARY
 62
     4
100
AcDbLine
 10
441.564569
 20
795.986424
 30
0.0
 11
443.302926
 21
794.761103
 31
0.0
  0
LINE
  5
D13E
100
AcDbEntity
  8
WYMIARY
 62
     4
100
AcDbLine
 10
442.089388
 20
796.730981
 30
0.0
 11
443.875649
 21
795.471894
 31
0.0
  0
LINE
  5
D13F
100
AcDbEntity
  8
WYMIARY
 62
     4
100
AcDbLine
 10
439.054123
 20
797.755969
 30
0.0
 11
440.820011
 21
796.511242
 31
0.0
  0
TEXT
  5
D140
100
AcDbEntity
  8
1
 62
     4
100
AcDbText
 10
436.349527
 20
793.325972
 30
0.0
 40
2.0
  1
A1
 41
0.75
  7
ITALIC
100
AcDbText
  0
LINE
  5
D141
100
AcDbEntity
  8
WYMIARY
 62
     4
100
AcDbLine
 10
439.578147
 20
794.749415
 30
0.0
 11
440.820011
 21
796.511242
 31
0.0
  0
LINE
  5
D142
100
AcDbEntity
  8
WYMIARY
 62
     4
100
AcDbLine
 10
439.578147
 20
794.749415
 30
0.0
 11
440.310612
 21
794.20744
 31
0.0
  0
LINE
  5
D143
100
AcDbEntity
  8
WYMIARY
 62
     4
100
AcDbLine
 10
439.054123
 20
797.755969
 30
0.0
 11
439.590353
 21
798.492483
 31
0.0
  0
LINE
  5
D144
100
AcDbEntity
  8
WYMIARY
 62
     4
100
AcDbLine
 10
442.639899
 20
799.093109
 30
0.0
 11
443.398362
 21
798.588018
 31
0.0
  0
LINE
  5
D145
100
AcDbEntity
  8
WYMIARY
 62
     4
100
AcDbLine
 10
443.727343
 20
740.268045
 30
0.0
 11
444.300066
 21
740.978836
 31
0.0
  0
LINE
  5
D146
100
AcDbEntity
  8
WYMIARY
 62
     4
100
AcDbLine
 10
440.002564
 20
740.256357
 30
0.0
 11
440.735028
 21
739.714381
 31
0.0
  0
LINE
  5
D147
100
AcDbEntity
  8
WYMIARY
 62
     4
100
AcDbLine
 10
440.735028
 20
739.714381
 30
0.0
 11
441.988986
 21
741.493365
 31
0.0
  0
LINE
  5
D148
100
AcDbEntity
  8
WYMIARY
 62
     4
100
AcDbLine
 10
441.769247
 20
742.762742
 30
0.0
 11
443.064316
 21
744.60005
 31
0.0
  0
LINE
  5
D149
100
AcDbEntity
  8
WYMIARY
 62
     4
100
AcDbLine
 10
440.002564
 20
740.256357
 30
0.0
 11
441.244428
 21
742.018184
 31
0.0
  0
LINE
  5
D14A
100
AcDbEntity
  8
WYMIARY
 62
     4
100
AcDbLine
 10
440.01477
 20
743.999424
 30
0.0
 11
441.769247
 21
742.762742
 31
0.0
  0
LINE
  5
D14B
100
AcDbEntity
  8
WYMIARY
 62
     4
100
AcDbLine
 10
439.478539
 20
743.262911
 30
0.0
 11
441.244428
 21
742.018184
 31
0.0
  0
LINE
  5
D14C
100
AcDbEntity
  8
WYMIARY
 62
     4
100
AcDbLine
 10
439.478539
 20
743.262911
 30
0.0
 11
440.01477
 21
743.999424
 31
0.0
  0
LINE
  5
D14D
100
AcDbEntity
  8
WYMIARY
 62
     4
100
AcDbLine
 10
443.064316
 20
744.60005
 30
0.0
 11
443.822779
 21
744.094959
 31
0.0
  0
LINE
  5
D14E
100
AcDbEntity
  8
WYMIARY
 62
     4
100
AcDbLine
 10
442.513804
 20
742.237923
 30
0.0
 11
443.822779
 21
744.094959
 31
0.0
  0
LINE
  5
D14F
100
AcDbEntity
  8
WYMIARY
 62
     4
100
AcDbLine
 10
442.513804
 20
742.237923
 30
0.0
 11
444.300066
 21
740.978836
 31
0.0
  0
LINE
  5
D150
100
AcDbEntity
  8
WYMIARY
 62
     4
100
AcDbLine
 10
441.988986
 20
741.493365
 30
0.0
 11
443.727343
 21
740.268045
 31
0.0
  0
TEXT
  5
D151
100
AcDbEntity
  8
1
 62
     4
100
AcDbText
 10
435.955619
 20
745.535171
 30
0.0
 40
2.0
  1
A2
 41
0.75
  7
ITALIC
100
AcDbText
  0
CIRCLE
  5
D152
100
AcDbEntity
  8
WYMIARY
 62
     4
100
AcDbCircle
 10
441.855431
 20
742.26488
 30
0.0
 40
3.1
  0
LINE
  5
D153
100
AcDbEntity
  8
WYMIARY
 62
     3
100
AcDbLine
 10
436.006014
 20
739.01488
 30
0.0
 11
445.806014
 21
739.01488
 31
0.0
  0
LINE
  5
D154
100
AcDbEntity
  8
WYMIARY
 62
     3
100
AcDbLine
 10
436.006014
 20
742.26488
 30
0.0
 11
436.006014
 21
739.01488
 31
0.0
  0
LINE
  5
D155
100
AcDbEntity
  8
WYMIARY
 62
     3
100
AcDbLine
 10
445.806014
 20
739.01488
 30
0.0
 11
445.806014
 21
742.26488
 31
0.0
  0
LINE
  5
D156
100
AcDbEntity
  8
WYMIARY
 62
     3
100
AcDbLine
 10
376.775221
 20
798.26488
 30
0.0
 11
376.775221
 21
742.26488
 31
0.0
  0
TEXT
  5
D157
100
AcDbEntity
  8
1
 62
     4
100
AcDbText
 10
369.229399
 20
755.200418
 30
0.0
 40
2.0
  1
14
 41
0.75
  7
ITALIC
100
AcDbText
  0
TEXT
  5
D158
100
AcDbEntity
  8
1
 62
     4
100
AcDbText
 10
360.479399
 20
755.200418
 30
0.0
 40
2.0
  1
6
 41
0.75
  7
ITALIC
100
AcDbText
  0
TEXT
  5
D159
100
AcDbEntity
  8
1
 62
     4
100
AcDbText
 10
351.729399
 20
755.200418
 30
0.0
 40
2.0
  1
4
 41
0.75
  7
ITALIC
100
AcDbText
  0
TEXT
  5
D15A
100
AcDbEntity
  8
1
 62
     4
100
AcDbText
 10
342.979399
 20
755.200418
 30
0.0
 40
2.0
  1
2
 41
0.75
  7
ITALIC
100
AcDbText
  0
LINE
  5
D15B
100
AcDbEntity
  8
WYMIARY
 62
     3
100
AcDbLine
 10
341.775221
 20
770.26488
 30
0.0
 11
341.775221
 21
748.51488
 31
0.0
  0
LINE
  5
D15C
100
AcDbEntity
  8
WYMIARY
 62
     3
100
AcDbLine
 10
341.775221
 20
770.26488
 30
0.0
 11
341.775221
 21
745.26488
 31
0.0
  0
LINE
  5
D15D
100
AcDbEntity
  8
WYMIARY
 62
     3
100
AcDbLine
 10
341.775221
 20
770.26488
 30
0.0
 11
341.775221
 21
742.76488
 31
0.0
  0
LINE
  5
D15E
100
AcDbEntity
  8
WYMIARY
 62
     3
100
AcDbLine
 10
341.775221
 20
798.26488
 30
0.0
 11
341.775221
 21
742.26488
 31
0.0
  0
LINE
  5
D15F
100
AcDbEntity
  8
WYMIARY
 62
     3
100
AcDbLine
 10
341.775221
 20
742.26488
 30
0.0
 11
366.975221
 21
742.26488
 31
0.0
  0
LINE
  5
D160
100
AcDbEntity
  8
WYMIARY
 62
     4
100
AcDbLine
 10
355.033776
 20
750.843365
 30
0.0
 11
356.772133
 21
749.618045
 31
0.0
  0
LINE
  5
D161
100
AcDbEntity
  8
WYMIARY
 62
     4
100
AcDbLine
 10
354.814037
 20
752.112742
 30
0.0
 11
356.109106
 21
753.95005
 31
0.0
  0
CIRCLE
  5
D162
100
AcDbEntity
  8
WYMIARY
 62
     4
100
AcDbCircle
 10
354.900221
 20
751.61488
 30
0.0
 40
3.1
  0
LINE
  5
D163
100
AcDbEntity
  8
WYMIARY
 62
     3
100
AcDbLine
 10
341.775221
 20
748.51488
 30
0.0
 11
376.775221
 21
748.51488
 31
0.0
  0
LINE
  5
D164
100
AcDbEntity
  8
WYMIARY
 62
     4
100
AcDbLine
 10
341.775221
 20
742.76488
 30
0.0
 11
344.525989
 21
742.76488
 31
0.0
  0
LINE
  5
D165
100
AcDbEntity
  8
WYMIARY
 62
     3
100
AcDbLine
 10
341.775221
 20
748.51488
 30
0.0
 11
341.775221
 21
754.71488
 31
0.0
  0
LINE
  5
D166
100
AcDbEntity
  8
WYMIARY
 62
     4
100
AcDbLine
 10
348.522204
 20
742.76488
 30
0.0
 11
349.522204
 21
742.76488
 31
0.0
  0
LINE
  5
D167
100
AcDbEntity
  8
WYMIARY
 62
     4
100
AcDbLine
 10
348.522204
 20
742.76488
 30
0.0
 11
349.522204
 21
742.76488
 31
0.0
  0
CIRCLE
  5
D168
100
AcDbEntity
  8
WYMIARY
 62
     4
100
AcDbCircle
 10
346.150221
 20
751.61488
 30
0.0
 40
3.1
  0
LINE
  5
D169
100
AcDbEntity
  8
WYMIARY
 62
     4
100
AcDbLine
 10
347.359106
 20
753.95005
 30
0.0
 11
348.117569
 21
753.444959
 31
0.0
  0
LINE
  5
D16A
100
AcDbEntity
  8
WYMIARY
 62
     4
100
AcDbLine
 10
348.022133
 20
749.618045
 30
0.0
 11
348.594857
 21
750.328836
 31
0.0
  0
LINE
  5
D16B
100
AcDbEntity
  8
WYMIARY
 62
     4
100
AcDbLine
 10
348.522204
 20
745.155066
 30
0.0
 11
348.522204
 21
742.76488
 31
0.0
  0
LINE
  5
D16C
100
AcDbEntity
  8
WYMIARY
 62
     4
100
AcDbLine
 10
343.77333
 20
752.612911
 30
0.0
 11
344.309561
 21
753.349424
 31
0.0
  0
LINE
  5
D16D
100
AcDbEntity
  8
WYMIARY
 62
     4
100
AcDbLine
 10
343.77333
 20
752.612911
 30
0.0
 11
345.539219
 21
751.368184
 31
0.0
  0
LINE
  5
D16E
100
AcDbEntity
  8
WYMIARY
 62
     4
100
AcDbLine
 10
344.309561
 20
753.349424
 30
0.0
 11
346.064037
 21
752.112742
 31
0.0
  0
LINE
  5
D16F
100
AcDbEntity
  8
WYMIARY
 62
     4
100
AcDbLine
 10
344.297355
 20
749.606357
 30
0.0
 11
345.539219
 21
751.368184
 31
0.0
  0
LINE
  5
D170
100
AcDbEntity
  8
WYMIARY
 62
     4
100
AcDbLine
 10
345.029819
 20
749.064381
 30
0.0
 11
346.283776
 21
750.843365
 31
0.0
  0
LINE
  5
D171
100
AcDbEntity
  8
WYMIARY
 62
     4
100
AcDbLine
 10
344.297355
 20
749.606357
 30
0.0
 11
345.029819
 21
749.064381
 31
0.0
  0
LINE
  5
D172
100
AcDbEntity
  8
WYMIARY
 62
     4
100
AcDbLine
 10
344.525989
 20
745.320308
 30
0.0
 11
344.525989
 21
742.76488
 31
0.0
  0
LINE
  5
D173
100
AcDbEntity
  8
WYMIARY
 62
     4
100
AcDbLine
 10
346.283776
 20
750.843365
 30
0.0
 11
348.022133
 21
749.618045
 31
0.0
  0
LINE
  5
D174
100
AcDbEntity
  8
WYMIARY
 62
     4
100
AcDbLine
 10
346.808595
 20
751.587923
 30
0.0
 11
348.594857
 21
750.328836
 31
0.0
  0
LINE
  5
D175
100
AcDbEntity
  8
WYMIARY
 62
     4
100
AcDbLine
 10
346.808595
 20
751.587923
 30
0.0
 11
348.117569
 21
753.444959
 31
0.0
  0
ARC
  5
D176
100
AcDbEntity
  8
WYMIARY
 62
     4
100
AcDbCircle
 10
346.525221
 20
745.26488
 30
0.0
 40
2.0
100
AcDbArc
 50
356.852491
 51
181.588096
  0
LINE
  5
D177
100
AcDbEntity
  8
WYMIARY
 62
     4
100
AcDbLine
 10
346.064037
 20
752.112742
 30
0.0
 11
347.359106
 21
753.95005
 31
0.0
  0
LINE
  5
D178
100
AcDbEntity
  8
WYMIARY
 62
     4
100
AcDbLine
 10
353.779819
 20
749.064381
 30
0.0
 11
355.033776
 21
750.843365
 31
0.0
  0
LINE
  5
D179
100
AcDbEntity
  8
WYMIARY
 62
     4
100
AcDbLine
 10
352.52333
 20
752.612911
 30
0.0
 11
353.059561
 21
753.349424
 31
0.0
  0
LINE
  5
D17A
100
AcDbEntity
  8
WYMIARY
 62
     4
100
AcDbLine
 10
353.047355
 20
749.606357
 30
0.0
 11
353.779819
 21
749.064381
 31
0.0
  0
LINE
  5
D17B
100
AcDbEntity
  8
WYMIARY
 62
     4
100
AcDbLine
 10
353.047355
 20
749.606357
 30
0.0
 11
354.289219
 21
751.368184
 31
0.0
  0
LINE
  5
D17C
100
AcDbEntity
  8
WYMIARY
 62
     4
100
AcDbLine
 10
353.059561
 20
753.349424
 30
0.0
 11
354.814037
 21
752.112742
 31
0.0
  0
LINE
  5
D17D
100
AcDbEntity
  8
WYMIARY
 62
     4
100
AcDbLine
 10
352.52333
 20
752.612911
 30
0.0
 11
354.289219
 21
751.368184
 31
0.0
  0
LINE
  5
D17E
100
AcDbEntity
  8
WYMIARY
 62
     4
100
AcDbLine
 10
349.522204
 20
742.76488
 30
0.0
 11
349.522204
 21
748.51488
 31
0.0
  0
LINE
  5
D17F
100
AcDbEntity
  8
WYMIARY
 62
     3
100
AcDbLine
 10
366.975221
 20
739.01488
 30
0.0
 11
376.775221
 21
739.01488
 31
0.0
  0
TEXT
  5
D180
100
AcDbEntity
  8
1
 62
     4
100
AcDbText
 10
366.924827
 20
745.535171
 30
0.0
 40
2.0
  1
A2
 41
0.75
  7
ITALIC
100
AcDbText
  0
LINE
  5
D181
100
AcDbEntity
  8
WYMIARY
 62
     3
100
AcDbLine
 10
366.975221
 20
742.26488
 30
0.0
 11
366.975221
 21
739.01488
 31
0.0
  0
CIRCLE
  5
D182
100
AcDbEntity
  8
WYMIARY
 62
     4
100
AcDbCircle
 10
363.650221
 20
751.61488
 30
0.0
 40
3.1
  0
LINE
  5
D183
100
AcDbEntity
  8
WYMIARY
 62
     4
100
AcDbLine
 10
361.797355
 20
749.606357
 30
0.0
 11
362.529819
 21
749.064381
 31
0.0
  0
LINE
  5
D184
100
AcDbEntity
  8
WYMIARY
 62
     4
100
AcDbLine
 10
361.797355
 20
749.606357
 30
0.0
 11
363.039219
 21
751.368184
 31
0.0
  0
LINE
  5
D185
100
AcDbEntity
  8
WYMIARY
 62
     4
100
AcDbLine
 10
361.809561
 20
753.349424
 30
0.0
 11
363.564037
 21
752.112742
 31
0.0
  0
LINE
  5
D186
100
AcDbEntity
  8
WYMIARY
 62
     4
100
AcDbLine
 10
361.27333
 20
752.612911
 30
0.0
 11
363.039219
 21
751.368184
 31
0.0
  0
LINE
  5
D187
100
AcDbEntity
  8
WYMIARY
 62
     4
100
AcDbLine
 10
361.27333
 20
752.612911
 30
0.0
 11
361.809561
 21
753.349424
 31
0.0
  0
LINE
  5
D188
100
AcDbEntity
  8
WYMIARY
 62
     4
100
AcDbLine
 10
356.109106
 20
753.95005
 30
0.0
 11
356.867569
 21
753.444959
 31
0.0
  0
LINE
  5
D189
100
AcDbEntity
  8
WYMIARY
 62
     4
100
AcDbLine
 10
355.558595
 20
751.587923
 30
0.0
 11
356.867569
 21
753.444959
 31
0.0
  0
LINE
  5
D18A
100
AcDbEntity
  8
WYMIARY
 62
     4
100
AcDbLine
 10
355.558595
 20
751.587923
 30
0.0
 11
357.344857
 21
750.328836
 31
0.0
  0
LINE
  5
D18B
100
AcDbEntity
  8
WYMIARY
 62
     4
100
AcDbLine
 10
356.772133
 20
749.618045
 30
0.0
 11
357.344857
 21
750.328836
 31
0.0
  0
LINE
  5
D18C
100
AcDbEntity
  8
WYMIARY
 62
     4
100
AcDbLine
 10
364.859106
 20
753.95005
 30
0.0
 11
365.617569
 21
753.444959
 31
0.0
  0
LINE
  5
D18D
100
AcDbEntity
  8
WYMIARY
 62
     4
100
AcDbLine
 10
364.308595
 20
751.587923
 30
0.0
 11
365.617569
 21
753.444959
 31
0.0
  0
LINE
  5
D18E
100
AcDbEntity
  8
WYMIARY
 62
     4
100
AcDbLine
 10
364.308595
 20
751.587923
 30
0.0
 11
366.094857
 21
750.328836
 31
0.0
  0
LINE
  5
D18F
100
AcDbEntity
  8
WYMIARY
 62
     4
100
AcDbLine
 10
363.783776
 20
750.843365
 30
0.0
 11
365.522133
 21
749.618045
 31
0.0
  0
LINE
  5
D190
100
AcDbEntity
  8
WYMIARY
 62
     4
100
AcDbLine
 10
362.529819
 20
749.064381
 30
0.0
 11
363.783776
 21
750.843365
 31
0.0
  0
LINE
  5
D191
100
AcDbEntity
  8
WYMIARY
 62
     4
100
AcDbLine
 10
363.564037
 20
752.112742
 30
0.0
 11
364.859106
 21
753.95005
 31
0.0
  0
LINE
  5
D192
100
AcDbEntity
  8
WYMIARY
 62
     4
100
AcDbLine
 10
365.522133
 20
749.618045
 30
0.0
 11
366.094857
 21
750.328836
 31
0.0
  0
LINE
  5
D193
100
AcDbEntity
  8
WYMIARY
 62
     3
100
AcDbLine
 10
376.775221
 20
739.01488
 30
0.0
 11
376.775221
 21
742.26488
 31
0.0
  0
CIRCLE
  5
D194
100
AcDbEntity
  8
WYMIARY
 62
     4
100
AcDbCircle
 10
372.824638
 20
742.26488
 30
0.0
 40
3.1
  0
LINE
  5
D195
100
AcDbEntity
  8
WYMIARY
 62
     4
100
AcDbLine
 10
371.704236
 20
739.714381
 30
0.0
 11
372.958193
 21
741.493365
 31
0.0
  0
LINE
  5
D196
100
AcDbEntity
  8
WYMIARY
 62
     4
100
AcDbLine
 10
370.971771
 20
740.256357
 30
0.0
 11
371.704236
 21
739.714381
 31
0.0
  0
LINE
  5
D197
100
AcDbEntity
  8
WYMIARY
 62
     4
100
AcDbLine
 10
372.958193
 20
741.493365
 30
0.0
 11
374.69655
 21
740.268045
 31
0.0
  0
LINE
  5
D198
100
AcDbEntity
  8
WYMIARY
 62
     4
100
AcDbLine
 10
373.483012
 20
742.237923
 30
0.0
 11
375.269274
 21
740.978836
 31
0.0
  0
LINE
  5
D199
100
AcDbEntity
  8
WYMIARY
 62
     4
100
AcDbLine
 10
373.483012
 20
742.237923
 30
0.0
 11
374.791986
 21
744.094959
 31
0.0
  0
LINE
  5
D19A
100
AcDbEntity
  8
WYMIARY
 62
     4
100
AcDbLine
 10
374.033523
 20
744.60005
 30
0.0
 11
374.791986
 21
744.094959
 31
0.0
  0
LINE
  5
D19B
100
AcDbEntity
  8
WYMIARY
 62
     4
100
AcDbLine
 10
370.447747
 20
743.262911
 30
0.0
 11
370.983978
 21
743.999424
 31
0.0
  0
LINE
  5
D19C
100
AcDbEntity
  8
WYMIARY
 62
     4
100
AcDbLine
 10
370.447747
 20
743.262911
 30
0.0
 11
372.213636
 21
742.018184
 31
0.0
  0
LINE
  5
D19D
100
AcDbEntity
  8
WYMIARY
 62
     4
100
AcDbLine
 10
370.983978
 20
743.999424
 30
0.0
 11
372.738454
 21
742.762742
 31
0.0
  0
LINE
  5
D19E
100
AcDbEntity
  8
WYMIARY
 62
     4
100
AcDbLine
 10
370.971771
 20
740.256357
 30
0.0
 11
372.213636
 21
742.018184
 31
0.0
  0
LINE
  5
D19F
100
AcDbEntity
  8
WYMIARY
 62
     4
100
AcDbLine
 10
372.738454
 20
742.762742
 30
0.0
 11
374.033523
 21
744.60005
 31
0.0
  0
LINE
  5
D1A0
100
AcDbEntity
  8
WYMIARY
 62
     4
100
AcDbLine
 10
374.69655
 20
740.268045
 30
0.0
 11
375.269274
 21
740.978836
 31
0.0
  0
LINE
  5
D1A1
100
AcDbEntity
  8
WYMIARY
 62
     4
100
AcDbLine
 10
374.272133
 20
749.618045
 30
0.0
 11
374.844857
 21
750.328836
 31
0.0
  0
LINE
  5
D1A2
100
AcDbEntity
  8
WYMIARY
 62
     4
100
AcDbLine
 10
370.547355
 20
749.606357
 30
0.0
 11
371.279819
 21
749.064381
 31
0.0
  0
LINE
  5
D1A3
100
AcDbEntity
  8
WYMIARY
 62
     4
100
AcDbLine
 10
371.279819
 20
749.064381
 30
0.0
 11
372.533776
 21
750.843365
 31
0.0
  0
LINE
  5
D1A4
100
AcDbEntity
  8
WYMIARY
 62
     4
100
AcDbLine
 10
372.314037
 20
752.112742
 30
0.0
 11
373.609106
 21
753.95005
 31
0.0
  0
LINE
  5
D1A5
100
AcDbEntity
  8
WYMIARY
 62
     4
100
AcDbLine
 10
370.547355
 20
749.606357
 30
0.0
 11
371.789219
 21
751.368184
 31
0.0
  0
LINE
  5
D1A6
100
AcDbEntity
  8
WYMIARY
 62
     4
100
AcDbLine
 10
370.559561
 20
753.349424
 30
0.0
 11
372.314037
 21
752.112742
 31
0.0
  0
LINE
  5
D1A7
100
AcDbEntity
  8
WYMIARY
 62
     4
100
AcDbLine
 10
370.02333
 20
752.612911
 30
0.0
 11
371.789219
 21
751.368184
 31
0.0
  0
LINE
  5
D1A8
100
AcDbEntity
  8
WYMIARY
 62
     4
100
AcDbLine
 10
370.02333
 20
752.612911
 30
0.0
 11
370.559561
 21
753.349424
 31
0.0
  0
LINE
  5
D1A9
100
AcDbEntity
  8
WYMIARY
 62
     4
100
AcDbLine
 10
373.609106
 20
753.95005
 30
0.0
 11
374.367569
 21
753.444959
 31
0.0
  0
LINE
  5
D1AA
100
AcDbEntity
  8
WYMIARY
 62
     4
100
AcDbLine
 10
373.058595
 20
751.587923
 30
0.0
 11
374.367569
 21
753.444959
 31
0.0
  0
LINE
  5
D1AB
100
AcDbEntity
  8
WYMIARY
 62
     4
100
AcDbLine
 10
373.058595
 20
751.587923
 30
0.0
 11
374.844857
 21
750.328836
 31
0.0
  0
LINE
  5
D1AC
100
AcDbEntity
  8
WYMIARY
 62
     4
100
AcDbLine
 10
372.533776
 20
750.843365
 30
0.0
 11
374.272133
 21
749.618045
 31
0.0
  0
CIRCLE
  5
D1AD
100
AcDbEntity
  8
WYMIARY
 62
     4
100
AcDbCircle
 10
372.400221
 20
751.61488
 30
0.0
 40
3.1
  0
LINE
  5
D1AE
100
AcDbEntity
  8
WYMIARY
 62
     4
100
AcDbLine
 10
355.033776
 20
788.143365
 30
0.0
 11
356.772133
 21
786.918045
 31
0.0
  0
LINE
  5
D1AF
100
AcDbEntity
  8
WYMIARY
 62
     4
100
AcDbLine
 10
354.814037
 20
789.412742
 30
0.0
 11
356.109106
 21
791.25005
 31
0.0
  0
CIRCLE
  5
D1B0
100
AcDbEntity
  8
WYMIARY
 62
     4
100
AcDbCircle
 10
354.900221
 20
788.91488
 30
0.0
 40
3.1
  0
LINE
  5
D1B1
100
AcDbEntity
  8
WYMIARY
 62
     3
100
AcDbLine
 10
341.775221
 20
798.26488
 30
0.0
 11
366.975221
 21
798.26488
 31
0.0
  0
LINE
  5
D1B2
100
AcDbEntity
  8
WYMIARY
 62
     3
100
AcDbLine
 10
341.775221
 20
792.01488
 30
0.0
 11
376.775221
 21
792.01488
 31
0.0
  0
LINE
  5
D1B3
100
AcDbEntity
  8
WYMIARY
 62
     4
100
AcDbLine
 10
352.52333
 20
789.912911
 30
0.0
 11
354.289219
 21
788.668184
 31
0.0
  0
LINE
  5
D1B4
100
AcDbEntity
  8
WYMIARY
 62
     4
100
AcDbLine
 10
353.059561
 20
790.649424
 30
0.0
 11
354.814037
 21
789.412742
 31
0.0
  0
LINE
  5
D1B5
100
AcDbEntity
  8
WYMIARY
 62
     4
100
AcDbLine
 10
344.309561
 20
790.649424
 30
0.0
 11
346.064037
 21
789.412742
 31
0.0
  0
LINE
  5
D1B6
100
AcDbEntity
  8
WYMIARY
 62
     4
100
AcDbLine
 10
343.77333
 20
789.912911
 30
0.0
 11
345.539219
 21
788.668184
 31
0.0
  0
LINE
  5
D1B7
100
AcDbEntity
  8
WYMIARY
 62
     3
100
AcDbLine
 10
341.775221
 20
770.26488
 30
0.0
 11
341.775221
 21
792.01488
 31
0.0
  0
LINE
  5
D1B8
100
AcDbEntity
  8
WYMIARY
 62
     3
100
AcDbLine
 10
341.775221
 20
770.26488
 30
0.0
 11
341.775221
 21
795.26488
 31
0.0
  0
LINE
  5
D1B9
100
AcDbEntity
  8
WYMIARY
 62
     3
100
AcDbLine
 10
341.775221
 20
770.26488
 30
0.0
 11
341.775221
 21
797.76488
 31
0.0
  0
LINE
  5
D1BA
100
AcDbEntity
  8
WYMIARY
 62
     4
100
AcDbLine
 10
346.808595
 20
788.887923
 30
0.0
 11
348.117569
 21
790.744959
 31
0.0
  0
CIRCLE
  5
D1BB
100
AcDbEntity
  8
WYMIARY
 62
     4
100
AcDbCircle
 10
346.150221
 20
788.91488
 30
0.0
 40
3.1
  0
LINE
  5
D1BC
100
AcDbEntity
  8
WYMIARY
 62
     4
100
AcDbLine
 10
346.064037
 20
789.412742
 30
0.0
 11
347.359106
 21
791.25005
 31
0.0
  0
LINE
  5
D1BD
100
AcDbEntity
  8
WYMIARY
 62
     4
100
AcDbLine
 10
348.022133
 20
786.918045
 30
0.0
 11
348.594857
 21
787.628836
 31
0.0
  0
TEXT
  5
D1BE
100
AcDbEntity
  8
1
 62
     4
100
AcDbText
 10
343.543942
 20
783.624452
 30
0.0
 40
2.0
  1
1
 41
0.75
  7
ITALIC
100
AcDbText
  0
LINE
  5
D1BF
100
AcDbEntity
  8
WYMIARY
 62
     4
100
AcDbLine
 10
344.297355
 20
786.906357
 30
0.0
 11
345.029819
 21
786.364381
 31
0.0
  0
LINE
  5
D1C0
100
AcDbEntity
  8
WYMIARY
 62
     4
100
AcDbLine
 10
344.297355
 20
786.906357
 30
0.0
 11
345.539219
 21
788.668184
 31
0.0
  0
LINE
  5
D1C1
100
AcDbEntity
  8
WYMIARY
 62
     4
100
AcDbLine
 10
345.029819
 20
786.364381
 30
0.0
 11
346.283776
 21
788.143365
 31
0.0
  0
LINE
  5
D1C2
100
AcDbEntity
  8
WYMIARY
 62
     4
100
AcDbLine
 10
346.808595
 20
788.887923
 30
0.0
 11
348.594857
 21
787.628836
 31
0.0
  0
LINE
  5
D1C3
100
AcDbEntity
  8
WYMIARY
 62
     4
100
AcDbLine
 10
346.283776
 20
788.143365
 30
0.0
 11
348.022133
 21
786.918045
 31
0.0
  0
LINE
  5
D1C4
100
AcDbEntity
  8
WYMIARY
 62
     4
100
AcDbLine
 10
353.779819
 20
786.364381
 30
0.0
 11
355.033776
 21
788.143365
 31
0.0
  0
TEXT
  5
D1C5
100
AcDbEntity
  8
1
 62
     4
100
AcDbText
 10
352.293942
 20
783.624452
 30
0.0
 40
2.0
  1
3
 41
0.75
  7
ITALIC
100
AcDbText
  0
LINE
  5
D1C6
100
AcDbEntity
  8
WYMIARY
 62
     4
100
AcDbLine
 10
353.047355
 20
786.906357
 30
0.0
 11
354.289219
 21
788.668184
 31
0.0
  0
LINE
  5
D1C7
100
AcDbEntity
  8
WYMIARY
 62
     4
100
AcDbLine
 10
353.047355
 20
786.906357
 30
0.0
 11
353.779819
 21
786.364381
 31
0.0
  0
LINE
  5
D1C8
100
AcDbEntity
  8
WYMIARY
 62
     3
100
AcDbLine
 10
341.775221
 20
798.26488
 30
0.0
 11
346.525221
 21
798.26488
 31
0.0
  0
LINE
  5
D1C9
100
AcDbEntity
  8
WYMIARY
 62
     4
100
AcDbLine
 10
341.775221
 20
797.76488
 30
0.0
 11
344.534992
 21
797.76488
 31
0.0
  0
LINE
  5
D1CA
100
AcDbEntity
  8
WYMIARY
 62
     4
100
AcDbLine
 10
348.49994
 20
797.76488
 30
0.0
 11
349.49994
 21
797.76488
 31
0.0
  0
LINE
  5
D1CB
100
AcDbEntity
  8
WYMIARY
 62
     4
100
AcDbLine
 10
348.49994
 20
797.76488
 30
0.0
 11
349.49994
 21
797.76488
 31
0.0
  0
LINE
  5
D1CC
100
AcDbEntity
  8
WYMIARY
 62
     4
100
AcDbLine
 10
347.359106
 20
791.25005
 30
0.0
 11
348.117569
 21
790.744959
 31
0.0
  0
LINE
  5
D1CD
100
AcDbEntity
  8
WYMIARY
 62
     4
100
AcDbLine
 10
348.49994
 20
795.581876
 30
0.0
 11
348.49994
 21
797.76488
 31
0.0
  0
LINE
  5
D1CE
100
AcDbEntity
  8
WYMIARY
 62
     4
100
AcDbLine
 10
343.77333
 20
789.912911
 30
0.0
 11
344.309561
 21
790.649424
 31
0.0
  0
LINE
  5
D1CF
100
AcDbEntity
  8
WYMIARY
 62
     4
100
AcDbLine
 10
344.534992
 20
795.462331
 30
0.0
 11
344.534992
 21
797.76488
 31
0.0
  0
ARC
  5
D1D0
100
AcDbEntity
  8
WYMIARY
 62
     4
100
AcDbCircle
 10
346.525221
 20
795.26488
 30
0.0
 40
2.0
100
AcDbArc
 50
174.334226
 51
9.119732
  0
LINE
  5
D1D1
100
AcDbEntity
  8
WYMIARY
 62
     4
100
AcDbLine
 10
352.52333
 20
789.912911
 30
0.0
 11
353.059561
 21
790.649424
 31
0.0
  0
LINE
  5
D1D2
100
AcDbEntity
  8
WYMIARY
 62
     4
100
AcDbLine
 10
349.49994
 20
797.76488
 30
0.0
 11
349.49994
 21
792.01488
 31
0.0
  0
LINE
  5
D1D3
100
AcDbEntity
  8
WYMIARY
 62
     4
100
AcDbLine
 10
370.02333
 20
789.912911
 30
0.0
 11
371.789219
 21
788.668184
 31
0.0
  0
LINE
  5
D1D4
100
AcDbEntity
  8
WYMIARY
 62
     4
100
AcDbLine
 10
370.559561
 20
790.649424
 30
0.0
 11
372.314037
 21
789.412742
 31
0.0
  0
LINE
  5
D1D5
100
AcDbEntity
  8
WYMIARY
 62
     4
100
AcDbLine
 10
372.314037
 20
789.412742
 30
0.0
 11
373.609106
 21
791.25005
 31
0.0
  0
LINE
  5
D1D6
100
AcDbEntity
  8
WYMIARY
 62
     4
100
AcDbLine
 10
364.308595
 20
788.887923
 30
0.0
 11
365.617569
 21
790.744959
 31
0.0
  0
CIRCLE
  5
D1D7
100
AcDbEntity
  8
WYMIARY
 62
     4
100
AcDbCircle
 10
363.650221
 20
788.91488
 30
0.0
 40
3.1
  0
LINE
  5
D1D8
100
AcDbEntity
  8
WYMIARY
 62
     4
100
AcDbLine
 10
361.27333
 20
789.912911
 30
0.0
 11
363.039219
 21
788.668184
 31
0.0
  0
LINE
  5
D1D9
100
AcDbEntity
  8
WYMIARY
 62
     4
100
AcDbLine
 10
361.809561
 20
790.649424
 30
0.0
 11
363.564037
 21
789.412742
 31
0.0
  0
LINE
  5
D1DA
100
AcDbEntity
  8
WYMIARY
 62
     4
100
AcDbLine
 10
363.564037
 20
789.412742
 30
0.0
 11
364.859106
 21
791.25005
 31
0.0
  0
LINE
  5
D1DB
100
AcDbEntity
  8
WYMIARY
 62
     4
100
AcDbLine
 10
355.558595
 20
788.887923
 30
0.0
 11
356.867569
 21
790.744959
 31
0.0
  0
LINE
  5
D1DC
100
AcDbEntity
  8
WYMIARY
 62
     4
100
AcDbLine
 10
373.058595
 20
788.887923
 30
0.0
 11
374.367569
 21
790.744959
 31
0.0
  0
CIRCLE
  5
D1DD
100
AcDbEntity
  8
WYMIARY
 62
     4
100
AcDbCircle
 10
372.400221
 20
788.91488
 30
0.0
 40
3.1
  0
LINE
  5
D1DE
100
AcDbEntity
  8
WYMIARY
 62
     4
100
AcDbLine
 10
361.797355
 20
786.906357
 30
0.0
 11
363.039219
 21
788.668184
 31
0.0
  0
LINE
  5
D1DF
100
AcDbEntity
  8
WYMIARY
 62
     4
100
AcDbLine
 10
361.797355
 20
786.906357
 30
0.0
 11
362.529819
 21
786.364381
 31
0.0
  0
TEXT
  5
D1E0
100
AcDbEntity
  8
1
 62
     4
100
AcDbText
 10
361.043942
 20
783.624452
 30
0.0
 40
2.0
  1
5
 41
0.75
  7
ITALIC
100
AcDbText
  0
LINE
  5
D1E1
100
AcDbEntity
  8
WYMIARY
 62
     4
100
AcDbLine
 10
355.558595
 20
788.887923
 30
0.0
 11
357.344857
 21
787.628836
 31
0.0
  0
LINE
  5
D1E2
100
AcDbEntity
  8
WYMIARY
 62
     4
100
AcDbLine
 10
356.772133
 20
786.918045
 30
0.0
 11
357.344857
 21
787.628836
 31
0.0
  0
LINE
  5
D1E3
100
AcDbEntity
  8
WYMIARY
 62
     4
100
AcDbLine
 10
363.783776
 20
788.143365
 30
0.0
 11
365.522133
 21
786.918045
 31
0.0
  0
LINE
  5
D1E4
100
AcDbEntity
  8
WYMIARY
 62
     4
100
AcDbLine
 10
364.308595
 20
788.887923
 30
0.0
 11
366.094857
 21
787.628836
 31
0.0
  0
LINE
  5
D1E5
100
AcDbEntity
  8
WYMIARY
 62
     4
100
AcDbLine
 10
362.529819
 20
786.364381
 30
0.0
 11
363.783776
 21
788.143365
 31
0.0
  0
LINE
  5
D1E6
100
AcDbEntity
  8
WYMIARY
 62
     4
100
AcDbLine
 10
365.522133
 20
786.918045
 30
0.0
 11
366.094857
 21
787.628836
 31
0.0
  0
LINE
  5
D1E7
100
AcDbEntity
  8
WYMIARY
 62
     4
100
AcDbLine
 10
374.272133
 20
786.918045
 30
0.0
 11
374.844857
 21
787.628836
 31
0.0
  0
TEXT
  5
D1E8
100
AcDbEntity
  8
1
 62
     4
100
AcDbText
 10
369.793942
 20
783.624452
 30
0.0
 40
2.0
  1
13
 41
0.75
  7
ITALIC
100
AcDbText
  0
LINE
  5
D1E9
100
AcDbEntity
  8
WYMIARY
 62
     4
100
AcDbLine
 10
370.547355
 20
786.906357
 30
0.0
 11
371.789219
 21
788.668184
 31
0.0
  0
LINE
  5
D1EA
100
AcDbEntity
  8
WYMIARY
 62
     4
100
AcDbLine
 10
371.279819
 20
786.364381
 30
0.0
 11
372.533776
 21
788.143365
 31
0.0
  0
LINE
  5
D1EB
100
AcDbEntity
  8
WYMIARY
 62
     4
100
AcDbLine
 10
370.547355
 20
786.906357
 30
0.0
 11
371.279819
 21
786.364381
 31
0.0
  0
LINE
  5
D1EC
100
AcDbEntity
  8
WYMIARY
 62
     4
100
AcDbLine
 10
372.533776
 20
788.143365
 30
0.0
 11
374.272133
 21
786.918045
 31
0.0
  0
LINE
  5
D1ED
100
AcDbEntity
  8
WYMIARY
 62
     4
100
AcDbLine
 10
373.058595
 20
788.887923
 30
0.0
 11
374.844857
 21
787.628836
 31
0.0
  0
TEXT
  5
D1EE
100
AcDbEntity
  8
1
 62
     4
100
AcDbText
 10
367.318735
 20
793.325972
 30
0.0
 40
2.0
  1
A1
 41
0.75
  7
ITALIC
100
AcDbText
  0
LINE
  5
D1EF
100
AcDbEntity
  8
WYMIARY
 62
     3
100
AcDbLine
 10
376.775221
 20
801.51488
 30
0.0
 11
366.975221
 21
801.51488
 31
0.0
  0
LINE
  5
D1F0
100
AcDbEntity
  8
WYMIARY
 62
     4
100
AcDbLine
 10
361.27333
 20
789.912911
 30
0.0
 11
361.809561
 21
790.649424
 31
0.0
  0
LINE
  5
D1F1
100
AcDbEntity
  8
WYMIARY
 62
     4
100
AcDbLine
 10
356.109106
 20
791.25005
 30
0.0
 11
356.867569
 21
790.744959
 31
0.0
  0
LINE
  5
D1F2
100
AcDbEntity
  8
WYMIARY
 62
     3
100
AcDbLine
 10
366.975221
 20
801.51488
 30
0.0
 11
366.975221
 21
798.26488
 31
0.0
  0
LINE
  5
D1F3
100
AcDbEntity
  8
WYMIARY
 62
     4
100
AcDbLine
 10
364.859106
 20
791.25005
 30
0.0
 11
365.617569
 21
790.744959
 31
0.0
  0
LINE
  5
D1F4
100
AcDbEntity
  8
WYMIARY
 62
     4
100
AcDbLine
 10
373.609106
 20
799.093109
 30
0.0
 11
374.367569
 21
798.588018
 31
0.0
  0
LINE
  5
D1F5
100
AcDbEntity
  8
WYMIARY
 62
     4
100
AcDbLine
 10
370.02333
 20
797.755969
 30
0.0
 11
370.559561
 21
798.492483
 31
0.0
  0
LINE
  5
D1F6
100
AcDbEntity
  8
WYMIARY
 62
     4
100
AcDbLine
 10
370.547355
 20
794.749415
 30
0.0
 11
371.279819
 21
794.20744
 31
0.0
  0
LINE
  5
D1F7
100
AcDbEntity
  8
WYMIARY
 62
     4
100
AcDbLine
 10
370.547355
 20
794.749415
 30
0.0
 11
371.789219
 21
796.511242
 31
0.0
  0
LINE
  5
D1F8
100
AcDbEntity
  8
WYMIARY
 62
     4
100
AcDbLine
 10
370.02333
 20
797.755969
 30
0.0
 11
371.789219
 21
796.511242
 31
0.0
  0
LINE
  5
D1F9
100
AcDbEntity
  8
WYMIARY
 62
     4
100
AcDbLine
 10
373.058595
 20
796.730981
 30
0.0
 11
374.844857
 21
795.471894
 31
0.0
  0
LINE
  5
D1FA
100
AcDbEntity
  8
WYMIARY
 62
     4
100
AcDbLine
 10
372.533776
 20
795.986424
 30
0.0
 11
374.272133
 21
794.761103
 31
0.0
  0
LINE
  5
D1FB
100
AcDbEntity
  8
WYMIARY
 62
     4
100
AcDbLine
 10
371.279819
 20
794.20744
 30
0.0
 11
372.533776
 21
795.986424
 31
0.0
  0
LINE
  5
D1FC
100
AcDbEntity
  8
WYMIARY
 62
     4
100
AcDbLine
 10
374.272133
 20
794.761103
 30
0.0
 11
374.844857
 21
795.471894
 31
0.0
  0
CIRCLE
  5
D1FD
100
AcDbEntity
  8
WYMIARY
 62
     4
100
AcDbCircle
 10
372.400221
 20
796.757938
 30
0.0
 40
3.1
  0
LINE
  5
D1FE
100
AcDbEntity
  8
WYMIARY
 62
     4
100
AcDbLine
 10
373.058595
 20
796.730981
 30
0.0
 11
374.367569
 21
798.588018
 31
0.0
  0
LINE
  5
D1FF
100
AcDbEntity
  8
WYMIARY
 62
     4
100
AcDbLine
 10
372.314037
 20
797.2558
 30
0.0
 11
373.609106
 21
799.093109
 31
0.0
  0
LINE
  5
D200
100
AcDbEntity
  8
WYMIARY
 62
     4
100
AcDbLine
 10
370.559561
 20
798.492483
 30
0.0
 11
372.314037
 21
797.2558
 31
0.0
  0
LINE
  5
D201
100
AcDbEntity
  8
WYMIARY
 62
     4
100
AcDbLine
 10
370.02333
 20
789.912911
 30
0.0
 11
370.559561
 21
790.649424
 31
0.0
  0
LINE
  5
D202
100
AcDbEntity
  8
WYMIARY
 62
     4
100
AcDbLine
 10
373.609106
 20
791.25005
 30
0.0
 11
374.367569
 21
790.744959
 31
0.0
  0
LINE
  5
D203
100
AcDbEntity
  8
WYMIARY
 62
     3
100
AcDbLine
 10
376.775221
 20
798.26488
 30
0.0
 11
376.775221
 21
801.51488
 31
0.0
  0
ENDSEC
  0
SECTION
  2
OBJECTS
  0
DICTIONARY
  5
C
100
AcDbDictionary
  3
ACAD_GROUP
350
D
  3
ACAD_MLINESTYLE
350
E
  3
ACDBVARIABLEDICTIONARY
350
C1B
  0
DICTIONARY
  5
D
102
{ACAD_REACTORS
330
C
102
}
100
AcDbDictionary
  0
DICTIONARY
  5
E
102
{ACAD_REACTORS
330
C
102
}
100
AcDbDictionary
  3
STANDARD
350
1B
  0
DICTIONARY
  5
C1B
102
{ACAD_REACTORS
330
C
102
}
100
AcDbDictionary
  3
SORTENTS
350
C1C
  0
MLINESTYLE
  5
1B
102
{ACAD_REACTORS
330
E
102
}
100
AcDbMlineStyle
  2
STANDARD
 70
     0
  3

 62
     0
 51
90.0
 52
90.0
 71
     2
 49
0.5
 62
   256
  6
BYLAYER
 49
-0.5
 62
   256
  6
BYLAYER
  0
DICTIONARYVAR
  5
C1C
102
{ACAD_REACTORS
330
C1B
102
}
100
DictionaryVariables
280
     0
  1
96
  0
ENDSEC
  0
EOF
