  0
SECTION
  2
HEADER
  9
$ACADVER
  1
AC1014
  9
$ACADMAINTVER
 70
     0
  9
$DWGCODEPAGE
  3
ANSI_1250
  9
$INSBASE
 10
0.0
 20
0.0
 30
0.0
  9
$EXTMIN
 10
284.392775
 20
552.591391
 30
-0.001526
  9
$EXTMAX
 10
687.692638
 20
849.675868
 30
0.0
  9
$LIMMIN
 10
0.0
 20
0.0
  9
$LIMMAX
 10
420.0
 20
297.0
  9
$ORTHOMODE
 70
     0
  9
$REGENMODE
 70
     1
  9
$FILLMODE
 70
     1
  9
$QTEXTMODE
 70
     0
  9
$MIRRTEXT
 70
     1
  9
$DRAGMODE
 70
     2
  9
$LTSCALE
 40
6.0
  9
$OSMODE
 70
    37
  9
$ATTMODE
 70
     1
  9
$TEXTSIZE
 40
3.5
  9
$TRACEWID
 40
0.05
  9
$TEXTSTYLE
  7
ITALIC
  9
$CLAYER
  8
WYMIARY
  9
$CELTYPE
  6
BYLAYER
  9
$CECOLOR
 62
     3
  9
$CELTSCALE
 40
1.0
  9
$DELOBJ
 70
     1
  9
$DISPSILH
 70
     0
  9
$DIMSCALE
 40
1.0
  9
$DIMASZ
 40
3.5
  9
$DIMEXO
 40
1.5
  9
$DIMDLI
 40
7.0
  9
$DIMRND
 40
0.0
  9
$DIMDLE
 40
0.0
  9
$DIMEXE
 40
1.5
  9
$DIMTP
 40
0.1
  9
$DIMTM
 40
0.0
  9
$DIMTXT
 40
1.8
  9
$DIMCEN
 40
-1.0
  9
$DIMTSZ
 40
0.0
  9
$DIMTOL
 70
     0
  9
$DIMLIM
 70
     0
  9
$DIMTIH
 70
     0
  9
$DIMTOH
 70
     0
  9
$DIMSE1
 70
     0
  9
$DIMSE2
 70
     0
  9
$DIMTAD
 70
     1
  9
$DIMZIN
 70
     0
  9
$DIMBLK
  1

  9
$DIMASO
 70
     1
  9
$DIMSHO
 70
     0
  9
$DIMPOST
  1

  9
$DIMAPOST
  1

  9
$DIMALT
 70
     0
  9
$DIMALTD
 70
     2
  9
$DIMALTF
 40
25.4
  9
$DIMLFAC
 40
1.0
  9
$DIMTOFL
 70
     0
  9
$DIMTVP
 40
0.0
  9
$DIMTIX
 70
     0
  9
$DIMSOXD
 70
     0
  9
$DIMSAH
 70
     0
  9
$DIMBLK1
  1

  9
$DIMBLK2
  1

  9
$DIMSTYLE
  2
STANDARD
  9
$DIMCLRD
 70
     0
  9
$DIMCLRE
 70
     0
  9
$DIMCLRT
 70
     0
  9
$DIMTFAC
 40
1.0
  9
$DIMGAP
 40
0.75
  9
$DIMJUST
 70
     0
  9
$DIMSD1
 70
     0
  9
$DIMSD2
 70
     0
  9
$DIMTOLJ
 70
     1
  9
$DIMTZIN
 70
     0
  9
$DIMALTZ
 70
     0
  9
$DIMALTTZ
 70
     0
  9
$DIMFIT
 70
     3
  9
$DIMUPT
 70
     0
  9
$DIMUNIT
 70
     2
  9
$DIMDEC
 70
     2
  9
$DIMTDEC
 70
     4
  9
$DIMALTU
 70
     2
  9
$DIMALTTD
 70
     2
  9
$DIMTXSTY
  7
STANDARD
  9
$DIMAUNIT
 70
     0
  9
$LUNITS
 70
     2
  9
$LUPREC
 70
     2
  9
$SKETCHINC
 40
0.1
  9
$FILLETRAD
 40
0.1
  9
$AUNITS
 70
     0
  9
$AUPREC
 70
     2
  9
$MENU
  1
ACAD
  9
$ELEVATION
 40
0.0
  9
$PELEVATION
 40
0.0
  9
$THICKNESS
 40
0.0
  9
$LIMCHECK
 70
     0
  9
$BLIPMODE
 70
     0
  9
$CHAMFERA
 40
0.0
  9
$CHAMFERB
 40
0.0
  9
$CHAMFERC
 40
0.0
  9
$CHAMFERD
 40
0.0
  9
$SKPOLY
 70
     0
  9
$TDCREATE
 40
2448721.399136690
  9
$TDUPDATE
 40
2454652.568356284
  9
$TDINDWG
 40
1.9740056829
  9
$TDUSRTIMER
 40
1.9740056829
  9
$USRTIMER
 70
     1
  9
$ANGBASE
 50
0.0
  9
$ANGDIR
 70
     0
  9
$PDMODE
 70
     0
  9
$PDSIZE
 40
0.0
  9
$PLINEWID
 40
0.5
  9
$COORDS
 70
     2
  9
$SPLFRAME
 70
     0
  9
$SPLINETYPE
 70
     6
  9
$SPLINESEGS
 70
     8
  9
$ATTDIA
 70
     0
  9
$ATTREQ
 70
     1
  9
$HANDLING
 70
     1
  9
$HANDSEED
  5
D167
  9
$SURFTAB1
 70
     6
  9
$SURFTAB2
 70
     6
  9
$SURFTYPE
 70
     6
  9
$SURFU
 70
     6
  9
$SURFV
 70
     6
  9
$UCSNAME
  2

  9
$UCSORG
 10
0.0
 20
0.0
 30
0.0
  9
$UCSXDIR
 10
1.0
 20
0.0
 30
0.0
  9
$UCSYDIR
 10
0.0
 20
1.0
 30
0.0
  9
$PUCSNAME
  2

  9
$PUCSORG
 10
0.0
 20
0.0
 30
0.0
  9
$PUCSXDIR
 10
1.0
 20
0.0
 30
0.0
  9
$PUCSYDIR
 10
0.0
 20
1.0
 30
0.0
  9
$USERI1
 70
     0
  9
$USERI2
 70
     0
  9
$USERI3
 70
     0
  9
$USERI4
 70
     0
  9
$USERI5
 70
     0
  9
$USERR1
 40
0.0
  9
$USERR2
 40
0.0
  9
$USERR3
 40
0.0
  9
$USERR4
 40
0.0
  9
$USERR5
 40
0.0
  9
$WORLDVIEW
 70
     1
  9
$SHADEDGE
 70
     3
  9
$SHADEDIF
 70
    70
  9
$TILEMODE
 70
     1
  9
$MAXACTVP
 70
    16
  9
$PINSBASE
 10
0.0
 20
0.0
 30
0.0
  9
$PLIMCHECK
 70
     0
  9
$PEXTMIN
 10
1.000000E+20
 20
1.000000E+20
 30
1.000000E+20
  9
$PEXTMAX
 10
-1.000000E+20
 20
-1.000000E+20
 30
-1.000000E+20
  9
$PLIMMIN
 10
0.0
 20
0.0
  9
$PLIMMAX
 10
12.0
 20
9.0
  9
$UNITMODE
 70
     0
  9
$VISRETAIN
 70
     0
  9
$PLINEGEN
 70
     0
  9
$PSLTSCALE
 70
     0
  9
$TREEDEPTH
 70
  3020
  9
$PICKSTYLE
 70
     0
  9
$CMLSTYLE
  2
STANDARD
  9
$CMLJUST
 70
     0
  9
$CMLSCALE
 40
1.0
  9
$PROXYGRAPHICS
 70
     1
  9
$MEASUREMENT
 70
     0
  0
ENDSEC
  0
SECTION
  2
CLASSES
  0
CLASS
  1
HATCH
  2
AcDbHatch
  3
"ACAD_SEDONA"
 90
        0
280
     0
281
     1
  0
CLASS
  1
LWPOLYLINE
  2
AcDbPolyline
  3
"AutoCAD"
 90
        0
280
     0
281
     1
  0
CLASS
  1
DICTIONARYVAR
  2
AcDbDictionaryVar
  3
"AutoCAD"
 90
        0
280
     0
281
     0
  0
ENDSEC
  0
SECTION
  2
TABLES
  0
TABLE
  2
VPORT
  5
8
100
AcDbSymbolTable
 70
     3
  0
VPORT
  5
D166
100
AcDbSymbolTableRecord
100
AcDbViewportTableRecord
  2
*ACTIVE
 70
     0
 10
0.0
 20
0.0
 11
1.0
 21
1.0
 12
486.042706
 22
701.13363
 13
0.0
 23
0.0
 14
1.0
 24
1.0
 15
5.0
 25
5.0
 16
0.0
 26
0.0
 36
1.0
 17
0.0
 27
0.0
 37
0.0
 40
300.951086
 41
2.008696
 42
50.0
 43
0.0
 44
0.0
 50
0.0
 51
0.0
 71
     0
 72
   100
 73
     1
 74
     0
 75
     0
 76
     0
 77
     0
 78
     0
  0
ENDTAB
  0
TABLE
  2
LTYPE
  5
5
100
AcDbSymbolTable
 70
     4
  0
LTYPE
  5
12
100
AcDbSymbolTableRecord
100
AcDbLinetypeTableRecord
  2
BYBLOCK
 70
     0
  3

 72
    65
 73
     0
 40
0.0
  0
LTYPE
  5
13
100
AcDbSymbolTableRecord
100
AcDbLinetypeTableRecord
  2
BYLAYER
 70
     0
  3

 72
    65
 73
     0
 40
0.0
  0
LTYPE
  5
14
100
AcDbSymbolTableRecord
100
AcDbLinetypeTableRecord
  2
CONTINUOUS
 70
     0
  3
Solid line
 72
    65
 73
     0
 40
0.0
  0
LTYPE
  5
1D
100
AcDbSymbolTableRecord
100
AcDbLinetypeTableRecord
  2
CENTER
 70
     0
  3
____ _ ____ _ ____ _ ____ _ ____ _ ____ _ ____
 72
    65
 73
     4
 40
2.0
 49
1.25
 74
     0
 49
-0.25
 74
     0
 49
0.25
 74
     0
 49
-0.25
 74
     0
  0
LTYPE
  5
1E
100
AcDbSymbolTableRecord
100
AcDbLinetypeTableRecord
  2
HIDDEN
 70
     0
  3
_ _ _ _ _ _ _ _ _ _ _ _ _ _ _ _ _ _ _ _ _ _ _
 72
    65
 73
     2
 40
0.375
 49
0.25
 74
     0
 49
-0.125
 74
     0
  0
LTYPE
  5
8093
100
AcDbSymbolTableRecord
100
AcDbLinetypeTableRecord
  2
PHANTOM
 70
     0
  3
Phantom ______  __  __  ______  __  __  ______
 72
    65
 73
     6
 40
12.7
 49
6.35
 74
     0
 49
-1.27
 74
     0
 49
1.27
 74
     0
 49
-1.27
 74
     0
 49
1.27
 74
     0
 49
-1.27
 74
     0
  0
ENDTAB
  0
TABLE
  2
LAYER
  5
2
100
AcDbSymbolTable
 70
     8
  0
LAYER
  5
F
100
AcDbSymbolTableRecord
100
AcDbLayerTableRecord
  2
0
 70
     0
 62
     7
  6
CONTINUOUS
  0
LAYER
  5
21
100
AcDbSymbolTableRecord
100
AcDbLayerTableRecord
  2
1
 70
     0
 62
     3
  6
CONTINUOUS
  0
LAYER
  5
22
100
AcDbSymbolTableRecord
100
AcDbLayerTableRecord
  2
2
 70
     0
 62
     6
  6
CONTINUOUS
  0
LAYER
  5
23
100
AcDbSymbolTableRecord
100
AcDbLayerTableRecord
  2
3
 70
     0
 62
     4
  6
HIDDEN
  0
LAYER
  5
24
100
AcDbSymbolTableRecord
100
AcDbLayerTableRecord
  2
OSIE
 70
     0
 62
     2
  6
CENTER
  0
LAYER
  5
25
100
AcDbSymbolTableRecord
100
AcDbLayerTableRecord
  2
WY
 70
     0
 62
     1
  6
CONTINUOUS
  0
LAYER
  5
26
100
AcDbSymbolTableRecord
100
AcDbLayerTableRecord
  2
DEFPOINTS
 70
     0
 62
     7
  6
CONTINUOUS
  0
LAYER
  5
464
100
AcDbSymbolTableRecord
100
AcDbLayerTableRecord
  2
WYMIARY
 70
     0
 62
     1
  6
CONTINUOUS
  0
ENDTAB
  0
TABLE
  2
STYLE
  5
3
100
AcDbSymbolTable
 70
     2
  0
STYLE
  5
10
100
AcDbSymbolTableRecord
100
AcDbTextStyleTableRecord
  2
STANDARD
 70
     0
 40
0.0
 41
1.0
 50
0.0
 71
     0
 42
6.0
  3
txt
  4

  0
STYLE
  5
1C
100
AcDbSymbolTableRecord
100
AcDbTextStyleTableRecord
  2
ITALIC
 70
     0
 40
0.0
 41
1.0
 50
15.0
 71
     0
 42
3.5
  3
simplex
  4

  0
ENDTAB
  0
TABLE
  2
VIEW
  5
6
100
AcDbSymbolTable
 70
     0
  0
ENDTAB
  0
TABLE
  2
UCS
  5
7
100
AcDbSymbolTable
 70
     0
  0
ENDTAB
  0
TABLE
  2
APPID
  5
9
100
AcDbSymbolTable
 70
     1
  0
APPID
  5
11
100
AcDbSymbolTableRecord
100
AcDbRegAppTableRecord
  2
ACAD
 70
     0
  0
ENDTAB
  0
TABLE
  2
DIMSTYLE
  5
A
100
AcDbSymbolTable
 70
     1
  0
DIMSTYLE
105
3B
102
{ACAD_REACTORS
330
C7AE
330
C7BB
330
C7C8
102
}
100
AcDbSymbolTableRecord
100
AcDbDimStyleTableRecord
  2
STANDARD
 70
     0
  3

  4

  5

  6

  7

 40
1.0
 41
3.5
 42
1.5
 43
7.0
 44
1.5
 45
0.0
 46
0.0
 47
0.1
 48
0.0
140
3.6
141
-1.0
142
0.0
143
25.4
144
1.0
145
0.0
146
1.0
147
1.5
 71
     0
 72
     0
 73
     0
 74
     0
 75
     0
 76
     0
 77
     1
 78
     0
170
     0
171
     2
172
     0
173
     0
174
     0
175
     0
176
     0
177
     0
178
     0
270
     2
271
     2
272
     4
273
     2
274
     2
340
10
275
     0
280
     0
281
     0
282
     0
283
     1
284
     0
285
     0
286
     0
287
     3
288
     0
  0
ENDTAB
  0
TABLE
  2
BLOCK_RECORD
  5
1
100
AcDbSymbolTable
 70
    29
  0
BLOCK_RECORD
  5
18
100
AcDbSymbolTableRecord
100
AcDbBlockTableRecord
  2
*MODEL_SPACE
  0
BLOCK_RECORD
  5
15
100
AcDbSymbolTableRecord
100
AcDbBlockTableRecord
  2
*PAPER_SPACE
  0
BLOCK_RECORD
  5
7EA0
100
AcDbSymbolTableRecord
100
AcDbBlockTableRecord
  2
A$C312173AA
  0
BLOCK_RECORD
  5
7F70
100
AcDbSymbolTableRecord
100
AcDbBlockTableRecord
  2
A$C54971FCD
  0
BLOCK_RECORD
  5
7FC9
100
AcDbSymbolTableRecord
100
AcDbBlockTableRecord
  2
A$C369D6037
  0
BLOCK_RECORD
  5
8081
100
AcDbSymbolTableRecord
100
AcDbBlockTableRecord
  2
A$C3D1C28BF
  0
BLOCK_RECORD
  5
C7A2
100
AcDbSymbolTableRecord
100
AcDbBlockTableRecord
  2
*D4
  0
BLOCK_RECORD
  5
C7AF
100
AcDbSymbolTableRecord
100
AcDbBlockTableRecord
  2
*D5
  0
BLOCK_RECORD
  5
C7BC
100
AcDbSymbolTableRecord
100
AcDbBlockTableRecord
  2
*D6
  0
BLOCK_RECORD
  5
C834
100
AcDbSymbolTableRecord
100
AcDbBlockTableRecord
  2
*D7
  0
BLOCK_RECORD
  5
C840
100
AcDbSymbolTableRecord
100
AcDbBlockTableRecord
  2
*D8
  0
BLOCK_RECORD
  5
C84C
100
AcDbSymbolTableRecord
100
AcDbBlockTableRecord
  2
*D9
  0
BLOCK_RECORD
  5
C858
100
AcDbSymbolTableRecord
100
AcDbBlockTableRecord
  2
*D10
  0
BLOCK_RECORD
  5
C864
100
AcDbSymbolTableRecord
100
AcDbBlockTableRecord
  2
*D11
  0
BLOCK_RECORD
  5
C870
100
AcDbSymbolTableRecord
100
AcDbBlockTableRecord
  2
*D12
  0
BLOCK_RECORD
  5
C87C
100
AcDbSymbolTableRecord
100
AcDbBlockTableRecord
  2
*D13
  0
BLOCK_RECORD
  5
C889
100
AcDbSymbolTableRecord
100
AcDbBlockTableRecord
  2
A$C153B6019
  0
BLOCK_RECORD
  5
CE4B
100
AcDbSymbolTableRecord
100
AcDbBlockTableRecord
  2
*D15
  0
BLOCK_RECORD
  5
CE57
100
AcDbSymbolTableRecord
100
AcDbBlockTableRecord
  2
*D16
  0
BLOCK_RECORD
  5
CE64
100
AcDbSymbolTableRecord
100
AcDbBlockTableRecord
  2
*D17
  0
BLOCK_RECORD
  5
CE70
100
AcDbSymbolTableRecord
100
AcDbBlockTableRecord
  2
*D18
  0
BLOCK_RECORD
  5
CE7C
100
AcDbSymbolTableRecord
100
AcDbBlockTableRecord
  2
*D19
  0
BLOCK_RECORD
  5
CE88
100
AcDbSymbolTableRecord
100
AcDbBlockTableRecord
  2
*D20
  0
BLOCK_RECORD
  5
CE94
100
AcDbSymbolTableRecord
100
AcDbBlockTableRecord
  2
*D21
  0
BLOCK_RECORD
  5
D110
100
AcDbSymbolTableRecord
100
AcDbBlockTableRecord
  2
*D22
  0
BLOCK_RECORD
  5
D11C
100
AcDbSymbolTableRecord
100
AcDbBlockTableRecord
  2
*D23
  0
BLOCK_RECORD
  5
D129
100
AcDbSymbolTableRecord
100
AcDbBlockTableRecord
  2
*D24
  0
BLOCK_RECORD
  5
D135
100
AcDbSymbolTableRecord
100
AcDbBlockTableRecord
  2
*D25
  0
BLOCK_RECORD
  5
D141
100
AcDbSymbolTableRecord
100
AcDbBlockTableRecord
  2
*D26
  0
BLOCK_RECORD
  5
D14D
100
AcDbSymbolTableRecord
100
AcDbBlockTableRecord
  2
*D27
  0
BLOCK_RECORD
  5
D159
100
AcDbSymbolTableRecord
100
AcDbBlockTableRecord
  2
*D28
  0
ENDTAB
  0
ENDSEC
  0
SECTION
  2
BLOCKS
  0
BLOCK
  5
29
100
AcDbEntity
  8
0
100
AcDbBlockBegin
  2
*MODEL_SPACE
 70
     0
 10
0.0
 20
0.0
 30
0.0
  3
*MODEL_SPACE
  1

  0
ENDBLK
  5
2A
100
AcDbEntity
  8
0
100
AcDbBlockEnd
  0
BLOCK
  5
27
100
AcDbEntity
 67
     1
  8
0
100
AcDbBlockBegin
  2
*PAPER_SPACE
 70
     0
 10
0.0
 20
0.0
 30
0.0
  3
*PAPER_SPACE
  1

  0
ENDBLK
  5
28
100
AcDbEntity
 67
     1
  8
0
100
AcDbBlockEnd
  0
BLOCK
  5
7EAF
100
AcDbEntity
  8
0
100
AcDbBlockBegin
  2
A$C312173AA
 70
     0
 10
0.0
 20
0.0
 30
0.0
  3
A$C312173AA
  1

  0
HATCH
  5
7EA1
100
AcDbEntity
  8
1
100
AcDbHatch
 10
0.0
 20
0.0
 30
0.0
210
0.0
220
0.0
230
1.0
  2
SOLID
 70
     1
 71
     1
 91
        1
 92
        7
 72
     0
 73
     1
 93
        4
 10
2.724690422176706
 20
5.013136352600668
 10
5.058157912552363
 20
1.095673373491763
 10
5.076413282682712
 20
1.095673373491763
 10
7.382430158279476
 20
5.013136352600668
 97
        4
330
7EA6
330
7EAA
330
7EA5
330
7EA8
 75
     0
 76
     1
 47
0.057765
 98
        1
 10
5.461965
 20
4.283681
  0
HATCH
  5
7EA2
100
AcDbEntity
  8
1
100
AcDbHatch
 10
0.0
 20
0.0
 30
0.0
210
0.0
220
0.0
230
1.0
  2
SOLID
 70
     1
 71
     1
 91
        1
 92
        7
 72
     0
 73
     1
 93
        4
 10
2.724690422176706
 20
5.013136352600668
 10
5.058157912552363
 20
1.095673373491763
 10
5.076413282682712
 20
1.095673373491763
 10
7.382430158279476
 20
5.013136352600668
 97
        4
330
7EA4
330
7EA9
330
7EA3
330
7EA7
 75
     0
 76
     1
 47
0.057765
 98
        1
 10
5.461965
 20
4.283681
  0
LINE
  5
7EA3
102
{ACAD_REACTORS
330
7EA2
102
}
100
AcDbEntity
  8
1
100
AcDbLine
 10
7.376974
 20
1.095673
 30
0.0
 11
2.719445
 21
1.095673
 31
0.0
  0
LINE
  5
7EA4
102
{ACAD_REACTORS
330
7EA2
102
}
100
AcDbEntity
  8
1
100
AcDbLine
 10
2.716507
 20
5.013136
 30
0.0
 11
7.38243
 21
5.013136
 31
0.0
  0
LINE
  5
7EA5
102
{ACAD_REACTORS
330
7EA1
102
}
100
AcDbEntity
  8
1
100
AcDbLine
 10
7.376974
 20
1.095673
 30
0.0
 11
2.719445
 21
1.095673
 31
0.0
  0
LINE
  5
7EA6
102
{ACAD_REACTORS
330
7EA1
102
}
100
AcDbEntity
  8
1
100
AcDbLine
 10
2.716507
 20
5.013136
 30
0.0
 11
7.38243
 21
5.013136
 31
0.0
  0
LINE
  5
7EA7
102
{ACAD_REACTORS
330
7EA2
102
}
100
AcDbEntity
  8
1
100
AcDbLine
 10
7.38243
 20
5.013136
 30
0.0
 11
5.049469
 21
1.0499
 31
0.0
  0
LINE
  5
7EA8
102
{ACAD_REACTORS
330
7EA1
102
}
100
AcDbEntity
  8
1
100
AcDbLine
 10
7.38243
 20
5.013136
 30
0.0
 11
5.049469
 21
1.0499
 31
0.0
  0
LINE
  5
7EA9
102
{ACAD_REACTORS
330
7EA2
102
}
100
AcDbEntity
  8
1
100
AcDbLine
 10
5.048209
 20
1.112376
 30
0.0
 11
2.719445
 21
5.021942
 31
0.0
  0
LINE
  5
7EAA
102
{ACAD_REACTORS
330
7EA1
102
}
100
AcDbEntity
  8
1
100
AcDbLine
 10
5.048209
 20
1.112376
 30
0.0
 11
2.719445
 21
5.021942
 31
0.0
  0
LINE
  5
7EAB
100
AcDbEntity
  8
1
100
AcDbLine
 10
3.176777
 20
2.240563
 30
0.0
 11
1.859991
 21
0.714974
 31
0.0
  0
LINE
  5
7EAC
100
AcDbEntity
  8
1
100
AcDbLine
 10
1.935572
 20
2.29404
 30
0.0
 11
0.618786
 21
0.768452
 31
0.0
  0
HATCH
  5
7EAD
100
AcDbEntity
  8
1
100
AcDbHatch
 10
0.0
 20
0.0
 30
0.0
210
0.0
220
0.0
230
1.0
  2
SOLID
 70
     1
 71
     0
 91
        1
 92
        7
 72
     0
 73
     1
 93
        3
 10
2.13435432304297
 20
0.5079866047149438
 10
1.594971700028992
 20
0.9149117569309055
 10
1.241204476589189
 20
0.0000001052034975
 97
        0
 75
     0
 76
     1
 47
0.009825
 98
        1
 10
1.617082
 20
0.370646
  0
HATCH
  5
7EAE
100
AcDbEntity
  8
1
100
AcDbHatch
 10
0.0
 20
0.0
 30
0.0
210
0.0
220
0.0
230
1.0
  2
SOLID
 70
     1
 71
     0
 91
        1
 92
        7
 72
     0
 73
     1
 93
        3
 10
0.8931496793437361
 20
0.5614642425206
 10
0.3537670563297865
 20
0.9683893947365334
 10
-0.0000001671100733
 20
0.0534777430091538
 97
        0
 75
     0
 76
     1
 47
0.009825
 98
        1
 10
0.375878
 20
0.424123
  0
ENDBLK
  5
7EB0
100
AcDbEntity
  8
0
100
AcDbBlockEnd
  0
BLOCK
  5
7FC7
100
AcDbEntity
  8
0
100
AcDbBlockBegin
  2
A$C54971FCD
 70
     0
 10
0.0
 20
0.0
 30
0.0
  3
A$C54971FCD
  1

  0
LINE
  5
7F71
100
AcDbEntity
  8
1
100
AcDbLine
 10
6.05
 20
1.507465
 30
0.0
 11
5.82196
 21
3.612976
 31
0.0
  0
LINE
  5
7F72
100
AcDbEntity
  8
1
100
AcDbLine
 10
6.019458
 20
1.789458
 30
0.0
 11
6.11805
 21
3.55
 31
0.0
  0
LINE
  5
7F73
100
AcDbEntity
  8
1
100
AcDbLine
 10
4.65
 20
1.507465
 30
0.0
 11
4.878039
 21
3.612976
 31
0.0
  0
LINE
  5
7F74
100
AcDbEntity
  8
1
100
AcDbLine
 10
4.680541
 20
1.789458
 30
0.0
 11
4.581949
 21
3.55
 31
0.0
  0
LINE
  5
7F75
100
AcDbEntity
  8
OSIE
100
AcDbLine
 10
5.35
 20
3.35
 30
0.0
 11
5.35
 21
1.4
 31
0.0
  0
ARC
  5
7F76
100
AcDbEntity
  8
1
100
AcDbCircle
 10
5.35
 20
5.35
 30
0.0
 40
5.259241
100
AcDbArc
 50
205.906088
 51
334.093912
  0
ARC
  5
7F77
100
AcDbEntity
  8
1
100
AcDbCircle
 10
5.35
 20
5.35
 30
0.0
 40
3.622932
100
AcDbArc
 50
259.351483
 51
280.648517
  0
ARC
  5
7F78
100
AcDbEntity
  8
1
100
AcDbCircle
 10
5.35
 20
5.35
 30
0.0
 40
3.905775
100
AcDbArc
 50
259.675564
 51
280.324436
  0
LINE
  5
7F79
100
AcDbEntity
  8
1
100
AcDbLine
 10
4.65
 20
0.399243
 30
0.0
 11
4.65
 21
1.507465
 31
0.0
  0
LINE
  5
7F7A
100
AcDbEntity
  8
1
100
AcDbLine
 10
6.05
 20
0.399243
 30
0.0
 11
6.05
 21
1.507465
 31
0.0
  0
LINE
  5
7F7B
100
AcDbEntity
  8
OSIE
100
AcDbLine
 10
4.35
 20
5.35
 30
0.0
 11
6.35
 21
5.35
 31
0.0
  0
ARC
  5
7F7C
100
AcDbEntity
  8
1
100
AcDbCircle
 10
5.35
 20
5.35
 30
0.0
 40
1.8
100
AcDbArc
 50
74.79935
 51
105.20065
  0
ARC
  5
7F7D
100
AcDbEntity
  8
1
100
AcDbCircle
 10
5.35
 20
5.35
 30
0.0
 40
3.622932
100
AcDbArc
 50
79.351483
 51
100.648517
  0
ARC
  5
7F7E
100
AcDbEntity
  8
1
100
AcDbCircle
 10
5.35
 20
5.35
 30
0.0
 40
3.905775
100
AcDbArc
 50
79.675564
 51
100.324436
  0
ARC
  5
7F7F
100
AcDbEntity
  8
1
100
AcDbCircle
 10
5.35
 20
5.35
 30
0.0
 40
1.8
100
AcDbArc
 50
254.79935
 51
285.20065
  0
LINE
  5
7F80
100
AcDbEntity
  8
OSIE
 48
3.0
100
AcDbLine
 10
2.606298
 20
2.606299
 30
0.0
 11
8.093701
 21
8.093701
 31
0.0
  0
LINE
  5
7F81
100
AcDbEntity
  8
OSIE
 48
3.0
100
AcDbLine
 10
2.606298
 20
8.093701
 30
0.0
 11
8.093701
 21
2.606299
 31
0.0
  0
LINE
  5
7F82
100
AcDbEntity
  8
1
100
AcDbLine
 10
4.680541
 20
8.910542
 30
0.0
 11
4.581949
 21
7.15
 31
0.0
  0
LINE
  5
7F83
100
AcDbEntity
  8
1
100
AcDbLine
 10
4.65
 20
9.192535
 30
0.0
 11
4.878039
 21
7.087024
 31
0.0
  0
LINE
  5
7F84
100
AcDbEntity
  8
OSIE
100
AcDbLine
 10
5.35
 20
7.35
 30
0.0
 11
5.35
 21
9.3
 31
0.0
  0
LINE
  5
7F85
100
AcDbEntity
  8
1
100
AcDbLine
 10
3.55
 20
6.11805
 30
0.0
 11
4.295348
 21
6.404652
 31
0.0
  0
LINE
  5
7F86
100
AcDbEntity
  8
1
100
AcDbLine
 10
4.536087
 20
6.163912
 30
0.0
 11
4.878039
 21
7.087024
 31
0.0
  0
LINE
  5
7F87
100
AcDbEntity
  8
1
100
AcDbLine
 10
3.612975
 20
5.82196
 30
0.0
 11
4.536087
 21
6.163912
 31
0.0
  0
ARC
  5
7F88
100
AcDbEntity
  8
1
100
AcDbCircle
 10
5.35
 20
5.35
 30
0.0
 40
1.8
100
AcDbArc
 50
180.0
 51
195.20065
  0
LINE
  5
7F89
100
AcDbEntity
  8
1
100
AcDbLine
 10
3.612975
 20
5.82196
 30
0.0
 11
3.55
 21
6.11805
 31
0.0
  0
ARC
  5
7F8A
100
AcDbEntity
  8
1
100
AcDbCircle
 10
5.35
 20
5.35
 30
0.0
 40
1.8
100
AcDbArc
 50
164.79935
 51
180.0
  0
LINE
  5
7F8B
100
AcDbEntity
  8
1
100
AcDbLine
 10
4.295348
 20
6.404652
 30
0.0
 11
4.582681
 21
7.16307
 31
0.0
  0
LINE
  5
7F8C
100
AcDbEntity
  8
1
100
AcDbLine
 10
4.878039
 20
7.087024
 30
0.0
 11
4.581949
 21
7.15
 31
0.0
  0
ARC
  5
7F8D
100
AcDbEntity
  8
1
100
AcDbCircle
 10
5.35
 20
5.35
 30
0.0
 40
3.905775
100
AcDbArc
 50
180.0
 51
190.324436
  0
ARC
  5
7F8E
100
AcDbEntity
  8
1
100
AcDbCircle
 10
5.35
 20
5.35
 30
0.0
 40
3.905775
100
AcDbArc
 50
169.675564
 51
180.0
  0
ARC
  5
7F8F
100
AcDbEntity
  8
1
100
AcDbCircle
 10
5.35
 20
5.35
 30
0.0
 40
3.622932
100
AcDbArc
 50
180.0
 51
190.648517
  0
ARC
  5
7F90
100
AcDbEntity
  8
1
100
AcDbCircle
 10
5.35
 20
5.35
 30
0.0
 40
3.622932
100
AcDbArc
 50
169.351483
 51
180.0
  0
LINE
  5
7F91
100
AcDbEntity
  8
1
100
AcDbLine
 10
1.507465
 20
4.65
 30
0.0
 11
3.612975
 21
4.87804
 31
0.0
  0
LINE
  5
7F92
100
AcDbEntity
  8
1
100
AcDbLine
 10
1.507465
 20
6.05
 30
0.0
 11
3.612975
 21
5.82196
 31
0.0
  0
LINE
  5
7F93
100
AcDbEntity
  8
1
100
AcDbLine
 10
1.789458
 20
6.019459
 30
0.0
 11
3.55
 21
6.11805
 31
0.0
  0
LINE
  5
7F94
100
AcDbEntity
  8
OSIE
100
AcDbLine
 10
3.35
 20
5.35
 30
0.0
 11
1.4
 21
5.35
 31
0.0
  0
LINE
  5
7F95
100
AcDbEntity
  8
1
100
AcDbLine
 10
4.295348
 20
4.295348
 30
0.0
 11
4.582681
 21
3.53693
 31
0.0
  0
LINE
  5
7F96
100
AcDbEntity
  8
1
100
AcDbLine
 10
4.878039
 20
3.612976
 30
0.0
 11
4.581949
 21
3.55
 31
0.0
  0
LINE
  5
7F97
100
AcDbEntity
  8
1
100
AcDbLine
 10
4.536087
 20
4.536088
 30
0.0
 11
4.878039
 21
3.612976
 31
0.0
  0
LINE
  5
7F98
100
AcDbEntity
  8
1
100
AcDbLine
 10
3.55
 20
4.58195
 30
0.0
 11
4.295348
 21
4.295348
 31
0.0
  0
LINE
  5
7F99
100
AcDbEntity
  8
OSIE
100
AcDbLine
 10
5.35
 20
4.35
 30
0.0
 11
5.35
 21
6.35
 31
0.0
  0
LINE
  5
7F9A
100
AcDbEntity
  8
1
100
AcDbLine
 10
3.612975
 20
4.87804
 30
0.0
 11
4.536087
 21
4.536088
 31
0.0
  0
LINE
  5
7F9B
100
AcDbEntity
  8
1
100
AcDbLine
 10
1.789458
 20
4.680542
 30
0.0
 11
3.55
 21
4.58195
 31
0.0
  0
LINE
  5
7F9C
100
AcDbEntity
  8
1
100
AcDbLine
 10
3.612975
 20
4.87804
 30
0.0
 11
3.55
 21
4.58195
 31
0.0
  0
LINE
  5
7F9D
100
AcDbEntity
  8
1
100
AcDbLine
 10
4.65
 20
10.300758
 30
0.0
 11
4.65
 21
9.192535
 31
0.0
  0
LINE
  5
7F9E
100
AcDbEntity
  8
1
100
AcDbLine
 10
6.019458
 20
8.910542
 30
0.0
 11
6.11805
 21
7.15
 31
0.0
  0
LINE
  5
7F9F
100
AcDbEntity
  8
1
100
AcDbLine
 10
6.05
 20
9.192535
 30
0.0
 11
5.82196
 21
7.087024
 31
0.0
  0
ARC
  5
7FA0
100
AcDbEntity
  8
1
100
AcDbCircle
 10
5.35
 20
5.35
 30
0.0
 40
3.622932
100
AcDbArc
 50
349.351483
 51
360.0
  0
ARC
  5
7FA1
100
AcDbEntity
  8
1
100
AcDbCircle
 10
5.35
 20
5.35
 30
0.0
 40
3.905775
100
AcDbArc
 50
349.675564
 51
360.0
  0
ARC
  5
7FA2
100
AcDbEntity
  8
1
100
AcDbCircle
 10
5.35
 20
5.35
 30
0.0
 40
3.622932
100
AcDbArc
 50
0.0
 51
10.648517
  0
ARC
  5
7FA3
100
AcDbEntity
  8
1
100
AcDbCircle
 10
5.35
 20
5.35
 30
0.0
 40
3.905775
100
AcDbArc
 50
0.0
 51
10.324436
  0
LINE
  5
7FA4
100
AcDbEntity
  8
1
100
AcDbLine
 10
6.404651
 20
6.404652
 30
0.0
 11
7.16307
 21
6.117318
 31
0.0
  0
LINE
  5
7FA5
100
AcDbEntity
  8
1
100
AcDbLine
 10
5.82196
 20
7.087024
 30
0.0
 11
6.163912
 21
6.163912
 31
0.0
  0
LINE
  5
7FA6
100
AcDbEntity
  8
1
100
AcDbLine
 10
6.163912
 20
6.163912
 30
0.0
 11
7.087024
 21
5.82196
 31
0.0
  0
ARC
  5
7FA7
100
AcDbEntity
  8
1
100
AcDbCircle
 10
5.35
 20
5.35
 30
0.0
 40
1.8
100
AcDbArc
 50
344.79935
 51
360.0
  0
ARC
  5
7FA8
100
AcDbEntity
  8
1
100
AcDbCircle
 10
5.35
 20
5.35
 30
0.0
 40
1.8
100
AcDbArc
 50
0.0
 51
15.20065
  0
LINE
  5
7FA9
100
AcDbEntity
  8
1
100
AcDbLine
 10
7.087024
 20
5.82196
 30
0.0
 11
7.15
 21
6.11805
 31
0.0
  0
LINE
  5
7FAA
100
AcDbEntity
  8
1
100
AcDbLine
 10
6.11805
 20
7.15
 30
0.0
 11
6.404651
 21
6.404652
 31
0.0
  0
LINE
  5
7FAB
100
AcDbEntity
  8
1
100
AcDbLine
 10
5.82196
 20
7.087024
 30
0.0
 11
6.11805
 21
7.15
 31
0.0
  0
LINE
  5
7FAC
100
AcDbEntity
  8
1
100
AcDbLine
 10
6.11805
 20
3.55
 30
0.0
 11
6.404651
 21
4.295348
 31
0.0
  0
LINE
  5
7FAD
100
AcDbEntity
  8
1
100
AcDbLine
 10
5.82196
 20
3.612976
 30
0.0
 11
6.11805
 21
3.55
 31
0.0
  0
LINE
  5
7FAE
100
AcDbEntity
  8
1
100
AcDbLine
 10
5.82196
 20
3.612976
 30
0.0
 11
6.163912
 21
4.536088
 31
0.0
  0
LINE
  5
7FAF
100
AcDbEntity
  8
1
100
AcDbLine
 10
6.404651
 20
4.295348
 30
0.0
 11
7.16307
 21
4.582682
 31
0.0
  0
LINE
  5
7FB0
100
AcDbEntity
  8
1
100
AcDbLine
 10
6.163912
 20
4.536088
 30
0.0
 11
7.087024
 21
4.87804
 31
0.0
  0
LINE
  5
7FB1
100
AcDbEntity
  8
1
100
AcDbLine
 10
7.087024
 20
4.87804
 30
0.0
 11
7.15
 21
4.58195
 31
0.0
  0
LINE
  5
7FB2
100
AcDbEntity
  8
1
100
AcDbLine
 10
9.192535
 20
4.65
 30
0.0
 11
7.087024
 21
4.87804
 31
0.0
  0
LINE
  5
7FB3
100
AcDbEntity
  8
1
100
AcDbLine
 10
8.910542
 20
4.680542
 30
0.0
 11
7.15
 21
4.58195
 31
0.0
  0
LINE
  5
7FB4
100
AcDbEntity
  8
1
100
AcDbLine
 10
8.910542
 20
6.019459
 30
0.0
 11
7.15
 21
6.11805
 31
0.0
  0
LINE
  5
7FB5
100
AcDbEntity
  8
1
100
AcDbLine
 10
9.192535
 20
6.05
 30
0.0
 11
7.087024
 21
5.82196
 31
0.0
  0
LINE
  5
7FB6
100
AcDbEntity
  8
OSIE
100
AcDbLine
 10
7.35
 20
5.35
 30
0.0
 11
9.3
 21
5.35
 31
0.0
  0
LINE
  5
7FB7
100
AcDbEntity
  8
1
100
AcDbLine
 10
10.556845
 20
6.539065
 30
0.0
 11
10.660275
 21
5.948524
 31
0.0
  0
LINE
  5
7FB8
100
AcDbEntity
  8
1
100
AcDbLine
 10
10.15
 20
7.664915
 30
0.0
 11
10.385993
 21
7.113751
 31
0.0
  0
LINE
  5
7FB9
100
AcDbEntity
  8
1
100
AcDbLine
 10
10.385993
 20
7.113751
 30
0.0
 11
10.556845
 21
6.539065
 31
0.0
  0
LINE
  5
7FBA
100
AcDbEntity
  8
1
100
AcDbLine
 10
10.080746
 20
7.647749
 30
0.0
 11
10.15
 21
7.580424
 31
0.0
  0
LINE
  5
7FBB
100
AcDbEntity
  8
1
100
AcDbLine
 10
10.660275
 20
5.948524
 30
0.0
 11
10.694906
 21
5.35
 31
0.0
  0
LINE
  5
7FBC
100
AcDbEntity
  8
1
100
AcDbLine
 10
10.694906
 20
5.35
 30
0.0
 11
10.660275
 21
4.751477
 31
0.0
  0
LINE
  5
7FBD
100
AcDbEntity
  8
1
100
AcDbLine
 10
10.556845
 20
4.160935
 30
0.0
 11
10.385993
 21
3.58625
 31
0.0
  0
LINE
  5
7FBE
100
AcDbEntity
  8
1
100
AcDbLine
 10
10.385993
 20
3.58625
 30
0.0
 11
10.15
 21
3.035085
 31
0.0
  0
LINE
  5
7FBF
100
AcDbEntity
  8
1
100
AcDbLine
 10
10.080746
 20
3.052252
 30
0.0
 11
10.15
 21
3.119576
 31
0.0
  0
LINE
  5
7FC0
100
AcDbEntity
  8
1
100
AcDbLine
 10
10.660275
 20
4.751477
 30
0.0
 11
10.556845
 21
4.160935
 31
0.0
  0
LINE
  5
7FC1
100
AcDbEntity
  8
1
100
AcDbLine
 10
6.05
 20
10.300758
 30
0.0
 11
6.05
 21
9.192535
 31
0.0
  0
ARC
  5
7FC2
100
AcDbEntity
  8
1
100
AcDbCircle
 10
5.35
 20
5.35
 30
0.0
 40
5.0
100
AcDbArc
 50
0.0
 51
180.0
  0
CIRCLE
  5
7FC3
100
AcDbEntity
  8
1
100
AcDbCircle
 10
5.35
 20
5.35
 30
0.0
 40
5.35
  0
ARC
  5
7FC4
100
AcDbEntity
  8
1
100
AcDbCircle
 10
5.35
 20
5.35
 30
0.0
 40
5.0
100
AcDbArc
 50
180.0
 51
0.0
  0
ARC
  5
7FC5
100
AcDbEntity
  8
1
100
AcDbCircle
 10
5.35
 20
5.35
 30
0.0
 40
5.259241
100
AcDbArc
 50
25.906088
 51
154.093912
  0
LINE
  5
7FC6
100
AcDbEntity
  8
1
100
AcDbLine
 10
0.314006
 20
3.58625
 30
0.0
 11
0.143155
 21
4.160935
 31
0.0
  0
ENDBLK
  5
7FC8
100
AcDbEntity
  8
0
100
AcDbBlockEnd
  0
BLOCK
  5
7FCB
100
AcDbEntity
  8
0
100
AcDbBlockBegin
  2
A$C369D6037
 70
     0
 10
0.0
 20
0.0
 30
0.0
  3
A$C369D6037
  1

  0
INSERT
  5
7FCA
100
AcDbEntity
  8
1
100
AcDbBlockReference
  2
A$C312173AA
 10
0.0
 20
0.0
 30
0.0
  0
ENDBLK
  5
7FCC
100
AcDbEntity
  8
0
100
AcDbBlockEnd
  0
BLOCK
  5
8091
100
AcDbEntity
  8
0
 62
     3
100
AcDbBlockBegin
  2
A$C3D1C28BF
 70
     0
 10
0.0
 20
0.0
 30
0.0
  3
A$C3D1C28BF
  1

  0
LINE
  5
8082
100
AcDbEntity
  8
WYMIARY
 62
     3
100
AcDbLine
 10
60.772901
 20
28.671415
 30
0.0
 11
21.812605
 21
56.839707
 31
0.0
  0
LINE
  5
8083
100
AcDbEntity
  8
WYMIARY
 62
     3
100
AcDbLine
 10
87.562069
 20
22.937132
 30
0.0
 11
109.230664
 21
55.263482
 31
0.0
  0
LINE
  5
8084
100
AcDbEntity
  8
WYMIARY
 62
     3
100
AcDbLine
 10
73.784782
 20
19.496562
 30
0.0
 11
73.784782
 21
49.697118
 31
0.0
  0
LINE
  5
8085
100
AcDbEntity
  8
WYMIARY
 62
     3
100
AcDbLine
 10
88.327474
 20
0.0
 30
0.0
 11
149.559859
 21
49.697118
 31
0.0
  0
TEXT
  5
8086
100
AcDbEntity
  8
WY
 62
     3
100
AcDbText
 10
94.795662
 20
57.462112
 30
0.0
 40
2.0
  1
Description plate GZT4-0035
 51
15.0
  7
ITALIC
100
AcDbText
  0
TEXT
  5
8087
100
AcDbEntity
  8
WY
 62
     3
100
AcDbText
 10
94.795662
 20
60.76955
 30
0.0
 40
2.0
  1
Płytka do opisu GZT4-0035
 51
15.0
  7
ITALIC
100
AcDbText
  0
TEXT
  5
8088
100
AcDbEntity
  8
WY
 62
     3
100
AcDbText
 10
-0.000001
 20
58.652527
 30
0.0
 40
2.0
  1
Retainer / retractor clip GZT80-0040
 51
15.0
  7
ITALIC
100
AcDbText
  0
TEXT
  5
8089
100
AcDbEntity
  8
WY
 62
     3
100
AcDbText
 10
0.183542
 20
61.683112
 30
0.0
 40
2.0
  1
Obejma wyrzutnikowa GZT80-0040
 51
15.0
  7
ITALIC
100
AcDbText
  0
TEXT
  5
808A
100
AcDbEntity
  8
WY
 62
     3
100
AcDbText
 10
63.255465
 20
54.536716
 30
0.0
 40
2.0
  1
Przekaźnik R2
 51
15.0
  7
ITALIC
100
AcDbText
  0
TEXT
  5
808B
100
AcDbEntity
  8
WY
 62
     3
100
AcDbText
 10
63.255465
 20
51.229278
 30
0.0
 40
2.0
  1
Relay R2
 51
15.0
  7
ITALIC
100
AcDbText
  0
TEXT
  5
808C
100
AcDbEntity
  8
WY
 62
     3
100
AcDbText
 10
145.711378
 20
51.660487
 30
0.0
 40
2.0
  1
Socket GZM2
 51
15.0
  7
ITALIC
100
AcDbText
  0
TEXT
  5
808D
100
AcDbEntity
  8
WY
 62
     3
100
AcDbText
 10
145.711378
 20
54.967926
 30
0.0
 40
2.0
  1
Gniazdo GZM2
 51
15.0
  7
ITALIC
100
AcDbText
  0
TEXT
  5
808E
100
AcDbEntity
  8
WY
 62
     3
100
AcDbText
 10
0.97021
 20
41.467875
 30
0.0
 40
2.0
  1
Moduł typu M...
 51
15.0
  7
ITALIC
100
AcDbText
  0
LINE
  5
808F
100
AcDbEntity
  8
WYMIARY
 62
     3
100
AcDbLine
 10
45.273452
 20
9.557138
 30
0.0
 11
10.638884
 21
36.508268
 31
0.0
  0
TEXT
  5
8090
100
AcDbEntity
  8
WY
 62
     3
100
AcDbText
 10
0.97021
 20
38.160437
 30
0.0
 40
2.0
  1
Module type M...
 51
15.0
  7
ITALIC
100
AcDbText
  0
ENDBLK
  5
8092
100
AcDbEntity
  8
0
 62
     3
100
AcDbBlockEnd
  0
BLOCK
  5
C7D4
100
AcDbEntity
  8
0
100
AcDbBlockBegin
  2
*D4
 70
     1
 10
0.0
 20
0.0
 30
0.0
  3
*D4
  1

  0
LINE
  5
C7D5
100
AcDbEntity
  8
0
  6
BYBLOCK
 62
     0
100
AcDbLine
 10
588.156597
 20
800.862941
 30
0.0
 11
613.297969
 21
800.862941
 31
0.0
  0
LINE
  5
C7D6
100
AcDbEntity
  8
0
  6
BYBLOCK
 62
     0
100
AcDbLine
 10
588.156597
 20
715.862941
 30
0.0
 11
613.297969
 21
715.862941
 31
0.0
  0
LINE
  5
C7D7
100
AcDbEntity
  8
0
  6
BYBLOCK
 62
     0
100
AcDbLine
 10
611.797969
 20
797.362941
 30
0.0
 11
611.797969
 21
719.362941
 31
0.0
  0
SOLID
  5
C7D8
100
AcDbEntity
  8
0
  6
BYBLOCK
 62
     0
100
AcDbTrace
 10
611.214636
 20
797.362941
 30
0.0
 11
612.381302
 21
797.362941
 31
0.0
 12
611.797969
 22
800.862941
 32
0.0
 13
611.797969
 23
800.862941
 33
0.0
  0
SOLID
  5
C7D9
100
AcDbEntity
  8
0
  6
BYBLOCK
 62
     0
100
AcDbTrace
 10
611.214636
 20
719.362941
 30
0.0
 11
612.381302
 21
719.362941
 31
0.0
 12
611.797969
 22
715.862941
 32
0.0
 13
611.797969
 23
715.862941
 33
0.0
  0
MTEXT
  5
C7DA
100
AcDbEntity
  8
0
  6
BYBLOCK
 62
     0
100
AcDbMText
 10
610.147969
 20
758.362941
 30
0.0
 40
1.8
 41
0.0
 71
     5
 72
     1
  1
\A1;85.00
 11
0.0
 21
1.0
 31
0.0
  0
POINT
  5
C7DB
100
AcDbEntity
  8
DEFPOINTS
  6
BYBLOCK
 62
     0
100
AcDbPoint
 10
586.656597
 20
800.862941
 30
0.0
  0
POINT
  5
C7DC
100
AcDbEntity
  8
DEFPOINTS
  6
BYBLOCK
 62
     0
100
AcDbPoint
 10
586.656597
 20
715.862941
 30
0.0
  0
POINT
  5
C7DD
100
AcDbEntity
  8
DEFPOINTS
  6
BYBLOCK
 62
     0
100
AcDbPoint
 10
611.797969
 20
715.862941
 30
0.0
  0
ENDBLK
  5
C7DE
100
AcDbEntity
  8
0
100
AcDbBlockEnd
  0
BLOCK
  5
C7C9
100
AcDbEntity
  8
0
100
AcDbBlockBegin
  2
*D5
 70
     1
 10
0.0
 20
0.0
 30
0.0
  3
*D5
  1

  0
LINE
  5
C7CA
100
AcDbEntity
  8
0
  6
BYBLOCK
 62
     0
100
AcDbLine
 10
588.156597
 20
780.862941
 30
0.0
 11
604.015139
 21
780.862941
 31
0.0
  0
LINE
  5
C7CB
100
AcDbEntity
  8
0
  6
BYBLOCK
 62
     0
100
AcDbLine
 10
588.156597
 20
735.862941
 30
0.0
 11
604.015139
 21
735.862941
 31
0.0
  0
LINE
  5
C7CC
100
AcDbEntity
  8
0
  6
BYBLOCK
 62
     0
100
AcDbLine
 10
602.515139
 20
777.362941
 30
0.0
 11
602.515139
 21
739.362941
 31
0.0
  0
SOLID
  5
C7CD
100
AcDbEntity
  8
0
  6
BYBLOCK
 62
     0
100
AcDbTrace
 10
601.931806
 20
777.362941
 30
0.0
 11
603.098473
 21
777.362941
 31
0.0
 12
602.515139
 22
780.862941
 32
0.0
 13
602.515139
 23
780.862941
 33
0.0
  0
SOLID
  5
C7CE
100
AcDbEntity
  8
0
  6
BYBLOCK
 62
     0
100
AcDbTrace
 10
601.931806
 20
739.362941
 30
0.0
 11
603.098473
 21
739.362941
 31
0.0
 12
602.515139
 22
735.862941
 32
0.0
 13
602.515139
 23
735.862941
 33
0.0
  0
MTEXT
  5
C7CF
100
AcDbEntity
  8
0
  6
BYBLOCK
 62
     0
100
AcDbMText
 10
600.865139
 20
758.362941
 30
0.0
 40
1.8
 41
0.0
 71
     5
 72
     1
  1
\A1;45.00
 11
0.0
 21
1.0
 31
0.0
  0
POINT
  5
C7D0
100
AcDbEntity
  8
DEFPOINTS
  6
BYBLOCK
 62
     0
100
AcDbPoint
 10
586.656597
 20
780.862941
 30
0.0
  0
POINT
  5
C7D1
100
AcDbEntity
  8
DEFPOINTS
  6
BYBLOCK
 62
     0
100
AcDbPoint
 10
586.656597
 20
735.862941
 30
0.0
  0
POINT
  5
C7D2
100
AcDbEntity
  8
DEFPOINTS
  6
BYBLOCK
 62
     0
100
AcDbPoint
 10
602.515139
 20
735.862941
 30
0.0
  0
ENDBLK
  5
C7D3
100
AcDbEntity
  8
0
100
AcDbBlockEnd
  0
BLOCK
  5
C7DF
100
AcDbEntity
  8
0
100
AcDbBlockBegin
  2
*D6
 70
     1
 10
0.0
 20
0.0
 30
0.0
  3
*D6
  1

  0
LINE
  5
C7E0
100
AcDbEntity
  8
0
  6
BYBLOCK
 62
     0
100
AcDbLine
 10
569.156597
 20
802.362941
 30
0.0
 11
569.156597
 21
812.654885
 31
0.0
  0
LINE
  5
C7E1
100
AcDbEntity
  8
0
  6
BYBLOCK
 62
     0
100
AcDbLine
 10
586.656597
 20
802.362941
 30
0.0
 11
586.656597
 21
812.654885
 31
0.0
  0
LINE
  5
C7E2
100
AcDbEntity
  8
0
  6
BYBLOCK
 62
     0
100
AcDbLine
 10
572.656597
 20
811.154885
 30
0.0
 11
583.156597
 21
811.154885
 31
0.0
  0
SOLID
  5
C7E3
100
AcDbEntity
  8
0
  6
BYBLOCK
 62
     0
100
AcDbTrace
 10
572.656597
 20
811.738218
 30
0.0
 11
572.656597
 21
810.571552
 31
0.0
 12
569.156597
 22
811.154885
 32
0.0
 13
569.156597
 23
811.154885
 33
0.0
  0
SOLID
  5
C7E4
100
AcDbEntity
  8
0
  6
BYBLOCK
 62
     0
100
AcDbTrace
 10
583.156597
 20
811.738218
 30
0.0
 11
583.156597
 21
810.571552
 31
0.0
 12
586.656597
 22
811.154885
 32
0.0
 13
586.656597
 23
811.154885
 33
0.0
  0
MTEXT
  5
C7E5
100
AcDbEntity
  8
0
  6
BYBLOCK
 62
     0
100
AcDbMText
 10
577.906597
 20
812.804885
 30
0.0
 40
1.8
 41
0.0
 71
     5
 72
     1
  1
\A1;17.50
  0
POINT
  5
C7E6
100
AcDbEntity
  8
DEFPOINTS
  6
BYBLOCK
 62
     0
100
AcDbPoint
 10
569.156597
 20
800.862941
 30
0.0
  0
POINT
  5
C7E7
100
AcDbEntity
  8
DEFPOINTS
  6
BYBLOCK
 62
     0
100
AcDbPoint
 10
586.656597
 20
800.862941
 30
0.0
  0
POINT
  5
C7E8
100
AcDbEntity
  8
DEFPOINTS
  6
BYBLOCK
 62
     0
100
AcDbPoint
 10
586.656597
 20
811.154885
 30
0.0
  0
ENDBLK
  5
C7E9
100
AcDbEntity
  8
0
100
AcDbBlockEnd
  0
BLOCK
  5
C83E
100
AcDbEntity
  8
0
100
AcDbBlockBegin
  2
*D7
 70
     1
 10
0.0
 20
0.0
 30
0.0
  3
*D7
  1

  0
LINE
  5
C835
100
AcDbEntity
  8
0
  6
BYBLOCK
 62
     0
100
AcDbLine
 10
588.156597
 20
800.862941
 30
0.0
 11
613.297969
 21
800.862941
 31
0.0
  0
LINE
  5
C836
100
AcDbEntity
  8
0
  6
BYBLOCK
 62
     0
100
AcDbLine
 10
588.156597
 20
715.862941
 30
0.0
 11
613.297969
 21
715.862941
 31
0.0
  0
LINE
  5
C837
100
AcDbEntity
  8
0
  6
BYBLOCK
 62
     0
100
AcDbLine
 10
611.797969
 20
797.362941
 30
0.0
 11
611.797969
 21
719.362941
 31
0.0
  0
SOLID
  5
C838
100
AcDbEntity
  8
0
  6
BYBLOCK
 62
     0
100
AcDbTrace
 10
611.214636
 20
797.362941
 30
0.0
 11
612.381302
 21
797.362941
 31
0.0
 12
611.797969
 22
800.862941
 32
0.0
 13
611.797969
 23
800.862941
 33
0.0
  0
SOLID
  5
C839
100
AcDbEntity
  8
0
  6
BYBLOCK
 62
     0
100
AcDbTrace
 10
611.214636
 20
719.362941
 30
0.0
 11
612.381302
 21
719.362941
 31
0.0
 12
611.797969
 22
715.862941
 32
0.0
 13
611.797969
 23
715.862941
 33
0.0
  0
MTEXT
  5
C83A
100
AcDbEntity
  8
0
  6
BYBLOCK
 62
     0
100
AcDbMText
 10
610.147969
 20
758.362941
 30
0.0
 40
1.8
 41
0.0
 71
     5
 72
     1
  1
\A1;85.00
 11
0.0
 21
1.0
 31
0.0
  0
POINT
  5
C83B
100
AcDbEntity
  8
DEFPOINTS
  6
BYBLOCK
 62
     0
100
AcDbPoint
 10
586.656597
 20
800.862941
 30
0.0
  0
POINT
  5
C83C
100
AcDbEntity
  8
DEFPOINTS
  6
BYBLOCK
 62
     0
100
AcDbPoint
 10
586.656597
 20
715.862941
 30
0.0
  0
POINT
  5
C83D
100
AcDbEntity
  8
DEFPOINTS
  6
BYBLOCK
 62
     0
100
AcDbPoint
 10
611.797969
 20
715.862941
 30
0.0
  0
ENDBLK
  5
C83F
100
AcDbEntity
  8
0
100
AcDbBlockEnd
  0
BLOCK
  5
C84A
100
AcDbEntity
  8
0
100
AcDbBlockBegin
  2
*D8
 70
     1
 10
0.0
 20
0.0
 30
0.0
  3
*D8
  1

  0
LINE
  5
C841
100
AcDbEntity
  8
0
  6
BYBLOCK
 62
     0
100
AcDbLine
 10
588.156597
 20
780.862941
 30
0.0
 11
604.015139
 21
780.862941
 31
0.0
  0
LINE
  5
C842
100
AcDbEntity
  8
0
  6
BYBLOCK
 62
     0
100
AcDbLine
 10
588.156597
 20
735.862941
 30
0.0
 11
604.015139
 21
735.862941
 31
0.0
  0
LINE
  5
C843
100
AcDbEntity
  8
0
  6
BYBLOCK
 62
     0
100
AcDbLine
 10
602.515139
 20
777.362941
 30
0.0
 11
602.515139
 21
739.362941
 31
0.0
  0
SOLID
  5
C844
100
AcDbEntity
  8
0
  6
BYBLOCK
 62
     0
100
AcDbTrace
 10
601.931806
 20
777.362941
 30
0.0
 11
603.098473
 21
777.362941
 31
0.0
 12
602.515139
 22
780.862941
 32
0.0
 13
602.515139
 23
780.862941
 33
0.0
  0
SOLID
  5
C845
100
AcDbEntity
  8
0
  6
BYBLOCK
 62
     0
100
AcDbTrace
 10
601.931806
 20
739.362941
 30
0.0
 11
603.098473
 21
739.362941
 31
0.0
 12
602.515139
 22
735.862941
 32
0.0
 13
602.515139
 23
735.862941
 33
0.0
  0
MTEXT
  5
C846
100
AcDbEntity
  8
0
  6
BYBLOCK
 62
     0
100
AcDbMText
 10
600.865139
 20
758.362941
 30
0.0
 40
1.8
 41
0.0
 71
     5
 72
     1
  1
\A1;45.00
 11
0.0
 21
1.0
 31
0.0
  0
POINT
  5
C847
100
AcDbEntity
  8
DEFPOINTS
  6
BYBLOCK
 62
     0
100
AcDbPoint
 10
586.656597
 20
780.862941
 30
0.0
  0
POINT
  5
C848
100
AcDbEntity
  8
DEFPOINTS
  6
BYBLOCK
 62
     0
100
AcDbPoint
 10
586.656597
 20
735.862941
 30
0.0
  0
POINT
  5
C849
100
AcDbEntity
  8
DEFPOINTS
  6
BYBLOCK
 62
     0
100
AcDbPoint
 10
602.515139
 20
735.862941
 30
0.0
  0
ENDBLK
  5
C84B
100
AcDbEntity
  8
0
100
AcDbBlockEnd
  0
BLOCK
  5
C856
100
AcDbEntity
  8
0
100
AcDbBlockBegin
  2
*D9
 70
     1
 10
0.0
 20
0.0
 30
0.0
  3
*D9
  1

  0
LINE
  5
C84D
100
AcDbEntity
  8
0
  6
BYBLOCK
 62
     0
100
AcDbLine
 10
569.156597
 20
802.362941
 30
0.0
 11
569.156597
 21
812.654885
 31
0.0
  0
LINE
  5
C84E
100
AcDbEntity
  8
0
  6
BYBLOCK
 62
     0
100
AcDbLine
 10
586.656597
 20
802.362941
 30
0.0
 11
586.656597
 21
812.654885
 31
0.0
  0
LINE
  5
C84F
100
AcDbEntity
  8
0
  6
BYBLOCK
 62
     0
100
AcDbLine
 10
572.656597
 20
811.154885
 30
0.0
 11
583.156597
 21
811.154885
 31
0.0
  0
SOLID
  5
C850
100
AcDbEntity
  8
0
  6
BYBLOCK
 62
     0
100
AcDbTrace
 10
572.656597
 20
811.738218
 30
0.0
 11
572.656597
 21
810.571552
 31
0.0
 12
569.156597
 22
811.154885
 32
0.0
 13
569.156597
 23
811.154885
 33
0.0
  0
SOLID
  5
C851
100
AcDbEntity
  8
0
  6
BYBLOCK
 62
     0
100
AcDbTrace
 10
583.156597
 20
811.738218
 30
0.0
 11
583.156597
 21
810.571552
 31
0.0
 12
586.656597
 22
811.154885
 32
0.0
 13
586.656597
 23
811.154885
 33
0.0
  0
MTEXT
  5
C852
100
AcDbEntity
  8
0
  6
BYBLOCK
 62
     0
100
AcDbMText
 10
577.906597
 20
812.804885
 30
0.0
 40
1.8
 41
0.0
 71
     5
 72
     1
  1
\A1;17.50
  0
POINT
  5
C853
100
AcDbEntity
  8
DEFPOINTS
  6
BYBLOCK
 62
     0
100
AcDbPoint
 10
569.156597
 20
800.862941
 30
0.0
  0
POINT
  5
C854
100
AcDbEntity
  8
DEFPOINTS
  6
BYBLOCK
 62
     0
100
AcDbPoint
 10
586.656597
 20
800.862941
 30
0.0
  0
POINT
  5
C855
100
AcDbEntity
  8
DEFPOINTS
  6
BYBLOCK
 62
     0
100
AcDbPoint
 10
586.656597
 20
811.154885
 30
0.0
  0
ENDBLK
  5
C857
100
AcDbEntity
  8
0
100
AcDbBlockEnd
  0
BLOCK
  5
C862
100
AcDbEntity
  8
0
100
AcDbBlockBegin
  2
*D10
 70
     1
 10
0.0
 20
0.0
 30
0.0
  3
*D10
  1

  0
LINE
  5
C859
100
AcDbEntity
  8
0
  6
BYBLOCK
 62
     0
100
AcDbLine
 10
764.995424
 20
741.756857
 30
0.0
 11
764.995424
 21
694.664144
 31
0.0
  0
LINE
  5
C85A
100
AcDbEntity
  8
0
  6
BYBLOCK
 62
     0
100
AcDbLine
 10
808.995424
 20
716.756857
 30
0.0
 11
808.995424
 21
694.664144
 31
0.0
  0
LINE
  5
C85B
100
AcDbEntity
  8
0
  6
BYBLOCK
 62
     0
100
AcDbLine
 10
768.495424
 20
696.164144
 30
0.0
 11
805.495424
 21
696.164144
 31
0.0
  0
SOLID
  5
C85C
100
AcDbEntity
  8
0
  6
BYBLOCK
 62
     0
100
AcDbTrace
 10
768.495424
 20
696.747478
 30
0.0
 11
768.495424
 21
695.580811
 31
0.0
 12
764.995424
 22
696.164144
 32
0.0
 13
764.995424
 23
696.164144
 33
0.0
  0
SOLID
  5
C85D
100
AcDbEntity
  8
0
  6
BYBLOCK
 62
     0
100
AcDbTrace
 10
805.495424
 20
696.747478
 30
0.0
 11
805.495424
 21
695.580811
 31
0.0
 12
808.995424
 22
696.164144
 32
0.0
 13
808.995424
 23
696.164144
 33
0.0
  0
MTEXT
  5
C85E
100
AcDbEntity
  8
0
  6
BYBLOCK
 62
     0
100
AcDbMText
 10
786.995424
 20
697.814144
 30
0.0
 40
1.8
 41
0.0
 71
     5
 72
     1
  1
\A1;44.00
  0
POINT
  5
C85F
100
AcDbEntity
  8
DEFPOINTS
  6
BYBLOCK
 62
     0
100
AcDbPoint
 10
764.995424
 20
743.256857
 30
0.0
  0
POINT
  5
C860
100
AcDbEntity
  8
DEFPOINTS
  6
BYBLOCK
 62
     0
100
AcDbPoint
 10
808.995424
 20
718.256857
 30
0.0
  0
POINT
  5
C861
100
AcDbEntity
  8
DEFPOINTS
  6
BYBLOCK
 62
     0
100
AcDbPoint
 10
808.995424
 20
696.164144
 30
0.0
  0
ENDBLK
  5
C863
100
AcDbEntity
  8
0
100
AcDbBlockEnd
  0
BLOCK
  5
C86E
100
AcDbEntity
  8
0
100
AcDbBlockBegin
  2
*D11
 70
     1
 10
0.0
 20
0.0
 30
0.0
  3
*D11
  1

  0
LINE
  5
C865
100
AcDbEntity
  8
0
  6
BYBLOCK
 62
     0
100
AcDbLine
 10
764.995424
 20
741.756857
 30
0.0
 11
764.995424
 21
685.0205
 31
0.0
  0
LINE
  5
C866
100
AcDbEntity
  8
0
  6
BYBLOCK
 62
     0
100
AcDbLine
 10
824.995424
 20
736.756857
 30
0.0
 11
824.995424
 21
685.0205
 31
0.0
  0
LINE
  5
C867
100
AcDbEntity
  8
0
  6
BYBLOCK
 62
     0
100
AcDbLine
 10
768.495424
 20
686.5205
 30
0.0
 11
821.495424
 21
686.5205
 31
0.0
  0
SOLID
  5
C868
100
AcDbEntity
  8
0
  6
BYBLOCK
 62
     0
100
AcDbTrace
 10
768.495424
 20
687.103833
 30
0.0
 11
768.495424
 21
685.937167
 31
0.0
 12
764.995424
 22
686.5205
 32
0.0
 13
764.995424
 23
686.5205
 33
0.0
  0
SOLID
  5
C869
100
AcDbEntity
  8
0
  6
BYBLOCK
 62
     0
100
AcDbTrace
 10
821.495424
 20
687.103833
 30
0.0
 11
821.495424
 21
685.937167
 31
0.0
 12
824.995424
 22
686.5205
 32
0.0
 13
824.995424
 23
686.5205
 33
0.0
  0
MTEXT
  5
C86A
100
AcDbEntity
  8
0
  6
BYBLOCK
 62
     0
100
AcDbMText
 10
794.995424
 20
688.1705
 30
0.0
 40
1.8
 41
0.0
 71
     5
 72
     1
  1
\A1;60.00
  0
POINT
  5
C86B
100
AcDbEntity
  8
DEFPOINTS
  6
BYBLOCK
 62
     0
100
AcDbPoint
 10
764.995424
 20
743.256857
 30
0.0
  0
POINT
  5
C86C
100
AcDbEntity
  8
DEFPOINTS
  6
BYBLOCK
 62
     0
100
AcDbPoint
 10
824.995424
 20
738.256857
 30
0.0
  0
POINT
  5
C86D
100
AcDbEntity
  8
DEFPOINTS
  6
BYBLOCK
 62
     0
100
AcDbPoint
 10
824.995424
 20
686.5205
 30
0.0
  0
ENDBLK
  5
C86F
100
AcDbEntity
  8
0
100
AcDbBlockEnd
  0
BLOCK
  5
C87A
100
AcDbEntity
  8
0
100
AcDbBlockBegin
  2
*D12
 70
     1
 10
0.0
 20
0.0
 30
0.0
  3
*D12
  1

  0
LINE
  5
C871
100
AcDbEntity
  8
0
  6
BYBLOCK
 62
     0
100
AcDbLine
 10
758.495424
 20
778.256857
 30
0.0
 11
745.79613
 21
778.256857
 31
0.0
  0
LINE
  5
C872
100
AcDbEntity
  8
0
  6
BYBLOCK
 62
     0
100
AcDbLine
 10
758.495424
 20
743.256857
 30
0.0
 11
745.79613
 21
743.256857
 31
0.0
  0
LINE
  5
C873
100
AcDbEntity
  8
0
  6
BYBLOCK
 62
     0
100
AcDbLine
 10
747.29613
 20
774.756857
 30
0.0
 11
747.29613
 21
746.756857
 31
0.0
  0
SOLID
  5
C874
100
AcDbEntity
  8
0
  6
BYBLOCK
 62
     0
100
AcDbTrace
 10
746.712797
 20
774.756857
 30
0.0
 11
747.879464
 21
774.756857
 31
0.0
 12
747.29613
 22
778.256857
 32
0.0
 13
747.29613
 23
778.256857
 33
0.0
  0
SOLID
  5
C875
100
AcDbEntity
  8
0
  6
BYBLOCK
 62
     0
100
AcDbTrace
 10
746.712797
 20
746.756857
 30
0.0
 11
747.879464
 21
746.756857
 31
0.0
 12
747.29613
 22
743.256857
 32
0.0
 13
747.29613
 23
743.256857
 33
0.0
  0
MTEXT
  5
C876
100
AcDbEntity
  8
0
  6
BYBLOCK
 62
     0
100
AcDbMText
 10
745.64613
 20
760.756857
 30
0.0
 40
1.8
 41
0.0
 71
     5
 72
     1
  1
\A1;35.00
 11
0.0
 21
1.0
 31
0.0
  0
POINT
  5
C877
100
AcDbEntity
  8
DEFPOINTS
  6
BYBLOCK
 62
     0
100
AcDbPoint
 10
759.995424
 20
778.256857
 30
0.0
  0
POINT
  5
C878
100
AcDbEntity
  8
DEFPOINTS
  6
BYBLOCK
 62
     0
100
AcDbPoint
 10
759.995424
 20
743.256857
 30
0.0
  0
POINT
  5
C879
100
AcDbEntity
  8
DEFPOINTS
  6
BYBLOCK
 62
     0
100
AcDbPoint
 10
747.29613
 20
743.256857
 30
0.0
  0
ENDBLK
  5
C87B
100
AcDbEntity
  8
0
100
AcDbBlockEnd
  0
BLOCK
  5
C887
100
AcDbEntity
  8
0
100
AcDbBlockBegin
  2
*D13
 70
     1
 10
0.0
 20
0.0
 30
0.0
  3
*D13
  1

  0
LINE
  5
C87D
100
AcDbEntity
  8
0
  6
BYBLOCK
 62
     0
100
AcDbLine
 10
759.995424
 20
716.756857
 30
0.0
 11
759.995424
 21
705.02557
 31
0.0
  0
LINE
  5
C87E
100
AcDbEntity
  8
0
  6
BYBLOCK
 62
     0
100
AcDbLine
 10
764.995424
 20
741.756857
 30
0.0
 11
764.995424
 21
705.02557
 31
0.0
  0
LINE
  5
C87F
100
AcDbEntity
  8
0
  6
BYBLOCK
 62
     0
100
AcDbLine
 10
768.495424
 20
706.52557
 30
0.0
 11
771.995424
 21
706.52557
 31
0.0
  0
LINE
  5
C880
100
AcDbEntity
  8
0
  6
BYBLOCK
 62
     0
100
AcDbLine
 10
756.495424
 20
706.52557
 30
0.0
 11
746.695424
 21
706.52557
 31
0.0
  0
SOLID
  5
C881
100
AcDbEntity
  8
0
  6
BYBLOCK
 62
     0
100
AcDbTrace
 10
768.495424
 20
707.108903
 30
0.0
 11
768.495424
 21
705.942236
 31
0.0
 12
764.995424
 22
706.52557
 32
0.0
 13
764.995424
 23
706.52557
 33
0.0
  0
SOLID
  5
C882
100
AcDbEntity
  8
0
  6
BYBLOCK
 62
     0
100
AcDbTrace
 10
756.495424
 20
707.108903
 30
0.0
 11
756.495424
 21
705.942236
 31
0.0
 12
759.995424
 22
706.52557
 32
0.0
 13
759.995424
 23
706.52557
 33
0.0
  0
MTEXT
  5
C883
100
AcDbEntity
  8
0
  6
BYBLOCK
 62
     0
100
AcDbMText
 10
749.845424
 20
708.17557
 30
0.0
 40
1.8
 41
0.0
 71
     5
 72
     1
  1
\A1;5.00
  0
POINT
  5
C884
100
AcDbEntity
  8
DEFPOINTS
  6
BYBLOCK
 62
     0
100
AcDbPoint
 10
759.995424
 20
718.256857
 30
0.0
  0
POINT
  5
C885
100
AcDbEntity
  8
DEFPOINTS
  6
BYBLOCK
 62
     0
100
AcDbPoint
 10
764.995424
 20
743.256857
 30
0.0
  0
POINT
  5
C886
100
AcDbEntity
  8
DEFPOINTS
  6
BYBLOCK
 62
     0
100
AcDbPoint
 10
764.995424
 20
706.52557
 30
0.0
  0
ENDBLK
  5
C888
100
AcDbEntity
  8
0
100
AcDbBlockEnd
  0
BLOCK
  5
CB69
100
AcDbEntity
  8
0
 62
     3
100
AcDbBlockBegin
  2
A$C153B6019
 70
     0
 10
0.0
 20
0.0
 30
0.0
  3
A$C153B6019
  1

  0
TEXT
  5
C88A
100
AcDbEntity
  8
WY
100
AcDbText
 10
230.631383
 20
16.329369
 30
0.0
 40
2.0
  1
Format
 51
15.0
  7
ITALIC
100
AcDbText
  0
TEXT
  5
C88B
100
AcDbEntity
  8
1
100
AcDbText
 10
231.196742
 20
8.797458
 30
0.0
 40
5.0
  1
A4
 51
15.0
  7
ITALIC
100
AcDbText
  0
LINE
  5
C88C
100
AcDbEntity
  8
2
 62
     6
100
AcDbLine
 10
201.630407
 20
0.0
 30
0.0
 11
403.260814
 21
0.0
 31
0.0
  0
LINE
  5
C88D
100
AcDbEntity
  8
2
100
AcDbLine
 10
213.260814
 20
5.0
 30
0.0
 11
398.260814
 21
5.0
 31
0.0
  0
LINE
  5
C88E
100
AcDbEntity
  8
WY
  6
CONTINUOUS
 62
     3
100
AcDbLine
 10
398.260814
 20
19.689837
 30
0.0
 11
213.260814
 21
19.689837
 31
0.0
  0
LINE
  5
C88F
100
AcDbEntity
  8
2
100
AcDbLine
 10
403.260814
 20
297.0
 30
0.0
 11
213.260814
 21
297.0
 31
0.0
  0
LINE
  5
C890
100
AcDbEntity
  8
2
100
AcDbLine
 10
398.260814
 20
292.0
 30
0.0
 11
213.260814
 21
292.0
 31
0.0
  0
LINE
  5
C891
100
AcDbEntity
  8
WYMIARY
 62
     6
100
AcDbLine
 10
213.260814
 20
292.0
 30
0.0
 11
213.260814
 21
5.0
 31
0.0
  0
DIMENSION
  5
C892
100
AcDbEntity
  8
WYMIARY
 62
     1
100
AcDbDimension
  2
*D11
 10
104.734518
 20
134.976648
 30
0.0
 11
74.734518
 21
136.626648
 31
0.0
 12
-720.260906
 22
-551.543852
 32
0.0
  3
STANDARD
100
AcDbAlignedDimension
 13
44.734518
 23
191.713005
 33
0.0
 14
104.734518
 24
186.713005
 34
0.0
100
AcDbRotatedDimension
1001
ACAD
1000
DSTYLE
1002
{
1070
   140
1040
1.8
1070
   147
1040
0.75
1002
}
  0
LINE
  5
C893
100
AcDbEntity
  8
WYMIARY
 62
     6
100
AcDbLine
 10
201.630407
 20
0.0
 30
0.0
 11
201.630407
 21
297.0
 31
0.0
  0
LINE
  5
C894
100
AcDbEntity
  8
2
100
AcDbLine
 10
201.630407
 20
0.0
 30
0.0
 11
201.630407
 21
297.0
 31
0.0
  0
LINE
  5
C895
100
AcDbEntity
  8
WYMIARY
 62
     6
100
AcDbLine
 10
201.630407
 20
0.0
 30
0.0
 11
201.630407
 21
297.0
 31
0.0
  0
LINE
  5
C896
100
AcDbEntity
  8
2
100
AcDbLine
 10
201.630407
 20
0.0
 30
0.0
 11
201.630407
 21
297.0
 31
0.0
  0
LINE
  5
C897
100
AcDbEntity
  8
WYMIARY
 62
     6
100
AcDbLine
 10
201.630407
 20
0.0
 30
0.0
 11
201.630407
 21
297.0
 31
0.0
  0
LINE
  5
C898
100
AcDbEntity
  8
WYMIARY
 62
     6
100
AcDbLine
 10
201.630407
 20
0.0
 30
0.0
 11
201.630407
 21
297.0
 31
0.0
  0
LINE
  5
C899
100
AcDbEntity
  8
WYMIARY
 62
     6
100
AcDbLine
 10
201.630407
 20
0.0
 30
0.0
 11
201.630407
 21
297.0
 31
0.0
  0
LINE
  5
C89A
100
AcDbEntity
  8
2
100
AcDbLine
 10
201.630407
 20
0.0
 30
0.0
 11
201.630407
 21
297.0
 31
0.0
  0
LINE
  5
C89B
100
AcDbEntity
  8
2
100
AcDbLine
 10
196.630407
 20
5.0
 30
0.0
 11
196.630407
 21
292.0
 31
0.0
  0
LINE
  5
C89C
100
AcDbEntity
  8
WYMIARY
 62
     6
100
AcDbLine
 10
11.630407
 20
292.0
 30
0.0
 11
11.630407
 21
5.0
 31
0.0
  0
LINE
  5
C89D
100
AcDbEntity
  8
WYMIARY
 62
     6
100
AcDbLine
 10
0.000001
 20
0.0
 30
0.0
 11
0.000001
 21
297.0
 31
0.0
  0
LINE
  5
C89E
100
AcDbEntity
  8
WYMIARY
 62
     3
100
AcDbLine
 10
98.654974
 20
118.004124
 30
0.0
 11
96.475933
 21
118.004124
 31
0.0
  0
LINE
  5
C89F
100
AcDbEntity
  8
WYMIARY
 62
     3
100
AcDbLine
 10
98.654974
 20
119.39225
 30
0.0
 11
96.475933
 21
119.39225
 31
0.0
  0
LINE
  5
C8A0
100
AcDbEntity
  8
WYMIARY
 62
     3
100
AcDbLine
 10
104.122158
 20
104.98209
 30
0.0
 11
86.622158
 21
104.98209
 31
0.0
  0
LINE
  5
C8A1
100
AcDbEntity
  8
WYMIARY
 62
     3
100
AcDbLine
 10
86.622158
 20
124.98209
 30
0.0
 11
104.122158
 21
124.98209
 31
0.0
  0
CIRCLE
  5
C8A2
100
AcDbEntity
  8
WYMIARY
 62
     3
100
AcDbCircle
 10
95.378916
 20
110.393193
 30
0.0
 40
2.25
  0
CIRCLE
  5
C8A3
100
AcDbEntity
  8
WYMIARY
 62
     3
100
AcDbCircle
 10
99.422158
 20
118.777333
 30
0.0
 40
3.3
  0
LINE
  5
C8A4
100
AcDbEntity
  8
WYMIARY
 62
     3
100
AcDbLine
 10
98.654974
 20
45.57193
 30
0.0
 11
96.475933
 21
45.57193
 31
0.0
  0
LINE
  5
C8A5
100
AcDbEntity
  8
WYMIARY
 62
     3
100
AcDbLine
 10
98.654974
 20
46.960056
 30
0.0
 11
96.475933
 21
46.960056
 31
0.0
  0
LINE
  5
C8A6
100
AcDbEntity
  8
WYMIARY
 62
     3
100
AcDbLine
 10
104.122158
 20
59.98209
 30
0.0
 11
86.622158
 21
59.98209
 31
0.0
  0
LINE
  5
C8A7
100
AcDbEntity
  8
WYMIARY
 62
     3
100
AcDbLine
 10
104.122158
 20
39.98209
 30
0.0
 11
86.622158
 21
39.98209
 31
0.0
  0
CIRCLE
  5
C8A8
100
AcDbEntity
  8
WYMIARY
 62
     3
100
AcDbCircle
 10
99.422158
 20
46.186846
 30
0.0
 40
3.3
  0
CIRCLE
  5
C8A9
100
AcDbEntity
  8
WYMIARY
 62
     3
100
AcDbCircle
 10
95.378916
 20
54.570987
 30
0.0
 40
2.25
  0
TEXT
  5
C8AA
100
AcDbEntity
  8
1
100
AcDbText
 10
85.838594
 20
29.954323
 30
0.0
 40
5.0
  1
RIK20-11
 41
0.75
  7
ITALIC
100
AcDbText
  0
TEXT
  5
C8AB
100
AcDbEntity
  8
WY
100
AcDbText
 10
78.376163
 20
11.60401
 30
0.0
 40
2.0
  1
02-02-2008
 51
15.0
  7
ITALIC
100
AcDbText
  0
LINE
  5
C8AC
100
AcDbEntity
  8
2
 62
     6
100
AcDbLine
 10
0.000001
 20
0.0
 30
0.0
 11
201.630407
 21
0.0
 31
0.0
  0
LINE
  5
C8AD
100
AcDbEntity
  8
2
100
AcDbLine
 10
11.630407
 20
5.0
 30
0.0
 11
196.630407
 21
5.0
 31
0.0
  0
LINE
  5
C8AE
100
AcDbEntity
  8
WY
  6
CONTINUOUS
 62
     3
100
AcDbLine
 10
196.630407
 20
19.689837
 30
0.0
 11
11.630407
 21
19.689837
 31
0.0
  0
TEXT
  5
C8AF
100
AcDbEntity
  8
1
100
AcDbText
 10
14.260742
 20
8.797458
 30
0.0
 40
5.0
  1
1:1
 51
15.0
  7
ITALIC
100
AcDbText
  0
TEXT
  5
C8B0
100
AcDbEntity
  8
WY
100
AcDbText
 10
16.895522
 20
16.373844
 30
0.0
 40
2.0
  1
Skala
 51
15.0
  7
ITALIC
100
AcDbText
  0
LINE
  5
C8B1
100
AcDbEntity
  8
WYMIARY
 62
     3
100
AcDbLine
 10
26.630407
 20
19.689837
 30
0.0
 11
26.630407
 21
5.0
 31
0.0
  0
LINE
  5
C8B2
100
AcDbEntity
  8
WYMIARY
 62
     3
100
AcDbLine
 10
86.622158
 20
39.98209
 30
0.0
 11
86.622158
 21
124.98209
 31
0.0
  0
LINE
  5
C8B3
100
AcDbEntity
  8
WYMIARY
 62
     3
100
AcDbLine
 10
53.144934
 20
124.98209
 30
0.0
 11
53.144934
 21
39.98209
 31
0.0
  0
LINE
  5
C8B4
100
AcDbEntity
  8
WYMIARY
 62
     3
100
AcDbLine
 10
35.644934
 20
39.98209
 30
0.0
 11
35.644934
 21
124.98209
 31
0.0
  0
LINE
  5
C8B5
100
AcDbEntity
  8
WYMIARY
 62
     3
100
AcDbLine
 10
53.144934
 20
124.98209
 30
0.0
 11
53.144934
 21
39.98209
 31
0.0
  0
TEXT
  5
C8B6
100
AcDbEntity
  8
1
100
AcDbText
 10
34.86137
 20
29.954323
 30
0.0
 40
5.0
  1
RIK20-20
 41
0.75
  7
ITALIC
100
AcDbText
  0
LINE
  5
C8B7
100
AcDbEntity
  8
0
100
AcDbLine
 10
44.458568
 20
17.030079
 30
0.0
 11
48.770091
 21
17.030079
 31
0.0
  0
ELLIPSE
  5
C8B8
100
AcDbEntity
  8
0
100
AcDbEllipse
 10
46.438861
 20
8.937306
 30
0.0
 11
3.015746449176212
 21
0.7746519372140012
 31
0.0
210
0.0
220
0.0
230
1.0
 40
0.846775
 41
1.29973646820557
 42
2.479974117225238
1001
ACAD
1000
ASC_BOUNDS
1002
{
1070
    19
1002
}
  0
ELLIPSE
  5
C8B9
100
AcDbEntity
  8
0
100
AcDbEllipse
 10
46.208355
 20
9.872488
 30
0.0
 11
2.960559210508897
 21
0.3570763225581005
 31
0.0
210
0.0
220
0.0
230
1.0
 40
0.820999
 41
1.335209029023201
 42
2.503032872947537
1001
ACAD
1000
ASC_BOUNDS
1002
{
1070
    19
1002
}
  0
LINE
  5
C8BA
100
AcDbEntity
  8
0
100
AcDbLine
 10
44.458568
 20
7.416263
 30
0.0
 11
48.770091
 21
7.416263
 31
0.0
1001
ACAD
1000
ASC_BOUNDS
1002
{
1070
    19
1002
}
  0
TEXT
  5
C8BB
100
AcDbEntity
  8
WY
100
AcDbText
 10
29.000976
 20
16.329369
 30
0.0
 40
2.0
  1
Format
 51
15.0
  7
ITALIC
100
AcDbText
  0
TEXT
  5
C8BC
100
AcDbEntity
  8
1
100
AcDbText
 10
29.566335
 20
8.797458
 30
0.0
 40
5.0
  1
A4
 51
15.0
  7
ITALIC
100
AcDbText
  0
LINE
  5
C8BD
100
AcDbEntity
  8
WYMIARY
 62
     3
100
AcDbLine
 10
41.630407
 20
19.689837
 30
0.0
 11
41.630407
 21
5.0
 31
0.0
  0
ELLIPSE
  5
C8BE
100
AcDbEntity
  8
0
100
AcDbEllipse
 10
44.458568
 20
16.260974
 30
0.0
 11
0.8021437979128704
 21
0.000000000000038
 31
0.0
210
0.0
220
0.0
230
1.0
 40
0.958812
 41
1.570796326794851
 42
3.141592653589743
1001
ACAD
1000
ASC_BOUNDS
1002
{
1070
    19
1002
}
  0
LINE
  5
C8BF
100
AcDbEntity
  8
0
100
AcDbLine
 10
43.656424
 20
13.461283
 30
0.0
 11
43.656424
 21
12.896139
 31
0.0
1001
ACAD
1000
ASC_BOUNDS
1002
{
1070
    19
1002
}
  0
LINE
  5
C8C0
100
AcDbEntity
  8
0
100
AcDbLine
 10
43.656424
 20
11.742481
 30
0.0
 11
43.656424
 21
11.034514
 31
0.0
1001
ACAD
1000
ASC_BOUNDS
1002
{
1070
    19
1002
}
  0
LINE
  5
C8C1
100
AcDbEntity
  8
0
100
AcDbLine
 10
43.656424
 20
13.461283
 30
0.0
 11
43.656424
 21
16.260974
 31
0.0
1001
ACAD
1000
ASC_BOUNDS
1002
{
1070
    19
1002
}
  0
ELLIPSE
  5
C8C2
100
AcDbEntity
  8
0
100
AcDbEllipse
 10
44.458568
 20
8.185369
 30
0.0
 11
-0.8021437979128705
 21
0.0000000000000154
 31
0.0
210
0.0
220
0.0
230
1.0
 40
0.958812
 41
0.00000000000002
 42
1.570796326794914
1001
ACAD
1000
ASC_BOUNDS
1002
{
1070
    19
1002
}
  0
LINE
  5
C8C3
100
AcDbEntity
  8
0
100
AcDbLine
 10
43.656424
 20
9.895061
 30
0.0
 11
43.656424
 21
8.185369
 31
0.0
1001
ACAD
1000
ASC_BOUNDS
1002
{
1070
    19
1002
}
  0
LINE
  5
C8C4
100
AcDbEntity
  8
0
100
AcDbLine
 10
42.453209
 20
11.742481
 30
0.0
 11
42.754013
 21
11.742481
 31
0.0
1001
ACAD
1000
ASC_BOUNDS
1002
{
1070
    19
1002
}
  0
ELLIPSE
  5
C8C5
100
AcDbEntity
  8
0
100
AcDbEllipse
 10
43.656424
 20
11.742481
 30
0.0
 11
-1.203215696869327
 21
0.0000000000001967
 31
0.0
210
0.0
220
0.0
230
1.0
 40
0.958812
 41
-1.570796326794739
 42
0.0000000000001705
1001
ACAD
1000
ASC_BOUNDS
1002
{
1070
    19
1002
}
  0
LINE
  5
C8C6
100
AcDbEntity
  8
0
100
AcDbLine
 10
43.656424
 20
11.742481
 30
0.0
 11
42.754013
 21
11.742481
 31
0.0
1001
ACAD
1000
ASC_BOUNDS
1002
{
1070
    19
1002
}
  0
ARC
  5
C8C7
100
AcDbEntity
  8
0
100
AcDbCircle
 10
54.188493
 20
14.361264
 30
0.0
 40
0.3375
100
AcDbArc
 50
360.0
 51
180.0
  0
ARC
  5
C8C8
100
AcDbEntity
  8
0
100
AcDbCircle
 10
54.757651
 20
14.34127
 30
0.0
 40
1.377457
100
AcDbArc
 50
16.265061
 51
130.527299
  0
LINE
  5
C8C9
100
AcDbEntity
  8
0
100
AcDbLine
 10
52.32045
 20
15.60367
 30
0.0
 11
53.862565
 21
15.60367
 31
0.0
1001
ACAD
1000
ASC_BOUNDS
1002
{
1070
    19
1002
}
  0
LINE
  5
C8CA
100
AcDbEntity
  8
0
100
AcDbLine
 10
53.862565
 20
15.60367
 30
0.0
 11
53.862565
 21
15.38827
 31
0.0
  0
ELLIPSE
  5
C8CB
100
AcDbEntity
  8
0
100
AcDbEllipse
 10
48.770091
 20
16.260974
 30
0.0
 11
-0.8021437979128705
 21
0.000000000000038
 31
0.0
210
0.0
220
0.0
230
1.0
 40
0.958812
 41
3.141592653589842
 42
4.712388980384734
1001
ACAD
1000
ASC_BOUNDS
1002
{
1070
    19
1002
}
  0
LINE
  5
C8CC
100
AcDbEntity
  8
0
100
AcDbLine
 10
49.572235
 20
15.155385
 30
0.0
 11
49.572235
 21
16.260974
 31
0.0
1001
ACAD
1000
ASC_BOUNDS
1002
{
1070
    19
1002
}
  0
ELLIPSE
  5
C8CD
100
AcDbEntity
  8
0
100
AcDbEllipse
 10
49.572235
 20
12.896139
 30
0.0
 11
1.203215696869352
 21
0.0000000000000893
 31
0.0
210
0.0
220
0.0
230
1.0
 40
0.958812
 41
4.712388980384611
 42
6.283185307179508
1001
ACAD
1000
ASC_BOUNDS
1002
{
1070
    19
1002
}
  0
LINE
  5
C8CE
100
AcDbEntity
  8
0
100
AcDbLine
 10
49.572235
 20
12.896139
 30
0.0
 11
50.474647
 21
12.896139
 31
0.0
1001
ACAD
1000
ASC_BOUNDS
1002
{
1070
    19
1002
}
  0
LINE
  5
C8CF
100
AcDbEntity
  8
0
100
AcDbLine
 10
50.775451
 20
12.896139
 30
0.0
 11
50.474647
 21
12.896139
 31
0.0
1001
ACAD
1000
ASC_BOUNDS
1002
{
1070
    19
1002
}
  0
ELLIPSE
  5
C8D0
100
AcDbEntity
  8
0
100
AcDbEllipse
 10
46.546087
 20
15.509539
 30
0.0
 11
-4.072692107280919
 21
0.0000000000000925
 31
0.0
210
0.0
220
0.0
230
1.0
 40
0.958812
 41
1.587553347046634
 42
2.408388587343224
1001
ACAD
1000
ASC_BOUNDS
1002
{
1070
    19
1002
}
  0
ELLIPSE
  5
C8D1
100
AcDbEntity
  8
0
100
AcDbEllipse
 10
46.589263
 20
15.17942
 30
0.0
 11
2.983077570132104
 21
0.0000000000002996
 31
0.0
210
0.0
220
0.0
230
1.0
 40
0.958812
 41
-1.562393163247347
 42
0.0084031635475457
1001
ACAD
1000
ASC_BOUNDS
1002
{
1070
    19
1002
}
  0
LINE
  5
C8D2
100
AcDbEntity
  8
0
100
AcDbLine
 10
52.32045
 20
9.015264
 30
0.0
 11
53.862565
 21
9.015264
 31
0.0
1001
ACAD
1000
ASC_BOUNDS
1002
{
1070
    19
1002
}
  0
LINE
  5
C8D3
100
AcDbEntity
  8
0
100
AcDbLine
 10
53.850993
 20
9.015264
 30
0.0
 11
53.862565
 21
9.022759
 31
0.0
  0
ELLIPSE
  5
C8D4
100
AcDbEntity
  8
0
100
AcDbEllipse
 10
48.770091
 20
8.185369
 30
0.0
 11
0.8021437979128704
 21
0.0000000000001602
 31
0.0
210
0.0
220
0.0
230
1.0
 40
0.958812
 41
4.712388980384497
 42
6.283185307179378
1001
ACAD
1000
ASC_BOUNDS
1002
{
1070
    19
1002
}
  0
LINE
  5
C8D5
100
AcDbEntity
  8
0
100
AcDbLine
 10
49.572235
 20
8.185369
 30
0.0
 11
49.572235
 21
11.742481
 31
0.0
1001
ACAD
1000
ASC_BOUNDS
1002
{
1070
    19
1002
}
  0
LINE
  5
C8D6
100
AcDbEntity
  8
0
100
AcDbLine
 10
52.32045
 20
9.015264
 30
0.0
 11
52.32045
 21
15.60367
 31
0.0
1001
ACAD
1000
ASC_BOUNDS
1002
{
1070
    19
1002
}
  0
LINE
  5
C8D7
100
AcDbEntity
  8
0
100
AcDbLine
 10
53.850993
 20
14.361264
 30
0.0
 11
53.862565
 21
9.015264
 31
0.0
  0
LINE
  5
C8D8
100
AcDbEntity
  8
0
100
AcDbLine
 10
61.107977
 20
17.211264
 30
0.0
 11
62.652977
 21
17.211264
 31
0.0
  0
LINE
  5
C8D9
100
AcDbEntity
  8
0
100
AcDbLine
 10
60.420977
 20
11.81167
 30
0.0
 11
60.420977
 21
14.41447
 31
0.0
  0
LINE
  5
C8DA
100
AcDbEntity
  8
0
100
AcDbLine
 10
60.420977
 20
11.13667
 30
0.0
 11
60.420977
 21
10.236264
 31
0.0
  0
LINE
  5
C8DB
100
AcDbEntity
  8
0
100
AcDbLine
 10
58.153234
 20
15.60367
 30
0.0
 11
59.007977
 21
15.60367
 31
0.0
  0
LINE
  5
C8DC
100
AcDbEntity
  8
0
100
AcDbLine
 10
56.754977
 20
10.236264
 30
0.0
 11
56.754977
 21
14.41447
 31
0.0
  0
LINE
  5
C8DD
100
AcDbEntity
  8
0
100
AcDbLine
 10
56.079977
 20
12.93607
 30
0.0
 11
56.079977
 21
14.72707
 31
0.0
1001
ACAD
1000
ASC_BOUNDS
1002
{
1070
    19
1002
}
  0
LINE
  5
C8DE
100
AcDbEntity
  8
0
100
AcDbLine
 10
58.296977
 20
14.361264
 30
0.0
 11
58.296977
 21
12.71167
 31
0.0
  0
LINE
  5
C8DF
100
AcDbEntity
  8
0
100
AcDbLine
 10
58.971977
 20
14.361264
 30
0.0
 11
58.971977
 21
12.71167
 31
0.0
  0
ARC
  5
C8E0
100
AcDbEntity
  8
0
100
AcDbCircle
 10
58.634477
 20
10.252764
 30
0.0
 40
0.3375
100
AcDbArc
 50
180.0
 51
0.0
  0
LINE
  5
C8E1
100
AcDbEntity
  8
0
100
AcDbLine
 10
58.296977
 20
11.81167
 30
0.0
 11
58.296977
 21
10.252764
 31
0.0
  0
LINE
  5
C8E2
100
AcDbEntity
  8
0
100
AcDbLine
 10
58.971977
 20
11.13667
 30
0.0
 11
58.971977
 21
10.252764
 31
0.0
  0
LINE
  5
C8E3
100
AcDbEntity
  8
0
100
AcDbLine
 10
58.296977
 20
12.71167
 30
0.0
 11
58.971977
 21
12.71167
 31
0.0
  0
LINE
  5
C8E4
100
AcDbEntity
  8
0
100
AcDbLine
 10
58.296977
 20
11.81167
 30
0.0
 11
58.296977
 21
10.236264
 31
0.0
  0
ARC
  5
C8E5
100
AcDbEntity
  8
0
100
AcDbCircle
 10
58.634477
 20
14.361264
 30
0.0
 40
0.3375
100
AcDbArc
 50
360.0
 51
180.0
  0
LINE
  5
C8E6
100
AcDbEntity
  8
0
100
AcDbLine
 10
54.525993
 20
14.361264
 30
0.0
 11
54.537565
 21
12.93607
 31
0.0
  0
LINE
  5
C8E7
100
AcDbEntity
  8
0
100
AcDbLine
 10
54.537565
 20
12.93607
 30
0.0
 11
56.079977
 21
12.93607
 31
0.0
  0
LINE
  5
C8E8
100
AcDbEntity
  8
0
100
AcDbLine
 10
54.869904
 20
12.93607
 30
0.0
 11
56.079977
 21
12.93607
 31
0.0
  0
ARC
  5
C8E9
100
AcDbEntity
  8
0
100
AcDbCircle
 10
58.160605
 20
14.17837
 30
0.0
 40
1.425319
100
AcDbArc
 50
89.703671
 51
170.465171
  0
LINE
  5
C8EA
100
AcDbEntity
  8
0
100
AcDbLine
 10
58.971977
 20
11.13667
 30
0.0
 11
60.420977
 21
11.13667
 31
0.0
  0
LINE
  5
C8EB
100
AcDbEntity
  8
0
100
AcDbLine
 10
60.420977
 20
11.81167
 30
0.0
 11
58.296977
 21
11.81167
 31
0.0
  0
ARC
  5
C8EC
100
AcDbEntity
  8
0
100
AcDbCircle
 10
59.015348
 20
14.17837
 30
0.0
 40
1.425319
100
AcDbArc
 50
9.534829
 51
90.296329
  0
LINE
  5
C8ED
100
AcDbEntity
  8
0
100
AcDbLine
 10
62.652977
 20
9.015264
 30
0.0
 11
61.107977
 21
9.015264
 31
0.0
  0
LINE
  5
C8EE
100
AcDbEntity
  8
0
100
AcDbLine
 10
58.153234
 20
9.047064
 30
0.0
 11
59.007977
 21
9.047064
 31
0.0
  0
LINE
  5
C8EF
100
AcDbEntity
  8
0
100
AcDbLine
 10
62.652977
 20
17.211264
 30
0.0
 11
62.652977
 21
9.015264
 31
0.0
  0
LINE
  5
C8F0
100
AcDbEntity
  8
0
100
AcDbLine
 10
61.107977
 20
9.015264
 30
0.0
 11
61.107977
 21
17.211264
 31
0.0
  0
ARC
  5
C8F1
100
AcDbEntity
  8
0
100
AcDbCircle
 10
58.160605
 20
10.472364
 30
0.0
 40
1.425319
100
AcDbArc
 50
189.534829
 51
270.296329
  0
ARC
  5
C8F2
100
AcDbEntity
  8
0
100
AcDbCircle
 10
59.015348
 20
10.472364
 30
0.0
 40
1.425319
100
AcDbArc
 50
269.703671
 51
350.465171
  0
CIRCLE
  5
C8F3
100
AcDbEntity
  8
WYMIARY
 62
     3
100
AcDbCircle
 10
44.401692
 20
54.570987
 30
0.0
 40
2.25
  0
LINE
  5
C8F4
100
AcDbEntity
  8
WYMIARY
 62
     3
100
AcDbLine
 10
44.887536
 20
55.056831
 30
0.0
 11
46.412865
 21
55.056831
 31
0.0
  0
LINE
  5
C8F5
100
AcDbEntity
  8
WYMIARY
 62
     3
100
AcDbLine
 10
44.887536
 20
54.085143
 30
0.0
 11
46.412865
 21
54.085143
 31
0.0
  0
CIRCLE
  5
C8F6
100
AcDbEntity
  8
WYMIARY
 62
     3
100
AcDbCircle
 10
48.444934
 20
46.186846
 30
0.0
 40
3.3
  0
LINE
  5
C8F7
100
AcDbEntity
  8
WYMIARY
 62
     3
100
AcDbLine
 10
53.144934
 20
39.98209
 30
0.0
 11
35.644934
 21
39.98209
 31
0.0
  0
LINE
  5
C8F8
100
AcDbEntity
  8
WYMIARY
 62
     3
100
AcDbLine
 10
53.144934
 20
59.98209
 30
0.0
 11
35.644934
 21
59.98209
 31
0.0
  0
LINE
  5
C8F9
100
AcDbEntity
  8
WYMIARY
 62
     3
100
AcDbLine
 10
42.535117
 20
54.085143
 30
0.0
 11
42.535117
 21
55.056831
 31
0.0
  0
TEXT
  5
C8FA
100
AcDbEntity
  8
1
100
AcDbText
 10
37.28141
 20
49.859588
 30
0.0
 40
3.0
  1
2
 41
0.65
  7
ITALIC
100
AcDbText
  0
LINE
  5
C8FB
100
AcDbEntity
  8
WYMIARY
 62
     3
100
AcDbLine
 10
37.751519
 20
45.57193
 30
0.0
 11
39.723993
 21
45.57193
 31
0.0
  0
LINE
  5
C8FC
100
AcDbEntity
  8
WYMIARY
 62
     3
100
AcDbLine
 10
37.751519
 20
46.960056
 30
0.0
 11
39.723993
 21
46.960056
 31
0.0
  0
LINE
  5
C8FD
100
AcDbEntity
  8
WYMIARY
 62
     3
100
AcDbLine
 10
39.723993
 20
48.956666
 30
0.0
 11
41.112119
 21
48.956666
 31
0.0
  0
LINE
  5
C8FE
100
AcDbEntity
  8
WYMIARY
 62
     3
100
AcDbLine
 10
39.723993
 20
46.960056
 30
0.0
 11
39.723993
 21
48.956666
 31
0.0
  0
LINE
  5
C8FF
100
AcDbEntity
  8
WYMIARY
 62
     3
100
AcDbLine
 10
41.112119
 20
46.960056
 30
0.0
 11
41.112119
 21
48.956666
 31
0.0
  0
LINE
  5
C900
100
AcDbEntity
  8
WYMIARY
 62
     3
100
AcDbLine
 10
37.751519
 20
46.960056
 30
0.0
 11
37.751519
 21
45.57193
 31
0.0
  0
LINE
  5
C901
100
AcDbEntity
  8
WYMIARY
 62
     3
100
AcDbLine
 10
43.291159
 20
46.960056
 30
0.0
 11
43.291159
 21
45.57193
 31
0.0
  0
LINE
  5
C902
100
AcDbEntity
  8
WYMIARY
 62
     3
100
AcDbLine
 10
41.112119
 20
45.57193
 30
0.0
 11
43.291159
 21
45.57193
 31
0.0
  0
LINE
  5
C903
100
AcDbEntity
  8
WYMIARY
 62
     3
100
AcDbLine
 10
41.112119
 20
46.960056
 30
0.0
 11
43.291159
 21
46.960056
 31
0.0
  0
LINE
  5
C904
100
AcDbEntity
  8
WYMIARY
 62
     3
100
AcDbLine
 10
43.915848
 20
52.687516
 30
0.0
 11
44.887536
 21
52.687516
 31
0.0
  0
LINE
  5
C905
100
AcDbEntity
  8
WYMIARY
 62
     3
100
AcDbLine
 10
43.915848
 20
54.085143
 30
0.0
 11
43.915848
 21
52.687516
 31
0.0
  0
LINE
  5
C906
100
AcDbEntity
  8
WYMIARY
 62
     3
100
AcDbLine
 10
42.535117
 20
54.085143
 30
0.0
 11
43.915848
 21
54.085143
 31
0.0
  0
LINE
  5
C907
100
AcDbEntity
  8
WYMIARY
 62
     3
100
AcDbLine
 10
44.887536
 20
54.085143
 30
0.0
 11
44.887536
 21
52.687516
 31
0.0
  0
LINE
  5
C908
100
AcDbEntity
  8
WYMIARY
 62
     3
100
AcDbLine
 10
39.723993
 20
43.417027
 30
0.0
 11
41.112119
 21
43.417027
 31
0.0
  0
LINE
  5
C909
100
AcDbEntity
  8
WYMIARY
 62
     3
100
AcDbLine
 10
39.723993
 20
43.417027
 30
0.0
 11
41.112119
 21
43.417027
 31
0.0
  0
LINE
  5
C90A
100
AcDbEntity
  8
WYMIARY
 62
     3
100
AcDbLine
 10
39.723993
 20
43.417027
 30
0.0
 11
41.112119
 21
43.417027
 31
0.0
  0
LINE
  5
C90B
100
AcDbEntity
  8
WYMIARY
 62
     3
100
AcDbLine
 10
39.723993
 20
43.417027
 30
0.0
 11
39.723993
 21
45.57193
 31
0.0
  0
LINE
  5
C90C
100
AcDbEntity
  8
WYMIARY
 62
     3
100
AcDbLine
 10
41.112119
 20
43.417027
 30
0.0
 11
41.112119
 21
45.57193
 31
0.0
  0
CIRCLE
  5
C90D
100
AcDbEntity
  8
WYMIARY
 62
     3
100
AcDbCircle
 10
40.344934
 20
46.186846
 30
0.0
 40
3.3
  0
LINE
  5
C90E
100
AcDbEntity
  8
WYMIARY
 62
     3
100
AcDbLine
 10
43.915848
 20
56.565264
 30
0.0
 11
44.887536
 21
56.565264
 31
0.0
  0
LINE
  5
C90F
100
AcDbEntity
  8
WYMIARY
 62
     3
100
AcDbLine
 10
43.915848
 20
56.565264
 30
0.0
 11
43.915848
 21
55.056831
 31
0.0
  0
LINE
  5
C910
100
AcDbEntity
  8
WYMIARY
 62
     3
100
AcDbLine
 10
42.535117
 20
55.056831
 30
0.0
 11
43.915848
 21
55.056831
 31
0.0
  0
LINE
  5
C911
100
AcDbEntity
  8
WYMIARY
 62
     3
100
AcDbLine
 10
44.887536
 20
56.565264
 30
0.0
 11
44.887536
 21
55.056831
 31
0.0
  0
LINE
  5
C912
100
AcDbEntity
  8
WYMIARY
 62
     3
100
AcDbLine
 10
46.412865
 20
54.085143
 30
0.0
 11
46.412865
 21
55.056831
 31
0.0
  0
TEXT
  5
C913
100
AcDbEntity
  8
1
100
AcDbText
 10
49.934919
 20
49.859588
 30
0.0
 40
3.0
  1
4
 41
0.65
  7
ITALIC
100
AcDbText
  0
LINE
  5
C914
100
AcDbEntity
  8
WYMIARY
 62
     3
100
AcDbLine
 10
51.03835
 20
46.960056
 30
0.0
 11
51.03835
 21
45.57193
 31
0.0
  0
LINE
  5
C915
100
AcDbEntity
  8
WYMIARY
 62
     3
100
AcDbLine
 10
47.67775
 20
46.960056
 30
0.0
 11
47.67775
 21
48.956666
 31
0.0
  0
LINE
  5
C916
100
AcDbEntity
  8
WYMIARY
 62
     3
100
AcDbLine
 10
49.065876
 20
46.960056
 30
0.0
 11
49.065876
 21
48.956666
 31
0.0
  0
LINE
  5
C917
100
AcDbEntity
  8
WYMIARY
 62
     3
100
AcDbLine
 10
49.065876
 20
48.956666
 30
0.0
 11
47.67775
 21
48.956666
 31
0.0
  0
LINE
  5
C918
100
AcDbEntity
  8
WYMIARY
 62
     3
100
AcDbLine
 10
51.03835
 20
46.960056
 30
0.0
 11
49.065876
 21
46.960056
 31
0.0
  0
LINE
  5
C919
100
AcDbEntity
  8
WYMIARY
 62
     3
100
AcDbLine
 10
51.03835
 20
45.57193
 30
0.0
 11
49.065876
 21
45.57193
 31
0.0
  0
LINE
  5
C91A
100
AcDbEntity
  8
WYMIARY
 62
     3
100
AcDbLine
 10
45.49871
 20
46.960056
 30
0.0
 11
45.49871
 21
45.57193
 31
0.0
  0
LINE
  5
C91B
100
AcDbEntity
  8
WYMIARY
 62
     3
100
AcDbLine
 10
47.67775
 20
46.960056
 30
0.0
 11
45.49871
 21
46.960056
 31
0.0
  0
LINE
  5
C91C
100
AcDbEntity
  8
WYMIARY
 62
     3
100
AcDbLine
 10
47.67775
 20
45.57193
 30
0.0
 11
45.49871
 21
45.57193
 31
0.0
  0
LINE
  5
C91D
100
AcDbEntity
  8
WYMIARY
 62
     3
100
AcDbLine
 10
49.065876
 20
43.417027
 30
0.0
 11
47.67775
 21
43.417027
 31
0.0
  0
LINE
  5
C91E
100
AcDbEntity
  8
WYMIARY
 62
     3
100
AcDbLine
 10
49.065876
 20
43.417027
 30
0.0
 11
47.67775
 21
43.417027
 31
0.0
  0
LINE
  5
C91F
100
AcDbEntity
  8
WYMIARY
 62
     3
100
AcDbLine
 10
49.065876
 20
43.417027
 30
0.0
 11
47.67775
 21
43.417027
 31
0.0
  0
LINE
  5
C920
100
AcDbEntity
  8
WYMIARY
 62
     3
100
AcDbLine
 10
47.67775
 20
43.417027
 30
0.0
 11
47.67775
 21
45.57193
 31
0.0
  0
LINE
  5
C921
100
AcDbEntity
  8
WYMIARY
 62
     3
100
AcDbLine
 10
49.065876
 20
43.417027
 30
0.0
 11
49.065876
 21
45.57193
 31
0.0
  0
TEXT
  5
C922
100
AcDbEntity
  8
1
100
AcDbText
 10
46.877703
 20
55.89784
 30
0.0
 40
3.0
  1
A2
 41
0.65
  7
ITALIC
100
AcDbText
  0
ARC
  5
C923
100
AcDbEntity
  8
0
100
AcDbCircle
 10
70.168138
 20
14.124104
 30
0.0
 40
1.488419
100
AcDbArc
 50
11.634268
 51
90.699113
  0
ARC
  5
C924
100
AcDbEntity
  8
0
100
AcDbCircle
 10
70.168138
 20
10.503572
 30
0.0
 40
1.488419
100
AcDbArc
 50
269.300887
 51
348.365732
  0
LINE
  5
C925
100
AcDbEntity
  8
0
100
AcDbLine
 10
69.219977
 20
15.612412
 30
0.0
 11
70.149977
 21
15.612412
 31
0.0
  0
LINE
  5
C926
100
AcDbEntity
  8
0
100
AcDbLine
 10
67.743977
 20
10.203412
 30
0.0
 11
67.743977
 21
14.424264
 31
0.0
  0
LINE
  5
C927
100
AcDbEntity
  8
0
100
AcDbLine
 10
70.022477
 20
14.361264
 30
0.0
 11
70.022477
 21
10.252764
 31
0.0
  0
LINE
  5
C928
100
AcDbEntity
  8
0
100
AcDbLine
 10
69.347477
 20
14.361264
 30
0.0
 11
69.347477
 21
10.252764
 31
0.0
  0
ARC
  5
C929
100
AcDbEntity
  8
0
100
AcDbCircle
 10
69.684977
 20
10.252764
 30
0.0
 40
0.3375
100
AcDbArc
 50
180.0
 51
0.0
  0
ARC
  5
C92A
100
AcDbEntity
  8
0
100
AcDbCircle
 10
69.684977
 20
14.361264
 30
0.0
 40
0.3375
100
AcDbArc
 50
360.0
 51
180.0
  0
LINE
  5
C92B
100
AcDbEntity
  8
0
100
AcDbLine
 10
64.851977
 20
15.612264
 30
0.0
 11
64.851977
 21
15.324264
 31
0.0
  0
LINE
  5
C92C
100
AcDbEntity
  8
0
100
AcDbLine
 10
63.306977
 20
15.612264
 30
0.0
 11
64.851977
 21
15.612264
 31
0.0
  0
ARC
  5
C92D
100
AcDbEntity
  8
0
100
AcDbCircle
 10
65.189477
 20
14.361264
 30
0.0
 40
0.3375
100
AcDbArc
 50
360.0
 51
180.0
  0
ARC
  5
C92E
100
AcDbEntity
  8
0
100
AcDbCircle
 10
65.189477
 20
10.252764
 30
0.0
 40
0.3375
100
AcDbArc
 50
180.0
 51
0.0
  0
LINE
  5
C92F
100
AcDbEntity
  8
0
100
AcDbLine
 10
64.851977
 20
14.361264
 30
0.0
 11
64.851977
 21
10.252764
 31
0.0
  0
LINE
  5
C930
100
AcDbEntity
  8
0
100
AcDbLine
 10
65.526977
 20
14.361264
 30
0.0
 11
65.526977
 21
10.252764
 31
0.0
  0
LINE
  5
C931
100
AcDbEntity
  8
0
100
AcDbLine
 10
67.068977
 20
14.583264
 30
0.0
 11
67.068977
 21
10.179264
 31
0.0
  0
ARC
  5
C932
100
AcDbEntity
  8
0
100
AcDbCircle
 10
65.711004
 20
14.207365
 30
0.0
 40
1.409039
100
AcDbArc
 50
15.47255
 51
127.56454
  0
ARC
  5
C933
100
AcDbEntity
  8
0
100
AcDbCircle
 10
69.201816
 20
14.124104
 30
0.0
 40
1.488419
100
AcDbArc
 50
89.300887
 51
168.365732
  0
LINE
  5
C934
100
AcDbEntity
  8
0
100
AcDbLine
 10
69.219977
 20
9.015264
 30
0.0
 11
70.149977
 21
9.015264
 31
0.0
  0
LINE
  5
C935
100
AcDbEntity
  8
0
100
AcDbLine
 10
65.535023
 20
9.015264
 30
0.0
 11
66.072977
 21
9.015264
 31
0.0
  0
LINE
  5
C936
100
AcDbEntity
  8
0
100
AcDbLine
 10
64.851977
 20
7.416264
 30
0.0
 11
63.306977
 21
7.416264
 31
0.0
  0
ARC
  5
C937
100
AcDbEntity
  8
0
100
AcDbCircle
 10
69.201816
 20
10.503572
 30
0.0
 40
1.488419
100
AcDbArc
 50
191.634268
 51
270.699113
  0
ARC
  5
C938
100
AcDbEntity
  8
0
100
AcDbCircle
 10
65.940883
 20
10.136416
 30
0.0
 40
1.128907
100
AcDbArc
 50
276.719576
 51
2.175194
  0
LINE
  5
C939
100
AcDbEntity
  8
0
100
AcDbLine
 10
63.306977
 20
7.416264
 30
0.0
 11
63.306977
 21
15.612264
 31
0.0
  0
ARC
  5
C93A
100
AcDbEntity
  8
0
100
AcDbCircle
 10
65.501557
 20
9.724764
 30
0.0
 40
0.709955
100
AcDbArc
 50
203.80008
 51
272.051918
  0
LINE
  5
C93B
100
AcDbEntity
  8
0
100
AcDbLine
 10
64.851977
 20
9.438264
 30
0.0
 11
64.851977
 21
7.416264
 31
0.0
  0
LINE
  5
C93C
100
AcDbEntity
  8
0
100
AcDbLine
 10
72.300977
 20
17.211264
 30
0.0
 11
73.845977
 21
17.211264
 31
0.0
  0
LINE
  5
C93D
100
AcDbEntity
  8
0
100
AcDbLine
 10
71.625977
 20
14.424264
 30
0.0
 11
71.625977
 21
10.203412
 31
0.0
  0
LINE
  5
C93E
100
AcDbEntity
  8
0
100
AcDbLine
 10
73.845977
 20
9.015264
 30
0.0
 11
72.300977
 21
9.015264
 31
0.0
  0
LINE
  5
C93F
100
AcDbEntity
  8
1
100
AcDbLine
 10
77.42862
 20
5.0
 30
0.0
 11
77.42862
 21
19.689837
 31
0.0
  0
LINE
  5
C940
100
AcDbEntity
  8
0
100
AcDbLine
 10
72.300977
 20
9.015264
 30
0.0
 11
72.300977
 21
17.211264
 31
0.0
  0
LINE
  5
C941
100
AcDbEntity
  8
0
100
AcDbLine
 10
73.845977
 20
17.211264
 30
0.0
 11
73.845977
 21
9.015264
 31
0.0
  0
TEXT
  5
C942
100
AcDbEntity
  8
WY
100
AcDbText
 10
82.807533
 20
16.149239
 30
0.0
 40
2.0
  1
Data
 51
15.0
  7
ITALIC
100
AcDbText
  0
LINE
  5
C943
100
AcDbEntity
  8
WYMIARY
 62
     3
100
AcDbLine
 10
97.390088
 20
54.085143
 30
0.0
 11
97.390088
 21
55.056831
 31
0.0
  0
LINE
  5
C944
100
AcDbEntity
  8
WYMIARY
 62
     3
100
AcDbLine
 10
93.512341
 20
54.085143
 30
0.0
 11
93.512341
 21
55.056831
 31
0.0
  0
CIRCLE
  5
C945
100
AcDbEntity
  8
WYMIARY
 62
     3
100
AcDbCircle
 10
91.322158
 20
46.186846
 30
0.0
 40
3.3
  0
LINE
  5
C946
100
AcDbEntity
  8
WYMIARY
 62
     3
100
AcDbLine
 10
88.728743
 20
46.960056
 30
0.0
 11
90.701217
 21
46.960056
 31
0.0
  0
LINE
  5
C947
100
AcDbEntity
  8
WYMIARY
 62
     3
100
AcDbLine
 10
88.728743
 20
45.57193
 30
0.0
 11
90.701217
 21
45.57193
 31
0.0
  0
TEXT
  5
C948
100
AcDbEntity
  8
1
100
AcDbText
 10
88.258634
 20
49.859588
 30
0.0
 40
3.0
  1
2
 41
0.65
  7
ITALIC
100
AcDbText
  0
LINE
  5
C949
100
AcDbEntity
  8
WYMIARY
 62
     3
100
AcDbLine
 10
88.728743
 20
46.960056
 30
0.0
 11
88.728743
 21
45.57193
 31
0.0
  0
LINE
  5
C94A
100
AcDbEntity
  8
WYMIARY
 62
     3
100
AcDbLine
 10
96.475933
 20
46.960056
 30
0.0
 11
96.475933
 21
45.57193
 31
0.0
  0
LINE
  5
C94B
100
AcDbEntity
  8
WYMIARY
 62
     3
100
AcDbLine
 10
92.089343
 20
43.417027
 30
0.0
 11
92.089343
 21
45.57193
 31
0.0
  0
LINE
  5
C94C
100
AcDbEntity
  8
WYMIARY
 62
     3
100
AcDbLine
 10
90.701217
 20
43.417027
 30
0.0
 11
90.701217
 21
45.57193
 31
0.0
  0
LINE
  5
C94D
100
AcDbEntity
  8
WYMIARY
 62
     3
100
AcDbLine
 10
90.701217
 20
43.417027
 30
0.0
 11
92.089343
 21
43.417027
 31
0.0
  0
LINE
  5
C94E
100
AcDbEntity
  8
WYMIARY
 62
     3
100
AcDbLine
 10
90.701217
 20
43.417027
 30
0.0
 11
92.089343
 21
43.417027
 31
0.0
  0
LINE
  5
C94F
100
AcDbEntity
  8
WYMIARY
 62
     3
100
AcDbLine
 10
90.701217
 20
43.417027
 30
0.0
 11
92.089343
 21
43.417027
 31
0.0
  0
LINE
  5
C950
100
AcDbEntity
  8
WYMIARY
 62
     3
100
AcDbLine
 10
95.86476
 20
54.085143
 30
0.0
 11
95.86476
 21
52.687516
 31
0.0
  0
LINE
  5
C951
100
AcDbEntity
  8
WYMIARY
 62
     3
100
AcDbLine
 10
93.512341
 20
54.085143
 30
0.0
 11
94.893072
 21
54.085143
 31
0.0
  0
LINE
  5
C952
100
AcDbEntity
  8
WYMIARY
 62
     3
100
AcDbLine
 10
94.893072
 20
54.085143
 30
0.0
 11
94.893072
 21
52.687516
 31
0.0
  0
LINE
  5
C953
100
AcDbEntity
  8
WYMIARY
 62
     3
100
AcDbLine
 10
94.893072
 20
52.687516
 30
0.0
 11
95.86476
 21
52.687516
 31
0.0
  0
LINE
  5
C954
100
AcDbEntity
  8
WYMIARY
 62
     3
100
AcDbLine
 10
92.089343
 20
46.960056
 30
0.0
 11
94.268383
 21
46.960056
 31
0.0
  0
LINE
  5
C955
100
AcDbEntity
  8
WYMIARY
 62
     3
100
AcDbLine
 10
92.089343
 20
45.57193
 30
0.0
 11
94.268383
 21
45.57193
 31
0.0
  0
LINE
  5
C956
100
AcDbEntity
  8
WYMIARY
 62
     3
100
AcDbLine
 10
94.268383
 20
46.960056
 30
0.0
 11
94.268383
 21
45.57193
 31
0.0
  0
LINE
  5
C957
100
AcDbEntity
  8
WYMIARY
 62
     3
100
AcDbLine
 10
92.089343
 20
46.960056
 30
0.0
 11
92.089343
 21
48.956666
 31
0.0
  0
LINE
  5
C958
100
AcDbEntity
  8
WYMIARY
 62
     3
100
AcDbLine
 10
90.701217
 20
46.960056
 30
0.0
 11
90.701217
 21
48.956666
 31
0.0
  0
LINE
  5
C959
100
AcDbEntity
  8
WYMIARY
 62
     3
100
AcDbLine
 10
90.701217
 20
48.956666
 30
0.0
 11
92.089343
 21
48.956666
 31
0.0
  0
LINE
  5
C95A
100
AcDbEntity
  8
WYMIARY
 62
     3
100
AcDbLine
 10
95.86476
 20
54.085143
 30
0.0
 11
97.390088
 21
54.085143
 31
0.0
  0
LINE
  5
C95B
100
AcDbEntity
  8
WYMIARY
 62
     3
100
AcDbLine
 10
95.86476
 20
56.565264
 30
0.0
 11
95.86476
 21
55.056831
 31
0.0
  0
LINE
  5
C95C
100
AcDbEntity
  8
WYMIARY
 62
     3
100
AcDbLine
 10
93.512341
 20
55.056831
 30
0.0
 11
94.893072
 21
55.056831
 31
0.0
  0
LINE
  5
C95D
100
AcDbEntity
  8
WYMIARY
 62
     3
100
AcDbLine
 10
94.893072
 20
56.565264
 30
0.0
 11
94.893072
 21
55.056831
 31
0.0
  0
LINE
  5
C95E
100
AcDbEntity
  8
WYMIARY
 62
     3
100
AcDbLine
 10
94.893072
 20
56.565264
 30
0.0
 11
95.86476
 21
56.565264
 31
0.0
  0
LINE
  5
C95F
100
AcDbEntity
  8
WYMIARY
 62
     3
100
AcDbLine
 10
95.86476
 20
55.056831
 30
0.0
 11
97.390088
 21
55.056831
 31
0.0
  0
CIRCLE
  5
C960
100
AcDbEntity
  8
WYMIARY
 62
     3
100
AcDbCircle
 10
48.444934
 20
118.777333
 30
0.0
 40
3.3
  0
LINE
  5
C961
100
AcDbEntity
  8
WYMIARY
 62
     3
100
AcDbLine
 10
44.887536
 20
110.879037
 30
0.0
 11
46.412865
 21
110.879037
 31
0.0
  0
LINE
  5
C962
100
AcDbEntity
  8
WYMIARY
 62
     3
100
AcDbLine
 10
44.887536
 20
109.907349
 30
0.0
 11
46.412865
 21
109.907349
 31
0.0
  0
CIRCLE
  5
C963
100
AcDbEntity
  8
WYMIARY
 62
     3
100
AcDbCircle
 10
44.401692
 20
110.393193
 30
0.0
 40
2.25
  0
LINE
  5
C964
100
AcDbEntity
  8
WYMIARY
 62
     3
100
AcDbLine
 10
35.644934
 20
124.98209
 30
0.0
 11
53.144934
 21
124.98209
 31
0.0
  0
LINE
  5
C965
100
AcDbEntity
  8
WYMIARY
 62
     3
100
AcDbLine
 10
53.144934
 20
104.98209
 30
0.0
 11
35.644934
 21
104.98209
 31
0.0
  0
LINE
  5
C966
100
AcDbEntity
  8
WYMIARY
 62
     3
100
AcDbLine
 10
41.112119
 20
121.547153
 30
0.0
 11
41.112119
 21
119.39225
 31
0.0
  0
LINE
  5
C967
100
AcDbEntity
  8
WYMIARY
 62
     3
100
AcDbLine
 10
39.723993
 20
121.547153
 30
0.0
 11
39.723993
 21
119.39225
 31
0.0
  0
CIRCLE
  5
C968
100
AcDbEntity
  8
WYMIARY
 62
     3
100
AcDbCircle
 10
40.344934
 20
118.777333
 30
0.0
 40
3.3
  0
TEXT
  5
C969
100
AcDbEntity
  8
1
100
AcDbText
 10
38.555831
 20
112.031355
 30
0.0
 40
3.0
  1
1
 41
0.65
  7
ITALIC
100
AcDbText
  0
LINE
  5
C96A
100
AcDbEntity
  8
WYMIARY
 62
     3
100
AcDbLine
 10
41.112119
 20
118.004124
 30
0.0
 11
43.291159
 21
118.004124
 31
0.0
  0
LINE
  5
C96B
100
AcDbEntity
  8
WYMIARY
 62
     3
100
AcDbLine
 10
41.112119
 20
119.39225
 30
0.0
 11
43.291159
 21
119.39225
 31
0.0
  0
LINE
  5
C96C
100
AcDbEntity
  8
WYMIARY
 62
     3
100
AcDbLine
 10
43.291159
 20
118.004124
 30
0.0
 11
43.291159
 21
119.39225
 31
0.0
  0
LINE
  5
C96D
100
AcDbEntity
  8
WYMIARY
 62
     3
100
AcDbLine
 10
37.751519
 20
118.004124
 30
0.0
 11
37.751519
 21
119.39225
 31
0.0
  0
LINE
  5
C96E
100
AcDbEntity
  8
WYMIARY
 62
     3
100
AcDbLine
 10
41.112119
 20
118.004124
 30
0.0
 11
41.112119
 21
116.007513
 31
0.0
  0
LINE
  5
C96F
100
AcDbEntity
  8
WYMIARY
 62
     3
100
AcDbLine
 10
39.723993
 20
118.004124
 30
0.0
 11
39.723993
 21
116.007513
 31
0.0
  0
LINE
  5
C970
100
AcDbEntity
  8
WYMIARY
 62
     3
100
AcDbLine
 10
39.723993
 20
116.007513
 30
0.0
 11
41.112119
 21
116.007513
 31
0.0
  0
LINE
  5
C971
100
AcDbEntity
  8
WYMIARY
 62
     3
100
AcDbLine
 10
37.751519
 20
118.004124
 30
0.0
 11
39.723993
 21
118.004124
 31
0.0
  0
LINE
  5
C972
100
AcDbEntity
  8
WYMIARY
 62
     3
100
AcDbLine
 10
37.751519
 20
119.39225
 30
0.0
 11
39.723993
 21
119.39225
 31
0.0
  0
LINE
  5
C973
100
AcDbEntity
  8
WYMIARY
 62
     3
100
AcDbLine
 10
42.535117
 20
110.879037
 30
0.0
 11
43.915848
 21
110.879037
 31
0.0
  0
LINE
  5
C974
100
AcDbEntity
  8
WYMIARY
 62
     3
100
AcDbLine
 10
43.915848
 20
112.387469
 30
0.0
 11
43.915848
 21
110.879037
 31
0.0
  0
LINE
  5
C975
100
AcDbEntity
  8
WYMIARY
 62
     3
100
AcDbLine
 10
44.887536
 20
112.387469
 30
0.0
 11
44.887536
 21
110.879037
 31
0.0
  0
LINE
  5
C976
100
AcDbEntity
  8
WYMIARY
 62
     3
100
AcDbLine
 10
43.915848
 20
112.387469
 30
0.0
 11
44.887536
 21
112.387469
 31
0.0
  0
LINE
  5
C977
100
AcDbEntity
  8
WYMIARY
 62
     3
100
AcDbLine
 10
42.535117
 20
109.907349
 30
0.0
 11
43.915848
 21
109.907349
 31
0.0
  0
LINE
  5
C978
100
AcDbEntity
  8
WYMIARY
 62
     3
100
AcDbLine
 10
43.915848
 20
109.907349
 30
0.0
 11
43.915848
 21
108.509721
 31
0.0
  0
LINE
  5
C979
100
AcDbEntity
  8
WYMIARY
 62
     3
100
AcDbLine
 10
44.887536
 20
109.907349
 30
0.0
 11
44.887536
 21
108.509721
 31
0.0
  0
LINE
  5
C97A
100
AcDbEntity
  8
WYMIARY
 62
     3
100
AcDbLine
 10
43.915848
 20
108.509721
 30
0.0
 11
44.887536
 21
108.509721
 31
0.0
  0
LINE
  5
C97B
100
AcDbEntity
  8
WYMIARY
 62
     3
100
AcDbLine
 10
42.535117
 20
109.907349
 30
0.0
 11
42.535117
 21
110.879037
 31
0.0
  0
LINE
  5
C97C
100
AcDbEntity
  8
WYMIARY
 62
     3
100
AcDbLine
 10
39.723993
 20
121.547153
 30
0.0
 11
41.112119
 21
121.547153
 31
0.0
  0
LINE
  5
C97D
100
AcDbEntity
  8
WYMIARY
 62
     3
100
AcDbLine
 10
39.723993
 20
121.547153
 30
0.0
 11
41.112119
 21
121.547153
 31
0.0
  0
LINE
  5
C97E
100
AcDbEntity
  8
WYMIARY
 62
     3
100
AcDbLine
 10
39.723993
 20
121.547153
 30
0.0
 11
41.112119
 21
121.547153
 31
0.0
  0
LINE
  5
C97F
100
AcDbEntity
  8
WYMIARY
 62
     3
100
AcDbLine
 10
49.065876
 20
121.547153
 30
0.0
 11
49.065876
 21
119.39225
 31
0.0
  0
LINE
  5
C980
100
AcDbEntity
  8
WYMIARY
 62
     3
100
AcDbLine
 10
47.67775
 20
121.547153
 30
0.0
 11
47.67775
 21
119.39225
 31
0.0
  0
TEXT
  5
C981
100
AcDbEntity
  8
1
100
AcDbText
 10
49.695355
 20
112.031355
 30
0.0
 40
3.0
  1
3
 41
0.65
  7
ITALIC
100
AcDbText
  0
LINE
  5
C982
100
AcDbEntity
  8
WYMIARY
 62
     3
100
AcDbLine
 10
51.03835
 20
119.39225
 30
0.0
 11
49.065876
 21
119.39225
 31
0.0
  0
LINE
  5
C983
100
AcDbEntity
  8
WYMIARY
 62
     3
100
AcDbLine
 10
51.03835
 20
118.004124
 30
0.0
 11
49.065876
 21
118.004124
 31
0.0
  0
LINE
  5
C984
100
AcDbEntity
  8
WYMIARY
 62
     3
100
AcDbLine
 10
49.065876
 20
116.007513
 30
0.0
 11
47.67775
 21
116.007513
 31
0.0
  0
LINE
  5
C985
100
AcDbEntity
  8
WYMIARY
 62
     3
100
AcDbLine
 10
49.065876
 20
118.004124
 30
0.0
 11
49.065876
 21
116.007513
 31
0.0
  0
LINE
  5
C986
100
AcDbEntity
  8
WYMIARY
 62
     3
100
AcDbLine
 10
47.67775
 20
118.004124
 30
0.0
 11
47.67775
 21
116.007513
 31
0.0
  0
LINE
  5
C987
100
AcDbEntity
  8
WYMIARY
 62
     3
100
AcDbLine
 10
51.03835
 20
118.004124
 30
0.0
 11
51.03835
 21
119.39225
 31
0.0
  0
LINE
  5
C988
100
AcDbEntity
  8
WYMIARY
 62
     3
100
AcDbLine
 10
45.49871
 20
118.004124
 30
0.0
 11
45.49871
 21
119.39225
 31
0.0
  0
LINE
  5
C989
100
AcDbEntity
  8
WYMIARY
 62
     3
100
AcDbLine
 10
47.67775
 20
119.39225
 30
0.0
 11
45.49871
 21
119.39225
 31
0.0
  0
LINE
  5
C98A
100
AcDbEntity
  8
WYMIARY
 62
     3
100
AcDbLine
 10
47.67775
 20
118.004124
 30
0.0
 11
45.49871
 21
118.004124
 31
0.0
  0
LINE
  5
C98B
100
AcDbEntity
  8
WYMIARY
 62
     3
100
AcDbLine
 10
46.412865
 20
109.907349
 30
0.0
 11
46.412865
 21
110.879037
 31
0.0
  0
TEXT
  5
C98C
100
AcDbEntity
  8
1
100
AcDbText
 10
46.806583
 20
106.225343
 30
0.0
 40
3.0
  1
A1
 41
0.65
  7
ITALIC
100
AcDbText
  0
LINE
  5
C98D
100
AcDbEntity
  8
WYMIARY
 62
     3
100
AcDbLine
 10
53.144934
 20
124.98209
 30
0.0
 11
48.444934
 21
124.98209
 31
0.0
  0
LINE
  5
C98E
100
AcDbEntity
  8
WYMIARY
 62
     3
100
AcDbLine
 10
49.065876
 20
121.547153
 30
0.0
 11
47.67775
 21
121.547153
 31
0.0
  0
LINE
  5
C98F
100
AcDbEntity
  8
WYMIARY
 62
     3
100
AcDbLine
 10
49.065876
 20
121.547153
 30
0.0
 11
47.67775
 21
121.547153
 31
0.0
  0
LINE
  5
C990
100
AcDbEntity
  8
WYMIARY
 62
     3
100
AcDbLine
 10
49.065876
 20
121.547153
 30
0.0
 11
47.67775
 21
121.547153
 31
0.0
  0
CIRCLE
  5
C991
100
AcDbEntity
  8
WYMIARY
 62
     3
100
AcDbCircle
 10
91.322158
 20
118.777333
 30
0.0
 40
3.3
  0
LINE
  5
C992
100
AcDbEntity
  8
WYMIARY
 62
     3
100
AcDbLine
 10
90.701217
 20
121.547153
 30
0.0
 11
90.701217
 21
119.39225
 31
0.0
  0
LINE
  5
C993
100
AcDbEntity
  8
WYMIARY
 62
     3
100
AcDbLine
 10
92.089343
 20
121.547153
 30
0.0
 11
92.089343
 21
119.39225
 31
0.0
  0
LINE
  5
C994
100
AcDbEntity
  8
WYMIARY
 62
     3
100
AcDbLine
 10
88.728743
 20
119.39225
 30
0.0
 11
90.701217
 21
119.39225
 31
0.0
  0
LINE
  5
C995
100
AcDbEntity
  8
WYMIARY
 62
     3
100
AcDbLine
 10
88.728743
 20
118.004124
 30
0.0
 11
90.701217
 21
118.004124
 31
0.0
  0
LINE
  5
C996
100
AcDbEntity
  8
WYMIARY
 62
     3
100
AcDbLine
 10
88.728743
 20
118.004124
 30
0.0
 11
88.728743
 21
119.39225
 31
0.0
  0
LINE
  5
C997
100
AcDbEntity
  8
WYMIARY
 62
     3
100
AcDbLine
 10
97.390088
 20
109.907349
 30
0.0
 11
97.390088
 21
110.879037
 31
0.0
  0
LINE
  5
C998
100
AcDbEntity
  8
WYMIARY
 62
     3
100
AcDbLine
 10
96.475933
 20
118.004124
 30
0.0
 11
96.475933
 21
119.39225
 31
0.0
  0
LINE
  5
C999
100
AcDbEntity
  8
WYMIARY
 62
     3
100
AcDbLine
 10
93.512341
 20
109.907349
 30
0.0
 11
93.512341
 21
110.879037
 31
0.0
  0
LINE
  5
C99A
100
AcDbEntity
  8
WYMIARY
 62
     3
100
AcDbLine
 10
94.893072
 20
108.509721
 30
0.0
 11
95.86476
 21
108.509721
 31
0.0
  0
LINE
  5
C99B
100
AcDbEntity
  8
WYMIARY
 62
     3
100
AcDbLine
 10
95.86476
 20
109.907349
 30
0.0
 11
95.86476
 21
108.509721
 31
0.0
  0
LINE
  5
C99C
100
AcDbEntity
  8
WYMIARY
 62
     3
100
AcDbLine
 10
94.893072
 20
109.907349
 30
0.0
 11
94.893072
 21
108.509721
 31
0.0
  0
LINE
  5
C99D
100
AcDbEntity
  8
WYMIARY
 62
     3
100
AcDbLine
 10
93.512341
 20
109.907349
 30
0.0
 11
94.893072
 21
109.907349
 31
0.0
  0
LINE
  5
C99E
100
AcDbEntity
  8
WYMIARY
 62
     3
100
AcDbLine
 10
94.893072
 20
112.387469
 30
0.0
 11
95.86476
 21
112.387469
 31
0.0
  0
LINE
  5
C99F
100
AcDbEntity
  8
WYMIARY
 62
     3
100
AcDbLine
 10
95.86476
 20
112.387469
 30
0.0
 11
95.86476
 21
110.879037
 31
0.0
  0
LINE
  5
C9A0
100
AcDbEntity
  8
WYMIARY
 62
     3
100
AcDbLine
 10
94.893072
 20
112.387469
 30
0.0
 11
94.893072
 21
110.879037
 31
0.0
  0
LINE
  5
C9A1
100
AcDbEntity
  8
WYMIARY
 62
     3
100
AcDbLine
 10
93.512341
 20
110.879037
 30
0.0
 11
94.893072
 21
110.879037
 31
0.0
  0
LINE
  5
C9A2
100
AcDbEntity
  8
WYMIARY
 62
     3
100
AcDbLine
 10
90.701217
 20
116.007513
 30
0.0
 11
92.089343
 21
116.007513
 31
0.0
  0
LINE
  5
C9A3
100
AcDbEntity
  8
WYMIARY
 62
     3
100
AcDbLine
 10
90.701217
 20
118.004124
 30
0.0
 11
90.701217
 21
116.007513
 31
0.0
  0
LINE
  5
C9A4
100
AcDbEntity
  8
WYMIARY
 62
     3
100
AcDbLine
 10
92.089343
 20
118.004124
 30
0.0
 11
92.089343
 21
116.007513
 31
0.0
  0
LINE
  5
C9A5
100
AcDbEntity
  8
WYMIARY
 62
     3
100
AcDbLine
 10
94.268383
 20
118.004124
 30
0.0
 11
94.268383
 21
119.39225
 31
0.0
  0
LINE
  5
C9A6
100
AcDbEntity
  8
WYMIARY
 62
     3
100
AcDbLine
 10
92.089343
 20
119.39225
 30
0.0
 11
94.268383
 21
119.39225
 31
0.0
  0
LINE
  5
C9A7
100
AcDbEntity
  8
WYMIARY
 62
     3
100
AcDbLine
 10
92.089343
 20
118.004124
 30
0.0
 11
94.268383
 21
118.004124
 31
0.0
  0
TEXT
  5
C9A8
100
AcDbEntity
  8
1
100
AcDbText
 10
89.533055
 20
112.031355
 30
0.0
 40
3.0
  1
1
 41
0.65
  7
ITALIC
100
AcDbText
  0
LINE
  5
C9A9
100
AcDbEntity
  8
WYMIARY
 62
     3
100
AcDbLine
 10
95.86476
 20
109.907349
 30
0.0
 11
97.390088
 21
109.907349
 31
0.0
  0
LINE
  5
C9AA
100
AcDbEntity
  8
WYMIARY
 62
     3
100
AcDbLine
 10
95.86476
 20
110.879037
 30
0.0
 11
97.390088
 21
110.879037
 31
0.0
  0
LINE
  5
C9AB
100
AcDbEntity
  8
WYMIARY
 62
     3
100
AcDbLine
 10
90.701217
 20
121.547153
 30
0.0
 11
92.089343
 21
121.547153
 31
0.0
  0
LINE
  5
C9AC
100
AcDbEntity
  8
WYMIARY
 62
     3
100
AcDbLine
 10
90.701217
 20
121.547153
 30
0.0
 11
92.089343
 21
121.547153
 31
0.0
  0
LINE
  5
C9AD
100
AcDbEntity
  8
WYMIARY
 62
     3
100
AcDbLine
 10
90.701217
 20
121.547153
 30
0.0
 11
92.089343
 21
121.547153
 31
0.0
  0
LINE
  5
C9AE
100
AcDbEntity
  8
WYMIARY
 62
     3
100
AcDbLine
 10
155.099382
 20
124.98209
 30
0.0
 11
155.099382
 21
39.98209
 31
0.0
  0
LINE
  5
C9AF
100
AcDbEntity
  8
WYMIARY
 62
     3
100
AcDbLine
 10
155.099382
 20
124.98209
 30
0.0
 11
155.099382
 21
39.98209
 31
0.0
  0
LINE
  5
C9B0
100
AcDbEntity
  8
WYMIARY
 62
     3
100
AcDbLine
 10
137.599382
 20
39.98209
 30
0.0
 11
137.599382
 21
124.98209
 31
0.0
  0
LINE
  5
C9B1
100
AcDbEntity
  8
WYMIARY
 62
     3
100
AcDbLine
 10
104.122158
 20
124.98209
 30
0.0
 11
104.122158
 21
39.98209
 31
0.0
  0
LINE
  5
C9B2
100
AcDbEntity
  8
WYMIARY
 62
     3
100
AcDbLine
 10
104.122158
 20
124.98209
 30
0.0
 11
104.122158
 21
39.98209
 31
0.0
  0
TEXT
  5
C9B3
100
AcDbEntity
  8
1
100
AcDbText
 10
101.868067
 20
9.064009
 30
0.0
 40
3.0
  1
RIK20-01
 41
0.65
  7
ITALIC
100
AcDbText
  0
TEXT
  5
C9B4
100
AcDbEntity
  8
WY
100
AcDbText
 10
101.520953
 20
16.599248
 30
0.0
 40
2.0
  1
Draw. No.
 51
15.0
  7
ITALIC
100
AcDbText
  0
LINE
  5
C9B5
100
AcDbEntity
  8
WYMIARY
 62
     3
100
AcDbLine
 10
100.331944
 20
19.689837
 30
0.0
 11
100.331944
 21
5.0
 31
0.0
  0
LINE
  5
C9B6
100
AcDbEntity
  8
WYMIARY
 62
     3
100
AcDbLine
 10
100.0431
 20
43.417027
 30
0.0
 11
100.0431
 21
45.57193
 31
0.0
  0
LINE
  5
C9B7
100
AcDbEntity
  8
WYMIARY
 62
     3
100
AcDbLine
 10
98.654974
 20
43.417027
 30
0.0
 11
98.654974
 21
45.57193
 31
0.0
  0
LINE
  5
C9B8
100
AcDbEntity
  8
WYMIARY
 62
     3
100
AcDbLine
 10
100.0431
 20
43.417027
 30
0.0
 11
98.654974
 21
43.417027
 31
0.0
  0
LINE
  5
C9B9
100
AcDbEntity
  8
WYMIARY
 62
     3
100
AcDbLine
 10
100.0431
 20
43.417027
 30
0.0
 11
98.654974
 21
43.417027
 31
0.0
  0
LINE
  5
C9BA
100
AcDbEntity
  8
WYMIARY
 62
     3
100
AcDbLine
 10
100.0431
 20
43.417027
 30
0.0
 11
98.654974
 21
43.417027
 31
0.0
  0
LINE
  5
C9BB
100
AcDbEntity
  8
WYMIARY
 62
     3
100
AcDbLine
 10
102.015573
 20
45.57193
 30
0.0
 11
100.0431
 21
45.57193
 31
0.0
  0
LINE
  5
C9BC
100
AcDbEntity
  8
WYMIARY
 62
     3
100
AcDbLine
 10
102.015573
 20
46.960056
 30
0.0
 11
100.0431
 21
46.960056
 31
0.0
  0
LINE
  5
C9BD
100
AcDbEntity
  8
WYMIARY
 62
     3
100
AcDbLine
 10
100.0431
 20
48.956666
 30
0.0
 11
98.654974
 21
48.956666
 31
0.0
  0
LINE
  5
C9BE
100
AcDbEntity
  8
WYMIARY
 62
     3
100
AcDbLine
 10
100.0431
 20
46.960056
 30
0.0
 11
100.0431
 21
48.956666
 31
0.0
  0
LINE
  5
C9BF
100
AcDbEntity
  8
WYMIARY
 62
     3
100
AcDbLine
 10
98.654974
 20
46.960056
 30
0.0
 11
98.654974
 21
48.956666
 31
0.0
  0
LINE
  5
C9C0
100
AcDbEntity
  8
WYMIARY
 62
     3
100
AcDbLine
 10
102.015573
 20
46.960056
 30
0.0
 11
102.015573
 21
45.57193
 31
0.0
  0
TEXT
  5
C9C1
100
AcDbEntity
  8
1
100
AcDbText
 10
100.452812
 20
49.859588
 30
0.0
 40
3.0
  1
R4
 41
0.65
  7
ITALIC
100
AcDbText
  0
TEXT
  5
C9C2
100
AcDbEntity
  8
1
100
AcDbText
 10
97.854926
 20
55.89784
 30
0.0
 40
3.0
  1
A2
 41
0.65
  7
ITALIC
100
AcDbText
  0
TEXT
  5
C9C3
100
AcDbEntity
  8
1
100
AcDbText
 10
136.815818
 20
29.954323
 30
0.0
 40
5.0
  1
RIK20-02
 41
0.75
  7
ITALIC
100
AcDbText
  0
TEXT
  5
C9C4
100
AcDbEntity
  8
1
100
AcDbText
 10
143.348048
 20
9.064009
 30
0.0
 40
5.0
  1
RIK20
 41
0.75
  7
ITALIC
100
AcDbText
  0
TEXT
  5
C9C5
100
AcDbEntity
  8
WY
100
AcDbText
 10
143.544189
 20
16.599248
 30
0.0
 40
2.0
  1
Product type
 51
15.0
  7
ITALIC
100
AcDbText
  0
LINE
  5
C9C6
100
AcDbEntity
  8
1
100
AcDbLine
 10
141.352991
 20
5.0
 30
0.0
 11
141.352991
 21
19.689837
 31
0.0
  0
TEXT
  5
C9C7
100
AcDbEntity
  8
1
100
AcDbText
 10
148.83215
 20
55.89784
 30
0.0
 40
3.0
  1
A2
 41
0.65
  7
ITALIC
100
AcDbText
  0
LINE
  5
C9C8
100
AcDbEntity
  8
WYMIARY
 62
     3
100
AcDbLine
 10
151.020323
 20
48.956666
 30
0.0
 11
149.632198
 21
48.956666
 31
0.0
  0
LINE
  5
C9C9
100
AcDbEntity
  8
WYMIARY
 62
     3
100
AcDbLine
 10
151.020323
 20
43.417027
 30
0.0
 11
149.632198
 21
43.417027
 31
0.0
  0
LINE
  5
C9CA
100
AcDbEntity
  8
WYMIARY
 62
     3
100
AcDbLine
 10
151.020323
 20
43.417027
 30
0.0
 11
149.632198
 21
43.417027
 31
0.0
  0
LINE
  5
C9CB
100
AcDbEntity
  8
WYMIARY
 62
     3
100
AcDbLine
 10
151.020323
 20
43.417027
 30
0.0
 11
149.632198
 21
43.417027
 31
0.0
  0
CIRCLE
  5
C9CC
100
AcDbEntity
  8
WYMIARY
 62
     3
100
AcDbCircle
 10
150.399382
 20
46.186846
 30
0.0
 40
3.3
  0
LINE
  5
C9CD
100
AcDbEntity
  8
WYMIARY
 62
     3
100
AcDbLine
 10
155.099382
 20
39.98209
 30
0.0
 11
137.599382
 21
39.98209
 31
0.0
  0
LINE
  5
C9CE
100
AcDbEntity
  8
WYMIARY
 62
     3
100
AcDbLine
 10
155.099382
 20
59.98209
 30
0.0
 11
137.599382
 21
59.98209
 31
0.0
  0
LINE
  5
C9CF
100
AcDbEntity
  8
WYMIARY
 62
     3
100
AcDbLine
 10
144.489564
 20
54.085143
 30
0.0
 11
144.489564
 21
55.056831
 31
0.0
  0
LINE
  5
C9D0
100
AcDbEntity
  8
WYMIARY
 62
     3
100
AcDbLine
 10
148.367312
 20
54.085143
 30
0.0
 11
148.367312
 21
55.056831
 31
0.0
  0
CIRCLE
  5
C9D1
100
AcDbEntity
  8
WYMIARY
 62
     3
100
AcDbCircle
 10
146.35614
 20
54.570987
 30
0.0
 40
2.25
  0
TEXT
  5
C9D2
100
AcDbEntity
  8
1
100
AcDbText
 10
139.235857
 20
49.859588
 30
0.0
 40
3.0
  1
R2
 41
0.65
  7
ITALIC
100
AcDbText
  0
LINE
  5
C9D3
100
AcDbEntity
  8
WYMIARY
 62
     3
100
AcDbLine
 10
139.705967
 20
45.57193
 30
0.0
 11
141.678441
 21
45.57193
 31
0.0
  0
LINE
  5
C9D4
100
AcDbEntity
  8
WYMIARY
 62
     3
100
AcDbLine
 10
139.705967
 20
46.960056
 30
0.0
 11
141.678441
 21
46.960056
 31
0.0
  0
CIRCLE
  5
C9D5
100
AcDbEntity
  8
WYMIARY
 62
     3
100
AcDbCircle
 10
142.299382
 20
46.186846
 30
0.0
 40
3.3
  0
LINE
  5
C9D6
100
AcDbEntity
  8
WYMIARY
 62
     3
100
AcDbLine
 10
139.705967
 20
46.960056
 30
0.0
 11
139.705967
 21
45.57193
 31
0.0
  0
LINE
  5
C9D7
100
AcDbEntity
  8
WYMIARY
 62
     3
100
AcDbLine
 10
149.632198
 20
46.960056
 30
0.0
 11
149.632198
 21
48.956666
 31
0.0
  0
LINE
  5
C9D8
100
AcDbEntity
  8
WYMIARY
 62
     3
100
AcDbLine
 10
149.632198
 20
43.417027
 30
0.0
 11
149.632198
 21
45.57193
 31
0.0
  0
LINE
  5
C9D9
100
AcDbEntity
  8
WYMIARY
 62
     3
100
AcDbLine
 10
146.841984
 20
54.085143
 30
0.0
 11
148.367312
 21
54.085143
 31
0.0
  0
LINE
  5
C9DA
100
AcDbEntity
  8
WYMIARY
 62
     3
100
AcDbLine
 10
141.678441
 20
48.956666
 30
0.0
 11
143.066567
 21
48.956666
 31
0.0
  0
LINE
  5
C9DB
100
AcDbEntity
  8
WYMIARY
 62
     3
100
AcDbLine
 10
141.678441
 20
46.960056
 30
0.0
 11
141.678441
 21
48.956666
 31
0.0
  0
LINE
  5
C9DC
100
AcDbEntity
  8
WYMIARY
 62
     3
100
AcDbLine
 10
143.066567
 20
46.960056
 30
0.0
 11
143.066567
 21
48.956666
 31
0.0
  0
LINE
  5
C9DD
100
AcDbEntity
  8
WYMIARY
 62
     3
100
AcDbLine
 10
145.245607
 20
46.960056
 30
0.0
 11
145.245607
 21
45.57193
 31
0.0
  0
LINE
  5
C9DE
100
AcDbEntity
  8
WYMIARY
 62
     3
100
AcDbLine
 10
143.066567
 20
45.57193
 30
0.0
 11
145.245607
 21
45.57193
 31
0.0
  0
LINE
  5
C9DF
100
AcDbEntity
  8
WYMIARY
 62
     3
100
AcDbLine
 10
143.066567
 20
46.960056
 30
0.0
 11
145.245607
 21
46.960056
 31
0.0
  0
LINE
  5
C9E0
100
AcDbEntity
  8
WYMIARY
 62
     3
100
AcDbLine
 10
145.870296
 20
52.687516
 30
0.0
 11
146.841984
 21
52.687516
 31
0.0
  0
LINE
  5
C9E1
100
AcDbEntity
  8
WYMIARY
 62
     3
100
AcDbLine
 10
145.870296
 20
54.085143
 30
0.0
 11
145.870296
 21
52.687516
 31
0.0
  0
LINE
  5
C9E2
100
AcDbEntity
  8
WYMIARY
 62
     3
100
AcDbLine
 10
144.489564
 20
54.085143
 30
0.0
 11
145.870296
 21
54.085143
 31
0.0
  0
LINE
  5
C9E3
100
AcDbEntity
  8
WYMIARY
 62
     3
100
AcDbLine
 10
146.841984
 20
54.085143
 30
0.0
 11
146.841984
 21
52.687516
 31
0.0
  0
LINE
  5
C9E4
100
AcDbEntity
  8
WYMIARY
 62
     3
100
AcDbLine
 10
141.678441
 20
43.417027
 30
0.0
 11
143.066567
 21
43.417027
 31
0.0
  0
LINE
  5
C9E5
100
AcDbEntity
  8
WYMIARY
 62
     3
100
AcDbLine
 10
141.678441
 20
43.417027
 30
0.0
 11
143.066567
 21
43.417027
 31
0.0
  0
LINE
  5
C9E6
100
AcDbEntity
  8
WYMIARY
 62
     3
100
AcDbLine
 10
141.678441
 20
43.417027
 30
0.0
 11
143.066567
 21
43.417027
 31
0.0
  0
LINE
  5
C9E7
100
AcDbEntity
  8
WYMIARY
 62
     3
100
AcDbLine
 10
141.678441
 20
43.417027
 30
0.0
 11
141.678441
 21
45.57193
 31
0.0
  0
LINE
  5
C9E8
100
AcDbEntity
  8
WYMIARY
 62
     3
100
AcDbLine
 10
143.066567
 20
43.417027
 30
0.0
 11
143.066567
 21
45.57193
 31
0.0
  0
LINE
  5
C9E9
100
AcDbEntity
  8
WYMIARY
 62
     3
100
AcDbLine
 10
147.453157
 20
46.960056
 30
0.0
 11
147.453157
 21
45.57193
 31
0.0
  0
LINE
  5
C9EA
100
AcDbEntity
  8
WYMIARY
 62
     3
100
AcDbLine
 10
149.632198
 20
46.960056
 30
0.0
 11
147.453157
 21
46.960056
 31
0.0
  0
LINE
  5
C9EB
100
AcDbEntity
  8
WYMIARY
 62
     3
100
AcDbLine
 10
149.632198
 20
45.57193
 30
0.0
 11
147.453157
 21
45.57193
 31
0.0
  0
LINE
  5
C9EC
100
AcDbEntity
  8
WYMIARY
 62
     3
100
AcDbLine
 10
146.841984
 20
55.056831
 30
0.0
 11
148.367312
 21
55.056831
 31
0.0
  0
LINE
  5
C9ED
100
AcDbEntity
  8
WYMIARY
 62
     3
100
AcDbLine
 10
145.870296
 20
56.565264
 30
0.0
 11
146.841984
 21
56.565264
 31
0.0
  0
LINE
  5
C9EE
100
AcDbEntity
  8
WYMIARY
 62
     3
100
AcDbLine
 10
145.870296
 20
56.565264
 30
0.0
 11
145.870296
 21
55.056831
 31
0.0
  0
LINE
  5
C9EF
100
AcDbEntity
  8
WYMIARY
 62
     3
100
AcDbLine
 10
144.489564
 20
55.056831
 30
0.0
 11
145.870296
 21
55.056831
 31
0.0
  0
LINE
  5
C9F0
100
AcDbEntity
  8
WYMIARY
 62
     3
100
AcDbLine
 10
146.841984
 20
56.565264
 30
0.0
 11
146.841984
 21
55.056831
 31
0.0
  0
TEXT
  5
C9F1
100
AcDbEntity
  8
1
100
AcDbText
 10
151.430036
 20
49.859588
 30
0.0
 40
3.0
  1
R4
 41
0.65
  7
ITALIC
100
AcDbText
  0
LINE
  5
C9F2
100
AcDbEntity
  8
WYMIARY
 62
     3
100
AcDbLine
 10
152.992797
 20
46.960056
 30
0.0
 11
152.992797
 21
45.57193
 31
0.0
  0
LINE
  5
C9F3
100
AcDbEntity
  8
WYMIARY
 62
     3
100
AcDbLine
 10
151.020323
 20
46.960056
 30
0.0
 11
151.020323
 21
48.956666
 31
0.0
  0
LINE
  5
C9F4
100
AcDbEntity
  8
WYMIARY
 62
     3
100
AcDbLine
 10
152.992797
 20
46.960056
 30
0.0
 11
151.020323
 21
46.960056
 31
0.0
  0
LINE
  5
C9F5
100
AcDbEntity
  8
WYMIARY
 62
     3
100
AcDbLine
 10
152.992797
 20
45.57193
 30
0.0
 11
151.020323
 21
45.57193
 31
0.0
  0
LINE
  5
C9F6
100
AcDbEntity
  8
WYMIARY
 62
     3
100
AcDbLine
 10
151.020323
 20
43.417027
 30
0.0
 11
151.020323
 21
45.57193
 31
0.0
  0
LINE
  5
C9F7
100
AcDbEntity
  8
WYMIARY
 62
     3
100
AcDbLine
 10
98.654974
 20
121.547153
 30
0.0
 11
98.654974
 21
119.39225
 31
0.0
  0
LINE
  5
C9F8
100
AcDbEntity
  8
WYMIARY
 62
     3
100
AcDbLine
 10
100.0431
 20
121.547153
 30
0.0
 11
100.0431
 21
119.39225
 31
0.0
  0
LINE
  5
C9F9
100
AcDbEntity
  8
WYMIARY
 62
     3
100
AcDbLine
 10
102.015573
 20
118.004124
 30
0.0
 11
102.015573
 21
119.39225
 31
0.0
  0
LINE
  5
C9FA
100
AcDbEntity
  8
WYMIARY
 62
     3
100
AcDbLine
 10
98.654974
 20
118.004124
 30
0.0
 11
98.654974
 21
116.007513
 31
0.0
  0
LINE
  5
C9FB
100
AcDbEntity
  8
WYMIARY
 62
     3
100
AcDbLine
 10
100.0431
 20
118.004124
 30
0.0
 11
100.0431
 21
116.007513
 31
0.0
  0
LINE
  5
C9FC
100
AcDbEntity
  8
WYMIARY
 62
     3
100
AcDbLine
 10
100.0431
 20
116.007513
 30
0.0
 11
98.654974
 21
116.007513
 31
0.0
  0
LINE
  5
C9FD
100
AcDbEntity
  8
WYMIARY
 62
     3
100
AcDbLine
 10
102.015573
 20
118.004124
 30
0.0
 11
100.0431
 21
118.004124
 31
0.0
  0
LINE
  5
C9FE
100
AcDbEntity
  8
WYMIARY
 62
     3
100
AcDbLine
 10
102.015573
 20
119.39225
 30
0.0
 11
100.0431
 21
119.39225
 31
0.0
  0
TEXT
  5
C9FF
100
AcDbEntity
  8
1
100
AcDbText
 10
97.783807
 20
106.225343
 30
0.0
 40
3.0
  1
A1
 41
0.65
  7
ITALIC
100
AcDbText
  0
TEXT
  5
CA00
100
AcDbEntity
  8
1
100
AcDbText
 10
100.213248
 20
112.031355
 30
0.0
 40
3.0
  1
R3
 41
0.65
  7
ITALIC
100
AcDbText
  0
LINE
  5
CA01
100
AcDbEntity
  8
WYMIARY
 62
     3
100
AcDbLine
 10
100.0431
 20
121.547153
 30
0.0
 11
98.654974
 21
121.547153
 31
0.0
  0
LINE
  5
CA02
100
AcDbEntity
  8
WYMIARY
 62
     3
100
AcDbLine
 10
100.0431
 20
121.547153
 30
0.0
 11
98.654974
 21
121.547153
 31
0.0
  0
LINE
  5
CA03
100
AcDbEntity
  8
WYMIARY
 62
     3
100
AcDbLine
 10
100.0431
 20
121.547153
 30
0.0
 11
98.654974
 21
121.547153
 31
0.0
  0
LINE
  5
CA04
100
AcDbEntity
  8
WYMIARY
 62
     3
100
AcDbLine
 10
104.122158
 20
124.98209
 30
0.0
 11
99.422158
 21
124.98209
 31
0.0
  0
LINE
  5
CA05
100
AcDbEntity
  8
WYMIARY
 62
     3
100
AcDbLine
 10
151.020323
 20
121.547153
 30
0.0
 11
149.632198
 21
121.547153
 31
0.0
  0
LINE
  5
CA06
100
AcDbEntity
  8
WYMIARY
 62
     3
100
AcDbLine
 10
151.020323
 20
121.547153
 30
0.0
 11
149.632198
 21
121.547153
 31
0.0
  0
LINE
  5
CA07
100
AcDbEntity
  8
WYMIARY
 62
     3
100
AcDbLine
 10
151.020323
 20
121.547153
 30
0.0
 11
149.632198
 21
121.547153
 31
0.0
  0
TEXT
  5
CA08
100
AcDbEntity
  8
1
100
AcDbText
 10
148.761031
 20
106.225343
 30
0.0
 40
3.0
  1
A1
 41
0.65
  7
ITALIC
100
AcDbText
  0
LINE
  5
CA09
100
AcDbEntity
  8
WYMIARY
 62
     3
100
AcDbLine
 10
151.020323
 20
116.007513
 30
0.0
 11
149.632198
 21
116.007513
 31
0.0
  0
CIRCLE
  5
CA0A
100
AcDbEntity
  8
WYMIARY
 62
     3
100
AcDbCircle
 10
150.399382
 20
118.777333
 30
0.0
 40
3.3
  0
LINE
  5
CA0B
100
AcDbEntity
  8
WYMIARY
 62
     3
100
AcDbLine
 10
137.599382
 20
124.98209
 30
0.0
 11
155.099382
 21
124.98209
 31
0.0
  0
LINE
  5
CA0C
100
AcDbEntity
  8
WYMIARY
 62
     3
100
AcDbLine
 10
155.099382
 20
104.98209
 30
0.0
 11
137.599382
 21
104.98209
 31
0.0
  0
LINE
  5
CA0D
100
AcDbEntity
  8
WYMIARY
 62
     3
100
AcDbLine
 10
149.632198
 20
121.547153
 30
0.0
 11
149.632198
 21
119.39225
 31
0.0
  0
LINE
  5
CA0E
100
AcDbEntity
  8
WYMIARY
 62
     3
100
AcDbLine
 10
143.066567
 20
121.547153
 30
0.0
 11
143.066567
 21
119.39225
 31
0.0
  0
LINE
  5
CA0F
100
AcDbEntity
  8
WYMIARY
 62
     3
100
AcDbLine
 10
141.678441
 20
121.547153
 30
0.0
 11
141.678441
 21
119.39225
 31
0.0
  0
CIRCLE
  5
CA10
100
AcDbEntity
  8
WYMIARY
 62
     3
100
AcDbCircle
 10
142.299382
 20
118.777333
 30
0.0
 40
3.3
  0
TEXT
  5
CA11
100
AcDbEntity
  8
1
100
AcDbText
 10
140.510278
 20
112.031355
 30
0.0
 40
3.0
  1
R1
 41
0.65
  7
ITALIC
100
AcDbText
  0
LINE
  5
CA12
100
AcDbEntity
  8
WYMIARY
 62
     3
100
AcDbLine
 10
139.705967
 20
118.004124
 30
0.0
 11
141.678441
 21
118.004124
 31
0.0
  0
LINE
  5
CA13
100
AcDbEntity
  8
WYMIARY
 62
     3
100
AcDbLine
 10
139.705967
 20
119.39225
 30
0.0
 11
141.678441
 21
119.39225
 31
0.0
  0
LINE
  5
CA14
100
AcDbEntity
  8
WYMIARY
 62
     3
100
AcDbLine
 10
139.705967
 20
118.004124
 30
0.0
 11
139.705967
 21
119.39225
 31
0.0
  0
LINE
  5
CA15
100
AcDbEntity
  8
WYMIARY
 62
     3
100
AcDbLine
 10
149.632198
 20
118.004124
 30
0.0
 11
149.632198
 21
116.007513
 31
0.0
  0
LINE
  5
CA16
100
AcDbEntity
  8
WYMIARY
 62
     3
100
AcDbLine
 10
146.841984
 20
110.879037
 30
0.0
 11
148.367312
 21
110.879037
 31
0.0
  0
LINE
  5
CA17
100
AcDbEntity
  8
WYMIARY
 62
     3
100
AcDbLine
 10
146.841984
 20
109.907349
 30
0.0
 11
148.367312
 21
109.907349
 31
0.0
  0
LINE
  5
CA18
100
AcDbEntity
  8
WYMIARY
 62
     3
100
AcDbLine
 10
143.066567
 20
118.004124
 30
0.0
 11
145.245607
 21
118.004124
 31
0.0
  0
LINE
  5
CA19
100
AcDbEntity
  8
WYMIARY
 62
     3
100
AcDbLine
 10
143.066567
 20
119.39225
 30
0.0
 11
145.245607
 21
119.39225
 31
0.0
  0
LINE
  5
CA1A
100
AcDbEntity
  8
WYMIARY
 62
     3
100
AcDbLine
 10
145.245607
 20
118.004124
 30
0.0
 11
145.245607
 21
119.39225
 31
0.0
  0
LINE
  5
CA1B
100
AcDbEntity
  8
WYMIARY
 62
     3
100
AcDbLine
 10
143.066567
 20
118.004124
 30
0.0
 11
143.066567
 21
116.007513
 31
0.0
  0
LINE
  5
CA1C
100
AcDbEntity
  8
WYMIARY
 62
     3
100
AcDbLine
 10
141.678441
 20
118.004124
 30
0.0
 11
141.678441
 21
116.007513
 31
0.0
  0
LINE
  5
CA1D
100
AcDbEntity
  8
WYMIARY
 62
     3
100
AcDbLine
 10
141.678441
 20
116.007513
 30
0.0
 11
143.066567
 21
116.007513
 31
0.0
  0
LINE
  5
CA1E
100
AcDbEntity
  8
WYMIARY
 62
     3
100
AcDbLine
 10
144.489564
 20
110.879037
 30
0.0
 11
145.870296
 21
110.879037
 31
0.0
  0
LINE
  5
CA1F
100
AcDbEntity
  8
WYMIARY
 62
     3
100
AcDbLine
 10
145.870296
 20
112.387469
 30
0.0
 11
145.870296
 21
110.879037
 31
0.0
  0
LINE
  5
CA20
100
AcDbEntity
  8
WYMIARY
 62
     3
100
AcDbLine
 10
146.841984
 20
112.387469
 30
0.0
 11
146.841984
 21
110.879037
 31
0.0
  0
LINE
  5
CA21
100
AcDbEntity
  8
WYMIARY
 62
     3
100
AcDbLine
 10
145.870296
 20
112.387469
 30
0.0
 11
146.841984
 21
112.387469
 31
0.0
  0
LINE
  5
CA22
100
AcDbEntity
  8
WYMIARY
 62
     3
100
AcDbLine
 10
144.489564
 20
109.907349
 30
0.0
 11
145.870296
 21
109.907349
 31
0.0
  0
LINE
  5
CA23
100
AcDbEntity
  8
WYMIARY
 62
     3
100
AcDbLine
 10
145.870296
 20
109.907349
 30
0.0
 11
145.870296
 21
108.509721
 31
0.0
  0
LINE
  5
CA24
100
AcDbEntity
  8
WYMIARY
 62
     3
100
AcDbLine
 10
146.841984
 20
109.907349
 30
0.0
 11
146.841984
 21
108.509721
 31
0.0
  0
LINE
  5
CA25
100
AcDbEntity
  8
WYMIARY
 62
     3
100
AcDbLine
 10
145.870296
 20
108.509721
 30
0.0
 11
146.841984
 21
108.509721
 31
0.0
  0
LINE
  5
CA26
100
AcDbEntity
  8
WYMIARY
 62
     3
100
AcDbLine
 10
144.489564
 20
109.907349
 30
0.0
 11
144.489564
 21
110.879037
 31
0.0
  0
LINE
  5
CA27
100
AcDbEntity
  8
WYMIARY
 62
     3
100
AcDbLine
 10
147.453157
 20
118.004124
 30
0.0
 11
147.453157
 21
119.39225
 31
0.0
  0
LINE
  5
CA28
100
AcDbEntity
  8
WYMIARY
 62
     3
100
AcDbLine
 10
148.367312
 20
109.907349
 30
0.0
 11
148.367312
 21
110.879037
 31
0.0
  0
CIRCLE
  5
CA29
100
AcDbEntity
  8
WYMIARY
 62
     3
100
AcDbCircle
 10
146.35614
 20
110.393193
 30
0.0
 40
2.25
  0
LINE
  5
CA2A
100
AcDbEntity
  8
WYMIARY
 62
     3
100
AcDbLine
 10
149.632198
 20
119.39225
 30
0.0
 11
147.453157
 21
119.39225
 31
0.0
  0
LINE
  5
CA2B
100
AcDbEntity
  8
WYMIARY
 62
     3
100
AcDbLine
 10
149.632198
 20
118.004124
 30
0.0
 11
147.453157
 21
118.004124
 31
0.0
  0
LINE
  5
CA2C
100
AcDbEntity
  8
WYMIARY
 62
     3
100
AcDbLine
 10
141.678441
 20
121.547153
 30
0.0
 11
143.066567
 21
121.547153
 31
0.0
  0
LINE
  5
CA2D
100
AcDbEntity
  8
WYMIARY
 62
     3
100
AcDbLine
 10
141.678441
 20
121.547153
 30
0.0
 11
143.066567
 21
121.547153
 31
0.0
  0
LINE
  5
CA2E
100
AcDbEntity
  8
WYMIARY
 62
     3
100
AcDbLine
 10
141.678441
 20
121.547153
 30
0.0
 11
143.066567
 21
121.547153
 31
0.0
  0
LINE
  5
CA2F
100
AcDbEntity
  8
WYMIARY
 62
     3
100
AcDbLine
 10
151.020323
 20
121.547153
 30
0.0
 11
151.020323
 21
119.39225
 31
0.0
  0
TEXT
  5
CA30
100
AcDbEntity
  8
1
100
AcDbText
 10
151.190472
 20
112.031355
 30
0.0
 40
3.0
  1
R3
 41
0.65
  7
ITALIC
100
AcDbText
  0
LINE
  5
CA31
100
AcDbEntity
  8
WYMIARY
 62
     3
100
AcDbLine
 10
152.992797
 20
119.39225
 30
0.0
 11
151.020323
 21
119.39225
 31
0.0
  0
LINE
  5
CA32
100
AcDbEntity
  8
WYMIARY
 62
     3
100
AcDbLine
 10
152.992797
 20
118.004124
 30
0.0
 11
151.020323
 21
118.004124
 31
0.0
  0
LINE
  5
CA33
100
AcDbEntity
  8
WYMIARY
 62
     3
100
AcDbLine
 10
151.020323
 20
118.004124
 30
0.0
 11
151.020323
 21
116.007513
 31
0.0
  0
LINE
  5
CA34
100
AcDbEntity
  8
WYMIARY
 62
     3
100
AcDbLine
 10
152.992797
 20
118.004124
 30
0.0
 11
152.992797
 21
119.39225
 31
0.0
  0
LINE
  5
CA35
100
AcDbEntity
  8
WYMIARY
 62
     3
100
AcDbLine
 10
155.099382
 20
124.98209
 30
0.0
 11
150.399382
 21
124.98209
 31
0.0
  0
TEXT
  5
CA36
100
AcDbEntity
  8
1
100
AcDbText
 10
215.891148
 20
8.797458
 30
0.0
 40
5.0
  1
1:1
 51
15.0
  7
ITALIC
100
AcDbText
  0
TEXT
  5
CA37
100
AcDbEntity
  8
WY
100
AcDbText
 10
218.525929
 20
16.373844
 30
0.0
 40
2.0
  1
Skala
 51
15.0
  7
ITALIC
100
AcDbText
  0
LINE
  5
CA38
100
AcDbEntity
  8
WYMIARY
 62
     3
100
AcDbLine
 10
228.260814
 20
19.689837
 30
0.0
 11
228.260814
 21
5.0
 31
0.0
  0
LINE
  5
CA39
100
AcDbEntity
  8
WYMIARY
 62
     3
100
AcDbLine
 10
104.734518
 20
231.713005
 30
0.0
 11
88.734518
 21
231.713005
 31
0.0
  0
LINE
  5
CA3A
100
AcDbEntity
  8
WYMIARY
 62
     3
100
AcDbLine
 10
104.734518
 20
186.713005
 30
0.0
 11
88.734518
 21
186.713005
 31
0.0
  0
TEXT
  5
CA3B
100
AcDbEntity
  8
1
100
AcDbText
 10
89.861937
 20
273.769101
 30
0.0
 40
5.0
  1
RIK20
 41
0.75
  7
ITALIC
100
AcDbText
  0
LINE
  5
CA3C
100
AcDbEntity
  8
2
100
AcDbLine
 10
201.630407
 20
297.0
 30
0.0
 11
11.630407
 21
297.0
 31
0.0
  0
LINE
  5
CA3D
100
AcDbEntity
  8
2
100
AcDbLine
 10
196.630407
 20
292.0
 30
0.0
 11
11.630407
 21
292.0
 31
0.0
  0
DIMENSION
  5
CA3E
100
AcDbEntity
  8
WYMIARY
 62
     1
100
AcDbDimension
  2
*D13
 10
44.734518
 20
154.981717
 30
0.0
 11
29.584518
 21
154.981717
 31
0.0
 12
-720.260906
 22
-551.543852
 32
0.0
 70
   128
  3
STANDARD
100
AcDbAlignedDimension
 13
39.734518
 23
166.713005
 33
0.0
 14
44.734518
 24
191.713005
 34
0.0
100
AcDbRotatedDimension
1001
ACAD
1000
DSTYLE
1002
{
1070
   140
1040
1.8
1070
   147
1040
0.75
1002
}
  0
DIMENSION
  5
CA3F
100
AcDbEntity
  8
WYMIARY
 62
     1
100
AcDbDimension
  2
*D12
 10
27.035224
 20
191.713005
 30
0.0
 11
25.385224
 21
209.213005
 31
0.0
 12
-720.260906
 22
-551.543852
 32
0.0
  3
STANDARD
100
AcDbAlignedDimension
 13
39.734518
 23
226.713005
 33
0.0
 14
39.734518
 24
191.713005
 34
0.0
 50
90.0
100
AcDbRotatedDimension
1001
ACAD
1000
DSTYLE
1002
{
1070
   140
1040
1.8
1070
   147
1040
0.75
1002
}
  0
LINE
  5
CA40
100
AcDbEntity
  8
WYMIARY
 62
     3
100
AcDbLine
 10
44.734518
 20
226.713005
 30
0.0
 11
44.734518
 21
191.713005
 31
0.0
  0
LINE
  5
CA41
100
AcDbEntity
  8
WYMIARY
 62
     3
100
AcDbLine
 10
88.734518
 20
166.713005
 30
0.0
 11
39.734518
 21
166.713005
 31
0.0
  0
DIMENSION
  5
CA42
100
AcDbEntity
  8
WYMIARY
 62
     1
100
AcDbDimension
  2
*D10
 10
88.734518
 20
144.620292
 30
0.0
 11
66.734518
 21
146.270292
 31
0.0
 12
-720.260906
 22
-551.543852
 32
0.0
  3
STANDARD
100
AcDbAlignedDimension
 13
44.734518
 23
191.713005
 33
0.0
 14
88.734518
 24
166.713005
 34
0.0
100
AcDbRotatedDimension
1001
ACAD
1000
DSTYLE
1002
{
1070
   140
1040
1.8
1070
   147
1040
0.75
1002
}
  0
LINE
  5
CA43
100
AcDbEntity
  8
WYMIARY
 62
     3
100
AcDbLine
 10
39.734518
 20
191.713005
 30
0.0
 11
39.734518
 21
166.713005
 31
0.0
  0
LINE
  5
CA44
100
AcDbEntity
  8
WYMIARY
 62
     3
100
AcDbLine
 10
41.734518
 20
192.713005
 30
0.0
 11
39.734518
 21
191.713005
 31
0.0
  0
LINE
  5
CA45
100
AcDbEntity
  8
WYMIARY
 62
     3
100
AcDbLine
 10
42.734518
 20
191.713005
 30
0.0
 11
41.734518
 21
192.713005
 31
0.0
  0
LINE
  5
CA46
100
AcDbEntity
  8
WYMIARY
 62
     3
100
AcDbLine
 10
42.734518
 20
191.713005
 30
0.0
 11
44.734518
 21
191.713005
 31
0.0
  0
LINE
  5
CA47
100
AcDbEntity
  8
WYMIARY
 62
     3
100
AcDbLine
 10
88.734518
 20
186.713005
 30
0.0
 11
88.734518
 21
166.713005
 31
0.0
  0
LINE
  5
CA48
100
AcDbEntity
  8
WYMIARY
 62
     3
100
AcDbLine
 10
44.734518
 20
251.713005
 30
0.0
 11
88.734518
 21
251.713005
 31
0.0
  0
LINE
  5
CA49
100
AcDbEntity
  8
WYMIARY
 62
     3
100
AcDbLine
 10
44.734518
 20
251.713005
 30
0.0
 11
88.734518
 21
251.713005
 31
0.0
  0
LINE
  5
CA4A
100
AcDbEntity
  8
WYMIARY
 62
     3
100
AcDbLine
 10
88.734518
 20
251.713005
 30
0.0
 11
39.734518
 21
251.713005
 31
0.0
  0
LINE
  5
CA4B
100
AcDbEntity
  8
WYMIARY
 62
     3
100
AcDbLine
 10
39.734518
 20
251.713005
 30
0.0
 11
39.734518
 21
226.713005
 31
0.0
  0
LINE
  5
CA4C
100
AcDbEntity
  8
WYMIARY
 62
     3
100
AcDbLine
 10
39.734518
 20
226.713005
 30
0.0
 11
39.734518
 21
224.713005
 31
0.0
  0
LINE
  5
CA4D
100
AcDbEntity
  8
WYMIARY
 62
     3
100
AcDbLine
 10
39.734518
 20
224.713005
 30
0.0
 11
42.734518
 21
224.713005
 31
0.0
  0
LINE
  5
CA4E
100
AcDbEntity
  8
WYMIARY
 62
     3
100
AcDbLine
 10
43.401185
 20
226.713005
 30
0.0
 11
42.734518
 21
224.713005
 31
0.0
  0
LINE
  5
CA4F
100
AcDbEntity
  8
WYMIARY
 62
     3
100
AcDbLine
 10
43.401185
 20
226.713005
 30
0.0
 11
44.734518
 21
226.713005
 31
0.0
  0
LINE
  5
CA50
100
AcDbEntity
  8
WYMIARY
 62
     3
100
AcDbLine
 10
44.734518
 20
251.713005
 30
0.0
 11
39.734518
 21
251.713005
 31
0.0
  0
LINE
  5
CA51
100
AcDbEntity
  8
WYMIARY
 62
     3
100
AcDbLine
 10
88.734518
 20
251.713005
 30
0.0
 11
88.734518
 21
231.713005
 31
0.0
  0
LINE
  5
CA52
100
AcDbEntity
  8
WYMIARY
 62
     6
100
AcDbLine
 10
11.630407
 20
297.0
 30
0.0
 11
0.000001
 21
297.0
 31
0.0
  0
DIMENSION
  5
CA53
100
AcDbEntity
  8
WYMIARY
 62
     1
100
AcDbDimension
  2
*D7
 10
173.534235
 20
166.713005
 30
0.0
 11
171.884235
 21
209.213005
 31
0.0
 12
-438.263734
 22
-549.149937
 32
0.0
  3
STANDARD
100
AcDbAlignedDimension
 13
148.392862
 23
251.713005
 33
0.0
 14
148.392862
 24
166.713005
 34
0.0
 50
90.0
100
AcDbRotatedDimension
1001
ACAD
1000
DSTYLE
1002
{
1070
   140
1040
1.8
1070
   147
1040
0.75
1002
}
  0
LINE
  5
CA54
100
AcDbEntity
  8
WYMIARY
 62
     3
100
AcDbLine
 10
104.734518
 20
231.713005
 30
0.0
 11
104.734518
 21
186.713005
 31
0.0
  0
DIMENSION
  5
CA55
100
AcDbEntity
  8
WYMIARY
 62
     1
100
AcDbDimension
  2
*D8
 10
164.251405
 20
186.713005
 30
0.0
 11
162.601405
 21
209.213005
 31
0.0
 12
-438.263734
 22
-549.149937
 32
0.0
  3
STANDARD
100
AcDbAlignedDimension
 13
148.392862
 23
231.713005
 33
0.0
 14
148.392862
 24
186.713005
 34
0.0
 50
90.0
100
AcDbRotatedDimension
1001
ACAD
1000
DSTYLE
1002
{
1070
   140
1040
1.8
1070
   147
1040
0.75
1002
}
  0
LINE
  5
CA56
100
AcDbEntity
  8
WYMIARY
 62
     3
100
AcDbLine
 10
148.392862
 20
251.713005
 30
0.0
 11
148.392862
 21
166.713005
 31
0.0
  0
LINE
  5
CA57
100
AcDbEntity
  8
WYMIARY
 62
     3
100
AcDbLine
 10
130.892862
 20
166.713005
 30
0.0
 11
130.892862
 21
251.713005
 31
0.0
  0
LINE
  5
CA58
100
AcDbEntity
  8
WYMIARY
 62
     3
100
AcDbLine
 10
148.392862
 20
251.713005
 30
0.0
 11
148.392862
 21
166.713005
 31
0.0
  0
CIRCLE
  5
CA59
100
AcDbEntity
  8
WYMIARY
 62
     3
100
AcDbCircle
 10
135.592862
 20
172.917761
 30
0.0
 40
3.3
  0
LINE
  5
CA5A
100
AcDbEntity
  8
WYMIARY
 62
     3
100
AcDbLine
 10
148.392862
 20
186.713005
 30
0.0
 11
130.892862
 21
186.713005
 31
0.0
  0
LINE
  5
CA5B
100
AcDbEntity
  8
WYMIARY
 62
     3
100
AcDbLine
 10
148.392862
 20
166.713005
 30
0.0
 11
130.892862
 21
166.713005
 31
0.0
  0
LINE
  5
CA5C
100
AcDbEntity
  8
WYMIARY
 62
     3
100
AcDbLine
 10
144.313804
 20
170.147941
 30
0.0
 11
144.313804
 21
172.302845
 31
0.0
  0
LINE
  5
CA5D
100
AcDbEntity
  8
WYMIARY
 62
     3
100
AcDbLine
 10
142.925678
 20
170.147941
 30
0.0
 11
142.925678
 21
172.302845
 31
0.0
  0
LINE
  5
CA5E
100
AcDbEntity
  8
WYMIARY
 62
     3
100
AcDbLine
 10
136.360047
 20
170.147941
 30
0.0
 11
136.360047
 21
172.302845
 31
0.0
  0
LINE
  5
CA5F
100
AcDbEntity
  8
WYMIARY
 62
     3
100
AcDbLine
 10
134.971921
 20
170.147941
 30
0.0
 11
134.971921
 21
172.302845
 31
0.0
  0
CIRCLE
  5
CA60
100
AcDbEntity
  8
WYMIARY
 62
     3
100
AcDbCircle
 10
143.692862
 20
172.917761
 30
0.0
 40
3.3
  0
LINE
  5
CA61
100
AcDbEntity
  8
WYMIARY
 62
     3
100
AcDbLine
 10
134.971921
 20
170.147941
 30
0.0
 11
136.360047
 21
170.147941
 31
0.0
  0
LINE
  5
CA62
100
AcDbEntity
  8
WYMIARY
 62
     3
100
AcDbLine
 10
134.971921
 20
170.147941
 30
0.0
 11
136.360047
 21
170.147941
 31
0.0
  0
LINE
  5
CA63
100
AcDbEntity
  8
WYMIARY
 62
     3
100
AcDbLine
 10
134.971921
 20
170.147941
 30
0.0
 11
136.360047
 21
170.147941
 31
0.0
  0
LINE
  5
CA64
100
AcDbEntity
  8
WYMIARY
 62
     3
100
AcDbLine
 10
144.313804
 20
170.147941
 30
0.0
 11
142.925678
 21
170.147941
 31
0.0
  0
LINE
  5
CA65
100
AcDbEntity
  8
WYMIARY
 62
     3
100
AcDbLine
 10
144.313804
 20
170.147941
 30
0.0
 11
142.925678
 21
170.147941
 31
0.0
  0
LINE
  5
CA66
100
AcDbEntity
  8
WYMIARY
 62
     3
100
AcDbLine
 10
144.313804
 20
170.147941
 30
0.0
 11
142.925678
 21
170.147941
 31
0.0
  0
LINE
  5
CA67
100
AcDbEntity
  8
WYMIARY
 62
     3
100
AcDbLine
 10
140.135464
 20
180.816058
 30
0.0
 11
141.660792
 21
180.816058
 31
0.0
  0
LINE
  5
CA68
100
AcDbEntity
  8
WYMIARY
 62
     3
100
AcDbLine
 10
140.135464
 20
181.787746
 30
0.0
 11
141.660792
 21
181.787746
 31
0.0
  0
CIRCLE
  5
CA69
100
AcDbEntity
  8
WYMIARY
 62
     3
100
AcDbCircle
 10
139.64962
 20
181.301902
 30
0.0
 40
2.25
  0
LINE
  5
CA6A
100
AcDbEntity
  8
WYMIARY
 62
     3
100
AcDbLine
 10
142.925678
 20
172.302845
 30
0.0
 11
140.746638
 21
172.302845
 31
0.0
  0
LINE
  5
CA6B
100
AcDbEntity
  8
WYMIARY
 62
     3
100
AcDbLine
 10
142.925678
 20
173.690971
 30
0.0
 11
140.746638
 21
173.690971
 31
0.0
  0
LINE
  5
CA6C
100
AcDbEntity
  8
WYMIARY
 62
     3
100
AcDbLine
 10
140.135464
 20
180.816058
 30
0.0
 11
140.135464
 21
179.41843
 31
0.0
  0
LINE
  5
CA6D
100
AcDbEntity
  8
WYMIARY
 62
     3
100
AcDbLine
 10
140.135464
 20
183.296178
 30
0.0
 11
140.135464
 21
181.787746
 31
0.0
  0
LINE
  5
CA6E
100
AcDbEntity
  8
WYMIARY
 62
     3
100
AcDbLine
 10
137.783045
 20
180.816058
 30
0.0
 11
139.163776
 21
180.816058
 31
0.0
  0
LINE
  5
CA6F
100
AcDbEntity
  8
WYMIARY
 62
     3
100
AcDbLine
 10
137.783045
 20
181.787746
 30
0.0
 11
139.163776
 21
181.787746
 31
0.0
  0
LINE
  5
CA70
100
AcDbEntity
  8
WYMIARY
 62
     3
100
AcDbLine
 10
137.783045
 20
180.816058
 30
0.0
 11
137.783045
 21
181.787746
 31
0.0
  0
LINE
  5
CA71
100
AcDbEntity
  8
WYMIARY
 62
     3
100
AcDbLine
 10
139.163776
 20
180.816058
 30
0.0
 11
139.163776
 21
179.41843
 31
0.0
  0
LINE
  5
CA72
100
AcDbEntity
  8
WYMIARY
 62
     3
100
AcDbLine
 10
139.163776
 20
183.296178
 30
0.0
 11
139.163776
 21
181.787746
 31
0.0
  0
LINE
  5
CA73
100
AcDbEntity
  8
WYMIARY
 62
     3
100
AcDbLine
 10
139.163776
 20
179.41843
 30
0.0
 11
140.135464
 21
179.41843
 31
0.0
  0
LINE
  5
CA74
100
AcDbEntity
  8
WYMIARY
 62
     3
100
AcDbLine
 10
139.163776
 20
183.296178
 30
0.0
 11
140.135464
 21
183.296178
 31
0.0
  0
LINE
  5
CA75
100
AcDbEntity
  8
WYMIARY
 62
     3
100
AcDbLine
 10
140.746638
 20
173.690971
 30
0.0
 11
140.746638
 21
172.302845
 31
0.0
  0
LINE
  5
CA76
100
AcDbEntity
  8
WYMIARY
 62
     3
100
AcDbLine
 10
136.360047
 20
173.690971
 30
0.0
 11
138.539087
 21
173.690971
 31
0.0
  0
LINE
  5
CA77
100
AcDbEntity
  8
WYMIARY
 62
     3
100
AcDbLine
 10
136.360047
 20
172.302845
 30
0.0
 11
138.539087
 21
172.302845
 31
0.0
  0
LINE
  5
CA78
100
AcDbEntity
  8
WYMIARY
 62
     3
100
AcDbLine
 10
138.539087
 20
173.690971
 30
0.0
 11
138.539087
 21
172.302845
 31
0.0
  0
LINE
  5
CA79
100
AcDbEntity
  8
WYMIARY
 62
     3
100
AcDbLine
 10
132.999447
 20
173.690971
 30
0.0
 11
132.999447
 21
172.302845
 31
0.0
  0
LINE
  5
CA7A
100
AcDbEntity
  8
WYMIARY
 62
     3
100
AcDbLine
 10
136.360047
 20
173.690971
 30
0.0
 11
136.360047
 21
175.687581
 31
0.0
  0
LINE
  5
CA7B
100
AcDbEntity
  8
WYMIARY
 62
     3
100
AcDbLine
 10
134.971921
 20
173.690971
 30
0.0
 11
134.971921
 21
175.687581
 31
0.0
  0
LINE
  5
CA7C
100
AcDbEntity
  8
WYMIARY
 62
     3
100
AcDbLine
 10
134.971921
 20
175.687581
 30
0.0
 11
136.360047
 21
175.687581
 31
0.0
  0
LINE
  5
CA7D
100
AcDbEntity
  8
WYMIARY
 62
     3
100
AcDbLine
 10
132.999447
 20
173.690971
 30
0.0
 11
134.971921
 21
173.690971
 31
0.0
  0
LINE
  5
CA7E
100
AcDbEntity
  8
WYMIARY
 62
     3
100
AcDbLine
 10
132.999447
 20
172.302845
 30
0.0
 11
134.971921
 21
172.302845
 31
0.0
  0
TEXT
  5
CA7F
100
AcDbEntity
  8
1
100
AcDbText
 10
142.125631
 20
179.841869
 30
0.0
 40
3.0
  1
A2
 41
0.65
  7
ITALIC
100
AcDbText
  0
LINE
  5
CA80
100
AcDbEntity
  8
WYMIARY
 62
     3
100
AcDbLine
 10
141.660792
 20
180.816058
 30
0.0
 11
141.660792
 21
181.787746
 31
0.0
  0
LINE
  5
CA81
100
AcDbEntity
  8
WYMIARY
 62
     3
100
AcDbLine
 10
146.286277
 20
172.302845
 30
0.0
 11
144.313804
 21
172.302845
 31
0.0
  0
LINE
  5
CA82
100
AcDbEntity
  8
WYMIARY
 62
     3
100
AcDbLine
 10
146.286277
 20
173.690971
 30
0.0
 11
144.313804
 21
173.690971
 31
0.0
  0
LINE
  5
CA83
100
AcDbEntity
  8
WYMIARY
 62
     3
100
AcDbLine
 10
144.313804
 20
175.687581
 30
0.0
 11
142.925678
 21
175.687581
 31
0.0
  0
LINE
  5
CA84
100
AcDbEntity
  8
WYMIARY
 62
     3
100
AcDbLine
 10
144.313804
 20
173.690971
 30
0.0
 11
144.313804
 21
175.687581
 31
0.0
  0
LINE
  5
CA85
100
AcDbEntity
  8
WYMIARY
 62
     3
100
AcDbLine
 10
142.925678
 20
173.690971
 30
0.0
 11
142.925678
 21
175.687581
 31
0.0
  0
LINE
  5
CA86
100
AcDbEntity
  8
WYMIARY
 62
     3
100
AcDbLine
 10
146.286277
 20
173.690971
 30
0.0
 11
146.286277
 21
172.302845
 31
0.0
  0
DIMENSION
  5
CA87
100
AcDbEntity
  8
WYMIARY
 62
     1
100
AcDbDimension
  2
*D9
 10
148.392862
 20
262.004948
 30
0.0
 11
139.642862
 21
263.654948
 31
0.0
 12
-438.263734
 22
-549.149937
 32
0.0
  3
STANDARD
100
AcDbAlignedDimension
 13
130.892862
 23
251.713005
 33
0.0
 14
148.392862
 24
251.713005
 34
0.0
100
AcDbRotatedDimension
1001
ACAD
1000
DSTYLE
1002
{
1070
   140
1040
1.8
1070
   147
1040
0.75
1002
}
  0
CIRCLE
  5
CA88
100
AcDbEntity
  8
WYMIARY
 62
     3
100
AcDbCircle
 10
135.592862
 20
245.508248
 30
0.0
 40
3.3
  0
LINE
  5
CA89
100
AcDbEntity
  8
WYMIARY
 62
     3
100
AcDbLine
 10
148.392862
 20
231.713005
 30
0.0
 11
130.892862
 21
231.713005
 31
0.0
  0
LINE
  5
CA8A
100
AcDbEntity
  8
WYMIARY
 62
     3
100
AcDbLine
 10
130.892862
 20
251.713005
 30
0.0
 11
148.392862
 21
251.713005
 31
0.0
  0
TEXT
  5
CA8B
100
AcDbEntity
  8
1
100
AcDbText
 10
142.054511
 20
235.743144
 30
0.0
 40
3.0
  1
A1
 41
0.65
  7
ITALIC
100
AcDbText
  0
LINE
  5
CA8C
100
AcDbEntity
  8
WYMIARY
 62
     3
100
AcDbLine
 10
141.660792
 20
236.638263
 30
0.0
 11
141.660792
 21
237.609952
 31
0.0
  0
LINE
  5
CA8D
100
AcDbEntity
  8
WYMIARY
 62
     3
100
AcDbLine
 10
137.783045
 20
236.638263
 30
0.0
 11
137.783045
 21
237.609952
 31
0.0
  0
CIRCLE
  5
CA8E
100
AcDbEntity
  8
WYMIARY
 62
     3
100
AcDbCircle
 10
139.64962
 20
237.124107
 30
0.0
 40
2.25
  0
LINE
  5
CA8F
100
AcDbEntity
  8
WYMIARY
 62
     3
100
AcDbLine
 10
140.135464
 20
236.638263
 30
0.0
 11
141.660792
 21
236.638263
 31
0.0
  0
LINE
  5
CA90
100
AcDbEntity
  8
WYMIARY
 62
     3
100
AcDbLine
 10
139.163776
 20
235.240636
 30
0.0
 11
140.135464
 21
235.240636
 31
0.0
  0
LINE
  5
CA91
100
AcDbEntity
  8
WYMIARY
 62
     3
100
AcDbLine
 10
140.135464
 20
236.638263
 30
0.0
 11
140.135464
 21
235.240636
 31
0.0
  0
LINE
  5
CA92
100
AcDbEntity
  8
WYMIARY
 62
     3
100
AcDbLine
 10
139.163776
 20
236.638263
 30
0.0
 11
139.163776
 21
235.240636
 31
0.0
  0
LINE
  5
CA93
100
AcDbEntity
  8
WYMIARY
 62
     3
100
AcDbLine
 10
137.783045
 20
236.638263
 30
0.0
 11
139.163776
 21
236.638263
 31
0.0
  0
LINE
  5
CA94
100
AcDbEntity
  8
WYMIARY
 62
     3
100
AcDbLine
 10
140.135464
 20
237.609952
 30
0.0
 11
141.660792
 21
237.609952
 31
0.0
  0
LINE
  5
CA95
100
AcDbEntity
  8
WYMIARY
 62
     3
100
AcDbLine
 10
142.925678
 20
244.735039
 30
0.0
 11
140.746638
 21
244.735039
 31
0.0
  0
LINE
  5
CA96
100
AcDbEntity
  8
WYMIARY
 62
     3
100
AcDbLine
 10
142.925678
 20
246.123164
 30
0.0
 11
140.746638
 21
246.123164
 31
0.0
  0
CIRCLE
  5
CA97
100
AcDbEntity
  8
WYMIARY
 62
     3
100
AcDbCircle
 10
143.692862
 20
245.508248
 30
0.0
 40
3.3
  0
LINE
  5
CA98
100
AcDbEntity
  8
WYMIARY
 62
     3
100
AcDbLine
 10
139.163776
 20
239.118384
 30
0.0
 11
140.135464
 21
239.118384
 31
0.0
  0
LINE
  5
CA99
100
AcDbEntity
  8
WYMIARY
 62
     3
100
AcDbLine
 10
140.135464
 20
239.118384
 30
0.0
 11
140.135464
 21
237.609952
 31
0.0
  0
LINE
  5
CA9A
100
AcDbEntity
  8
WYMIARY
 62
     3
100
AcDbLine
 10
139.163776
 20
239.118384
 30
0.0
 11
139.163776
 21
237.609952
 31
0.0
  0
LINE
  5
CA9B
100
AcDbEntity
  8
WYMIARY
 62
     3
100
AcDbLine
 10
137.783045
 20
237.609952
 30
0.0
 11
139.163776
 21
237.609952
 31
0.0
  0
LINE
  5
CA9C
100
AcDbEntity
  8
WYMIARY
 62
     3
100
AcDbLine
 10
132.999447
 20
246.123164
 30
0.0
 11
134.971921
 21
246.123164
 31
0.0
  0
LINE
  5
CA9D
100
AcDbEntity
  8
WYMIARY
 62
     3
100
AcDbLine
 10
132.999447
 20
244.735039
 30
0.0
 11
134.971921
 21
244.735039
 31
0.0
  0
LINE
  5
CA9E
100
AcDbEntity
  8
WYMIARY
 62
     3
100
AcDbLine
 10
134.971921
 20
242.738428
 30
0.0
 11
136.360047
 21
242.738428
 31
0.0
  0
LINE
  5
CA9F
100
AcDbEntity
  8
WYMIARY
 62
     3
100
AcDbLine
 10
134.971921
 20
248.278068
 30
0.0
 11
136.360047
 21
248.278068
 31
0.0
  0
LINE
  5
CAA0
100
AcDbEntity
  8
WYMIARY
 62
     3
100
AcDbLine
 10
134.971921
 20
248.278068
 30
0.0
 11
136.360047
 21
248.278068
 31
0.0
  0
LINE
  5
CAA1
100
AcDbEntity
  8
WYMIARY
 62
     3
100
AcDbLine
 10
134.971921
 20
248.278068
 30
0.0
 11
136.360047
 21
248.278068
 31
0.0
  0
LINE
  5
CAA2
100
AcDbEntity
  8
WYMIARY
 62
     3
100
AcDbLine
 10
134.971921
 20
248.278068
 30
0.0
 11
134.971921
 21
246.123164
 31
0.0
  0
LINE
  5
CAA3
100
AcDbEntity
  8
WYMIARY
 62
     3
100
AcDbLine
 10
134.971921
 20
244.735039
 30
0.0
 11
134.971921
 21
242.738428
 31
0.0
  0
LINE
  5
CAA4
100
AcDbEntity
  8
WYMIARY
 62
     3
100
AcDbLine
 10
136.360047
 20
248.278068
 30
0.0
 11
136.360047
 21
246.123164
 31
0.0
  0
LINE
  5
CAA5
100
AcDbEntity
  8
WYMIARY
 62
     3
100
AcDbLine
 10
136.360047
 20
244.735039
 30
0.0
 11
136.360047
 21
242.738428
 31
0.0
  0
LINE
  5
CAA6
100
AcDbEntity
  8
WYMIARY
 62
     3
100
AcDbLine
 10
132.999447
 20
244.735039
 30
0.0
 11
132.999447
 21
246.123164
 31
0.0
  0
LINE
  5
CAA7
100
AcDbEntity
  8
WYMIARY
 62
     3
100
AcDbLine
 10
138.539087
 20
244.735039
 30
0.0
 11
138.539087
 21
246.123164
 31
0.0
  0
LINE
  5
CAA8
100
AcDbEntity
  8
WYMIARY
 62
     3
100
AcDbLine
 10
136.360047
 20
246.123164
 30
0.0
 11
138.539087
 21
246.123164
 31
0.0
  0
LINE
  5
CAA9
100
AcDbEntity
  8
WYMIARY
 62
     3
100
AcDbLine
 10
136.360047
 20
244.735039
 30
0.0
 11
138.539087
 21
244.735039
 31
0.0
  0
LINE
  5
CAAA
100
AcDbEntity
  8
WYMIARY
 62
     3
100
AcDbLine
 10
140.746638
 20
244.735039
 30
0.0
 11
140.746638
 21
246.123164
 31
0.0
  0
LINE
  5
CAAB
100
AcDbEntity
  8
WYMIARY
 62
     3
100
AcDbLine
 10
146.286277
 20
244.735039
 30
0.0
 11
146.286277
 21
246.123164
 31
0.0
  0
LINE
  5
CAAC
100
AcDbEntity
  8
WYMIARY
 62
     3
100
AcDbLine
 10
142.925678
 20
244.735039
 30
0.0
 11
142.925678
 21
242.738428
 31
0.0
  0
LINE
  5
CAAD
100
AcDbEntity
  8
WYMIARY
 62
     3
100
AcDbLine
 10
142.925678
 20
248.278068
 30
0.0
 11
142.925678
 21
246.123164
 31
0.0
  0
LINE
  5
CAAE
100
AcDbEntity
  8
WYMIARY
 62
     3
100
AcDbLine
 10
144.313804
 20
244.735039
 30
0.0
 11
144.313804
 21
242.738428
 31
0.0
  0
LINE
  5
CAAF
100
AcDbEntity
  8
WYMIARY
 62
     3
100
AcDbLine
 10
144.313804
 20
248.278068
 30
0.0
 11
144.313804
 21
246.123164
 31
0.0
  0
LINE
  5
CAB0
100
AcDbEntity
  8
WYMIARY
 62
     3
100
AcDbLine
 10
144.313804
 20
248.278068
 30
0.0
 11
142.925678
 21
248.278068
 31
0.0
  0
LINE
  5
CAB1
100
AcDbEntity
  8
WYMIARY
 62
     3
100
AcDbLine
 10
144.313804
 20
248.278068
 30
0.0
 11
142.925678
 21
248.278068
 31
0.0
  0
LINE
  5
CAB2
100
AcDbEntity
  8
WYMIARY
 62
     3
100
AcDbLine
 10
144.313804
 20
248.278068
 30
0.0
 11
142.925678
 21
248.278068
 31
0.0
  0
LINE
  5
CAB3
100
AcDbEntity
  8
WYMIARY
 62
     3
100
AcDbLine
 10
144.313804
 20
242.738428
 30
0.0
 11
142.925678
 21
242.738428
 31
0.0
  0
LINE
  5
CAB4
100
AcDbEntity
  8
WYMIARY
 62
     3
100
AcDbLine
 10
146.286277
 20
244.735039
 30
0.0
 11
144.313804
 21
244.735039
 31
0.0
  0
LINE
  5
CAB5
100
AcDbEntity
  8
WYMIARY
 62
     3
100
AcDbLine
 10
146.286277
 20
246.123164
 30
0.0
 11
144.313804
 21
246.123164
 31
0.0
  0
LINE
  5
CAB6
100
AcDbEntity
  8
WYMIARY
 62
     3
100
AcDbLine
 10
148.392862
 20
251.713005
 30
0.0
 11
143.692862
 21
251.713005
 31
0.0
  0
LINE
  5
CAB7
100
AcDbEntity
  8
WYMIARY
 62
     6
100
AcDbLine
 10
213.260814
 20
297.0
 30
0.0
 11
201.630407
 21
297.0
 31
0.0
  0
TEXT
  5
CAB8
100
AcDbEntity
  8
1
100
AcDbText
 10
265.483121
 20
133.326556
 30
0.0
 40
5.0
  1
R3
 41
0.75
  7
ITALIC
100
AcDbText
  0
LINE
  5
CAB9
100
AcDbEntity
  8
WYMIARY
 62
     3
100
AcDbLine
 10
272.408486
 20
113.888142
 30
0.0
 11
272.408486
 21
138.038536
 31
0.0
  0
TEXT
  5
CABA
100
AcDbEntity
  8
1
100
AcDbText
 10
251.424559
 20
133.326556
 30
0.0
 40
5.0
  1
R1
 41
0.75
  7
ITALIC
100
AcDbText
  0
LINE
  5
CABB
100
AcDbEntity
  8
WYMIARY
 62
     3
100
AcDbLine
 10
258.349925
 20
113.888142
 30
0.0
 11
258.349925
 21
138.038536
 31
0.0
  0
LINE
  5
CABC
100
AcDbEntity
  8
WYMIARY
 62
     6
100
AcDbLine
 10
403.260814
 20
0.0
 30
0.0
 11
403.260814
 21
297.0
 31
0.0
  0
LINE
  5
CABD
100
AcDbEntity
  8
2
100
AcDbLine
 10
403.260814
 20
0.0
 30
0.0
 11
403.260814
 21
297.0
 31
0.0
  0
LINE
  5
CABE
100
AcDbEntity
  8
WYMIARY
 62
     6
100
AcDbLine
 10
403.260814
 20
0.0
 30
0.0
 11
403.260814
 21
297.0
 31
0.0
  0
LINE
  5
CABF
100
AcDbEntity
  8
2
100
AcDbLine
 10
403.260814
 20
0.0
 30
0.0
 11
403.260814
 21
297.0
 31
0.0
  0
LINE
  5
CAC0
100
AcDbEntity
  8
WYMIARY
 62
     6
100
AcDbLine
 10
403.260814
 20
0.0
 30
0.0
 11
403.260814
 21
297.0
 31
0.0
  0
LINE
  5
CAC1
100
AcDbEntity
  8
WYMIARY
 62
     6
100
AcDbLine
 10
403.260814
 20
0.0
 30
0.0
 11
403.260814
 21
297.0
 31
0.0
  0
LINE
  5
CAC2
100
AcDbEntity
  8
WYMIARY
 62
     6
100
AcDbLine
 10
403.260814
 20
0.0
 30
0.0
 11
403.260814
 21
297.0
 31
0.0
  0
LINE
  5
CAC3
100
AcDbEntity
  8
2
100
AcDbLine
 10
403.260814
 20
0.0
 30
0.0
 11
403.260814
 21
297.0
 31
0.0
  0
LINE
  5
CAC4
100
AcDbEntity
  8
2
100
AcDbLine
 10
398.260814
 20
5.0
 30
0.0
 11
398.260814
 21
292.0
 31
0.0
  0
TEXT
  5
CAC5
100
AcDbEntity
  8
WY
100
AcDbText
 10
303.151359
 20
16.599248
 30
0.0
 40
2.0
  1
Draw. No.
 51
15.0
  7
ITALIC
100
AcDbText
  0
TEXT
  5
CAC6
100
AcDbEntity
  8
1
100
AcDbText
 10
303.498474
 20
9.064009
 30
0.0
 40
3.0
  1
RIK20-02
 41
0.65
  7
ITALIC
100
AcDbText
  0
LINE
  5
CAC7
100
AcDbEntity
  8
WYMIARY
 62
     3
100
AcDbLine
 10
272.408486
 20
65.587354
 30
0.0
 11
272.408486
 21
89.737748
 31
0.0
  0
LINE
  5
CAC8
100
AcDbEntity
  8
WYMIARY
 62
     3
100
AcDbLine
 10
258.349925
 20
65.587354
 30
0.0
 11
258.349925
 21
89.737748
 31
0.0
  0
TEXT
  5
CAC9
100
AcDbEntity
  8
1
100
AcDbText
 10
265.483121
 20
65.59445
 30
0.0
 40
5.0
  1
R4
 41
0.75
  7
ITALIC
100
AcDbText
  0
TEXT
  5
CACA
100
AcDbEntity
  8
1
100
AcDbText
 10
247.780709
 20
55.700085
 30
0.0
 40
5.0
  1
RIK20-02-...
 41
0.75
  7
ITALIC
100
AcDbText
  0
LINE
  5
CACB
100
AcDbEntity
  8
0
100
AcDbLine
 10
270.850383
 20
15.612412
 30
0.0
 11
271.780383
 21
15.612412
 31
0.0
  0
ARC
  5
CACC
100
AcDbEntity
  8
0
100
AcDbCircle
 10
271.315383
 20
10.252764
 30
0.0
 40
0.3375
100
AcDbArc
 50
180.0
 51
0.0
  0
ARC
  5
CACD
100
AcDbEntity
  8
0
100
AcDbCircle
 10
271.315383
 20
14.361264
 30
0.0
 40
0.3375
100
AcDbArc
 50
360.0
 51
180.0
  0
LINE
  5
CACE
100
AcDbEntity
  8
0
100
AcDbLine
 10
270.850383
 20
9.015264
 30
0.0
 11
271.780383
 21
9.015264
 31
0.0
  0
ELLIPSE
  5
CACF
100
AcDbEntity
  8
0
100
AcDbEllipse
 10
245.286831
 20
11.742481
 30
0.0
 11
-1.203215696869327
 21
0.0000000000001967
 31
0.0
210
0.0
220
0.0
230
1.0
 40
0.958812
 41
-1.570796326794739
 42
0.0000000000001705
1001
ACAD
1000
ASC_BOUNDS
1002
{
1070
    19
1002
}
  0
LINE
  5
CAD0
100
AcDbEntity
  8
0
100
AcDbLine
 10
245.286831
 20
11.742481
 30
0.0
 11
244.384419
 21
11.742481
 31
0.0
1001
ACAD
1000
ASC_BOUNDS
1002
{
1070
    19
1002
}
  0
LINE
  5
CAD1
100
AcDbEntity
  8
WYMIARY
 62
     3
100
AcDbLine
 10
243.260814
 20
19.689837
 30
0.0
 11
243.260814
 21
5.0
 31
0.0
  0
LINE
  5
CAD2
100
AcDbEntity
  8
0
100
AcDbLine
 10
244.083615
 20
11.742481
 30
0.0
 11
244.384419
 21
11.742481
 31
0.0
1001
ACAD
1000
ASC_BOUNDS
1002
{
1070
    19
1002
}
  0
ELLIPSE
  5
CAD3
100
AcDbEntity
  8
0
100
AcDbEllipse
 10
250.400498
 20
16.260974
 30
0.0
 11
-0.8021437979128705
 21
0.000000000000038
 31
0.0
210
0.0
220
0.0
230
1.0
 40
0.958812
 41
3.141592653589842
 42
4.712388980384734
1001
ACAD
1000
ASC_BOUNDS
1002
{
1070
    19
1002
}
  0
LINE
  5
CAD4
100
AcDbEntity
  8
0
100
AcDbLine
 10
251.202642
 20
15.155385
 30
0.0
 11
251.202642
 21
16.260974
 31
0.0
1001
ACAD
1000
ASC_BOUNDS
1002
{
1070
    19
1002
}
  0
ELLIPSE
  5
CAD5
100
AcDbEntity
  8
0
100
AcDbEllipse
 10
251.202642
 20
12.896139
 30
0.0
 11
1.203215696869352
 21
0.0000000000000893
 31
0.0
210
0.0
220
0.0
230
1.0
 40
0.958812
 41
4.712388980384611
 42
6.283185307179508
1001
ACAD
1000
ASC_BOUNDS
1002
{
1070
    19
1002
}
  0
LINE
  5
CAD6
100
AcDbEntity
  8
0
100
AcDbLine
 10
251.202642
 20
12.896139
 30
0.0
 11
252.105053
 21
12.896139
 31
0.0
1001
ACAD
1000
ASC_BOUNDS
1002
{
1070
    19
1002
}
  0
LINE
  5
CAD7
100
AcDbEntity
  8
0
100
AcDbLine
 10
252.405857
 20
12.896139
 30
0.0
 11
252.105053
 21
12.896139
 31
0.0
1001
ACAD
1000
ASC_BOUNDS
1002
{
1070
    19
1002
}
  0
ELLIPSE
  5
CAD8
100
AcDbEntity
  8
0
100
AcDbEllipse
 10
248.176493
 20
15.509539
 30
0.0
 11
-4.072692107280919
 21
0.0000000000000925
 31
0.0
210
0.0
220
0.0
230
1.0
 40
0.958812
 41
1.587553347046634
 42
2.408388587343224
1001
ACAD
1000
ASC_BOUNDS
1002
{
1070
    19
1002
}
  0
ELLIPSE
  5
CAD9
100
AcDbEntity
  8
0
100
AcDbEllipse
 10
248.219669
 20
15.17942
 30
0.0
 11
2.983077570132104
 21
0.0000000000002996
 31
0.0
210
0.0
220
0.0
230
1.0
 40
0.958812
 41
-1.562393163247347
 42
0.0084031635475457
1001
ACAD
1000
ASC_BOUNDS
1002
{
1070
    19
1002
}
  0
ELLIPSE
  5
CADA
100
AcDbEntity
  8
0
100
AcDbEllipse
 10
250.400498
 20
8.185369
 30
0.0
 11
0.8021437979128704
 21
0.0000000000001602
 31
0.0
210
0.0
220
0.0
230
1.0
 40
0.958812
 41
4.712388980384497
 42
6.283185307179378
1001
ACAD
1000
ASC_BOUNDS
1002
{
1070
    19
1002
}
  0
LINE
  5
CADB
100
AcDbEntity
  8
0
100
AcDbLine
 10
251.202642
 20
8.185369
 30
0.0
 11
251.202642
 21
11.742481
 31
0.0
1001
ACAD
1000
ASC_BOUNDS
1002
{
1070
    19
1002
}
  0
ELLIPSE
  5
CADC
100
AcDbEntity
  8
0
100
AcDbEllipse
 10
246.088975
 20
16.260974
 30
0.0
 11
0.8021437979128704
 21
0.000000000000038
 31
0.0
210
0.0
220
0.0
230
1.0
 40
0.958812
 41
1.570796326794851
 42
3.141592653589743
1001
ACAD
1000
ASC_BOUNDS
1002
{
1070
    19
1002
}
  0
LINE
  5
CADD
100
AcDbEntity
  8
0
100
AcDbLine
 10
245.286831
 20
13.461283
 30
0.0
 11
245.286831
 21
12.896139
 31
0.0
1001
ACAD
1000
ASC_BOUNDS
1002
{
1070
    19
1002
}
  0
LINE
  5
CADE
100
AcDbEntity
  8
0
100
AcDbLine
 10
245.286831
 20
11.742481
 30
0.0
 11
245.286831
 21
11.034514
 31
0.0
1001
ACAD
1000
ASC_BOUNDS
1002
{
1070
    19
1002
}
  0
LINE
  5
CADF
100
AcDbEntity
  8
0
100
AcDbLine
 10
245.286831
 20
13.461283
 30
0.0
 11
245.286831
 21
16.260974
 31
0.0
1001
ACAD
1000
ASC_BOUNDS
1002
{
1070
    19
1002
}
  0
ELLIPSE
  5
CAE0
100
AcDbEntity
  8
0
100
AcDbEllipse
 10
246.088975
 20
8.185369
 30
0.0
 11
-0.8021437979128705
 21
0.0000000000000154
 31
0.0
210
0.0
220
0.0
230
1.0
 40
0.958812
 41
0.00000000000002
 42
1.570796326794914
1001
ACAD
1000
ASC_BOUNDS
1002
{
1070
    19
1002
}
  0
LINE
  5
CAE1
100
AcDbEntity
  8
0
100
AcDbLine
 10
245.286831
 20
9.895061
 30
0.0
 11
245.286831
 21
8.185369
 31
0.0
1001
ACAD
1000
ASC_BOUNDS
1002
{
1070
    19
1002
}
  0
LINE
  5
CAE2
100
AcDbEntity
  8
0
100
AcDbLine
 10
246.088975
 20
17.030079
 30
0.0
 11
250.400498
 21
17.030079
 31
0.0
  0
ELLIPSE
  5
CAE3
100
AcDbEntity
  8
0
100
AcDbEllipse
 10
248.069267
 20
8.937306
 30
0.0
 11
3.015746449176212
 21
0.7746519372140012
 31
0.0
210
0.0
220
0.0
230
1.0
 40
0.846775
 41
1.29973646820557
 42
2.479974117225238
1001
ACAD
1000
ASC_BOUNDS
1002
{
1070
    19
1002
}
  0
ELLIPSE
  5
CAE4
100
AcDbEntity
  8
0
100
AcDbEllipse
 10
247.838761
 20
9.872488
 30
0.0
 11
2.960559210508897
 21
0.3570763225581005
 31
0.0
210
0.0
220
0.0
230
1.0
 40
0.820999
 41
1.335209029023201
 42
2.503032872947537
1001
ACAD
1000
ASC_BOUNDS
1002
{
1070
    19
1002
}
  0
LINE
  5
CAE5
100
AcDbEntity
  8
0
100
AcDbLine
 10
246.088975
 20
7.416263
 30
0.0
 11
250.400498
 21
7.416263
 31
0.0
1001
ACAD
1000
ASC_BOUNDS
1002
{
1070
    19
1002
}
  0
LINE
  5
CAE6
100
AcDbEntity
  8
0
100
AcDbLine
 10
262.051383
 20
11.81167
 30
0.0
 11
262.051383
 21
14.41447
 31
0.0
  0
LINE
  5
CAE7
100
AcDbEntity
  8
0
100
AcDbLine
 10
262.051383
 20
11.13667
 30
0.0
 11
262.051383
 21
10.236264
 31
0.0
  0
ARC
  5
CAE8
100
AcDbEntity
  8
0
100
AcDbCircle
 10
259.791012
 20
14.17837
 30
0.0
 40
1.425319
100
AcDbArc
 50
89.703671
 51
170.465171
  0
ARC
  5
CAE9
100
AcDbEntity
  8
0
100
AcDbCircle
 10
259.791012
 20
10.472364
 30
0.0
 40
1.425319
100
AcDbArc
 50
189.534829
 51
270.296329
  0
LINE
  5
CAEA
100
AcDbEntity
  8
0
100
AcDbLine
 10
255.492972
 20
15.60367
 30
0.0
 11
255.492972
 21
15.38827
 31
0.0
  0
LINE
  5
CAEB
100
AcDbEntity
  8
0
100
AcDbLine
 10
258.385383
 20
10.236264
 30
0.0
 11
258.385383
 21
14.41447
 31
0.0
  0
LINE
  5
CAEC
100
AcDbEntity
  8
0
100
AcDbLine
 10
257.710383
 20
12.93607
 30
0.0
 11
257.710383
 21
14.72707
 31
0.0
1001
ACAD
1000
ASC_BOUNDS
1002
{
1070
    19
1002
}
  0
LINE
  5
CAED
100
AcDbEntity
  8
0
100
AcDbLine
 10
256.156399
 20
14.361264
 30
0.0
 11
256.167972
 21
12.93607
 31
0.0
  0
ARC
  5
CAEE
100
AcDbEntity
  8
0
100
AcDbCircle
 10
255.818899
 20
14.361264
 30
0.0
 40
0.3375
100
AcDbArc
 50
360.0
 51
180.0
  0
LINE
  5
CAEF
100
AcDbEntity
  8
0
100
AcDbLine
 10
256.167972
 20
12.93607
 30
0.0
 11
257.710383
 21
12.93607
 31
0.0
  0
LINE
  5
CAF0
100
AcDbEntity
  8
0
100
AcDbLine
 10
256.50031
 20
12.93607
 30
0.0
 11
257.710383
 21
12.93607
 31
0.0
  0
ARC
  5
CAF1
100
AcDbEntity
  8
0
100
AcDbCircle
 10
256.388058
 20
14.34127
 30
0.0
 40
1.377457
100
AcDbArc
 50
16.265061
 51
130.527299
  0
LINE
  5
CAF2
100
AcDbEntity
  8
0
100
AcDbLine
 10
255.4814
 20
9.015264
 30
0.0
 11
255.492972
 21
9.022759
 31
0.0
  0
LINE
  5
CAF3
100
AcDbEntity
  8
0
100
AcDbLine
 10
255.481399
 20
14.361264
 30
0.0
 11
255.492972
 21
9.015264
 31
0.0
  0
LINE
  5
CAF4
100
AcDbEntity
  8
0
100
AcDbLine
 10
259.78364
 20
15.60367
 30
0.0
 11
260.638383
 21
15.60367
 31
0.0
  0
LINE
  5
CAF5
100
AcDbEntity
  8
0
100
AcDbLine
 10
259.927383
 20
14.361264
 30
0.0
 11
259.927383
 21
12.71167
 31
0.0
  0
LINE
  5
CAF6
100
AcDbEntity
  8
0
100
AcDbLine
 10
260.602383
 20
14.361264
 30
0.0
 11
260.602383
 21
12.71167
 31
0.0
  0
ARC
  5
CAF7
100
AcDbEntity
  8
0
100
AcDbCircle
 10
260.264883
 20
10.252764
 30
0.0
 40
0.3375
100
AcDbArc
 50
180.0
 51
0.0
  0
LINE
  5
CAF8
100
AcDbEntity
  8
0
100
AcDbLine
 10
259.927383
 20
11.81167
 30
0.0
 11
259.927383
 21
10.252764
 31
0.0
  0
LINE
  5
CAF9
100
AcDbEntity
  8
0
100
AcDbLine
 10
260.602383
 20
11.13667
 30
0.0
 11
260.602383
 21
10.252764
 31
0.0
  0
LINE
  5
CAFA
100
AcDbEntity
  8
0
100
AcDbLine
 10
259.927383
 20
12.71167
 30
0.0
 11
260.602383
 21
12.71167
 31
0.0
  0
LINE
  5
CAFB
100
AcDbEntity
  8
0
100
AcDbLine
 10
259.927383
 20
11.81167
 30
0.0
 11
259.927383
 21
10.236264
 31
0.0
  0
ARC
  5
CAFC
100
AcDbEntity
  8
0
100
AcDbCircle
 10
260.264883
 20
14.361264
 30
0.0
 40
0.3375
100
AcDbArc
 50
360.0
 51
180.0
  0
LINE
  5
CAFD
100
AcDbEntity
  8
0
100
AcDbLine
 10
259.78364
 20
9.047064
 30
0.0
 11
260.638383
 21
9.047064
 31
0.0
  0
LINE
  5
CAFE
100
AcDbEntity
  8
0
100
AcDbLine
 10
253.950857
 20
9.015264
 30
0.0
 11
253.950857
 21
15.60367
 31
0.0
1001
ACAD
1000
ASC_BOUNDS
1002
{
1070
    19
1002
}
  0
LINE
  5
CAFF
100
AcDbEntity
  8
0
100
AcDbLine
 10
253.950857
 20
15.60367
 30
0.0
 11
255.492972
 21
15.60367
 31
0.0
1001
ACAD
1000
ASC_BOUNDS
1002
{
1070
    19
1002
}
  0
LINE
  5
CB00
100
AcDbEntity
  8
0
100
AcDbLine
 10
253.950857
 20
9.015264
 30
0.0
 11
255.492972
 21
9.015264
 31
0.0
1001
ACAD
1000
ASC_BOUNDS
1002
{
1070
    19
1002
}
  0
LINE
  5
CB01
100
AcDbEntity
  8
0
100
AcDbLine
 10
260.602383
 20
11.13667
 30
0.0
 11
262.051383
 21
11.13667
 31
0.0
  0
LINE
  5
CB02
100
AcDbEntity
  8
0
100
AcDbLine
 10
262.051383
 20
11.81167
 30
0.0
 11
259.927383
 21
11.81167
 31
0.0
  0
ARC
  5
CB03
100
AcDbEntity
  8
0
100
AcDbCircle
 10
260.645755
 20
14.17837
 30
0.0
 40
1.425319
100
AcDbArc
 50
9.534829
 51
90.296329
  0
ARC
  5
CB04
100
AcDbEntity
  8
0
100
AcDbCircle
 10
260.645755
 20
10.472364
 30
0.0
 40
1.425319
100
AcDbArc
 50
269.703671
 51
350.465171
  0
ARC
  5
CB05
100
AcDbEntity
  8
0
100
AcDbCircle
 10
270.832222
 20
14.124104
 30
0.0
 40
1.488419
100
AcDbArc
 50
89.300887
 51
168.365732
  0
ARC
  5
CB06
100
AcDbEntity
  8
0
100
AcDbCircle
 10
270.832222
 20
10.503572
 30
0.0
 40
1.488419
100
AcDbArc
 50
191.634268
 51
270.699113
  0
LINE
  5
CB07
100
AcDbEntity
  8
0
100
AcDbLine
 10
269.374383
 20
10.203412
 30
0.0
 11
269.374383
 21
14.424264
 31
0.0
  0
LINE
  5
CB08
100
AcDbEntity
  8
0
100
AcDbLine
 10
268.699383
 20
14.583264
 30
0.0
 11
268.699383
 21
10.179264
 31
0.0
  0
ARC
  5
CB09
100
AcDbEntity
  8
0
100
AcDbCircle
 10
267.57129
 20
10.136416
 30
0.0
 40
1.128907
100
AcDbArc
 50
276.719576
 51
2.175194
  0
LINE
  5
CB0A
100
AcDbEntity
  8
0
100
AcDbLine
 10
270.977883
 20
14.361264
 30
0.0
 11
270.977883
 21
10.252764
 31
0.0
  0
LINE
  5
CB0B
100
AcDbEntity
  8
0
100
AcDbLine
 10
266.482383
 20
15.612264
 30
0.0
 11
266.482383
 21
15.324264
 31
0.0
  0
LINE
  5
CB0C
100
AcDbEntity
  8
0
100
AcDbLine
 10
262.738383
 20
17.211264
 30
0.0
 11
264.283383
 21
17.211264
 31
0.0
  0
LINE
  5
CB0D
100
AcDbEntity
  8
0
100
AcDbLine
 10
264.937383
 20
15.612264
 30
0.0
 11
266.482383
 21
15.612264
 31
0.0
  0
ARC
  5
CB0E
100
AcDbEntity
  8
0
100
AcDbCircle
 10
266.819883
 20
14.361264
 30
0.0
 40
0.3375
100
AcDbArc
 50
360.0
 51
180.0
  0
ARC
  5
CB0F
100
AcDbEntity
  8
0
100
AcDbCircle
 10
266.819883
 20
10.252764
 30
0.0
 40
0.3375
100
AcDbArc
 50
180.0
 51
0.0
  0
LINE
  5
CB10
100
AcDbEntity
  8
0
100
AcDbLine
 10
266.482383
 20
14.361264
 30
0.0
 11
266.482383
 21
10.252764
 31
0.0
  0
LINE
  5
CB11
100
AcDbEntity
  8
0
100
AcDbLine
 10
267.157383
 20
14.361264
 30
0.0
 11
267.157383
 21
10.252764
 31
0.0
  0
LINE
  5
CB12
100
AcDbEntity
  8
0
100
AcDbLine
 10
264.283383
 20
9.015264
 30
0.0
 11
262.738383
 21
9.015264
 31
0.0
  0
LINE
  5
CB13
100
AcDbEntity
  8
0
100
AcDbLine
 10
266.482383
 20
7.416264
 30
0.0
 11
264.937383
 21
7.416264
 31
0.0
  0
LINE
  5
CB14
100
AcDbEntity
  8
0
100
AcDbLine
 10
264.283383
 20
17.211264
 30
0.0
 11
264.283383
 21
9.015264
 31
0.0
  0
LINE
  5
CB15
100
AcDbEntity
  8
0
100
AcDbLine
 10
262.738383
 20
9.015264
 30
0.0
 11
262.738383
 21
17.211264
 31
0.0
  0
LINE
  5
CB16
100
AcDbEntity
  8
0
100
AcDbLine
 10
264.937383
 20
7.416264
 30
0.0
 11
264.937383
 21
15.612264
 31
0.0
  0
ARC
  5
CB17
100
AcDbEntity
  8
0
100
AcDbCircle
 10
267.131963
 20
9.724764
 30
0.0
 40
0.709955
100
AcDbArc
 50
203.80008
 51
272.051918
  0
LINE
  5
CB18
100
AcDbEntity
  8
0
100
AcDbLine
 10
266.482383
 20
9.438264
 30
0.0
 11
266.482383
 21
7.416264
 31
0.0
  0
ARC
  5
CB19
100
AcDbEntity
  8
0
100
AcDbCircle
 10
267.341411
 20
14.207365
 30
0.0
 40
1.409039
100
AcDbArc
 50
15.47255
 51
127.56454
  0
LINE
  5
CB1A
100
AcDbEntity
  8
0
100
AcDbLine
 10
267.16543
 20
9.015264
 30
0.0
 11
267.703383
 21
9.015264
 31
0.0
  0
TEXT
  5
CB1B
100
AcDbEntity
  8
1
100
AcDbText
 10
251.424559
 20
65.59445
 30
0.0
 40
5.0
  1
R2
 41
0.75
  7
ITALIC
100
AcDbText
  0
TEXT
  5
CB1C
100
AcDbEntity
  8
WY
100
AcDbText
 10
280.00657
 20
11.60401
 30
0.0
 40
2.0
  1
02-02-2008
 51
15.0
  7
ITALIC
100
AcDbText
  0
TEXT
  5
CB1D
100
AcDbEntity
  8
WY
100
AcDbText
 10
284.43794
 20
16.149239
 30
0.0
 40
2.0
  1
Data
 51
15.0
  7
ITALIC
100
AcDbText
  0
LINE
  5
CB1E
100
AcDbEntity
  8
1
100
AcDbLine
 10
279.059027
 20
5.0
 30
0.0
 11
279.059027
 21
19.689837
 31
0.0
  0
LINE
  5
CB1F
100
AcDbEntity
  8
0
100
AcDbLine
 10
275.476383
 20
17.211264
 30
0.0
 11
275.476383
 21
9.015264
 31
0.0
  0
LINE
  5
CB20
100
AcDbEntity
  8
0
100
AcDbLine
 10
271.652883
 20
14.361264
 30
0.0
 11
271.652883
 21
10.252764
 31
0.0
  0
LINE
  5
CB21
100
AcDbEntity
  8
0
100
AcDbLine
 10
273.256383
 20
14.424264
 30
0.0
 11
273.256383
 21
10.203412
 31
0.0
  0
ARC
  5
CB22
100
AcDbEntity
  8
0
100
AcDbCircle
 10
271.798544
 20
14.124104
 30
0.0
 40
1.488419
100
AcDbArc
 50
11.634268
 51
90.699113
  0
LINE
  5
CB23
100
AcDbEntity
  8
0
100
AcDbLine
 10
273.931383
 20
9.015264
 30
0.0
 11
273.931383
 21
17.211264
 31
0.0
  0
ARC
  5
CB24
100
AcDbEntity
  8
0
100
AcDbCircle
 10
271.798544
 20
10.503572
 30
0.0
 40
1.488419
100
AcDbArc
 50
269.300887
 51
348.365732
  0
LINE
  5
CB25
100
AcDbEntity
  8
0
100
AcDbLine
 10
273.931383
 20
17.211264
 30
0.0
 11
275.476383
 21
17.211264
 31
0.0
  0
LINE
  5
CB26
100
AcDbEntity
  8
0
100
AcDbLine
 10
275.476383
 20
9.015264
 30
0.0
 11
273.931383
 21
9.015264
 31
0.0
  0
LINE
  5
CB27
100
AcDbEntity
  8
WYMIARY
 62
     3
100
AcDbLine
 10
301.962351
 20
19.689837
 30
0.0
 11
301.962351
 21
5.0
 31
0.0
  0
LINE
  5
CB28
100
AcDbEntity
  8
WYMIARY
 62
     3
100
AcDbLine
 10
284.771644
 20
101.812945
 30
0.0
 11
261.932089
 21
101.812945
 31
0.0
  0
LINE
  5
CB29
100
AcDbEntity
  8
WYMIARY
 62
     3
100
AcDbLine
 10
258.349925
 20
89.737748
 30
0.0
 11
266.185961
 21
116.152419
 31
0.0
  0
LINE
  5
CB2A
100
AcDbEntity
  8
WYMIARY
 62
     3
100
AcDbLine
 10
258.349925
 20
113.888142
 30
0.0
 11
267.814696
 21
113.888142
 31
0.0
  0
LINE
  5
CB2B
100
AcDbEntity
  8
WYMIARY
 62
     3
100
AcDbLine
 10
284.771644
 20
106.812945
 30
0.0
 11
284.771644
 21
96.812945
 31
0.0
  0
LINE
  5
CB2C
100
AcDbEntity
  8
WYMIARY
 62
     3
100
AcDbLine
 10
294.771644
 20
106.812945
 30
0.0
 11
294.771644
 21
96.812945
 31
0.0
  0
LINE
  5
CB2D
100
AcDbEntity
  8
WYMIARY
 62
     3
100
AcDbLine
 10
272.408486
 20
89.737748
 30
0.0
 11
280.318485
 21
116.152419
 31
0.0
  0
TEXT
  5
CB2E
100
AcDbEntity
  8
1
100
AcDbText
 10
286.118861
 20
86.413845
 30
0.0
 40
5.0
  1
A2
 41
0.75
  7
ITALIC
100
AcDbText
  0
TEXT
  5
CB2F
100
AcDbEntity
  8
1
100
AcDbText
 10
286.118861
 20
79.199203
 30
0.0
 40
5.0
  1
(-)
 41
0.75
  7
ITALIC
100
AcDbText
  0
LINE
  5
CB30
100
AcDbEntity
  8
WYMIARY
 62
     3
100
AcDbLine
 10
294.771644
 20
96.812945
 30
0.0
 11
284.771644
 21
96.812945
 31
0.0
  0
LINE
  5
CB31
100
AcDbEntity
  8
WYMIARY
 62
     3
100
AcDbLine
 10
289.771644
 20
96.812945
 30
0.0
 11
289.771644
 21
91.812945
 31
0.0
  0
TEXT
  5
CB32
100
AcDbEntity
  8
1
100
AcDbText
 10
286.118861
 20
119.103406
 30
0.0
 40
5.0
  1
(+)
 41
0.75
  7
ITALIC
100
AcDbText
  0
TEXT
  5
CB33
100
AcDbEntity
  8
1
100
AcDbText
 10
286.118861
 20
112.30103
 30
0.0
 40
5.0
  1
A1
 41
0.75
  7
ITALIC
100
AcDbText
  0
LINE
  5
CB34
100
AcDbEntity
  8
WYMIARY
 62
     3
100
AcDbLine
 10
284.771644
 20
106.812945
 30
0.0
 11
294.771644
 21
106.812945
 31
0.0
  0
LINE
  5
CB35
100
AcDbEntity
  8
WYMIARY
 62
     3
100
AcDbLine
 10
272.408486
 20
113.888142
 30
0.0
 11
281.873257
 21
113.888142
 31
0.0
  0
LINE
  5
CB36
100
AcDbEntity
  8
WYMIARY
 62
     3
100
AcDbLine
 10
289.771644
 20
106.812945
 30
0.0
 11
289.771644
 21
111.812945
 31
0.0
  0
TEXT
  5
CB37
100
AcDbEntity
  8
WY
100
AcDbText
 10
345.174596
 20
16.599248
 30
0.0
 40
2.0
  1
Product type
 51
15.0
  7
ITALIC
100
AcDbText
  0
TEXT
  5
CB38
100
AcDbEntity
  8
1
100
AcDbText
 10
344.978455
 20
9.064009
 30
0.0
 40
5.0
  1
RIK20
 41
0.75
  7
ITALIC
100
AcDbText
  0
LINE
  5
CB39
100
AcDbEntity
  8
1
100
AcDbLine
 10
342.983398
 20
5.0
 30
0.0
 11
342.983398
 21
19.689837
 31
0.0
  0
LINE
  5
CB3A
100
AcDbEntity
  8
WYMIARY
 62
     3
100
AcDbLine
 10
375.5689
 20
217.348502
 30
0.0
 11
345.209809
 21
217.348502
 31
0.0
  0
TEXT
  5
CB3B
100
AcDbEntity
  8
1
100
AcDbText
 10
267.220865
 20
262.859808
 30
0.0
 40
5.0
  1
Schematy / Diagrams
 41
0.75
  7
ITALIC
100
AcDbText
  0
LINE
  5
CB3C
100
AcDbEntity
  8
WYMIARY
 62
     3
100
AcDbLine
 10
258.349925
 20
181.122911
 30
0.0
 11
258.349925
 21
205.273305
 31
0.0
  0
LINE
  5
CB3D
100
AcDbEntity
  8
WYMIARY
 62
     3
100
AcDbLine
 10
272.408486
 20
181.122911
 30
0.0
 11
272.408486
 21
205.273305
 31
0.0
  0
TEXT
  5
CB3E
100
AcDbEntity
  8
1
100
AcDbText
 10
286.118861
 20
201.949401
 30
0.0
 40
5.0
  1
A2
 41
0.75
  7
ITALIC
100
AcDbText
  0
TEXT
  5
CB3F
100
AcDbEntity
  8
1
100
AcDbText
 10
249.087777
 20
171.235642
 30
0.0
 40
5.0
  1
RIK20-20-...
 41
0.75
  7
ITALIC
100
AcDbText
  0
TEXT
  5
CB40
100
AcDbEntity
  8
1
100
AcDbText
 10
251.424559
 20
181.130007
 30
0.0
 40
5.0
  1
2
 41
0.75
  7
ITALIC
100
AcDbText
  0
TEXT
  5
CB41
100
AcDbEntity
  8
1
100
AcDbText
 10
265.483121
 20
181.130007
 30
0.0
 40
5.0
  1
4
 41
0.75
  7
ITALIC
100
AcDbText
  0
TEXT
  5
CB42
100
AcDbEntity
  8
1
100
AcDbText
 10
286.118861
 20
194.73476
 30
0.0
 40
5.0
  1
(-)
 41
0.75
  7
ITALIC
100
AcDbText
  0
LINE
  5
CB43
100
AcDbEntity
  8
WYMIARY
 62
     3
100
AcDbLine
 10
272.408486
 20
205.273305
 30
0.0
 11
264.539744
 21
229.405293
 31
0.0
  0
LINE
  5
CB44
100
AcDbEntity
  8
WYMIARY
 62
     3
100
AcDbLine
 10
284.771644
 20
217.348502
 30
0.0
 11
254.412553
 21
217.348502
 31
0.0
  0
LINE
  5
CB45
100
AcDbEntity
  8
WYMIARY
 62
     3
100
AcDbLine
 10
258.349925
 20
229.423699
 30
0.0
 11
258.349925
 21
253.574093
 31
0.0
  0
LINE
  5
CB46
100
AcDbEntity
  8
WYMIARY
 62
     3
100
AcDbLine
 10
258.349925
 20
205.273305
 30
0.0
 11
250.481183
 21
229.405293
 31
0.0
  0
TEXT
  5
CB47
100
AcDbEntity
  8
1
100
AcDbText
 10
251.424559
 20
248.862113
 30
0.0
 40
5.0
  1
1
 41
0.75
  7
ITALIC
100
AcDbText
  0
TEXT
  5
CB48
100
AcDbEntity
  8
1
100
AcDbText
 10
265.483121
 20
248.862113
 30
0.0
 40
5.0
  1
3
 41
0.75
  7
ITALIC
100
AcDbText
  0
LINE
  5
CB49
100
AcDbEntity
  8
WYMIARY
 62
     3
100
AcDbLine
 10
272.408486
 20
229.423699
 30
0.0
 11
272.408486
 21
253.574093
 31
0.0
  0
TEXT
  5
CB4A
100
AcDbEntity
  8
1
100
AcDbText
 10
286.118861
 20
234.638963
 30
0.0
 40
5.0
  1
(+)
 41
0.75
  7
ITALIC
100
AcDbText
  0
LINE
  5
CB4B
100
AcDbEntity
  8
WYMIARY
 62
     3
100
AcDbLine
 10
294.771644
 20
212.348502
 30
0.0
 11
284.771644
 21
212.348502
 31
0.0
  0
LINE
  5
CB4C
100
AcDbEntity
  8
WYMIARY
 62
     3
100
AcDbLine
 10
284.771644
 20
222.348502
 30
0.0
 11
294.771644
 21
222.348502
 31
0.0
  0
TEXT
  5
CB4D
100
AcDbEntity
  8
1
100
AcDbText
 10
286.118861
 20
227.836587
 30
0.0
 40
5.0
  1
A1
 41
0.75
  7
ITALIC
100
AcDbText
  0
LINE
  5
CB4E
100
AcDbEntity
  8
WYMIARY
 62
     3
100
AcDbLine
 10
284.771644
 20
222.348502
 30
0.0
 11
284.771644
 21
212.348502
 31
0.0
  0
LINE
  5
CB4F
100
AcDbEntity
  8
WYMIARY
 62
     3
100
AcDbLine
 10
294.771644
 20
222.348502
 30
0.0
 11
294.771644
 21
212.348502
 31
0.0
  0
LINE
  5
CB50
100
AcDbEntity
  8
WYMIARY
 62
     3
100
AcDbLine
 10
289.771644
 20
212.348502
 30
0.0
 11
289.771644
 21
207.348502
 31
0.0
  0
LINE
  5
CB51
100
AcDbEntity
  8
WYMIARY
 62
     3
100
AcDbLine
 10
289.771644
 20
222.348502
 30
0.0
 11
289.771644
 21
227.348502
 31
0.0
  0
LINE
  5
CB52
100
AcDbEntity
  8
WYMIARY
 62
     3
100
AcDbLine
 10
349.147181
 20
181.122911
 30
0.0
 11
349.147181
 21
205.273305
 31
0.0
  0
LINE
  5
CB53
100
AcDbEntity
  8
WYMIARY
 62
     3
100
AcDbLine
 10
363.205742
 20
181.122911
 30
0.0
 11
363.205742
 21
205.273305
 31
0.0
  0
TEXT
  5
CB54
100
AcDbEntity
  8
1
100
AcDbText
 10
339.231498
 20
170.582819
 30
0.0
 40
5.0
  1
RIK20-11-...
 41
0.75
  7
ITALIC
100
AcDbText
  0
TEXT
  5
CB55
100
AcDbEntity
  8
1
100
AcDbText
 10
356.280377
 20
181.130007
 30
0.0
 40
5.0
  1
R4
 41
0.75
  7
ITALIC
100
AcDbText
  0
TEXT
  5
CB56
100
AcDbEntity
  8
1
100
AcDbText
 10
342.221816
 20
181.130007
 30
0.0
 40
5.0
  1
2
 41
0.75
  7
ITALIC
100
AcDbText
  0
LINE
  5
CB57
100
AcDbEntity
  8
WYMIARY
 62
     3
100
AcDbLine
 10
349.147181
 20
229.423699
 30
0.0
 11
349.147181
 21
253.574093
 31
0.0
  0
LINE
  5
CB58
100
AcDbEntity
  8
WYMIARY
 62
     3
100
AcDbLine
 10
363.205742
 20
229.423699
 30
0.0
 11
363.205742
 21
253.574093
 31
0.0
  0
LINE
  5
CB59
100
AcDbEntity
  8
WYMIARY
 62
     3
100
AcDbLine
 10
349.147181
 20
205.273305
 30
0.0
 11
341.278439
 21
229.405293
 31
0.0
  0
LINE
  5
CB5A
100
AcDbEntity
  8
WYMIARY
 62
     3
100
AcDbLine
 10
363.205742
 20
205.273305
 30
0.0
 11
372.046612
 21
232.546956
 31
0.0
  0
LINE
  5
CB5B
100
AcDbEntity
  8
WYMIARY
 62
     3
100
AcDbLine
 10
363.205742
 20
229.423699
 30
0.0
 11
373.445828
 21
229.423699
 31
0.0
  0
TEXT
  5
CB5C
100
AcDbEntity
  8
1
100
AcDbText
 10
356.280377
 20
248.862113
 30
0.0
 40
5.0
  1
R3
 41
0.75
  7
ITALIC
100
AcDbText
  0
TEXT
  5
CB5D
100
AcDbEntity
  8
1
100
AcDbText
 10
342.221816
 20
248.862113
 30
0.0
 40
5.0
  1
1
 41
0.75
  7
ITALIC
100
AcDbText
  0
TEXT
  5
CB5E
100
AcDbEntity
  8
1
100
AcDbText
 10
291.492344
 20
273.769101
 30
0.0
 40
5.0
  1
RIK20
 41
0.75
  7
ITALIC
100
AcDbText
  0
TEXT
  5
CB5F
100
AcDbEntity
  8
1
100
AcDbText
 10
376.916117
 20
201.949401
 30
0.0
 40
5.0
  1
A2
 41
0.75
  7
ITALIC
100
AcDbText
  0
TEXT
  5
CB60
100
AcDbEntity
  8
1
100
AcDbText
 10
376.916117
 20
194.73476
 30
0.0
 40
5.0
  1
(-)
 41
0.75
  7
ITALIC
100
AcDbText
  0
TEXT
  5
CB61
100
AcDbEntity
  8
1
100
AcDbText
 10
376.916117
 20
234.638963
 30
0.0
 40
5.0
  1
(+)
 41
0.75
  7
ITALIC
100
AcDbText
  0
LINE
  5
CB62
100
AcDbEntity
  8
WYMIARY
 62
     3
100
AcDbLine
 10
385.5689
 20
222.348502
 30
0.0
 11
385.5689
 21
212.348502
 31
0.0
  0
LINE
  5
CB63
100
AcDbEntity
  8
WYMIARY
 62
     3
100
AcDbLine
 10
375.5689
 20
222.348502
 30
0.0
 11
375.5689
 21
212.348502
 31
0.0
  0
LINE
  5
CB64
100
AcDbEntity
  8
WYMIARY
 62
     3
100
AcDbLine
 10
385.5689
 20
212.348502
 30
0.0
 11
375.5689
 21
212.348502
 31
0.0
  0
LINE
  5
CB65
100
AcDbEntity
  8
WYMIARY
 62
     3
100
AcDbLine
 10
380.5689
 20
212.348502
 30
0.0
 11
380.5689
 21
207.348502
 31
0.0
  0
LINE
  5
CB66
100
AcDbEntity
  8
WYMIARY
 62
     3
100
AcDbLine
 10
375.5689
 20
222.348502
 30
0.0
 11
385.5689
 21
222.348502
 31
0.0
  0
LINE
  5
CB67
100
AcDbEntity
  8
WYMIARY
 62
     3
100
AcDbLine
 10
380.5689
 20
222.348502
 30
0.0
 11
380.5689
 21
227.348502
 31
0.0
  0
TEXT
  5
CB68
100
AcDbEntity
  8
1
100
AcDbText
 10
376.916117
 20
227.836587
 30
0.0
 40
5.0
  1
A1
 41
0.75
  7
ITALIC
100
AcDbText
  0
ENDBLK
  5
CB6A
100
AcDbEntity
  8
0
 62
     3
100
AcDbBlockEnd
  0
BLOCK
  5
CEA0
100
AcDbEntity
  8
0
100
AcDbBlockBegin
  2
*D15
 70
     1
 10
0.0
 20
0.0
 30
0.0
  3
*D15
  1

  0
LINE
  5
CEA1
100
AcDbEntity
  8
0
  6
BYBLOCK
 62
     0
100
AcDbLine
 10
811.964514
 20
743.808792
 30
0.0
 11
811.964514
 21
687.072435
 31
0.0
  0
LINE
  5
CEA2
100
AcDbEntity
  8
0
  6
BYBLOCK
 62
     0
100
AcDbLine
 10
871.964514
 20
738.808792
 30
0.0
 11
871.964514
 21
687.072435
 31
0.0
  0
LINE
  5
CEA3
100
AcDbEntity
  8
0
  6
BYBLOCK
 62
     0
100
AcDbLine
 10
815.464514
 20
688.572435
 30
0.0
 11
868.464514
 21
688.572435
 31
0.0
  0
SOLID
  5
CEA4
100
AcDbEntity
  8
0
  6
BYBLOCK
 62
     0
100
AcDbTrace
 10
815.464514
 20
689.155768
 30
0.0
 11
815.464514
 21
687.989101
 31
0.0
 12
811.964514
 22
688.572435
 32
0.0
 13
811.964514
 23
688.572435
 33
0.0
  0
SOLID
  5
CEA5
100
AcDbEntity
  8
0
  6
BYBLOCK
 62
     0
100
AcDbTrace
 10
868.464514
 20
689.155768
 30
0.0
 11
868.464514
 21
687.989101
 31
0.0
 12
871.964514
 22
688.572435
 32
0.0
 13
871.964514
 23
688.572435
 33
0.0
  0
MTEXT
  5
CEA6
100
AcDbEntity
  8
0
  6
BYBLOCK
 62
     0
100
AcDbMText
 10
841.964514
 20
690.222435
 30
0.0
 40
1.8
 41
0.0
 71
     5
 72
     1
  1
\A1;60.00
  0
POINT
  5
CEA7
100
AcDbEntity
  8
DEFPOINTS
  6
BYBLOCK
 62
     0
100
AcDbPoint
 10
811.964514
 20
745.308792
 30
0.0
  0
POINT
  5
CEA8
100
AcDbEntity
  8
DEFPOINTS
  6
BYBLOCK
 62
     0
100
AcDbPoint
 10
871.964514
 20
740.308792
 30
0.0
  0
POINT
  5
CEA9
100
AcDbEntity
  8
DEFPOINTS
  6
BYBLOCK
 62
     0
100
AcDbPoint
 10
871.964514
 20
688.572435
 30
0.0
  0
ENDBLK
  5
CEAA
100
AcDbEntity
  8
0
100
AcDbBlockEnd
  0
BLOCK
  5
CEAB
100
AcDbEntity
  8
0
100
AcDbBlockBegin
  2
*D16
 70
     1
 10
0.0
 20
0.0
 30
0.0
  3
*D16
  1

  0
LINE
  5
CEAC
100
AcDbEntity
  8
0
  6
BYBLOCK
 62
     0
100
AcDbLine
 10
806.964514
 20
718.808792
 30
0.0
 11
806.964514
 21
707.077504
 31
0.0
  0
LINE
  5
CEAD
100
AcDbEntity
  8
0
  6
BYBLOCK
 62
     0
100
AcDbLine
 10
811.964514
 20
743.808792
 30
0.0
 11
811.964514
 21
707.077504
 31
0.0
  0
LINE
  5
CEAE
100
AcDbEntity
  8
0
  6
BYBLOCK
 62
     0
100
AcDbLine
 10
815.464514
 20
708.577504
 30
0.0
 11
818.964514
 21
708.577504
 31
0.0
  0
LINE
  5
CEAF
100
AcDbEntity
  8
0
  6
BYBLOCK
 62
     0
100
AcDbLine
 10
803.464514
 20
708.577504
 30
0.0
 11
793.664514
 21
708.577504
 31
0.0
  0
SOLID
  5
CEB0
100
AcDbEntity
  8
0
  6
BYBLOCK
 62
     0
100
AcDbTrace
 10
815.464514
 20
709.160838
 30
0.0
 11
815.464514
 21
707.994171
 31
0.0
 12
811.964514
 22
708.577504
 32
0.0
 13
811.964514
 23
708.577504
 33
0.0
  0
SOLID
  5
CEB1
100
AcDbEntity
  8
0
  6
BYBLOCK
 62
     0
100
AcDbTrace
 10
803.464514
 20
709.160838
 30
0.0
 11
803.464514
 21
707.994171
 31
0.0
 12
806.964514
 22
708.577504
 32
0.0
 13
806.964514
 23
708.577504
 33
0.0
  0
MTEXT
  5
CEB2
100
AcDbEntity
  8
0
  6
BYBLOCK
 62
     0
100
AcDbMText
 10
796.814514
 20
710.227504
 30
0.0
 40
1.8
 41
0.0
 71
     5
 72
     1
  1
\A1;5.00
  0
POINT
  5
CEB3
100
AcDbEntity
  8
DEFPOINTS
  6
BYBLOCK
 62
     0
100
AcDbPoint
 10
806.964514
 20
720.308792
 30
0.0
  0
POINT
  5
CEB4
100
AcDbEntity
  8
DEFPOINTS
  6
BYBLOCK
 62
     0
100
AcDbPoint
 10
811.964514
 20
745.308792
 30
0.0
  0
POINT
  5
CEB5
100
AcDbEntity
  8
DEFPOINTS
  6
BYBLOCK
 62
     0
100
AcDbPoint
 10
811.964514
 20
708.577504
 30
0.0
  0
ENDBLK
  5
CEB6
100
AcDbEntity
  8
0
100
AcDbBlockEnd
  0
BLOCK
  5
CEB7
100
AcDbEntity
  8
0
100
AcDbBlockBegin
  2
*D17
 70
     1
 10
0.0
 20
0.0
 30
0.0
  3
*D17
  1

  0
LINE
  5
CEB8
100
AcDbEntity
  8
0
  6
BYBLOCK
 62
     0
100
AcDbLine
 10
805.464514
 20
780.308792
 30
0.0
 11
792.76522
 21
780.308792
 31
0.0
  0
LINE
  5
CEB9
100
AcDbEntity
  8
0
  6
BYBLOCK
 62
     0
100
AcDbLine
 10
805.464514
 20
745.308792
 30
0.0
 11
792.76522
 21
745.308792
 31
0.0
  0
LINE
  5
CEBA
100
AcDbEntity
  8
0
  6
BYBLOCK
 62
     0
100
AcDbLine
 10
794.26522
 20
776.808792
 30
0.0
 11
794.26522
 21
748.808792
 31
0.0
  0
SOLID
  5
CEBB
100
AcDbEntity
  8
0
  6
BYBLOCK
 62
     0
100
AcDbTrace
 10
793.681887
 20
776.808792
 30
0.0
 11
794.848553
 21
776.808792
 31
0.0
 12
794.26522
 22
780.308792
 32
0.0
 13
794.26522
 23
780.308792
 33
0.0
  0
SOLID
  5
CEBC
100
AcDbEntity
  8
0
  6
BYBLOCK
 62
     0
100
AcDbTrace
 10
793.681887
 20
748.808792
 30
0.0
 11
794.848553
 21
748.808792
 31
0.0
 12
794.26522
 22
745.308792
 32
0.0
 13
794.26522
 23
745.308792
 33
0.0
  0
MTEXT
  5
CEBD
100
AcDbEntity
  8
0
  6
BYBLOCK
 62
     0
100
AcDbMText
 10
792.61522
 20
762.808792
 30
0.0
 40
1.8
 41
0.0
 71
     5
 72
     1
  1
\A1;35.00
 11
0.0
 21
1.0
 31
0.0
  0
POINT
  5
CEBE
100
AcDbEntity
  8
DEFPOINTS
  6
BYBLOCK
 62
     0
100
AcDbPoint
 10
806.964514
 20
780.308792
 30
0.0
  0
POINT
  5
CEBF
100
AcDbEntity
  8
DEFPOINTS
  6
BYBLOCK
 62
     0
100
AcDbPoint
 10
806.964514
 20
745.308792
 30
0.0
  0
POINT
  5
CEC0
100
AcDbEntity
  8
DEFPOINTS
  6
BYBLOCK
 62
     0
100
AcDbPoint
 10
794.26522
 20
745.308792
 30
0.0
  0
ENDBLK
  5
CEC1
100
AcDbEntity
  8
0
100
AcDbBlockEnd
  0
BLOCK
  5
CEC2
100
AcDbEntity
  8
0
100
AcDbBlockBegin
  2
*D18
 70
     1
 10
0.0
 20
0.0
 30
0.0
  3
*D18
  1

  0
LINE
  5
CEC3
100
AcDbEntity
  8
0
  6
BYBLOCK
 62
     0
100
AcDbLine
 10
811.964514
 20
743.808792
 30
0.0
 11
811.964514
 21
696.716079
 31
0.0
  0
LINE
  5
CEC4
100
AcDbEntity
  8
0
  6
BYBLOCK
 62
     0
100
AcDbLine
 10
855.964514
 20
718.808792
 30
0.0
 11
855.964514
 21
696.716079
 31
0.0
  0
LINE
  5
CEC5
100
AcDbEntity
  8
0
  6
BYBLOCK
 62
     0
100
AcDbLine
 10
815.464514
 20
698.216079
 30
0.0
 11
852.464514
 21
698.216079
 31
0.0
  0
SOLID
  5
CEC6
100
AcDbEntity
  8
0
  6
BYBLOCK
 62
     0
100
AcDbTrace
 10
815.464514
 20
698.799412
 30
0.0
 11
815.464514
 21
697.632746
 31
0.0
 12
811.964514
 22
698.216079
 32
0.0
 13
811.964514
 23
698.216079
 33
0.0
  0
SOLID
  5
CEC7
100
AcDbEntity
  8
0
  6
BYBLOCK
 62
     0
100
AcDbTrace
 10
852.464514
 20
698.799412
 30
0.0
 11
852.464514
 21
697.632746
 31
0.0
 12
855.964514
 22
698.216079
 32
0.0
 13
855.964514
 23
698.216079
 33
0.0
  0
MTEXT
  5
CEC8
100
AcDbEntity
  8
0
  6
BYBLOCK
 62
     0
100
AcDbMText
 10
833.964514
 20
699.866079
 30
0.0
 40
1.8
 41
0.0
 71
     5
 72
     1
  1
\A1;44.00
  0
POINT
  5
CEC9
100
AcDbEntity
  8
DEFPOINTS
  6
BYBLOCK
 62
     0
100
AcDbPoint
 10
811.964514
 20
745.308792
 30
0.0
  0
POINT
  5
CECA
100
AcDbEntity
  8
DEFPOINTS
  6
BYBLOCK
 62
     0
100
AcDbPoint
 10
855.964514
 20
720.308792
 30
0.0
  0
POINT
  5
CECB
100
AcDbEntity
  8
DEFPOINTS
  6
BYBLOCK
 62
     0
100
AcDbPoint
 10
855.964514
 20
698.216079
 30
0.0
  0
ENDBLK
  5
CECC
100
AcDbEntity
  8
0
100
AcDbBlockEnd
  0
BLOCK
  5
CECD
100
AcDbEntity
  8
0
100
AcDbBlockBegin
  2
*D19
 70
     1
 10
0.0
 20
0.0
 30
0.0
  3
*D19
  1

  0
LINE
  5
CECE
100
AcDbEntity
  8
0
  6
BYBLOCK
 62
     0
100
AcDbLine
 10
917.122858
 20
805.308792
 30
0.0
 11
942.264231
 21
805.308792
 31
0.0
  0
LINE
  5
CECF
100
AcDbEntity
  8
0
  6
BYBLOCK
 62
     0
100
AcDbLine
 10
917.122858
 20
720.308792
 30
0.0
 11
942.264231
 21
720.308792
 31
0.0
  0
LINE
  5
CED0
100
AcDbEntity
  8
0
  6
BYBLOCK
 62
     0
100
AcDbLine
 10
940.764231
 20
801.808792
 30
0.0
 11
940.764231
 21
723.808792
 31
0.0
  0
SOLID
  5
CED1
100
AcDbEntity
  8
0
  6
BYBLOCK
 62
     0
100
AcDbTrace
 10
940.180897
 20
801.808792
 30
0.0
 11
941.347564
 21
801.808792
 31
0.0
 12
940.764231
 22
805.308792
 32
0.0
 13
940.764231
 23
805.308792
 33
0.0
  0
SOLID
  5
CED2
100
AcDbEntity
  8
0
  6
BYBLOCK
 62
     0
100
AcDbTrace
 10
940.180897
 20
723.808792
 30
0.0
 11
941.347564
 21
723.808792
 31
0.0
 12
940.764231
 22
720.308792
 32
0.0
 13
940.764231
 23
720.308792
 33
0.0
  0
MTEXT
  5
CED3
100
AcDbEntity
  8
0
  6
BYBLOCK
 62
     0
100
AcDbMText
 10
939.114231
 20
762.808792
 30
0.0
 40
1.8
 41
0.0
 71
     5
 72
     1
  1
\A1;85.00
 11
0.0
 21
1.0
 31
0.0
  0
POINT
  5
CED4
100
AcDbEntity
  8
DEFPOINTS
  6
BYBLOCK
 62
     0
100
AcDbPoint
 10
915.622858
 20
805.308792
 30
0.0
  0
POINT
  5
CED5
100
AcDbEntity
  8
DEFPOINTS
  6
BYBLOCK
 62
     0
100
AcDbPoint
 10
915.622858
 20
720.308792
 30
0.0
  0
POINT
  5
CED6
100
AcDbEntity
  8
DEFPOINTS
  6
BYBLOCK
 62
     0
100
AcDbPoint
 10
940.764231
 20
720.308792
 30
0.0
  0
ENDBLK
  5
CED7
100
AcDbEntity
  8
0
100
AcDbBlockEnd
  0
BLOCK
  5
CED8
100
AcDbEntity
  8
0
100
AcDbBlockBegin
  2
*D20
 70
     1
 10
0.0
 20
0.0
 30
0.0
  3
*D20
  1

  0
LINE
  5
CED9
100
AcDbEntity
  8
0
  6
BYBLOCK
 62
     0
100
AcDbLine
 10
917.122858
 20
785.308792
 30
0.0
 11
932.981401
 21
785.308792
 31
0.0
  0
LINE
  5
CEDA
100
AcDbEntity
  8
0
  6
BYBLOCK
 62
     0
100
AcDbLine
 10
917.122858
 20
740.308792
 30
0.0
 11
932.981401
 21
740.308792
 31
0.0
  0
LINE
  5
CEDB
100
AcDbEntity
  8
0
  6
BYBLOCK
 62
     0
100
AcDbLine
 10
931.481401
 20
781.808792
 30
0.0
 11
931.481401
 21
743.808792
 31
0.0
  0
SOLID
  5
CEDC
100
AcDbEntity
  8
0
  6
BYBLOCK
 62
     0
100
AcDbTrace
 10
930.898068
 20
781.808792
 30
0.0
 11
932.064734
 21
781.808792
 31
0.0
 12
931.481401
 22
785.308792
 32
0.0
 13
931.481401
 23
785.308792
 33
0.0
  0
SOLID
  5
CEDD
100
AcDbEntity
  8
0
  6
BYBLOCK
 62
     0
100
AcDbTrace
 10
930.898068
 20
743.808792
 30
0.0
 11
932.064734
 21
743.808792
 31
0.0
 12
931.481401
 22
740.308792
 32
0.0
 13
931.481401
 23
740.308792
 33
0.0
  0
MTEXT
  5
CEDE
100
AcDbEntity
  8
0
  6
BYBLOCK
 62
     0
100
AcDbMText
 10
929.831401
 20
762.808792
 30
0.0
 40
1.8
 41
0.0
 71
     5
 72
     1
  1
\A1;45.00
 11
0.0
 21
1.0
 31
0.0
  0
POINT
  5
CEDF
100
AcDbEntity
  8
DEFPOINTS
  6
BYBLOCK
 62
     0
100
AcDbPoint
 10
915.622858
 20
785.308792
 30
0.0
  0
POINT
  5
CEE0
100
AcDbEntity
  8
DEFPOINTS
  6
BYBLOCK
 62
     0
100
AcDbPoint
 10
915.622858
 20
740.308792
 30
0.0
  0
POINT
  5
CEE1
100
AcDbEntity
  8
DEFPOINTS
  6
BYBLOCK
 62
     0
100
AcDbPoint
 10
931.481401
 20
740.308792
 30
0.0
  0
ENDBLK
  5
CEE2
100
AcDbEntity
  8
0
100
AcDbBlockEnd
  0
BLOCK
  5
CEE3
100
AcDbEntity
  8
0
100
AcDbBlockBegin
  2
*D21
 70
     1
 10
0.0
 20
0.0
 30
0.0
  3
*D21
  1

  0
LINE
  5
CEE4
100
AcDbEntity
  8
0
  6
BYBLOCK
 62
     0
100
AcDbLine
 10
898.122858
 20
806.808792
 30
0.0
 11
898.122858
 21
817.100735
 31
0.0
  0
LINE
  5
CEE5
100
AcDbEntity
  8
0
  6
BYBLOCK
 62
     0
100
AcDbLine
 10
915.622858
 20
806.808792
 30
0.0
 11
915.622858
 21
817.100735
 31
0.0
  0
LINE
  5
CEE6
100
AcDbEntity
  8
0
  6
BYBLOCK
 62
     0
100
AcDbLine
 10
901.622858
 20
815.600735
 30
0.0
 11
912.122858
 21
815.600735
 31
0.0
  0
SOLID
  5
CEE7
100
AcDbEntity
  8
0
  6
BYBLOCK
 62
     0
100
AcDbTrace
 10
901.622858
 20
816.184069
 30
0.0
 11
901.622858
 21
815.017402
 31
0.0
 12
898.122858
 22
815.600735
 32
0.0
 13
898.122858
 23
815.600735
 33
0.0
  0
SOLID
  5
CEE8
100
AcDbEntity
  8
0
  6
BYBLOCK
 62
     0
100
AcDbTrace
 10
912.122858
 20
816.184069
 30
0.0
 11
912.122858
 21
815.017402
 31
0.0
 12
915.622858
 22
815.600735
 32
0.0
 13
915.622858
 23
815.600735
 33
0.0
  0
MTEXT
  5
CEE9
100
AcDbEntity
  8
0
  6
BYBLOCK
 62
     0
100
AcDbMText
 10
906.872858
 20
817.250735
 30
0.0
 40
1.8
 41
0.0
 71
     5
 72
     1
  1
\A1;17.50
  0
POINT
  5
CEEA
100
AcDbEntity
  8
DEFPOINTS
  6
BYBLOCK
 62
     0
100
AcDbPoint
 10
898.122858
 20
805.308792
 30
0.0
  0
POINT
  5
CEEB
100
AcDbEntity
  8
DEFPOINTS
  6
BYBLOCK
 62
     0
100
AcDbPoint
 10
915.622858
 20
805.308792
 30
0.0
  0
POINT
  5
CEEC
100
AcDbEntity
  8
DEFPOINTS
  6
BYBLOCK
 62
     0
100
AcDbPoint
 10
915.622858
 20
815.600735
 30
0.0
  0
ENDBLK
  5
CEED
100
AcDbEntity
  8
0
100
AcDbBlockEnd
  0
BLOCK
  5
D111
100
AcDbEntity
  8
0
100
AcDbBlockBegin
  2
*D22
 70
     1
 10
0.0
 20
0.0
 30
0.0
  3
*D22
  1

  0
LINE
  5
D112
100
AcDbEntity
  8
0
  6
BYBLOCK
 62
     0
100
AcDbLine
 10
811.964514
 20
743.808792
 30
0.0
 11
811.964514
 21
687.072435
 31
0.0
  0
LINE
  5
D113
100
AcDbEntity
  8
0
  6
BYBLOCK
 62
     0
100
AcDbLine
 10
871.964514
 20
738.808792
 30
0.0
 11
871.964514
 21
687.072435
 31
0.0
  0
LINE
  5
D114
100
AcDbEntity
  8
0
  6
BYBLOCK
 62
     0
100
AcDbLine
 10
815.464514
 20
688.572435
 30
0.0
 11
868.464514
 21
688.572435
 31
0.0
  0
SOLID
  5
D115
100
AcDbEntity
  8
0
  6
BYBLOCK
 62
     0
100
AcDbTrace
 10
815.464514
 20
689.155768
 30
0.0
 11
815.464514
 21
687.989101
 31
0.0
 12
811.964514
 22
688.572435
 32
0.0
 13
811.964514
 23
688.572435
 33
0.0
  0
SOLID
  5
D116
100
AcDbEntity
  8
0
  6
BYBLOCK
 62
     0
100
AcDbTrace
 10
868.464514
 20
689.155768
 30
0.0
 11
868.464514
 21
687.989101
 31
0.0
 12
871.964514
 22
688.572435
 32
0.0
 13
871.964514
 23
688.572435
 33
0.0
  0
MTEXT
  5
D117
100
AcDbEntity
  8
0
  6
BYBLOCK
 62
     0
100
AcDbMText
 10
841.964514
 20
690.222435
 30
0.0
 40
1.8
 41
0.0
 71
     5
 72
     1
  1
\A1;60.00
  0
POINT
  5
D118
100
AcDbEntity
  8
DEFPOINTS
  6
BYBLOCK
 62
     0
100
AcDbPoint
 10
811.964514
 20
745.308792
 30
0.0
  0
POINT
  5
D119
100
AcDbEntity
  8
DEFPOINTS
  6
BYBLOCK
 62
     0
100
AcDbPoint
 10
871.964514
 20
740.308792
 30
0.0
  0
POINT
  5
D11A
100
AcDbEntity
  8
DEFPOINTS
  6
BYBLOCK
 62
     0
100
AcDbPoint
 10
871.964514
 20
688.572435
 30
0.0
  0
ENDBLK
  5
D11B
100
AcDbEntity
  8
0
100
AcDbBlockEnd
  0
BLOCK
  5
D11D
100
AcDbEntity
  8
0
100
AcDbBlockBegin
  2
*D23
 70
     1
 10
0.0
 20
0.0
 30
0.0
  3
*D23
  1

  0
LINE
  5
D11E
100
AcDbEntity
  8
0
  6
BYBLOCK
 62
     0
100
AcDbLine
 10
806.964514
 20
718.808792
 30
0.0
 11
806.964514
 21
707.077504
 31
0.0
  0
LINE
  5
D11F
100
AcDbEntity
  8
0
  6
BYBLOCK
 62
     0
100
AcDbLine
 10
811.964514
 20
743.808792
 30
0.0
 11
811.964514
 21
707.077504
 31
0.0
  0
LINE
  5
D120
100
AcDbEntity
  8
0
  6
BYBLOCK
 62
     0
100
AcDbLine
 10
815.464514
 20
708.577504
 30
0.0
 11
818.964514
 21
708.577504
 31
0.0
  0
LINE
  5
D121
100
AcDbEntity
  8
0
  6
BYBLOCK
 62
     0
100
AcDbLine
 10
803.464514
 20
708.577504
 30
0.0
 11
793.664514
 21
708.577504
 31
0.0
  0
SOLID
  5
D122
100
AcDbEntity
  8
0
  6
BYBLOCK
 62
     0
100
AcDbTrace
 10
815.464514
 20
709.160838
 30
0.0
 11
815.464514
 21
707.994171
 31
0.0
 12
811.964514
 22
708.577504
 32
0.0
 13
811.964514
 23
708.577504
 33
0.0
  0
SOLID
  5
D123
100
AcDbEntity
  8
0
  6
BYBLOCK
 62
     0
100
AcDbTrace
 10
803.464514
 20
709.160838
 30
0.0
 11
803.464514
 21
707.994171
 31
0.0
 12
806.964514
 22
708.577504
 32
0.0
 13
806.964514
 23
708.577504
 33
0.0
  0
MTEXT
  5
D124
100
AcDbEntity
  8
0
  6
BYBLOCK
 62
     0
100
AcDbMText
 10
796.814514
 20
710.227504
 30
0.0
 40
1.8
 41
0.0
 71
     5
 72
     1
  1
\A1;5.00
  0
POINT
  5
D125
100
AcDbEntity
  8
DEFPOINTS
  6
BYBLOCK
 62
     0
100
AcDbPoint
 10
806.964514
 20
720.308792
 30
0.0
  0
POINT
  5
D126
100
AcDbEntity
  8
DEFPOINTS
  6
BYBLOCK
 62
     0
100
AcDbPoint
 10
811.964514
 20
745.308792
 30
0.0
  0
POINT
  5
D127
100
AcDbEntity
  8
DEFPOINTS
  6
BYBLOCK
 62
     0
100
AcDbPoint
 10
811.964514
 20
708.577504
 30
0.0
  0
ENDBLK
  5
D128
100
AcDbEntity
  8
0
100
AcDbBlockEnd
  0
BLOCK
  5
D12A
100
AcDbEntity
  8
0
100
AcDbBlockBegin
  2
*D24
 70
     1
 10
0.0
 20
0.0
 30
0.0
  3
*D24
  1

  0
LINE
  5
D12B
100
AcDbEntity
  8
0
  6
BYBLOCK
 62
     0
100
AcDbLine
 10
805.464514
 20
780.308792
 30
0.0
 11
792.76522
 21
780.308792
 31
0.0
  0
LINE
  5
D12C
100
AcDbEntity
  8
0
  6
BYBLOCK
 62
     0
100
AcDbLine
 10
805.464514
 20
745.308792
 30
0.0
 11
792.76522
 21
745.308792
 31
0.0
  0
LINE
  5
D12D
100
AcDbEntity
  8
0
  6
BYBLOCK
 62
     0
100
AcDbLine
 10
794.26522
 20
776.808792
 30
0.0
 11
794.26522
 21
748.808792
 31
0.0
  0
SOLID
  5
D12E
100
AcDbEntity
  8
0
  6
BYBLOCK
 62
     0
100
AcDbTrace
 10
793.681887
 20
776.808792
 30
0.0
 11
794.848553
 21
776.808792
 31
0.0
 12
794.26522
 22
780.308792
 32
0.0
 13
794.26522
 23
780.308792
 33
0.0
  0
SOLID
  5
D12F
100
AcDbEntity
  8
0
  6
BYBLOCK
 62
     0
100
AcDbTrace
 10
793.681887
 20
748.808792
 30
0.0
 11
794.848553
 21
748.808792
 31
0.0
 12
794.26522
 22
745.308792
 32
0.0
 13
794.26522
 23
745.308792
 33
0.0
  0
MTEXT
  5
D130
100
AcDbEntity
  8
0
  6
BYBLOCK
 62
     0
100
AcDbMText
 10
792.61522
 20
762.808792
 30
0.0
 40
1.8
 41
0.0
 71
     5
 72
     1
  1
\A1;35.00
 11
0.0
 21
1.0
 31
0.0
  0
POINT
  5
D131
100
AcDbEntity
  8
DEFPOINTS
  6
BYBLOCK
 62
     0
100
AcDbPoint
 10
806.964514
 20
780.308792
 30
0.0
  0
POINT
  5
D132
100
AcDbEntity
  8
DEFPOINTS
  6
BYBLOCK
 62
     0
100
AcDbPoint
 10
806.964514
 20
745.308792
 30
0.0
  0
POINT
  5
D133
100
AcDbEntity
  8
DEFPOINTS
  6
BYBLOCK
 62
     0
100
AcDbPoint
 10
794.26522
 20
745.308792
 30
0.0
  0
ENDBLK
  5
D134
100
AcDbEntity
  8
0
100
AcDbBlockEnd
  0
BLOCK
  5
D136
100
AcDbEntity
  8
0
100
AcDbBlockBegin
  2
*D25
 70
     1
 10
0.0
 20
0.0
 30
0.0
  3
*D25
  1

  0
LINE
  5
D137
100
AcDbEntity
  8
0
  6
BYBLOCK
 62
     0
100
AcDbLine
 10
811.964514
 20
743.808792
 30
0.0
 11
811.964514
 21
696.716079
 31
0.0
  0
LINE
  5
D138
100
AcDbEntity
  8
0
  6
BYBLOCK
 62
     0
100
AcDbLine
 10
855.964514
 20
718.808792
 30
0.0
 11
855.964514
 21
696.716079
 31
0.0
  0
LINE
  5
D139
100
AcDbEntity
  8
0
  6
BYBLOCK
 62
     0
100
AcDbLine
 10
815.464514
 20
698.216079
 30
0.0
 11
852.464514
 21
698.216079
 31
0.0
  0
SOLID
  5
D13A
100
AcDbEntity
  8
0
  6
BYBLOCK
 62
     0
100
AcDbTrace
 10
815.464514
 20
698.799412
 30
0.0
 11
815.464514
 21
697.632746
 31
0.0
 12
811.964514
 22
698.216079
 32
0.0
 13
811.964514
 23
698.216079
 33
0.0
  0
SOLID
  5
D13B
100
AcDbEntity
  8
0
  6
BYBLOCK
 62
     0
100
AcDbTrace
 10
852.464514
 20
698.799412
 30
0.0
 11
852.464514
 21
697.632746
 31
0.0
 12
855.964514
 22
698.216079
 32
0.0
 13
855.964514
 23
698.216079
 33
0.0
  0
MTEXT
  5
D13C
100
AcDbEntity
  8
0
  6
BYBLOCK
 62
     0
100
AcDbMText
 10
833.964514
 20
699.866079
 30
0.0
 40
1.8
 41
0.0
 71
     5
 72
     1
  1
\A1;44.00
  0
POINT
  5
D13D
100
AcDbEntity
  8
DEFPOINTS
  6
BYBLOCK
 62
     0
100
AcDbPoint
 10
811.964514
 20
745.308792
 30
0.0
  0
POINT
  5
D13E
100
AcDbEntity
  8
DEFPOINTS
  6
BYBLOCK
 62
     0
100
AcDbPoint
 10
855.964514
 20
720.308792
 30
0.0
  0
POINT
  5
D13F
100
AcDbEntity
  8
DEFPOINTS
  6
BYBLOCK
 62
     0
100
AcDbPoint
 10
855.964514
 20
698.216079
 30
0.0
  0
ENDBLK
  5
D140
100
AcDbEntity
  8
0
100
AcDbBlockEnd
  0
BLOCK
  5
D142
100
AcDbEntity
  8
0
100
AcDbBlockBegin
  2
*D26
 70
     1
 10
0.0
 20
0.0
 30
0.0
  3
*D26
  1

  0
LINE
  5
D143
100
AcDbEntity
  8
0
  6
BYBLOCK
 62
     0
100
AcDbLine
 10
917.122858
 20
805.308792
 30
0.0
 11
942.264231
 21
805.308792
 31
0.0
  0
LINE
  5
D144
100
AcDbEntity
  8
0
  6
BYBLOCK
 62
     0
100
AcDbLine
 10
917.122858
 20
720.308792
 30
0.0
 11
942.264231
 21
720.308792
 31
0.0
  0
LINE
  5
D145
100
AcDbEntity
  8
0
  6
BYBLOCK
 62
     0
100
AcDbLine
 10
940.764231
 20
801.808792
 30
0.0
 11
940.764231
 21
723.808792
 31
0.0
  0
SOLID
  5
D146
100
AcDbEntity
  8
0
  6
BYBLOCK
 62
     0
100
AcDbTrace
 10
940.180897
 20
801.808792
 30
0.0
 11
941.347564
 21
801.808792
 31
0.0
 12
940.764231
 22
805.308792
 32
0.0
 13
940.764231
 23
805.308792
 33
0.0
  0
SOLID
  5
D147
100
AcDbEntity
  8
0
  6
BYBLOCK
 62
     0
100
AcDbTrace
 10
940.180897
 20
723.808792
 30
0.0
 11
941.347564
 21
723.808792
 31
0.0
 12
940.764231
 22
720.308792
 32
0.0
 13
940.764231
 23
720.308792
 33
0.0
  0
MTEXT
  5
D148
100
AcDbEntity
  8
0
  6
BYBLOCK
 62
     0
100
AcDbMText
 10
939.114231
 20
762.808792
 30
0.0
 40
1.8
 41
0.0
 71
     5
 72
     1
  1
\A1;85.00
 11
0.0
 21
1.0
 31
0.0
  0
POINT
  5
D149
100
AcDbEntity
  8
DEFPOINTS
  6
BYBLOCK
 62
     0
100
AcDbPoint
 10
915.622858
 20
805.308792
 30
0.0
  0
POINT
  5
D14A
100
AcDbEntity
  8
DEFPOINTS
  6
BYBLOCK
 62
     0
100
AcDbPoint
 10
915.622858
 20
720.308792
 30
0.0
  0
POINT
  5
D14B
100
AcDbEntity
  8
DEFPOINTS
  6
BYBLOCK
 62
     0
100
AcDbPoint
 10
940.764231
 20
720.308792
 30
0.0
  0
ENDBLK
  5
D14C
100
AcDbEntity
  8
0
100
AcDbBlockEnd
  0
BLOCK
  5
D14E
100
AcDbEntity
  8
0
100
AcDbBlockBegin
  2
*D27
 70
     1
 10
0.0
 20
0.0
 30
0.0
  3
*D27
  1

  0
LINE
  5
D14F
100
AcDbEntity
  8
0
  6
BYBLOCK
 62
     0
100
AcDbLine
 10
917.122858
 20
785.308792
 30
0.0
 11
932.981401
 21
785.308792
 31
0.0
  0
LINE
  5
D150
100
AcDbEntity
  8
0
  6
BYBLOCK
 62
     0
100
AcDbLine
 10
917.122858
 20
740.308792
 30
0.0
 11
932.981401
 21
740.308792
 31
0.0
  0
LINE
  5
D151
100
AcDbEntity
  8
0
  6
BYBLOCK
 62
     0
100
AcDbLine
 10
931.481401
 20
781.808792
 30
0.0
 11
931.481401
 21
743.808792
 31
0.0
  0
SOLID
  5
D152
100
AcDbEntity
  8
0
  6
BYBLOCK
 62
     0
100
AcDbTrace
 10
930.898068
 20
781.808792
 30
0.0
 11
932.064734
 21
781.808792
 31
0.0
 12
931.481401
 22
785.308792
 32
0.0
 13
931.481401
 23
785.308792
 33
0.0
  0
SOLID
  5
D153
100
AcDbEntity
  8
0
  6
BYBLOCK
 62
     0
100
AcDbTrace
 10
930.898068
 20
743.808792
 30
0.0
 11
932.064734
 21
743.808792
 31
0.0
 12
931.481401
 22
740.308792
 32
0.0
 13
931.481401
 23
740.308792
 33
0.0
  0
MTEXT
  5
D154
100
AcDbEntity
  8
0
  6
BYBLOCK
 62
     0
100
AcDbMText
 10
929.831401
 20
762.808792
 30
0.0
 40
1.8
 41
0.0
 71
     5
 72
     1
  1
\A1;45.00
 11
0.0
 21
1.0
 31
0.0
  0
POINT
  5
D155
100
AcDbEntity
  8
DEFPOINTS
  6
BYBLOCK
 62
     0
100
AcDbPoint
 10
915.622858
 20
785.308792
 30
0.0
  0
POINT
  5
D156
100
AcDbEntity
  8
DEFPOINTS
  6
BYBLOCK
 62
     0
100
AcDbPoint
 10
915.622858
 20
740.308792
 30
0.0
  0
POINT
  5
D157
100
AcDbEntity
  8
DEFPOINTS
  6
BYBLOCK
 62
     0
100
AcDbPoint
 10
931.481401
 20
740.308792
 30
0.0
  0
ENDBLK
  5
D158
100
AcDbEntity
  8
0
100
AcDbBlockEnd
  0
BLOCK
  5
D15A
100
AcDbEntity
  8
0
100
AcDbBlockBegin
  2
*D28
 70
     1
 10
0.0
 20
0.0
 30
0.0
  3
*D28
  1

  0
LINE
  5
D15B
100
AcDbEntity
  8
0
  6
BYBLOCK
 62
     0
100
AcDbLine
 10
898.122858
 20
806.808792
 30
0.0
 11
898.122858
 21
817.100735
 31
0.0
  0
LINE
  5
D15C
100
AcDbEntity
  8
0
  6
BYBLOCK
 62
     0
100
AcDbLine
 10
915.622858
 20
806.808792
 30
0.0
 11
915.622858
 21
817.100735
 31
0.0
  0
LINE
  5
D15D
100
AcDbEntity
  8
0
  6
BYBLOCK
 62
     0
100
AcDbLine
 10
901.622858
 20
815.600735
 30
0.0
 11
912.122858
 21
815.600735
 31
0.0
  0
SOLID
  5
D15E
100
AcDbEntity
  8
0
  6
BYBLOCK
 62
     0
100
AcDbTrace
 10
901.622858
 20
816.184069
 30
0.0
 11
901.622858
 21
815.017402
 31
0.0
 12
898.122858
 22
815.600735
 32
0.0
 13
898.122858
 23
815.600735
 33
0.0
  0
SOLID
  5
D15F
100
AcDbEntity
  8
0
  6
BYBLOCK
 62
     0
100
AcDbTrace
 10
912.122858
 20
816.184069
 30
0.0
 11
912.122858
 21
815.017402
 31
0.0
 12
915.622858
 22
815.600735
 32
0.0
 13
915.622858
 23
815.600735
 33
0.0
  0
MTEXT
  5
D160
100
AcDbEntity
  8
0
  6
BYBLOCK
 62
     0
100
AcDbMText
 10
906.872858
 20
817.250735
 30
0.0
 40
1.8
 41
0.0
 71
     5
 72
     1
  1
\A1;17.50
  0
POINT
  5
D161
100
AcDbEntity
  8
DEFPOINTS
  6
BYBLOCK
 62
     0
100
AcDbPoint
 10
898.122858
 20
805.308792
 30
0.0
  0
POINT
  5
D162
100
AcDbEntity
  8
DEFPOINTS
  6
BYBLOCK
 62
     0
100
AcDbPoint
 10
915.622858
 20
805.308792
 30
0.0
  0
POINT
  5
D163
100
AcDbEntity
  8
DEFPOINTS
  6
BYBLOCK
 62
     0
100
AcDbPoint
 10
915.622858
 20
815.600735
 30
0.0
  0
ENDBLK
  5
D164
100
AcDbEntity
  8
0
100
AcDbBlockEnd
  0
ENDSEC
  0
SECTION
  2
ENTITIES
  0
LINE
  5
2D2D
100
AcDbEntity
  8
WYMIARY
 62
     6
100
AcDbLine
 10
486.041244
 20
552.649937
 30
0.0
 11
486.041244
 21
849.649937
 31
0.0
  0
LINE
  5
2D2E
100
AcDbEntity
  8
WYMIARY
 62
     6
100
AcDbLine
 10
497.671651
 20
844.649937
 30
0.0
 11
497.671651
 21
557.649937
 31
0.0
  0
LINE
  5
2D34
100
AcDbEntity
  8
2
100
AcDbLine
 10
682.671651
 20
557.649937
 30
0.0
 11
682.671651
 21
844.649937
 31
0.0
  0
LINE
  5
2D35
100
AcDbEntity
  8
2
100
AcDbLine
 10
687.671651
 20
552.649937
 30
0.0
 11
687.671651
 21
849.649937
 31
0.0
  0
LINE
  5
2D36
100
AcDbEntity
  8
WY
  6
CONTINUOUS
 62
     3
100
AcDbLine
 10
682.671651
 20
572.339774
 30
0.0
 11
497.671651
 21
572.339774
 31
0.0
  0
LINE
  5
2D38
100
AcDbEntity
  8
2
100
AcDbLine
 10
497.671651
 20
557.649937
 30
0.0
 11
682.671651
 21
557.649937
 31
0.0
  0
LINE
  5
2D39
100
AcDbEntity
  8
2
 62
     6
100
AcDbLine
 10
486.041244
 20
552.649937
 30
0.0
 11
687.671651
 21
552.649937
 31
0.0
  0
LINE
  5
2D3A
100
AcDbEntity
  8
0
100
AcDbLine
 10
529.697667
 20
564.392417
 30
0.0
 11
528.795256
 21
564.392417
 31
0.0
1001
ACAD
1000
ASC_BOUNDS
1002
{
1070
    19
1002
}
  0
ELLIPSE
  5
2D3B
100
AcDbEntity
  8
0
100
AcDbEllipse
 10
529.697667
 20
564.392417
 30
0.0
 11
-1.203215696869327
 21
0.0000000000001967
 31
0.0
210
0.0
220
0.0
230
1.0
 40
0.958812
 41
-1.570796326794739
 42
0.0000000000001705
1001
ACAD
1000
ASC_BOUNDS
1002
{
1070
    19
1002
}
  0
TEXT
  5
2D3D
100
AcDbEntity
  8
1
100
AcDbText
 10
515.607578
 20
561.447394
 30
0.0
 40
5.0
  1
A4
 51
15.0
  7
ITALIC
100
AcDbText
  0
TEXT
  5
2D42
100
AcDbEntity
  8
WY
100
AcDbText
 10
502.936765
 20
569.023781
 30
0.0
 40
2.0
  1
Skala
 51
15.0
  7
ITALIC
100
AcDbText
  0
TEXT
  5
2D43
100
AcDbEntity
  8
WY
100
AcDbText
 10
515.042219
 20
568.979306
 30
0.0
 40
2.0
  1
Format
 51
15.0
  7
ITALIC
100
AcDbText
  0
LINE
  5
2D44
100
AcDbEntity
  8
0
100
AcDbLine
 10
528.494452
 20
564.392417
 30
0.0
 11
528.795256
 21
564.392417
 31
0.0
1001
ACAD
1000
ASC_BOUNDS
1002
{
1070
    19
1002
}
  0
LINE
  5
2D45
100
AcDbEntity
  8
0
100
AcDbLine
 10
559.88722
 20
569.861201
 30
0.0
 11
559.88722
 21
561.665201
 31
0.0
  0
LINE
  5
2D46
100
AcDbEntity
  8
0
100
AcDbLine
 10
550.89322
 20
562.088201
 30
0.0
 11
550.89322
 21
560.066201
 31
0.0
  0
ARC
  5
2D47
100
AcDbEntity
  8
0
100
AcDbCircle
 10
551.5428
 20
562.374701
 30
0.0
 40
0.709955
100
AcDbArc
 50
203.80008
 51
272.051918
  0
LINE
  5
2D48
100
AcDbEntity
  8
0
100
AcDbLine
 10
549.34822
 20
560.066201
 30
0.0
 11
549.34822
 21
568.262201
 31
0.0
  0
ARC
  5
2D49
100
AcDbEntity
  8
0
100
AcDbCircle
 10
551.982126
 20
562.786353
 30
0.0
 40
1.128907
100
AcDbArc
 50
276.719576
 51
2.175194
  0
ARC
  5
2D4A
100
AcDbEntity
  8
0
100
AcDbCircle
 10
555.243059
 20
563.153509
 30
0.0
 40
1.488419
100
AcDbArc
 50
191.634268
 51
270.699113
  0
ARC
  5
2D4B
100
AcDbEntity
  8
0
100
AcDbCircle
 10
556.209381
 20
563.153509
 30
0.0
 40
1.488419
100
AcDbArc
 50
269.300887
 51
348.365732
  0
LINE
  5
2D4C
100
AcDbEntity
  8
0
100
AcDbLine
 10
558.34222
 20
561.665201
 30
0.0
 11
558.34222
 21
569.861201
 31
0.0
  0
ARC
  5
2D4D
100
AcDbEntity
  8
0
100
AcDbCircle
 10
545.056591
 20
563.122301
 30
0.0
 40
1.425319
100
AcDbArc
 50
269.703671
 51
350.465171
  0
ARC
  5
2D4E
100
AcDbEntity
  8
0
100
AcDbCircle
 10
544.201848
 20
563.122301
 30
0.0
 40
1.425319
100
AcDbArc
 50
189.534829
 51
270.296329
  0
LINE
  5
2D4F
100
AcDbEntity
  8
0
100
AcDbLine
 10
547.14922
 20
561.665201
 30
0.0
 11
547.14922
 21
569.861201
 31
0.0
  0
LINE
  5
2D50
100
AcDbEntity
  8
0
100
AcDbLine
 10
548.69422
 20
569.861201
 30
0.0
 11
548.69422
 21
561.665201
 31
0.0
  0
LINE
  5
2D51
100
AcDbEntity
  8
0
100
AcDbLine
 10
539.892236
 20
567.011201
 30
0.0
 11
539.903809
 21
561.665201
 31
0.0
  0
LINE
  5
2D52
100
AcDbEntity
  8
0
100
AcDbLine
 10
538.361694
 20
561.665201
 30
0.0
 11
538.361694
 21
568.253607
 31
0.0
1001
ACAD
1000
ASC_BOUNDS
1002
{
1070
    19
1002
}
  0
LINE
  5
2D53
100
AcDbEntity
  8
0
100
AcDbLine
 10
529.697667
 20
562.544998
 30
0.0
 11
529.697667
 21
560.835305
 31
0.0
1001
ACAD
1000
ASC_BOUNDS
1002
{
1070
    19
1002
}
  0
LINE
  5
2D54
100
AcDbEntity
  8
0
100
AcDbLine
 10
535.613478
 20
560.835305
 30
0.0
 11
535.613478
 21
564.392417
 31
0.0
1001
ACAD
1000
ASC_BOUNDS
1002
{
1070
    19
1002
}
  0
LINE
  5
2D55
100
AcDbEntity
  8
1
100
AcDbLine
 10
563.469863
 20
557.649937
 30
0.0
 11
563.469863
 21
572.339774
 31
0.0
  0
LINE
  5
2D56
100
AcDbEntity
  8
0
100
AcDbLine
 10
530.499811
 20
560.0662
 30
0.0
 11
534.811334
 21
560.0662
 31
0.0
1001
ACAD
1000
ASC_BOUNDS
1002
{
1070
    19
1002
}
  0
ELLIPSE
  5
2D57
100
AcDbEntity
  8
0
100
AcDbEllipse
 10
530.499811
 20
560.835305
 30
0.0
 11
-0.8021437979128705
 21
0.0000000000000154
 31
0.0
210
0.0
220
0.0
230
1.0
 40
0.958812
 41
0.00000000000002
 42
1.570796326794914
1001
ACAD
1000
ASC_BOUNDS
1002
{
1070
    19
1002
}
  0
ELLIPSE
  5
2D58
100
AcDbEntity
  8
0
100
AcDbEllipse
 10
534.811334
 20
560.835305
 30
0.0
 11
0.8021437979128704
 21
0.0000000000001602
 31
0.0
210
0.0
220
0.0
230
1.0
 40
0.958812
 41
4.712388980384497
 42
6.283185307179378
1001
ACAD
1000
ASC_BOUNDS
1002
{
1070
    19
1002
}
  0
LINE
  5
2D59
100
AcDbEntity
  8
0
100
AcDbLine
 10
539.892236
 20
561.665201
 30
0.0
 11
539.903809
 21
561.672695
 31
0.0
  0
LINE
  5
2D5A
100
AcDbEntity
  8
0
100
AcDbLine
 10
538.361694
 20
561.665201
 30
0.0
 11
539.903809
 21
561.665201
 31
0.0
1001
ACAD
1000
ASC_BOUNDS
1002
{
1070
    19
1002
}
  0
LINE
  5
2D5B
100
AcDbEntity
  8
0
100
AcDbLine
 10
544.194477
 20
561.697001
 30
0.0
 11
545.04922
 21
561.697001
 31
0.0
  0
LINE
  5
2D5C
100
AcDbEntity
  8
0
100
AcDbLine
 10
550.89322
 20
560.066201
 30
0.0
 11
549.34822
 21
560.066201
 31
0.0
  0
LINE
  5
2D5D
100
AcDbEntity
  8
0
100
AcDbLine
 10
548.69422
 20
561.665201
 30
0.0
 11
547.14922
 21
561.665201
 31
0.0
  0
LINE
  5
2D5E
100
AcDbEntity
  8
0
100
AcDbLine
 10
551.576266
 20
561.665201
 30
0.0
 11
552.11422
 21
561.665201
 31
0.0
  0
LINE
  5
2D5F
100
AcDbEntity
  8
0
100
AcDbLine
 10
555.26122
 20
561.665201
 30
0.0
 11
556.19122
 21
561.665201
 31
0.0
  0
LINE
  5
2D60
100
AcDbEntity
  8
0
100
AcDbLine
 10
559.88722
 20
561.665201
 30
0.0
 11
558.34222
 21
561.665201
 31
0.0
  0
ARC
  5
2D61
100
AcDbEntity
  8
0
100
AcDbCircle
 10
545.056591
 20
566.828307
 30
0.0
 40
1.425319
100
AcDbArc
 50
9.534829
 51
90.296329
  0
LINE
  5
2D62
100
AcDbEntity
  8
0
100
AcDbLine
 10
546.46222
 20
564.461607
 30
0.0
 11
544.33822
 21
564.461607
 31
0.0
  0
LINE
  5
2D63
100
AcDbEntity
  8
0
100
AcDbLine
 10
545.01322
 20
563.786607
 30
0.0
 11
546.46222
 21
563.786607
 31
0.0
  0
LINE
  5
2D64
100
AcDbEntity
  8
0
100
AcDbLine
 10
529.697667
 20
566.11122
 30
0.0
 11
529.697667
 21
568.910911
 31
0.0
1001
ACAD
1000
ASC_BOUNDS
1002
{
1070
    19
1002
}
  0
ELLIPSE
  5
2D65
100
AcDbEntity
  8
0
100
AcDbEllipse
 10
532.630506
 20
567.829357
 30
0.0
 11
2.983077570132104
 21
0.0000000000002996
 31
0.0
210
0.0
220
0.0
230
1.0
 40
0.958812
 41
-1.562393163247347
 42
0.0084031635475457
1001
ACAD
1000
ASC_BOUNDS
1002
{
1070
    19
1002
}
  0
ELLIPSE
  5
2D66
100
AcDbEntity
  8
0
100
AcDbEllipse
 10
532.58733
 20
568.159476
 30
0.0
 11
-4.072692107280919
 21
0.0000000000000925
 31
0.0
210
0.0
220
0.0
230
1.0
 40
0.958812
 41
1.587553347046634
 42
2.408388587343224
1001
ACAD
1000
ASC_BOUNDS
1002
{
1070
    19
1002
}
  0
LINE
  5
2D67
100
AcDbEntity
  8
0
100
AcDbLine
 10
529.697667
 20
564.392417
 30
0.0
 11
529.697667
 21
563.684451
 31
0.0
1001
ACAD
1000
ASC_BOUNDS
1002
{
1070
    19
1002
}
  0
LINE
  5
2D68
100
AcDbEntity
  8
0
100
AcDbLine
 10
529.697667
 20
566.11122
 30
0.0
 11
529.697667
 21
565.546075
 31
0.0
1001
ACAD
1000
ASC_BOUNDS
1002
{
1070
    19
1002
}
  0
ELLIPSE
  5
2D69
100
AcDbEntity
  8
0
100
AcDbEllipse
 10
532.249598
 20
562.522424
 30
0.0
 11
2.960559210508897
 21
0.3570763225581005
 31
0.0
210
0.0
220
0.0
230
0.9999999999999998
 40
0.820999
 41
1.335209029023201
 42
2.503032872947537
1001
ACAD
1000
ASC_BOUNDS
1002
{
1070
    19
1002
}
  0
ELLIPSE
  5
2D6A
100
AcDbEntity
  8
0
100
AcDbEllipse
 10
532.480104
 20
561.587243
 30
0.0
 11
3.015746449176212
 21
0.7746519372140012
 31
0.0
210
0.0
220
0.0
230
1.0
 40
0.846775
 41
1.29973646820557
 42
2.479974117225238
1001
ACAD
1000
ASC_BOUNDS
1002
{
1070
    19
1002
}
  0
LINE
  5
2D6B
100
AcDbEntity
  8
0
100
AcDbLine
 10
536.816694
 20
565.546075
 30
0.0
 11
536.51589
 21
565.546075
 31
0.0
1001
ACAD
1000
ASC_BOUNDS
1002
{
1070
    19
1002
}
  0
LINE
  5
2D6C
100
AcDbEntity
  8
0
100
AcDbLine
 10
535.613478
 20
565.546075
 30
0.0
 11
536.51589
 21
565.546075
 31
0.0
1001
ACAD
1000
ASC_BOUNDS
1002
{
1070
    19
1002
}
  0
ELLIPSE
  5
2D6D
100
AcDbEntity
  8
0
100
AcDbEllipse
 10
535.613478
 20
565.546075
 30
0.0
 11
1.203215696869352
 21
0.0000000000000893
 31
0.0
210
0.0
220
0.0
230
1.0
 40
0.958812
 41
4.712388980384611
 42
6.283185307179508
1001
ACAD
1000
ASC_BOUNDS
1002
{
1070
    19
1002
}
  0
LINE
  5
2D6E
100
AcDbEntity
  8
0
100
AcDbLine
 10
530.499811
 20
569.680016
 30
0.0
 11
534.811334
 21
569.680016
 31
0.0
  0
ELLIPSE
  5
2D6F
100
AcDbEntity
  8
0
100
AcDbEllipse
 10
530.499811
 20
568.910911
 30
0.0
 11
0.8021437979128704
 21
0.000000000000038
 31
0.0
210
0.0
220
0.0
230
1.0
 40
0.958812
 41
1.570796326794851
 42
3.141592653589743
1001
ACAD
1000
ASC_BOUNDS
1002
{
1070
    19
1002
}
  0
LINE
  5
2D70
100
AcDbEntity
  8
0
100
AcDbLine
 10
535.613478
 20
567.805322
 30
0.0
 11
535.613478
 21
568.910911
 31
0.0
1001
ACAD
1000
ASC_BOUNDS
1002
{
1070
    19
1002
}
  0
ELLIPSE
  5
2D71
100
AcDbEntity
  8
0
100
AcDbEllipse
 10
534.811334
 20
568.910911
 30
0.0
 11
-0.8021437979128705
 21
0.000000000000038
 31
0.0
210
0.0
220
0.0
230
1.0
 40
0.958812
 41
3.141592653589842
 42
4.712388980384734
1001
ACAD
1000
ASC_BOUNDS
1002
{
1070
    19
1002
}
  0
ARC
  5
2D72
100
AcDbEntity
  8
0
100
AcDbCircle
 10
540.798894
 20
566.991207
 30
0.0
 40
1.377457
100
AcDbArc
 50
16.265061
 51
130.527299
  0
ARC
  5
2D73
100
AcDbEntity
  8
0
100
AcDbCircle
 10
544.201848
 20
566.828307
 30
0.0
 40
1.425319
100
AcDbArc
 50
89.703671
 51
170.465171
  0
LINE
  5
2D74
100
AcDbEntity
  8
0
100
AcDbLine
 10
540.911147
 20
565.586007
 30
0.0
 11
542.12122
 21
565.586007
 31
0.0
  0
LINE
  5
2D75
100
AcDbEntity
  8
0
100
AcDbLine
 10
540.578809
 20
565.586007
 30
0.0
 11
542.12122
 21
565.586007
 31
0.0
  0
ARC
  5
2D76
100
AcDbEntity
  8
0
100
AcDbCircle
 10
540.229736
 20
567.011201
 30
0.0
 40
0.3375
100
AcDbArc
 50
360.0
 51
180.0
  0
LINE
  5
2D77
100
AcDbEntity
  8
0
100
AcDbLine
 10
540.567236
 20
567.011201
 30
0.0
 11
540.578809
 21
565.586007
 31
0.0
  0
ARC
  5
2D78
100
AcDbEntity
  8
0
100
AcDbCircle
 10
544.67572
 20
567.011201
 30
0.0
 40
0.3375
100
AcDbArc
 50
360.0
 51
180.0
  0
LINE
  5
2D79
100
AcDbEntity
  8
0
100
AcDbLine
 10
544.33822
 20
564.461607
 30
0.0
 11
544.33822
 21
562.886201
 31
0.0
  0
LINE
  5
2D7A
100
AcDbEntity
  8
0
100
AcDbLine
 10
544.33822
 20
565.361607
 30
0.0
 11
545.01322
 21
565.361607
 31
0.0
  0
LINE
  5
2D7B
100
AcDbEntity
  8
0
100
AcDbLine
 10
545.01322
 20
563.786607
 30
0.0
 11
545.01322
 21
562.902701
 31
0.0
  0
LINE
  5
2D7C
100
AcDbEntity
  8
0
100
AcDbLine
 10
544.33822
 20
564.461607
 30
0.0
 11
544.33822
 21
562.902701
 31
0.0
  0
ARC
  5
2D7D
100
AcDbEntity
  8
0
100
AcDbCircle
 10
544.67572
 20
562.902701
 30
0.0
 40
0.3375
100
AcDbArc
 50
180.0
 51
0.0
  0
LINE
  5
2D7E
100
AcDbEntity
  8
0
100
AcDbLine
 10
545.01322
 20
567.011201
 30
0.0
 11
545.01322
 21
565.361607
 31
0.0
  0
LINE
  5
2D7F
100
AcDbEntity
  8
0
100
AcDbLine
 10
544.33822
 20
567.011201
 30
0.0
 11
544.33822
 21
565.361607
 31
0.0
  0
LINE
  5
2D80
100
AcDbEntity
  8
0
100
AcDbLine
 10
542.12122
 20
565.586007
 30
0.0
 11
542.12122
 21
567.377007
 31
0.0
1001
ACAD
1000
ASC_BOUNDS
1002
{
1070
    19
1002
}
  0
LINE
  5
2D81
100
AcDbEntity
  8
0
100
AcDbLine
 10
542.79622
 20
562.886201
 30
0.0
 11
542.79622
 21
567.064407
 31
0.0
  0
LINE
  5
2D82
100
AcDbEntity
  8
0
100
AcDbLine
 10
539.903809
 20
568.253607
 30
0.0
 11
539.903809
 21
568.038207
 31
0.0
  0
LINE
  5
2D83
100
AcDbEntity
  8
0
100
AcDbLine
 10
538.361694
 20
568.253607
 30
0.0
 11
539.903809
 21
568.253607
 31
0.0
1001
ACAD
1000
ASC_BOUNDS
1002
{
1070
    19
1002
}
  0
LINE
  5
2D84
100
AcDbEntity
  8
0
100
AcDbLine
 10
544.194477
 20
568.253607
 30
0.0
 11
545.04922
 21
568.253607
 31
0.0
  0
ARC
  5
2D85
100
AcDbEntity
  8
0
100
AcDbCircle
 10
555.243059
 20
566.77404
 30
0.0
 40
1.488419
100
AcDbArc
 50
89.300887
 51
168.365732
  0
ARC
  5
2D86
100
AcDbEntity
  8
0
100
AcDbCircle
 10
551.752247
 20
566.857302
 30
0.0
 40
1.409039
100
AcDbArc
 50
15.47255
 51
127.56454
  0
LINE
  5
2D87
100
AcDbEntity
  8
0
100
AcDbLine
 10
546.46222
 20
563.786607
 30
0.0
 11
546.46222
 21
562.886201
 31
0.0
  0
LINE
  5
2D88
100
AcDbEntity
  8
0
100
AcDbLine
 10
546.46222
 20
564.461607
 30
0.0
 11
546.46222
 21
567.064407
 31
0.0
  0
LINE
  5
2D89
100
AcDbEntity
  8
0
100
AcDbLine
 10
553.11022
 20
567.233201
 30
0.0
 11
553.11022
 21
562.829201
 31
0.0
  0
LINE
  5
2D8A
100
AcDbEntity
  8
0
100
AcDbLine
 10
551.56822
 20
567.011201
 30
0.0
 11
551.56822
 21
562.902701
 31
0.0
  0
LINE
  5
2D8B
100
AcDbEntity
  8
0
100
AcDbLine
 10
550.89322
 20
567.011201
 30
0.0
 11
550.89322
 21
562.902701
 31
0.0
  0
ARC
  5
2D8C
100
AcDbEntity
  8
0
100
AcDbCircle
 10
551.23072
 20
562.902701
 30
0.0
 40
0.3375
100
AcDbArc
 50
180.0
 51
0.0
  0
ARC
  5
2D8D
100
AcDbEntity
  8
0
100
AcDbCircle
 10
551.23072
 20
567.011201
 30
0.0
 40
0.3375
100
AcDbArc
 50
360.0
 51
180.0
  0
LINE
  5
2D8E
100
AcDbEntity
  8
0
100
AcDbLine
 10
549.34822
 20
568.262201
 30
0.0
 11
550.89322
 21
568.262201
 31
0.0
  0
LINE
  5
2D8F
100
AcDbEntity
  8
0
100
AcDbLine
 10
547.14922
 20
569.861201
 30
0.0
 11
548.69422
 21
569.861201
 31
0.0
  0
LINE
  5
2D90
100
AcDbEntity
  8
0
100
AcDbLine
 10
550.89322
 20
568.262201
 30
0.0
 11
550.89322
 21
567.974201
 31
0.0
  0
ARC
  5
2D91
100
AcDbEntity
  8
0
100
AcDbCircle
 10
556.209381
 20
566.77404
 30
0.0
 40
1.488419
100
AcDbArc
 50
11.634268
 51
90.699113
  0
LINE
  5
2D92
100
AcDbEntity
  8
0
100
AcDbLine
 10
557.66722
 20
567.074201
 30
0.0
 11
557.66722
 21
562.853348
 31
0.0
  0
ARC
  5
2D93
100
AcDbEntity
  8
0
100
AcDbCircle
 10
555.72622
 20
567.011201
 30
0.0
 40
0.3375
100
AcDbArc
 50
360.0
 51
180.0
  0
ARC
  5
2D94
100
AcDbEntity
  8
0
100
AcDbCircle
 10
555.72622
 20
562.902701
 30
0.0
 40
0.3375
100
AcDbArc
 50
180.0
 51
0.0
  0
LINE
  5
2D95
100
AcDbEntity
  8
0
100
AcDbLine
 10
555.38872
 20
567.011201
 30
0.0
 11
555.38872
 21
562.902701
 31
0.0
  0
LINE
  5
2D96
100
AcDbEntity
  8
0
100
AcDbLine
 10
556.06372
 20
567.011201
 30
0.0
 11
556.06372
 21
562.902701
 31
0.0
  0
LINE
  5
2D97
100
AcDbEntity
  8
0
100
AcDbLine
 10
553.78522
 20
562.853348
 30
0.0
 11
553.78522
 21
567.074201
 31
0.0
  0
LINE
  5
2D98
100
AcDbEntity
  8
0
100
AcDbLine
 10
555.26122
 20
568.262348
 30
0.0
 11
556.19122
 21
568.262348
 31
0.0
  0
LINE
  5
2D99
100
AcDbEntity
  8
0
100
AcDbLine
 10
558.34222
 20
569.861201
 30
0.0
 11
559.88722
 21
569.861201
 31
0.0
  0
TEXT
  5
2D9A
100
AcDbEntity
  8
WY
100
AcDbText
 10
564.417407
 20
564.253947
 30
0.0
 40
2.0
  1
02-02-2008
 51
15.0
  7
ITALIC
100
AcDbText
  0
TEXT
  5
2D9B
100
AcDbEntity
  8
WY
100
AcDbText
 10
568.848776
 20
568.799175
 30
0.0
 40
2.0
  1
Data
 51
15.0
  7
ITALIC
100
AcDbText
  0
LINE
  5
2D9E
100
AcDbEntity
  8
1
100
AcDbLine
 10
627.394234
 20
557.649937
 30
0.0
 11
627.394234
 21
572.339774
 31
0.0
  0
TEXT
  5
2D9F
100
AcDbEntity
  8
WY
100
AcDbText
 10
629.585432
 20
569.249185
 30
0.0
 40
2.0
  1
Product type
 51
15.0
  7
ITALIC
100
AcDbText
  0
LINE
  5
2DF2
100
AcDbEntity
  8
2
100
AcDbLine
 10
682.671651
 20
844.649937
 30
0.0
 11
497.671651
 21
844.649937
 31
0.0
  0
LINE
  5
2DF3
100
AcDbEntity
  8
2
100
AcDbLine
 10
687.671651
 20
849.649937
 30
0.0
 11
497.671651
 21
849.649937
 31
0.0
  0
LINE
  5
2E74
100
AcDbEntity
  8
WYMIARY
 62
     6
100
AcDbLine
 10
497.671651
 20
849.649937
 30
0.0
 11
486.041244
 21
849.649937
 31
0.0
  0
MTEXT
  5
31F2
100
AcDbEntity
  8
WYMIARY
100
AcDbMText
 10
780.543201
 20
224.476865
 30
0.0
 40
3.5
 41
15.6
 71
     1
 72
     5
  1

  7
ITALIC
  0
TEXT
  5
478E
100
AcDbEntity
  8
1
100
AcDbText
 10
500.301985
 20
561.447394
 30
0.0
 40
5.0
  1
1:1
 51
15.0
  7
ITALIC
100
AcDbText
  0
LINE
  5
482F
100
AcDbEntity
  8
WYMIARY
 62
     6
100
AcDbLine
 10
687.671651
 20
552.649937
 30
0.0
 11
687.671651
 21
849.649937
 31
0.0
  0
LINE
  5
4AD7
100
AcDbEntity
  8
WYMIARY
 62
     3
100
AcDbLine
 10
512.671651
 20
572.339774
 30
0.0
 11
512.671651
 21
557.649937
 31
0.0
  0
LINE
  5
4AD9
100
AcDbEntity
  8
WYMIARY
 62
     3
100
AcDbLine
 10
527.671651
 20
572.339774
 30
0.0
 11
527.671651
 21
557.649937
 31
0.0
  0
LINE
  5
4ADA
100
AcDbEntity
  8
WYMIARY
 62
     3
100
AcDbLine
 10
586.373187
 20
572.339774
 30
0.0
 11
586.373187
 21
557.649937
 31
0.0
  0
TEXT
  5
4ADB
100
AcDbEntity
  8
WY
100
AcDbText
 10
587.562196
 20
569.249185
 30
0.0
 40
2.0
  1
Draw. No.
 51
15.0
  7
ITALIC
100
AcDbText
  0
TEXT
  5
4ADF
100
AcDbEntity
  8
1
100
AcDbText
 10
587.909311
 20
561.713946
 30
0.0
 40
3.0
  1
RIK20-02A
 41
0.65
  7
ITALIC
100
AcDbText
  0
LINE
  5
4AE9
100
AcDbEntity
  8
WYMIARY
 62
     6
100
AcDbLine
 10
687.671651
 20
552.649937
 30
0.0
 11
687.671651
 21
849.649937
 31
0.0
  0
LINE
  5
6488
100
AcDbEntity
  8
WYMIARY
 62
     6
100
AcDbLine
 10
687.671651
 20
552.649937
 30
0.0
 11
687.671651
 21
849.649937
 31
0.0
  0
LINE
  5
648E
100
AcDbEntity
  8
2
100
AcDbLine
 10
687.671651
 20
552.649937
 30
0.0
 11
687.671651
 21
849.649937
 31
0.0
  0
LINE
  5
6CB6
100
AcDbEntity
  8
WYMIARY
 62
     6
100
AcDbLine
 10
687.671651
 20
552.649937
 30
0.0
 11
687.671651
 21
849.649937
 31
0.0
  0
LINE
  5
6CB8
100
AcDbEntity
  8
2
100
AcDbLine
 10
687.671651
 20
552.649937
 30
0.0
 11
687.671651
 21
849.649937
 31
0.0
  0
TEXT
  5
A05E
100
AcDbEntity
  8
1
100
AcDbText
 10
629.389291
 20
561.713946
 30
0.0
 40
5.0
  1
RIK20
 41
0.75
  7
ITALIC
100
AcDbText
  0
LINE
  5
B2C3
100
AcDbEntity
  8
WYMIARY
 62
     6
100
AcDbLine
 10
687.671651
 20
552.649937
 30
0.0
 11
687.671651
 21
849.649937
 31
0.0
  0
TEXT
  5
BFA4
100
AcDbEntity
  8
1
100
AcDbText
 10
575.90318
 20
826.419038
 30
0.0
 40
5.0
  1
RIK20
 41
0.75
  7
ITALIC
100
AcDbText
  0
LINE
  5
C752
100
AcDbEntity
  8
WYMIARY
 62
     3
100
AcDbLine
 10
573.7094
 20
800.862941
 30
0.0
 11
591.2094
 21
800.862941
 31
0.0
  0
LINE
  5
C753
100
AcDbEntity
  8
WYMIARY
 62
     3
100
AcDbLine
 10
591.2094
 20
800.862941
 30
0.0
 11
591.2094
 21
715.862941
 31
0.0
  0
LINE
  5
C754
100
AcDbEntity
  8
WYMIARY
 62
     3
100
AcDbLine
 10
591.2094
 20
715.862941
 30
0.0
 11
573.7094
 21
715.862941
 31
0.0
  0
LINE
  5
C755
100
AcDbEntity
  8
WYMIARY
 62
     3
100
AcDbLine
 10
573.7094
 20
715.862941
 30
0.0
 11
573.7094
 21
800.862941
 31
0.0
  0
LINE
  5
C75B
100
AcDbEntity
  8
WYMIARY
 62
     3
100
AcDbLine
 10
591.2094
 20
780.862941
 30
0.0
 11
573.7094
 21
780.862941
 31
0.0
  0
LINE
  5
C75D
100
AcDbEntity
  8
WYMIARY
 62
     3
100
AcDbLine
 10
591.2094
 20
735.862941
 30
0.0
 11
573.7094
 21
735.862941
 31
0.0
  0
LINE
  5
C761
100
AcDbEntity
  8
WYMIARY
 62
     3
100
AcDbLine
 10
591.2094
 20
800.862941
 30
0.0
 11
586.5094
 21
800.862941
 31
0.0
  0
CIRCLE
  5
C763
100
AcDbEntity
  8
WYMIARY
 62
     3
100
AcDbCircle
 10
586.5094
 20
794.658185
 30
0.0
 40
3.3
  0
LINE
  5
C764
100
AcDbEntity
  8
WYMIARY
 62
     3
100
AcDbLine
 10
585.742215
 20
795.273101
 30
0.0
 11
583.563175
 21
795.273101
 31
0.0
  0
LINE
  5
C765
100
AcDbEntity
  8
WYMIARY
 62
     3
100
AcDbLine
 10
585.742215
 20
793.884975
 30
0.0
 11
583.563175
 21
793.884975
 31
0.0
  0
LINE
  5
C766
100
AcDbEntity
  8
WYMIARY
 62
     3
100
AcDbLine
 10
583.563175
 20
793.884975
 30
0.0
 11
583.563175
 21
795.273101
 31
0.0
  0
LINE
  5
C767
100
AcDbEntity
  8
WYMIARY
 62
     3
100
AcDbLine
 10
589.102815
 20
795.273101
 30
0.0
 11
587.130341
 21
795.273101
 31
0.0
  0
LINE
  5
C768
100
AcDbEntity
  8
WYMIARY
 62
     3
100
AcDbLine
 10
589.102815
 20
793.884975
 30
0.0
 11
587.130341
 21
793.884975
 31
0.0
  0
LINE
  5
C769
100
AcDbEntity
  8
WYMIARY
 62
     3
100
AcDbLine
 10
587.130341
 20
791.888365
 30
0.0
 11
585.742215
 21
791.888365
 31
0.0
  0
LINE
  5
C76A
100
AcDbEntity
  8
WYMIARY
 62
     3
100
AcDbLine
 10
587.130341
 20
797.428005
 30
0.0
 11
585.742215
 21
797.428005
 31
0.0
  0
LINE
  5
C76B
100
AcDbEntity
  8
WYMIARY
 62
     3
100
AcDbLine
 10
587.130341
 20
797.428005
 30
0.0
 11
585.742215
 21
797.428005
 31
0.0
  0
LINE
  5
C76C
100
AcDbEntity
  8
WYMIARY
 62
     3
100
AcDbLine
 10
587.130341
 20
797.428005
 30
0.0
 11
585.742215
 21
797.428005
 31
0.0
  0
LINE
  5
C76D
100
AcDbEntity
  8
WYMIARY
 62
     3
100
AcDbLine
 10
587.130341
 20
797.428005
 30
0.0
 11
587.130341
 21
795.273101
 31
0.0
  0
LINE
  5
C76E
100
AcDbEntity
  8
WYMIARY
 62
     3
100
AcDbLine
 10
587.130341
 20
793.884975
 30
0.0
 11
587.130341
 21
791.888365
 31
0.0
  0
LINE
  5
C76F
100
AcDbEntity
  8
WYMIARY
 62
     3
100
AcDbLine
 10
585.742215
 20
797.428005
 30
0.0
 11
585.742215
 21
795.273101
 31
0.0
  0
LINE
  5
C770
100
AcDbEntity
  8
WYMIARY
 62
     3
100
AcDbLine
 10
585.742215
 20
793.884975
 30
0.0
 11
585.742215
 21
791.888365
 31
0.0
  0
LINE
  5
C771
100
AcDbEntity
  8
WYMIARY
 62
     3
100
AcDbLine
 10
589.102815
 20
793.884975
 30
0.0
 11
589.102815
 21
795.273101
 31
0.0
  0
CIRCLE
  5
C772
100
AcDbEntity
  8
WYMIARY
 62
     3
100
AcDbCircle
 10
582.466158
 20
786.274044
 30
0.0
 40
2.25
  0
LINE
  5
C773
100
AcDbEntity
  8
WYMIARY
 62
     3
100
AcDbLine
 10
579.176585
 20
793.884975
 30
0.0
 11
581.355625
 21
793.884975
 31
0.0
  0
LINE
  5
C774
100
AcDbEntity
  8
WYMIARY
 62
     3
100
AcDbLine
 10
579.176585
 20
795.273101
 30
0.0
 11
581.355625
 21
795.273101
 31
0.0
  0
CIRCLE
  5
C775
100
AcDbEntity
  8
WYMIARY
 62
     3
100
AcDbCircle
 10
578.4094
 20
794.658185
 30
0.0
 40
3.3
  0
LINE
  5
C776
100
AcDbEntity
  8
WYMIARY
 62
     3
100
AcDbLine
 10
581.355625
 20
793.884975
 30
0.0
 11
581.355625
 21
795.273101
 31
0.0
  0
LINE
  5
C777
100
AcDbEntity
  8
WYMIARY
 62
     3
100
AcDbLine
 10
575.815985
 20
793.884975
 30
0.0
 11
575.815985
 21
795.273101
 31
0.0
  0
LINE
  5
C778
100
AcDbEntity
  8
WYMIARY
 62
     3
100
AcDbLine
 10
579.176585
 20
793.884975
 30
0.0
 11
579.176585
 21
791.888365
 31
0.0
  0
LINE
  5
C779
100
AcDbEntity
  8
WYMIARY
 62
     3
100
AcDbLine
 10
579.176585
 20
797.428005
 30
0.0
 11
579.176585
 21
795.273101
 31
0.0
  0
LINE
  5
C77A
100
AcDbEntity
  8
WYMIARY
 62
     3
100
AcDbLine
 10
577.788459
 20
793.884975
 30
0.0
 11
577.788459
 21
791.888365
 31
0.0
  0
LINE
  5
C77B
100
AcDbEntity
  8
WYMIARY
 62
     3
100
AcDbLine
 10
577.788459
 20
797.428005
 30
0.0
 11
577.788459
 21
795.273101
 31
0.0
  0
LINE
  5
C77C
100
AcDbEntity
  8
WYMIARY
 62
     3
100
AcDbLine
 10
577.788459
 20
797.428005
 30
0.0
 11
579.176585
 21
797.428005
 31
0.0
  0
LINE
  5
C77D
100
AcDbEntity
  8
WYMIARY
 62
     3
100
AcDbLine
 10
577.788459
 20
797.428005
 30
0.0
 11
579.176585
 21
797.428005
 31
0.0
  0
LINE
  5
C77E
100
AcDbEntity
  8
WYMIARY
 62
     3
100
AcDbLine
 10
577.788459
 20
797.428005
 30
0.0
 11
579.176585
 21
797.428005
 31
0.0
  0
LINE
  5
C77F
100
AcDbEntity
  8
WYMIARY
 62
     3
100
AcDbLine
 10
577.788459
 20
791.888365
 30
0.0
 11
579.176585
 21
791.888365
 31
0.0
  0
LINE
  5
C780
100
AcDbEntity
  8
WYMIARY
 62
     3
100
AcDbLine
 10
575.815985
 20
793.884975
 30
0.0
 11
577.788459
 21
793.884975
 31
0.0
  0
LINE
  5
C781
100
AcDbEntity
  8
WYMIARY
 62
     3
100
AcDbLine
 10
575.815985
 20
795.273101
 30
0.0
 11
577.788459
 21
795.273101
 31
0.0
  0
LINE
  5
C782
100
AcDbEntity
  8
WYMIARY
 62
     3
100
AcDbLine
 10
585.742215
 20
722.840907
 30
0.0
 11
583.563175
 21
722.840907
 31
0.0
  0
LINE
  5
C783
100
AcDbEntity
  8
WYMIARY
 62
     3
100
AcDbLine
 10
585.742215
 20
721.452782
 30
0.0
 11
583.563175
 21
721.452782
 31
0.0
  0
CIRCLE
  5
C784
100
AcDbEntity
  8
WYMIARY
 62
     3
100
AcDbCircle
 10
586.5094
 20
722.067698
 30
0.0
 40
3.3
  0
LINE
  5
C785
100
AcDbEntity
  8
WYMIARY
 62
     3
100
AcDbLine
 10
575.815985
 20
721.452782
 30
0.0
 11
577.788459
 21
721.452782
 31
0.0
  0
LINE
  5
C786
100
AcDbEntity
  8
WYMIARY
 62
     3
100
AcDbLine
 10
575.815985
 20
722.840907
 30
0.0
 11
577.788459
 21
722.840907
 31
0.0
  0
LINE
  5
C787
100
AcDbEntity
  8
WYMIARY
 62
     3
100
AcDbLine
 10
577.788459
 20
724.837518
 30
0.0
 11
579.176585
 21
724.837518
 31
0.0
  0
LINE
  5
C788
100
AcDbEntity
  8
WYMIARY
 62
     3
100
AcDbLine
 10
577.788459
 20
719.297878
 30
0.0
 11
579.176585
 21
719.297878
 31
0.0
  0
LINE
  5
C789
100
AcDbEntity
  8
WYMIARY
 62
     3
100
AcDbLine
 10
577.788459
 20
719.297878
 30
0.0
 11
579.176585
 21
719.297878
 31
0.0
  0
LINE
  5
C78A
100
AcDbEntity
  8
WYMIARY
 62
     3
100
AcDbLine
 10
577.788459
 20
719.297878
 30
0.0
 11
579.176585
 21
719.297878
 31
0.0
  0
LINE
  5
C78B
100
AcDbEntity
  8
WYMIARY
 62
     3
100
AcDbLine
 10
577.788459
 20
719.297878
 30
0.0
 11
577.788459
 21
721.452782
 31
0.0
  0
LINE
  5
C78C
100
AcDbEntity
  8
WYMIARY
 62
     3
100
AcDbLine
 10
577.788459
 20
722.840907
 30
0.0
 11
577.788459
 21
724.837518
 31
0.0
  0
LINE
  5
C78D
100
AcDbEntity
  8
WYMIARY
 62
     3
100
AcDbLine
 10
579.176585
 20
719.297878
 30
0.0
 11
579.176585
 21
721.452782
 31
0.0
  0
LINE
  5
C78E
100
AcDbEntity
  8
WYMIARY
 62
     3
100
AcDbLine
 10
579.176585
 20
722.840907
 30
0.0
 11
579.176585
 21
724.837518
 31
0.0
  0
LINE
  5
C78F
100
AcDbEntity
  8
WYMIARY
 62
     3
100
AcDbLine
 10
575.815985
 20
722.840907
 30
0.0
 11
575.815985
 21
721.452782
 31
0.0
  0
LINE
  5
C790
100
AcDbEntity
  8
WYMIARY
 62
     3
100
AcDbLine
 10
581.355625
 20
722.840907
 30
0.0
 11
581.355625
 21
721.452782
 31
0.0
  0
CIRCLE
  5
C791
100
AcDbEntity
  8
WYMIARY
 62
     3
100
AcDbCircle
 10
578.4094
 20
722.067698
 30
0.0
 40
3.3
  0
LINE
  5
C792
100
AcDbEntity
  8
WYMIARY
 62
     3
100
AcDbLine
 10
579.176585
 20
721.452782
 30
0.0
 11
581.355625
 21
721.452782
 31
0.0
  0
LINE
  5
C793
100
AcDbEntity
  8
WYMIARY
 62
     3
100
AcDbLine
 10
579.176585
 20
722.840907
 30
0.0
 11
581.355625
 21
722.840907
 31
0.0
  0
LINE
  5
C794
100
AcDbEntity
  8
WYMIARY
 62
     3
100
AcDbLine
 10
583.563175
 20
722.840907
 30
0.0
 11
583.563175
 21
721.452782
 31
0.0
  0
LINE
  5
C795
100
AcDbEntity
  8
WYMIARY
 62
     3
100
AcDbLine
 10
589.102815
 20
722.840907
 30
0.0
 11
589.102815
 21
721.452782
 31
0.0
  0
LINE
  5
C796
100
AcDbEntity
  8
WYMIARY
 62
     3
100
AcDbLine
 10
585.742215
 20
722.840907
 30
0.0
 11
585.742215
 21
724.837518
 31
0.0
  0
LINE
  5
C797
100
AcDbEntity
  8
WYMIARY
 62
     3
100
AcDbLine
 10
585.742215
 20
719.297878
 30
0.0
 11
585.742215
 21
721.452782
 31
0.0
  0
LINE
  5
C798
100
AcDbEntity
  8
WYMIARY
 62
     3
100
AcDbLine
 10
587.130341
 20
722.840907
 30
0.0
 11
587.130341
 21
724.837518
 31
0.0
  0
LINE
  5
C799
100
AcDbEntity
  8
WYMIARY
 62
     3
100
AcDbLine
 10
587.130341
 20
719.297878
 30
0.0
 11
587.130341
 21
721.452782
 31
0.0
  0
LINE
  5
C79A
100
AcDbEntity
  8
WYMIARY
 62
     3
100
AcDbLine
 10
587.130341
 20
719.297878
 30
0.0
 11
585.742215
 21
719.297878
 31
0.0
  0
LINE
  5
C79B
100
AcDbEntity
  8
WYMIARY
 62
     3
100
AcDbLine
 10
587.130341
 20
719.297878
 30
0.0
 11
585.742215
 21
719.297878
 31
0.0
  0
LINE
  5
C79C
100
AcDbEntity
  8
WYMIARY
 62
     3
100
AcDbLine
 10
587.130341
 20
719.297878
 30
0.0
 11
585.742215
 21
719.297878
 31
0.0
  0
LINE
  5
C79D
100
AcDbEntity
  8
WYMIARY
 62
     3
100
AcDbLine
 10
587.130341
 20
724.837518
 30
0.0
 11
585.742215
 21
724.837518
 31
0.0
  0
LINE
  5
C79E
100
AcDbEntity
  8
WYMIARY
 62
     3
100
AcDbLine
 10
589.102815
 20
722.840907
 30
0.0
 11
587.130341
 21
722.840907
 31
0.0
  0
LINE
  5
C79F
100
AcDbEntity
  8
WYMIARY
 62
     3
100
AcDbLine
 10
589.102815
 20
721.452782
 30
0.0
 11
587.130341
 21
721.452782
 31
0.0
  0
CIRCLE
  5
C7A0
100
AcDbEntity
  8
WYMIARY
 62
     3
100
AcDbCircle
 10
582.466158
 20
730.451839
 30
0.0
 40
2.25
  0
LINE
  5
C7A1
100
AcDbEntity
  8
WYMIARY
 62
     3
100
AcDbLine
 10
591.2094
 20
800.862941
 30
0.0
 11
591.2094
 21
715.862941
 31
0.0
  0
DIMENSION
  5
C7AE
100
AcDbEntity
  8
WYMIARY
 62
     1
100
AcDbDimension
  2
*D4
 10
616.350772
 20
715.862941
 30
0.0
 11
614.700772
 21
758.362941
 31
0.0
 12
4.552803
 22
0.0
 32
0.0
 70
    32
  3
STANDARD
100
AcDbAlignedDimension
 13
591.2094
 23
800.862941
 33
0.0
 14
591.2094
 24
715.862941
 34
0.0
 50
90.0
100
AcDbRotatedDimension
1001
ACAD
1000
DSTYLE
1002
{
1070
   140
1040
1.8
1070
   147
1040
0.75
1002
}
  0
DIMENSION
  5
C7BB
100
AcDbEntity
  8
WYMIARY
 62
     1
100
AcDbDimension
  2
*D5
 10
607.067942
 20
735.862941
 30
0.0
 11
605.417942
 21
758.362941
 31
0.0
 12
4.552803
 22
0.0
 32
0.0
 70
    32
  3
STANDARD
100
AcDbAlignedDimension
 13
591.2094
 23
780.862941
 33
0.0
 14
591.2094
 24
735.862941
 34
0.0
 50
90.0
100
AcDbRotatedDimension
1001
ACAD
1000
DSTYLE
1002
{
1070
   140
1040
1.8
1070
   147
1040
0.75
1002
}
  0
DIMENSION
  5
C7C8
100
AcDbEntity
  8
WYMIARY
 62
     1
100
AcDbDimension
  2
*D6
 10
591.2094
 20
811.154885
 30
0.0
 11
582.4594
 21
812.804885
 31
0.0
 12
4.552803
 22
0.0
 32
0.0
 70
    32
  3
STANDARD
100
AcDbAlignedDimension
 13
573.7094
 23
800.862941
 33
0.0
 14
591.2094
 24
800.862941
 34
0.0
100
AcDbRotatedDimension
1001
ACAD
1000
DSTYLE
1002
{
1070
   140
1040
1.8
1070
   147
1040
0.75
1002
}
  0
LINE
  5
C7F8
100
AcDbEntity
  8
WYMIARY
 62
     3
100
AcDbLine
 10
580.599582
 20
786.759888
 30
0.0
 11
581.980314
 21
786.759888
 31
0.0
  0
LINE
  5
C7F9
100
AcDbEntity
  8
WYMIARY
 62
     3
100
AcDbLine
 10
580.599582
 20
785.7882
 30
0.0
 11
581.980314
 21
785.7882
 31
0.0
  0
LINE
  5
C7FA
100
AcDbEntity
  8
WYMIARY
 62
     3
100
AcDbLine
 10
581.980314
 20
788.268321
 30
0.0
 11
581.980314
 21
786.759888
 31
0.0
  0
LINE
  5
C7FB
100
AcDbEntity
  8
WYMIARY
 62
     3
100
AcDbLine
 10
581.980314
 20
785.7882
 30
0.0
 11
581.980314
 21
784.390573
 31
0.0
  0
LINE
  5
C7FC
100
AcDbEntity
  8
WYMIARY
 62
     3
100
AcDbLine
 10
582.952002
 20
788.268321
 30
0.0
 11
582.952002
 21
786.759888
 31
0.0
  0
LINE
  5
C7FD
100
AcDbEntity
  8
WYMIARY
 62
     3
100
AcDbLine
 10
582.952002
 20
785.7882
 30
0.0
 11
582.952002
 21
784.390573
 31
0.0
  0
LINE
  5
C7FE
100
AcDbEntity
  8
WYMIARY
 62
     3
100
AcDbLine
 10
582.952002
 20
786.759888
 30
0.0
 11
584.47733
 21
786.759888
 31
0.0
  0
LINE
  5
C7FF
100
AcDbEntity
  8
WYMIARY
 62
     3
100
AcDbLine
 10
582.952002
 20
785.7882
 30
0.0
 11
584.47733
 21
785.7882
 31
0.0
  0
LINE
  5
C800
100
AcDbEntity
  8
WYMIARY
 62
     3
100
AcDbLine
 10
580.599582
 20
785.7882
 30
0.0
 11
580.599582
 21
786.759888
 31
0.0
  0
LINE
  5
C801
100
AcDbEntity
  8
WYMIARY
 62
     3
100
AcDbLine
 10
581.980314
 20
788.268321
 30
0.0
 11
582.952002
 21
788.268321
 31
0.0
  0
LINE
  5
C802
100
AcDbEntity
  8
WYMIARY
 62
     3
100
AcDbLine
 10
581.980314
 20
784.390573
 30
0.0
 11
582.952002
 21
784.390573
 31
0.0
  0
LINE
  5
C803
100
AcDbEntity
  8
WYMIARY
 62
     3
100
AcDbLine
 10
584.47733
 20
785.7882
 30
0.0
 11
584.47733
 21
786.759888
 31
0.0
  0
LINE
  5
C808
100
AcDbEntity
  8
WYMIARY
 62
     3
100
AcDbLine
 10
581.980314
 20
732.446115
 30
0.0
 11
582.952002
 21
732.446115
 31
0.0
  0
LINE
  5
C809
100
AcDbEntity
  8
WYMIARY
 62
     3
100
AcDbLine
 10
581.980314
 20
728.568367
 30
0.0
 11
582.952002
 21
728.568367
 31
0.0
  0
LINE
  5
C80A
100
AcDbEntity
  8
WYMIARY
 62
     3
100
AcDbLine
 10
581.980314
 20
732.446115
 30
0.0
 11
581.980314
 21
730.937683
 31
0.0
  0
LINE
  5
C80B
100
AcDbEntity
  8
WYMIARY
 62
     3
100
AcDbLine
 10
581.980314
 20
729.965995
 30
0.0
 11
581.980314
 21
728.568367
 31
0.0
  0
LINE
  5
C80C
100
AcDbEntity
  8
WYMIARY
 62
     3
100
AcDbLine
 10
580.599582
 20
729.965995
 30
0.0
 11
580.599582
 21
730.937683
 31
0.0
  0
LINE
  5
C80D
100
AcDbEntity
  8
WYMIARY
 62
     3
100
AcDbLine
 10
580.599582
 20
730.937683
 30
0.0
 11
581.980314
 21
730.937683
 31
0.0
  0
LINE
  5
C80E
100
AcDbEntity
  8
WYMIARY
 62
     3
100
AcDbLine
 10
580.599582
 20
729.965995
 30
0.0
 11
581.980314
 21
729.965995
 31
0.0
  0
LINE
  5
C80F
100
AcDbEntity
  8
WYMIARY
 62
     3
100
AcDbLine
 10
582.952002
 20
732.446115
 30
0.0
 11
582.952002
 21
730.937683
 31
0.0
  0
LINE
  5
C810
100
AcDbEntity
  8
WYMIARY
 62
     3
100
AcDbLine
 10
582.952002
 20
729.965995
 30
0.0
 11
582.952002
 21
728.568367
 31
0.0
  0
LINE
  5
C811
100
AcDbEntity
  8
WYMIARY
 62
     3
100
AcDbLine
 10
582.952002
 20
730.937683
 30
0.0
 11
584.47733
 21
730.937683
 31
0.0
  0
LINE
  5
C812
100
AcDbEntity
  8
WYMIARY
 62
     3
100
AcDbLine
 10
582.952002
 20
729.965995
 30
0.0
 11
584.47733
 21
729.965995
 31
0.0
  0
LINE
  5
C813
100
AcDbEntity
  8
WYMIARY
 62
     3
100
AcDbLine
 10
584.47733
 20
729.965995
 30
0.0
 11
584.47733
 21
730.937683
 31
0.0
  0
TEXT
  5
C822
100
AcDbEntity
  8
1
100
AcDbText
 10
584.871049
 20
784.89308
 30
0.0
 40
3.0
  1
A1
 41
0.65
  7
ITALIC
100
AcDbText
  0
TEXT
  5
C823
100
AcDbEntity
  8
1
100
AcDbText
 10
584.942168
 20
728.991806
 30
0.0
 40
3.0
  1
A1
 41
0.65
  7
ITALIC
100
AcDbText
  0
LINE
  5
CEEE
100
AcDbEntity
  8
WYMIARY
 62
     6
100
AcDbLine
 10
296.041244
 20
849.649937
 30
0.0
 11
284.410837
 21
849.649937
 31
0.0
  0
LINE
  5
CEEF
100
AcDbEntity
  8
2
 62
     6
100
AcDbLine
 10
284.410837
 20
552.649937
 30
0.0
 11
486.041244
 21
552.649937
 31
0.0
  0
LINE
  5
CEF0
100
AcDbEntity
  8
WYMIARY
 62
     6
100
AcDbLine
 10
284.410837
 20
552.649937
 30
0.0
 11
284.410837
 21
849.649937
 31
0.0
  0
LINE
  5
CEF1
100
AcDbEntity
  8
WYMIARY
 62
     6
100
AcDbLine
 10
296.041244
 20
844.649937
 30
0.0
 11
296.041244
 21
557.649937
 31
0.0
  0
LINE
  5
CEF2
100
AcDbEntity
  8
2
100
AcDbLine
 10
481.041244
 20
557.649937
 30
0.0
 11
481.041244
 21
844.649937
 31
0.0
  0
LINE
  5
CEF3
100
AcDbEntity
  8
2
100
AcDbLine
 10
486.041244
 20
552.649937
 30
0.0
 11
486.041244
 21
849.649937
 31
0.0
  0
LINE
  5
CEF4
100
AcDbEntity
  8
WYMIARY
 62
     6
100
AcDbLine
 10
486.041244
 20
552.649937
 30
0.0
 11
486.041244
 21
849.649937
 31
0.0
  0
LINE
  5
CEF5
100
AcDbEntity
  8
WYMIARY
 62
     6
100
AcDbLine
 10
486.041244
 20
552.649937
 30
0.0
 11
486.041244
 21
849.649937
 31
0.0
  0
LINE
  5
CEF6
100
AcDbEntity
  8
WYMIARY
 62
     6
100
AcDbLine
 10
486.041244
 20
552.649937
 30
0.0
 11
486.041244
 21
849.649937
 31
0.0
  0
LINE
  5
CEF7
100
AcDbEntity
  8
2
100
AcDbLine
 10
486.041244
 20
552.649937
 30
0.0
 11
486.041244
 21
849.649937
 31
0.0
  0
LINE
  5
CEF8
100
AcDbEntity
  8
WYMIARY
 62
     6
100
AcDbLine
 10
486.041244
 20
552.649937
 30
0.0
 11
486.041244
 21
849.649937
 31
0.0
  0
LINE
  5
CEF9
100
AcDbEntity
  8
2
100
AcDbLine
 10
486.041244
 20
552.649937
 30
0.0
 11
486.041244
 21
849.649937
 31
0.0
  0
LINE
  5
CEFA
100
AcDbEntity
  8
WYMIARY
 62
     6
100
AcDbLine
 10
486.041244
 20
552.649937
 30
0.0
 11
486.041244
 21
849.649937
 31
0.0
  0
TEXT
  5
CEFC
100
AcDbEntity
  8
WY
100
AcDbText
 10
385.931789
 20
569.249185
 30
0.0
 40
2.0
  1
Draw. No.
 51
15.0
  7
ITALIC
100
AcDbText
  0
TEXT
  5
CEFD
100
AcDbEntity
  8
1
100
AcDbText
 10
386.278904
 20
561.713946
 30
0.0
 40
3.0
  1
RIK20-01A
 41
0.65
  7
ITALIC
100
AcDbText
  0
LINE
  5
CEFE
100
AcDbEntity
  8
WY
  6
CONTINUOUS
 62
     3
100
AcDbLine
 10
481.041244
 20
572.339774
 30
0.0
 11
296.041244
 21
572.339774
 31
0.0
  0
LINE
  5
CEFF
100
AcDbEntity
  8
2
100
AcDbLine
 10
296.041244
 20
557.649937
 30
0.0
 11
481.041244
 21
557.649937
 31
0.0
  0
ARC
  5
CF00
100
AcDbEntity
  8
0
100
AcDbCircle
 10
343.426185
 20
563.122301
 30
0.0
 40
1.425319
100
AcDbArc
 50
269.703671
 51
350.465171
  0
ARC
  5
CF01
100
AcDbEntity
  8
0
100
AcDbCircle
 10
343.426185
 20
566.828307
 30
0.0
 40
1.425319
100
AcDbArc
 50
9.534829
 51
90.296329
  0
LINE
  5
CF02
100
AcDbEntity
  8
0
100
AcDbLine
 10
344.831813
 20
564.461607
 30
0.0
 11
342.707813
 21
564.461607
 31
0.0
  0
LINE
  5
CF03
100
AcDbEntity
  8
0
100
AcDbLine
 10
343.382813
 20
563.786607
 30
0.0
 11
344.831813
 21
563.786607
 31
0.0
  0
TEXT
  5
CF04
100
AcDbEntity
  8
1
100
AcDbText
 10
318.618672
 20
705.334854
 30
0.0
 40
5.0
  1
RIK20-20
 41
0.75
  7
ITALIC
100
AcDbText
  0
LINE
  5
CF05
100
AcDbEntity
  8
WYMIARY
 62
     3
100
AcDbLine
 10
336.902236
 20
800.362621
 30
0.0
 11
336.902236
 21
715.362621
 31
0.0
  0
LINE
  5
CF06
100
AcDbEntity
  8
WYMIARY
 62
     3
100
AcDbLine
 10
319.402236
 20
715.362621
 30
0.0
 11
319.402236
 21
800.362621
 31
0.0
  0
LINE
  5
CF07
100
AcDbEntity
  8
WYMIARY
 62
     3
100
AcDbLine
 10
336.902236
 20
800.362621
 30
0.0
 11
336.902236
 21
715.362621
 31
0.0
  0
TEXT
  5
CF08
100
AcDbEntity
  8
1
100
AcDbText
 10
313.977171
 20
561.447394
 30
0.0
 40
5.0
  1
A4
 51
15.0
  7
ITALIC
100
AcDbText
  0
TEXT
  5
CF09
100
AcDbEntity
  8
WY
100
AcDbText
 10
313.411812
 20
568.979306
 30
0.0
 40
2.0
  1
Format
 51
15.0
  7
ITALIC
100
AcDbText
  0
TEXT
  5
CF0A
100
AcDbEntity
  8
WY
100
AcDbText
 10
301.306359
 20
569.023781
 30
0.0
 40
2.0
  1
Skala
 51
15.0
  7
ITALIC
100
AcDbText
  0
TEXT
  5
CF0B
100
AcDbEntity
  8
1
100
AcDbText
 10
298.671578
 20
561.447394
 30
0.0
 40
5.0
  1
1:1
 51
15.0
  7
ITALIC
100
AcDbText
  0
LINE
  5
CF0C
100
AcDbEntity
  8
WYMIARY
 62
     3
100
AcDbLine
 10
311.041244
 20
572.339774
 30
0.0
 11
311.041244
 21
557.649937
 31
0.0
  0
ELLIPSE
  5
CF0D
100
AcDbEntity
  8
0
100
AcDbEllipse
 10
331.000099
 20
567.829357
 30
0.0
 11
2.983077570132104
 21
0.0000000000002996
 31
0.0
210
0.0
220
0.0
230
1.0
 40
0.958812
 41
-1.562393163247347
 42
0.0084031635475457
1001
ACAD
1000
ASC_BOUNDS
1002
{
1070
    19
1002
}
  0
ELLIPSE
  5
CF0E
100
AcDbEntity
  8
0
100
AcDbEllipse
 10
330.956923
 20
568.159476
 30
0.0
 11
-4.072692107280919
 21
0.0000000000000925
 31
0.0
210
0.0
220
0.0
230
1.0
 40
0.958812
 41
1.587553347046634
 42
2.408388587343224
1001
ACAD
1000
ASC_BOUNDS
1002
{
1070
    19
1002
}
  0
LINE
  5
CF0F
100
AcDbEntity
  8
0
100
AcDbLine
 10
328.869405
 20
560.0662
 30
0.0
 11
333.180927
 21
560.0662
 31
0.0
1001
ACAD
1000
ASC_BOUNDS
1002
{
1070
    19
1002
}
  0
LINE
  5
CF10
100
AcDbEntity
  8
0
100
AcDbLine
 10
328.869405
 20
569.680016
 30
0.0
 11
333.180927
 21
569.680016
 31
0.0
  0
LINE
  5
CF11
100
AcDbEntity
  8
0
100
AcDbLine
 10
328.067261
 20
564.392417
 30
0.0
 11
327.164849
 21
564.392417
 31
0.0
1001
ACAD
1000
ASC_BOUNDS
1002
{
1070
    19
1002
}
  0
ELLIPSE
  5
CF12
100
AcDbEntity
  8
0
100
AcDbEllipse
 10
328.067261
 20
564.392417
 30
0.0
 11
-1.203215696869327
 21
0.0000000000001967
 31
0.0
210
0.0
220
0.0
230
1.0
 40
0.958812
 41
-1.570796326794739
 42
0.0000000000001705
1001
ACAD
1000
ASC_BOUNDS
1002
{
1070
    19
1002
}
  0
LINE
  5
CF13
100
AcDbEntity
  8
0
100
AcDbLine
 10
326.864045
 20
564.392417
 30
0.0
 11
327.164849
 21
564.392417
 31
0.0
1001
ACAD
1000
ASC_BOUNDS
1002
{
1070
    19
1002
}
  0
LINE
  5
CF14
100
AcDbEntity
  8
0
100
AcDbLine
 10
328.067261
 20
562.544998
 30
0.0
 11
328.067261
 21
560.835305
 31
0.0
1001
ACAD
1000
ASC_BOUNDS
1002
{
1070
    19
1002
}
  0
ELLIPSE
  5
CF15
100
AcDbEntity
  8
0
100
AcDbEllipse
 10
328.869405
 20
560.835305
 30
0.0
 11
-0.8021437979128705
 21
0.0000000000000154
 31
0.0
210
0.0
220
0.0
230
1.0
 40
0.958812
 41
0.00000000000002
 42
1.570796326794914
1001
ACAD
1000
ASC_BOUNDS
1002
{
1070
    19
1002
}
  0
LINE
  5
CF16
100
AcDbEntity
  8
0
100
AcDbLine
 10
328.067261
 20
566.11122
 30
0.0
 11
328.067261
 21
568.910911
 31
0.0
1001
ACAD
1000
ASC_BOUNDS
1002
{
1070
    19
1002
}
  0
LINE
  5
CF17
100
AcDbEntity
  8
0
100
AcDbLine
 10
328.067261
 20
564.392417
 30
0.0
 11
328.067261
 21
563.684451
 31
0.0
1001
ACAD
1000
ASC_BOUNDS
1002
{
1070
    19
1002
}
  0
LINE
  5
CF18
100
AcDbEntity
  8
0
100
AcDbLine
 10
328.067261
 20
566.11122
 30
0.0
 11
328.067261
 21
565.546075
 31
0.0
1001
ACAD
1000
ASC_BOUNDS
1002
{
1070
    19
1002
}
  0
ELLIPSE
  5
CF19
100
AcDbEntity
  8
0
100
AcDbEllipse
 10
328.869405
 20
568.910911
 30
0.0
 11
0.8021437979128704
 21
0.000000000000038
 31
0.0
210
0.0
220
0.0
230
1.0
 40
0.958812
 41
1.570796326794851
 42
3.141592653589743
1001
ACAD
1000
ASC_BOUNDS
1002
{
1070
    19
1002
}
  0
LINE
  5
CF1A
100
AcDbEntity
  8
WYMIARY
 62
     3
100
AcDbLine
 10
326.041244
 20
572.339774
 30
0.0
 11
326.041244
 21
557.649937
 31
0.0
  0
ELLIPSE
  5
CF1B
100
AcDbEntity
  8
0
100
AcDbEllipse
 10
330.619191
 20
562.522424
 30
0.0
 11
2.960559210508897
 21
0.3570763225581005
 31
0.0
210
0.0
220
0.0
230
1.0
 40
0.820999
 41
1.335209029023201
 42
2.503032872947537
1001
ACAD
1000
ASC_BOUNDS
1002
{
1070
    19
1002
}
  0
ELLIPSE
  5
CF1C
100
AcDbEntity
  8
0
100
AcDbEllipse
 10
330.849697
 20
561.587243
 30
0.0
 11
3.015746449176212
 21
0.7746519372140012
 31
0.0
210
0.0
220
0.0
230
1.0
 40
0.846775
 41
1.29973646820557
 42
2.479974117225238
1001
ACAD
1000
ASC_BOUNDS
1002
{
1070
    19
1002
}
  0
LINE
  5
CF1D
100
AcDbEntity
  8
0
100
AcDbLine
 10
336.731287
 20
561.665201
 30
0.0
 11
338.273402
 21
561.665201
 31
0.0
1001
ACAD
1000
ASC_BOUNDS
1002
{
1070
    19
1002
}
  0
LINE
  5
CF1E
100
AcDbEntity
  8
0
100
AcDbLine
 10
336.731287
 20
568.253607
 30
0.0
 11
338.273402
 21
568.253607
 31
0.0
1001
ACAD
1000
ASC_BOUNDS
1002
{
1070
    19
1002
}
  0
LINE
  5
CF1F
100
AcDbEntity
  8
0
100
AcDbLine
 10
336.731287
 20
561.665201
 30
0.0
 11
336.731287
 21
568.253607
 31
0.0
1001
ACAD
1000
ASC_BOUNDS
1002
{
1070
    19
1002
}
  0
LINE
  5
CF20
100
AcDbEntity
  8
0
100
AcDbLine
 10
333.983071
 20
560.835305
 30
0.0
 11
333.983071
 21
564.392417
 31
0.0
1001
ACAD
1000
ASC_BOUNDS
1002
{
1070
    19
1002
}
  0
ELLIPSE
  5
CF21
100
AcDbEntity
  8
0
100
AcDbEllipse
 10
333.180927
 20
560.835305
 30
0.0
 11
0.8021437979128704
 21
0.0000000000001602
 31
0.0
210
0.0
220
0.0
230
1.0
 40
0.958812
 41
4.712388980384497
 42
6.283185307179378
1001
ACAD
1000
ASC_BOUNDS
1002
{
1070
    19
1002
}
  0
LINE
  5
CF22
100
AcDbEntity
  8
0
100
AcDbLine
 10
335.186287
 20
565.546075
 30
0.0
 11
334.885483
 21
565.546075
 31
0.0
1001
ACAD
1000
ASC_BOUNDS
1002
{
1070
    19
1002
}
  0
LINE
  5
CF23
100
AcDbEntity
  8
0
100
AcDbLine
 10
333.983071
 20
565.546075
 30
0.0
 11
334.885483
 21
565.546075
 31
0.0
1001
ACAD
1000
ASC_BOUNDS
1002
{
1070
    19
1002
}
  0
ELLIPSE
  5
CF24
100
AcDbEntity
  8
0
100
AcDbEllipse
 10
333.983071
 20
565.546075
 30
0.0
 11
1.203215696869352
 21
0.0000000000000893
 31
0.0
210
0.0
220
0.0
230
1.0
 40
0.958812
 41
4.712388980384611
 42
6.283185307179508
1001
ACAD
1000
ASC_BOUNDS
1002
{
1070
    19
1002
}
  0
LINE
  5
CF25
100
AcDbEntity
  8
0
100
AcDbLine
 10
333.983071
 20
567.805322
 30
0.0
 11
333.983071
 21
568.910911
 31
0.0
1001
ACAD
1000
ASC_BOUNDS
1002
{
1070
    19
1002
}
  0
ELLIPSE
  5
CF26
100
AcDbEntity
  8
0
100
AcDbEllipse
 10
333.180927
 20
568.910911
 30
0.0
 11
-0.8021437979128705
 21
0.000000000000038
 31
0.0
210
0.0
220
0.0
230
1.0
 40
0.958812
 41
3.141592653589842
 42
4.712388980384734
1001
ACAD
1000
ASC_BOUNDS
1002
{
1070
    19
1002
}
  0
ARC
  5
CF27
100
AcDbEntity
  8
0
100
AcDbCircle
 10
342.571442
 20
563.122301
 30
0.0
 40
1.425319
100
AcDbArc
 50
189.534829
 51
270.296329
  0
LINE
  5
CF28
100
AcDbEntity
  8
0
100
AcDbLine
 10
342.56407
 20
561.697001
 30
0.0
 11
343.418813
 21
561.697001
 31
0.0
  0
ARC
  5
CF29
100
AcDbEntity
  8
0
100
AcDbCircle
 10
342.571442
 20
566.828307
 30
0.0
 40
1.425319
100
AcDbArc
 50
89.703671
 51
170.465171
  0
LINE
  5
CF2A
100
AcDbEntity
  8
0
100
AcDbLine
 10
339.28074
 20
565.586007
 30
0.0
 11
340.490813
 21
565.586007
 31
0.0
  0
LINE
  5
CF2B
100
AcDbEntity
  8
0
100
AcDbLine
 10
338.948402
 20
565.586007
 30
0.0
 11
340.490813
 21
565.586007
 31
0.0
  0
LINE
  5
CF2C
100
AcDbEntity
  8
0
100
AcDbLine
 10
338.936829
 20
567.011201
 30
0.0
 11
338.948402
 21
565.586007
 31
0.0
  0
ARC
  5
CF2D
100
AcDbEntity
  8
0
100
AcDbCircle
 10
343.045313
 20
567.011201
 30
0.0
 40
0.3375
100
AcDbArc
 50
360.0
 51
180.0
  0
LINE
  5
CF2E
100
AcDbEntity
  8
0
100
AcDbLine
 10
342.707813
 20
564.461607
 30
0.0
 11
342.707813
 21
562.886201
 31
0.0
  0
LINE
  5
CF2F
100
AcDbEntity
  8
0
100
AcDbLine
 10
342.707813
 20
565.361607
 30
0.0
 11
343.382813
 21
565.361607
 31
0.0
  0
LINE
  5
CF30
100
AcDbEntity
  8
0
100
AcDbLine
 10
343.382813
 20
563.786607
 30
0.0
 11
343.382813
 21
562.902701
 31
0.0
  0
LINE
  5
CF31
100
AcDbEntity
  8
0
100
AcDbLine
 10
342.707813
 20
564.461607
 30
0.0
 11
342.707813
 21
562.902701
 31
0.0
  0
ARC
  5
CF32
100
AcDbEntity
  8
0
100
AcDbCircle
 10
343.045313
 20
562.902701
 30
0.0
 40
0.3375
100
AcDbArc
 50
180.0
 51
0.0
  0
LINE
  5
CF33
100
AcDbEntity
  8
0
100
AcDbLine
 10
343.382813
 20
567.011201
 30
0.0
 11
343.382813
 21
565.361607
 31
0.0
  0
LINE
  5
CF34
100
AcDbEntity
  8
0
100
AcDbLine
 10
342.707813
 20
567.011201
 30
0.0
 11
342.707813
 21
565.361607
 31
0.0
  0
LINE
  5
CF35
100
AcDbEntity
  8
0
100
AcDbLine
 10
340.490813
 20
565.586007
 30
0.0
 11
340.490813
 21
567.377007
 31
0.0
1001
ACAD
1000
ASC_BOUNDS
1002
{
1070
    19
1002
}
  0
LINE
  5
CF36
100
AcDbEntity
  8
0
100
AcDbLine
 10
341.165813
 20
562.886201
 30
0.0
 11
341.165813
 21
567.064407
 31
0.0
  0
LINE
  5
CF37
100
AcDbEntity
  8
0
100
AcDbLine
 10
342.56407
 20
568.253607
 30
0.0
 11
343.418813
 21
568.253607
 31
0.0
  0
LINE
  5
CF38
100
AcDbEntity
  8
0
100
AcDbLine
 10
338.261829
 20
567.011201
 30
0.0
 11
338.273402
 21
561.665201
 31
0.0
  0
LINE
  5
CF39
100
AcDbEntity
  8
0
100
AcDbLine
 10
338.261829
 20
561.665201
 30
0.0
 11
338.273402
 21
561.672695
 31
0.0
  0
LINE
  5
CF3A
100
AcDbEntity
  8
0
100
AcDbLine
 10
338.273402
 20
568.253607
 30
0.0
 11
338.273402
 21
568.038207
 31
0.0
  0
ARC
  5
CF3B
100
AcDbEntity
  8
0
100
AcDbCircle
 10
339.168487
 20
566.991207
 30
0.0
 40
1.377457
100
AcDbArc
 50
16.265061
 51
130.527299
  0
ARC
  5
CF3C
100
AcDbEntity
  8
0
100
AcDbCircle
 10
338.599329
 20
567.011201
 30
0.0
 40
0.3375
100
AcDbArc
 50
360.0
 51
180.0
  0
LINE
  5
CF3D
100
AcDbEntity
  8
WYMIARY
 62
     3
100
AcDbLine
 10
331.435052
 20
720.952461
 30
0.0
 11
329.256012
 21
720.952461
 31
0.0
  0
LINE
  5
CF3E
100
AcDbEntity
  8
WYMIARY
 62
     3
100
AcDbLine
 10
331.435052
 20
722.340587
 30
0.0
 11
329.256012
 21
722.340587
 31
0.0
  0
LINE
  5
CF3F
100
AcDbEntity
  8
WYMIARY
 62
     3
100
AcDbLine
 10
336.902236
 20
735.362621
 30
0.0
 11
319.402236
 21
735.362621
 31
0.0
  0
LINE
  5
CF40
100
AcDbEntity
  8
WYMIARY
 62
     3
100
AcDbLine
 10
336.902236
 20
715.362621
 30
0.0
 11
319.402236
 21
715.362621
 31
0.0
  0
CIRCLE
  5
CF41
100
AcDbEntity
  8
WYMIARY
 62
     3
100
AcDbCircle
 10
332.202236
 20
721.567378
 30
0.0
 40
3.3
  0
LINE
  5
CF42
100
AcDbEntity
  8
WYMIARY
 62
     3
100
AcDbLine
 10
328.644838
 20
729.465674
 30
0.0
 11
328.644838
 21
728.068047
 31
0.0
  0
LINE
  5
CF43
100
AcDbEntity
  8
WYMIARY
 62
     3
100
AcDbLine
 10
327.67315
 20
729.465674
 30
0.0
 11
327.67315
 21
728.068047
 31
0.0
  0
CIRCLE
  5
CF44
100
AcDbEntity
  8
WYMIARY
 62
     3
100
AcDbCircle
 10
328.158994
 20
729.951518
 30
0.0
 40
2.25
  0
CIRCLE
  5
CF45
100
AcDbEntity
  8
WYMIARY
 62
     3
100
AcDbCircle
 10
324.102236
 20
721.567378
 30
0.0
 40
3.3
  0
LINE
  5
CF46
100
AcDbEntity
  8
WYMIARY
 62
     3
100
AcDbLine
 10
323.481295
 20
718.797558
 30
0.0
 11
324.869421
 21
718.797558
 31
0.0
  0
LINE
  5
CF47
100
AcDbEntity
  8
WYMIARY
 62
     3
100
AcDbLine
 10
323.481295
 20
718.797558
 30
0.0
 11
324.869421
 21
718.797558
 31
0.0
  0
LINE
  5
CF48
100
AcDbEntity
  8
WYMIARY
 62
     3
100
AcDbLine
 10
323.481295
 20
718.797558
 30
0.0
 11
324.869421
 21
718.797558
 31
0.0
  0
LINE
  5
CF49
100
AcDbEntity
  8
WYMIARY
 62
     3
100
AcDbLine
 10
323.481295
 20
724.337198
 30
0.0
 11
324.869421
 21
724.337198
 31
0.0
  0
LINE
  5
CF4A
100
AcDbEntity
  8
WYMIARY
 62
     3
100
AcDbLine
 10
323.481295
 20
718.797558
 30
0.0
 11
323.481295
 21
720.952461
 31
0.0
  0
LINE
  5
CF4B
100
AcDbEntity
  8
WYMIARY
 62
     3
100
AcDbLine
 10
321.508821
 20
722.340587
 30
0.0
 11
321.508821
 21
720.952461
 31
0.0
  0
LINE
  5
CF4C
100
AcDbEntity
  8
WYMIARY
 62
     3
100
AcDbLine
 10
323.481295
 20
722.340587
 30
0.0
 11
323.481295
 21
724.337198
 31
0.0
  0
LINE
  5
CF4D
100
AcDbEntity
  8
WYMIARY
 62
     3
100
AcDbLine
 10
321.508821
 20
722.340587
 30
0.0
 11
323.481295
 21
722.340587
 31
0.0
  0
LINE
  5
CF4E
100
AcDbEntity
  8
WYMIARY
 62
     3
100
AcDbLine
 10
321.508821
 20
720.952461
 30
0.0
 11
323.481295
 21
720.952461
 31
0.0
  0
TEXT
  5
CF4F
100
AcDbEntity
  8
1
100
AcDbText
 10
321.038712
 20
725.240119
 30
0.0
 40
3.0
  1
2
 41
0.65
  7
ITALIC
100
AcDbText
  0
LINE
  5
CF50
100
AcDbEntity
  8
WYMIARY
 62
     3
100
AcDbLine
 10
329.256012
 20
722.340587
 30
0.0
 11
329.256012
 21
720.952461
 31
0.0
  0
LINE
  5
CF51
100
AcDbEntity
  8
WYMIARY
 62
     3
100
AcDbLine
 10
324.869421
 20
718.797558
 30
0.0
 11
324.869421
 21
720.952461
 31
0.0
  0
LINE
  5
CF52
100
AcDbEntity
  8
WYMIARY
 62
     3
100
AcDbLine
 10
327.67315
 20
728.068047
 30
0.0
 11
328.644838
 21
728.068047
 31
0.0
  0
LINE
  5
CF53
100
AcDbEntity
  8
WYMIARY
 62
     3
100
AcDbLine
 10
324.869421
 20
722.340587
 30
0.0
 11
327.048461
 21
722.340587
 31
0.0
  0
LINE
  5
CF54
100
AcDbEntity
  8
WYMIARY
 62
     3
100
AcDbLine
 10
324.869421
 20
720.952461
 30
0.0
 11
327.048461
 21
720.952461
 31
0.0
  0
LINE
  5
CF55
100
AcDbEntity
  8
WYMIARY
 62
     3
100
AcDbLine
 10
327.048461
 20
722.340587
 30
0.0
 11
327.048461
 21
720.952461
 31
0.0
  0
LINE
  5
CF56
100
AcDbEntity
  8
WYMIARY
 62
     3
100
AcDbLine
 10
324.869421
 20
722.340587
 30
0.0
 11
324.869421
 21
724.337198
 31
0.0
  0
LINE
  5
CF57
100
AcDbEntity
  8
WYMIARY
 62
     3
100
AcDbLine
 10
330.170166
 20
729.465674
 30
0.0
 11
330.170166
 21
730.437362
 31
0.0
  0
LINE
  5
CF58
100
AcDbEntity
  8
WYMIARY
 62
     3
100
AcDbLine
 10
328.644838
 20
731.945795
 30
0.0
 11
328.644838
 21
730.437362
 31
0.0
  0
LINE
  5
CF59
100
AcDbEntity
  8
WYMIARY
 62
     3
100
AcDbLine
 10
326.292419
 20
730.437362
 30
0.0
 11
327.67315
 21
730.437362
 31
0.0
  0
LINE
  5
CF5A
100
AcDbEntity
  8
WYMIARY
 62
     3
100
AcDbLine
 10
327.67315
 20
731.945795
 30
0.0
 11
327.67315
 21
730.437362
 31
0.0
  0
LINE
  5
CF5B
100
AcDbEntity
  8
WYMIARY
 62
     3
100
AcDbLine
 10
327.67315
 20
731.945795
 30
0.0
 11
328.644838
 21
731.945795
 31
0.0
  0
LINE
  5
CF5C
100
AcDbEntity
  8
WYMIARY
 62
     3
100
AcDbLine
 10
326.292419
 20
729.465674
 30
0.0
 11
327.67315
 21
729.465674
 31
0.0
  0
LINE
  5
CF5D
100
AcDbEntity
  8
WYMIARY
 62
     3
100
AcDbLine
 10
326.292419
 20
729.465674
 30
0.0
 11
326.292419
 21
730.437362
 31
0.0
  0
LINE
  5
CF5E
100
AcDbEntity
  8
WYMIARY
 62
     3
100
AcDbLine
 10
328.644838
 20
729.465674
 30
0.0
 11
330.170166
 21
729.465674
 31
0.0
  0
LINE
  5
CF5F
100
AcDbEntity
  8
WYMIARY
 62
     3
100
AcDbLine
 10
328.644838
 20
730.437362
 30
0.0
 11
330.170166
 21
730.437362
 31
0.0
  0
LINE
  5
CF60
100
AcDbEntity
  8
WYMIARY
 62
     3
100
AcDbLine
 10
332.823178
 20
718.797558
 30
0.0
 11
332.823178
 21
720.952461
 31
0.0
  0
LINE
  5
CF61
100
AcDbEntity
  8
WYMIARY
 62
     3
100
AcDbLine
 10
331.435052
 20
718.797558
 30
0.0
 11
331.435052
 21
720.952461
 31
0.0
  0
LINE
  5
CF62
100
AcDbEntity
  8
WYMIARY
 62
     3
100
AcDbLine
 10
332.823178
 20
718.797558
 30
0.0
 11
331.435052
 21
718.797558
 31
0.0
  0
LINE
  5
CF63
100
AcDbEntity
  8
WYMIARY
 62
     3
100
AcDbLine
 10
332.823178
 20
718.797558
 30
0.0
 11
331.435052
 21
718.797558
 31
0.0
  0
LINE
  5
CF64
100
AcDbEntity
  8
WYMIARY
 62
     3
100
AcDbLine
 10
332.823178
 20
718.797558
 30
0.0
 11
331.435052
 21
718.797558
 31
0.0
  0
LINE
  5
CF65
100
AcDbEntity
  8
WYMIARY
 62
     3
100
AcDbLine
 10
334.795651
 20
720.952461
 30
0.0
 11
332.823178
 21
720.952461
 31
0.0
  0
LINE
  5
CF66
100
AcDbEntity
  8
WYMIARY
 62
     3
100
AcDbLine
 10
334.795651
 20
722.340587
 30
0.0
 11
332.823178
 21
722.340587
 31
0.0
  0
LINE
  5
CF67
100
AcDbEntity
  8
WYMIARY
 62
     3
100
AcDbLine
 10
332.823178
 20
724.337198
 30
0.0
 11
331.435052
 21
724.337198
 31
0.0
  0
LINE
  5
CF68
100
AcDbEntity
  8
WYMIARY
 62
     3
100
AcDbLine
 10
332.823178
 20
722.340587
 30
0.0
 11
332.823178
 21
724.337198
 31
0.0
  0
LINE
  5
CF69
100
AcDbEntity
  8
WYMIARY
 62
     3
100
AcDbLine
 10
331.435052
 20
722.340587
 30
0.0
 11
331.435052
 21
724.337198
 31
0.0
  0
LINE
  5
CF6A
100
AcDbEntity
  8
WYMIARY
 62
     3
100
AcDbLine
 10
334.795651
 20
722.340587
 30
0.0
 11
334.795651
 21
720.952461
 31
0.0
  0
TEXT
  5
CF6B
100
AcDbEntity
  8
1
100
AcDbText
 10
333.692221
 20
725.240119
 30
0.0
 40
3.0
  1
4
 41
0.65
  7
ITALIC
100
AcDbText
  0
TEXT
  5
CF6C
100
AcDbEntity
  8
1
100
AcDbText
 10
330.635005
 20
731.278372
 30
0.0
 40
3.0
  1
A2
 41
0.65
  7
ITALIC
100
AcDbText
  0
LINE
  5
CF6D
100
AcDbEntity
  8
WYMIARY
 62
     3
100
AcDbLine
 10
331.435052
 20
793.384655
 30
0.0
 11
329.256012
 21
793.384655
 31
0.0
  0
LINE
  5
CF6E
100
AcDbEntity
  8
WYMIARY
 62
     3
100
AcDbLine
 10
331.435052
 20
794.772781
 30
0.0
 11
329.256012
 21
794.772781
 31
0.0
  0
LINE
  5
CF6F
100
AcDbEntity
  8
WYMIARY
 62
     3
100
AcDbLine
 10
336.902236
 20
780.362621
 30
0.0
 11
319.402236
 21
780.362621
 31
0.0
  0
LINE
  5
CF70
100
AcDbEntity
  8
WYMIARY
 62
     3
100
AcDbLine
 10
319.402236
 20
800.362621
 30
0.0
 11
336.902236
 21
800.362621
 31
0.0
  0
CIRCLE
  5
CF71
100
AcDbEntity
  8
WYMIARY
 62
     3
100
AcDbCircle
 10
332.202236
 20
794.157865
 30
0.0
 40
3.3
  0
CIRCLE
  5
CF72
100
AcDbEntity
  8
WYMIARY
 62
     3
100
AcDbCircle
 10
324.102236
 20
794.157865
 30
0.0
 40
3.3
  0
LINE
  5
CF73
100
AcDbEntity
  8
WYMIARY
 62
     3
100
AcDbLine
 10
323.481295
 20
796.927685
 30
0.0
 11
323.481295
 21
794.772781
 31
0.0
  0
LINE
  5
CF74
100
AcDbEntity
  8
WYMIARY
 62
     3
100
AcDbLine
 10
324.869421
 20
796.927685
 30
0.0
 11
324.869421
 21
794.772781
 31
0.0
  0
LINE
  5
CF75
100
AcDbEntity
  8
WYMIARY
 62
     3
100
AcDbLine
 10
323.481295
 20
791.388045
 30
0.0
 11
324.869421
 21
791.388045
 31
0.0
  0
LINE
  5
CF76
100
AcDbEntity
  8
WYMIARY
 62
     3
100
AcDbLine
 10
321.508821
 20
794.772781
 30
0.0
 11
323.481295
 21
794.772781
 31
0.0
  0
LINE
  5
CF77
100
AcDbEntity
  8
WYMIARY
 62
     3
100
AcDbLine
 10
321.508821
 20
793.384655
 30
0.0
 11
323.481295
 21
793.384655
 31
0.0
  0
LINE
  5
CF78
100
AcDbEntity
  8
WYMIARY
 62
     3
100
AcDbLine
 10
323.481295
 20
793.384655
 30
0.0
 11
323.481295
 21
791.388045
 31
0.0
  0
LINE
  5
CF79
100
AcDbEntity
  8
WYMIARY
 62
     3
100
AcDbLine
 10
321.508821
 20
793.384655
 30
0.0
 11
321.508821
 21
794.772781
 31
0.0
  0
TEXT
  5
CF7A
100
AcDbEntity
  8
1
100
AcDbText
 10
322.313133
 20
787.411886
 30
0.0
 40
3.0
  1
1
 41
0.65
  7
ITALIC
100
AcDbText
  0
LINE
  5
CF7B
100
AcDbEntity
  8
WYMIARY
 62
     3
100
AcDbLine
 10
330.170166
 20
785.28788
 30
0.0
 11
330.170166
 21
786.259568
 31
0.0
  0
LINE
  5
CF7C
100
AcDbEntity
  8
WYMIARY
 62
     3
100
AcDbLine
 10
329.256012
 20
793.384655
 30
0.0
 11
329.256012
 21
794.772781
 31
0.0
  0
LINE
  5
CF7D
100
AcDbEntity
  8
WYMIARY
 62
     3
100
AcDbLine
 10
326.292419
 20
785.28788
 30
0.0
 11
326.292419
 21
786.259568
 31
0.0
  0
LINE
  5
CF7E
100
AcDbEntity
  8
WYMIARY
 62
     3
100
AcDbLine
 10
327.67315
 20
783.890253
 30
0.0
 11
328.644838
 21
783.890253
 31
0.0
  0
LINE
  5
CF7F
100
AcDbEntity
  8
WYMIARY
 62
     3
100
AcDbLine
 10
328.644838
 20
785.28788
 30
0.0
 11
328.644838
 21
783.890253
 31
0.0
  0
LINE
  5
CF80
100
AcDbEntity
  8
WYMIARY
 62
     3
100
AcDbLine
 10
327.67315
 20
785.28788
 30
0.0
 11
327.67315
 21
783.890253
 31
0.0
  0
LINE
  5
CF81
100
AcDbEntity
  8
WYMIARY
 62
     3
100
AcDbLine
 10
326.292419
 20
785.28788
 30
0.0
 11
327.67315
 21
785.28788
 31
0.0
  0
LINE
  5
CF82
100
AcDbEntity
  8
WYMIARY
 62
     3
100
AcDbLine
 10
327.67315
 20
787.768001
 30
0.0
 11
328.644838
 21
787.768001
 31
0.0
  0
LINE
  5
CF83
100
AcDbEntity
  8
WYMIARY
 62
     3
100
AcDbLine
 10
328.644838
 20
787.768001
 30
0.0
 11
328.644838
 21
786.259568
 31
0.0
  0
LINE
  5
CF84
100
AcDbEntity
  8
WYMIARY
 62
     3
100
AcDbLine
 10
327.67315
 20
787.768001
 30
0.0
 11
327.67315
 21
786.259568
 31
0.0
  0
LINE
  5
CF85
100
AcDbEntity
  8
WYMIARY
 62
     3
100
AcDbLine
 10
326.292419
 20
786.259568
 30
0.0
 11
327.67315
 21
786.259568
 31
0.0
  0
LINE
  5
CF86
100
AcDbEntity
  8
WYMIARY
 62
     3
100
AcDbLine
 10
324.869421
 20
793.384655
 30
0.0
 11
324.869421
 21
791.388045
 31
0.0
  0
LINE
  5
CF87
100
AcDbEntity
  8
WYMIARY
 62
     3
100
AcDbLine
 10
327.048461
 20
793.384655
 30
0.0
 11
327.048461
 21
794.772781
 31
0.0
  0
LINE
  5
CF88
100
AcDbEntity
  8
WYMIARY
 62
     3
100
AcDbLine
 10
324.869421
 20
794.772781
 30
0.0
 11
327.048461
 21
794.772781
 31
0.0
  0
LINE
  5
CF89
100
AcDbEntity
  8
WYMIARY
 62
     3
100
AcDbLine
 10
324.869421
 20
793.384655
 30
0.0
 11
327.048461
 21
793.384655
 31
0.0
  0
CIRCLE
  5
CF8A
100
AcDbEntity
  8
WYMIARY
 62
     3
100
AcDbCircle
 10
328.158994
 20
785.773724
 30
0.0
 40
2.25
  0
LINE
  5
CF8B
100
AcDbEntity
  8
WYMIARY
 62
     3
100
AcDbLine
 10
328.644838
 20
785.28788
 30
0.0
 11
330.170166
 21
785.28788
 31
0.0
  0
LINE
  5
CF8C
100
AcDbEntity
  8
WYMIARY
 62
     3
100
AcDbLine
 10
328.644838
 20
786.259568
 30
0.0
 11
330.170166
 21
786.259568
 31
0.0
  0
LINE
  5
CF8D
100
AcDbEntity
  8
WYMIARY
 62
     3
100
AcDbLine
 10
323.481295
 20
796.927685
 30
0.0
 11
324.869421
 21
796.927685
 31
0.0
  0
LINE
  5
CF8E
100
AcDbEntity
  8
WYMIARY
 62
     3
100
AcDbLine
 10
323.481295
 20
796.927685
 30
0.0
 11
324.869421
 21
796.927685
 31
0.0
  0
LINE
  5
CF8F
100
AcDbEntity
  8
WYMIARY
 62
     3
100
AcDbLine
 10
323.481295
 20
796.927685
 30
0.0
 11
324.869421
 21
796.927685
 31
0.0
  0
LINE
  5
CF90
100
AcDbEntity
  8
WYMIARY
 62
     3
100
AcDbLine
 10
331.435052
 20
796.927685
 30
0.0
 11
331.435052
 21
794.772781
 31
0.0
  0
LINE
  5
CF91
100
AcDbEntity
  8
WYMIARY
 62
     3
100
AcDbLine
 10
332.823178
 20
796.927685
 30
0.0
 11
332.823178
 21
794.772781
 31
0.0
  0
TEXT
  5
CF92
100
AcDbEntity
  8
1
100
AcDbText
 10
330.563885
 20
781.605875
 30
0.0
 40
3.0
  1
A1
 41
0.65
  7
ITALIC
100
AcDbText
  0
LINE
  5
CF93
100
AcDbEntity
  8
WYMIARY
 62
     3
100
AcDbLine
 10
334.795651
 20
793.384655
 30
0.0
 11
334.795651
 21
794.772781
 31
0.0
  0
LINE
  5
CF94
100
AcDbEntity
  8
WYMIARY
 62
     3
100
AcDbLine
 10
331.435052
 20
793.384655
 30
0.0
 11
331.435052
 21
791.388045
 31
0.0
  0
LINE
  5
CF95
100
AcDbEntity
  8
WYMIARY
 62
     3
100
AcDbLine
 10
332.823178
 20
793.384655
 30
0.0
 11
332.823178
 21
791.388045
 31
0.0
  0
LINE
  5
CF96
100
AcDbEntity
  8
WYMIARY
 62
     3
100
AcDbLine
 10
332.823178
 20
791.388045
 30
0.0
 11
331.435052
 21
791.388045
 31
0.0
  0
LINE
  5
CF97
100
AcDbEntity
  8
WYMIARY
 62
     3
100
AcDbLine
 10
334.795651
 20
793.384655
 30
0.0
 11
332.823178
 21
793.384655
 31
0.0
  0
LINE
  5
CF98
100
AcDbEntity
  8
WYMIARY
 62
     3
100
AcDbLine
 10
334.795651
 20
794.772781
 30
0.0
 11
332.823178
 21
794.772781
 31
0.0
  0
TEXT
  5
CF99
100
AcDbEntity
  8
1
100
AcDbText
 10
333.452657
 20
787.411886
 30
0.0
 40
3.0
  1
3
 41
0.65
  7
ITALIC
100
AcDbText
  0
LINE
  5
CF9A
100
AcDbEntity
  8
WYMIARY
 62
     3
100
AcDbLine
 10
332.823178
 20
796.927685
 30
0.0
 11
331.435052
 21
796.927685
 31
0.0
  0
LINE
  5
CF9B
100
AcDbEntity
  8
WYMIARY
 62
     3
100
AcDbLine
 10
332.823178
 20
796.927685
 30
0.0
 11
331.435052
 21
796.927685
 31
0.0
  0
LINE
  5
CF9C
100
AcDbEntity
  8
WYMIARY
 62
     3
100
AcDbLine
 10
332.823178
 20
796.927685
 30
0.0
 11
331.435052
 21
796.927685
 31
0.0
  0
LINE
  5
CF9D
100
AcDbEntity
  8
WYMIARY
 62
     3
100
AcDbLine
 10
336.902236
 20
800.362621
 30
0.0
 11
332.202236
 21
800.362621
 31
0.0
  0
LINE
  5
CF9E
100
AcDbEntity
  8
WYMIARY
 62
     3
100
AcDbLine
 10
387.87946
 20
800.362621
 30
0.0
 11
387.87946
 21
715.362621
 31
0.0
  0
LINE
  5
CF9F
100
AcDbEntity
  8
WYMIARY
 62
     3
100
AcDbLine
 10
387.87946
 20
800.362621
 30
0.0
 11
387.87946
 21
715.362621
 31
0.0
  0
LINE
  5
CFA0
100
AcDbEntity
  8
WYMIARY
 62
     3
100
AcDbLine
 10
370.37946
 20
715.362621
 30
0.0
 11
370.37946
 21
800.362621
 31
0.0
  0
TEXT
  5
CFA1
100
AcDbEntity
  8
WY
100
AcDbText
 10
367.218369
 20
568.799175
 30
0.0
 40
2.0
  1
Data
 51
15.0
  7
ITALIC
100
AcDbText
  0
TEXT
  5
CFA2
100
AcDbEntity
  8
WY
100
AcDbText
 10
362.787
 20
564.253947
 30
0.0
 40
2.0
  1
02-02-2008
 51
15.0
  7
ITALIC
100
AcDbText
  0
TEXT
  5
CFA3
100
AcDbEntity
  8
1
100
AcDbText
 10
369.595896
 20
705.334854
 30
0.0
 40
5.0
  1
RIK20-11
 41
0.75
  7
ITALIC
100
AcDbText
  0
LINE
  5
CFA4
100
AcDbEntity
  8
WYMIARY
 62
     3
100
AcDbLine
 10
387.87946
 20
715.362621
 30
0.0
 11
370.37946
 21
715.362621
 31
0.0
  0
LINE
  5
CFA5
100
AcDbEntity
  8
WYMIARY
 62
     3
100
AcDbLine
 10
387.87946
 20
735.362621
 30
0.0
 11
370.37946
 21
735.362621
 31
0.0
  0
LINE
  5
CFA6
100
AcDbEntity
  8
0
100
AcDbLine
 10
358.256813
 20
561.665201
 30
0.0
 11
356.711813
 21
561.665201
 31
0.0
  0
LINE
  5
CFA7
100
AcDbEntity
  8
0
100
AcDbLine
 10
356.711813
 20
569.861201
 30
0.0
 11
358.256813
 21
569.861201
 31
0.0
  0
ARC
  5
CFA8
100
AcDbEntity
  8
0
100
AcDbCircle
 10
350.35172
 20
562.786353
 30
0.0
 40
1.128907
100
AcDbArc
 50
276.719576
 51
2.175194
  0
ARC
  5
CFA9
100
AcDbEntity
  8
0
100
AcDbCircle
 10
350.12184
 20
566.857302
 30
0.0
 40
1.409039
100
AcDbArc
 50
15.47255
 51
127.56454
  0
LINE
  5
CFAA
100
AcDbEntity
  8
0
100
AcDbLine
 10
349.262813
 20
562.088201
 30
0.0
 11
349.262813
 21
560.066201
 31
0.0
  0
ARC
  5
CFAB
100
AcDbEntity
  8
0
100
AcDbCircle
 10
349.912393
 20
562.374701
 30
0.0
 40
0.709955
100
AcDbArc
 50
203.80008
 51
272.051918
  0
LINE
  5
CFAC
100
AcDbEntity
  8
0
100
AcDbLine
 10
347.717813
 20
560.066201
 30
0.0
 11
347.717813
 21
568.262201
 31
0.0
  0
LINE
  5
CFAD
100
AcDbEntity
  8
0
100
AcDbLine
 10
349.262813
 20
560.066201
 30
0.0
 11
347.717813
 21
560.066201
 31
0.0
  0
LINE
  5
CFAE
100
AcDbEntity
  8
0
100
AcDbLine
 10
349.945859
 20
561.665201
 30
0.0
 11
350.483813
 21
561.665201
 31
0.0
  0
LINE
  5
CFAF
100
AcDbEntity
  8
0
100
AcDbLine
 10
349.937813
 20
567.011201
 30
0.0
 11
349.937813
 21
562.902701
 31
0.0
  0
LINE
  5
CFB0
100
AcDbEntity
  8
0
100
AcDbLine
 10
349.262813
 20
567.011201
 30
0.0
 11
349.262813
 21
562.902701
 31
0.0
  0
ARC
  5
CFB1
100
AcDbEntity
  8
0
100
AcDbCircle
 10
349.600313
 20
562.902701
 30
0.0
 40
0.3375
100
AcDbArc
 50
180.0
 51
0.0
  0
ARC
  5
CFB2
100
AcDbEntity
  8
0
100
AcDbCircle
 10
349.600313
 20
567.011201
 30
0.0
 40
0.3375
100
AcDbArc
 50
360.0
 51
180.0
  0
LINE
  5
CFB3
100
AcDbEntity
  8
0
100
AcDbLine
 10
347.717813
 20
568.262201
 30
0.0
 11
349.262813
 21
568.262201
 31
0.0
  0
LINE
  5
CFB4
100
AcDbEntity
  8
0
100
AcDbLine
 10
349.262813
 20
568.262201
 30
0.0
 11
349.262813
 21
567.974201
 31
0.0
  0
LINE
  5
CFB5
100
AcDbEntity
  8
0
100
AcDbLine
 10
345.518813
 20
561.665201
 30
0.0
 11
345.518813
 21
569.861201
 31
0.0
  0
LINE
  5
CFB6
100
AcDbEntity
  8
0
100
AcDbLine
 10
347.063813
 20
569.861201
 30
0.0
 11
347.063813
 21
561.665201
 31
0.0
  0
LINE
  5
CFB7
100
AcDbEntity
  8
0
100
AcDbLine
 10
347.063813
 20
561.665201
 30
0.0
 11
345.518813
 21
561.665201
 31
0.0
  0
LINE
  5
CFB8
100
AcDbEntity
  8
0
100
AcDbLine
 10
344.831813
 20
563.786607
 30
0.0
 11
344.831813
 21
562.886201
 31
0.0
  0
LINE
  5
CFB9
100
AcDbEntity
  8
0
100
AcDbLine
 10
344.831813
 20
564.461607
 30
0.0
 11
344.831813
 21
567.064407
 31
0.0
  0
LINE
  5
CFBA
100
AcDbEntity
  8
0
100
AcDbLine
 10
345.518813
 20
569.861201
 30
0.0
 11
347.063813
 21
569.861201
 31
0.0
  0
LINE
  5
CFBB
100
AcDbEntity
  8
0
100
AcDbLine
 10
356.711813
 20
561.665201
 30
0.0
 11
356.711813
 21
569.861201
 31
0.0
  0
LINE
  5
CFBC
100
AcDbEntity
  8
0
100
AcDbLine
 10
356.036813
 20
567.074201
 30
0.0
 11
356.036813
 21
562.853348
 31
0.0
  0
ARC
  5
CFBD
100
AcDbEntity
  8
0
100
AcDbCircle
 10
353.612652
 20
563.153509
 30
0.0
 40
1.488419
100
AcDbArc
 50
191.634268
 51
270.699113
  0
LINE
  5
CFBE
100
AcDbEntity
  8
0
100
AcDbLine
 10
353.630813
 20
561.665201
 30
0.0
 11
354.560813
 21
561.665201
 31
0.0
  0
ARC
  5
CFBF
100
AcDbEntity
  8
0
100
AcDbCircle
 10
353.612652
 20
566.77404
 30
0.0
 40
1.488419
100
AcDbArc
 50
89.300887
 51
168.365732
  0
LINE
  5
CFC0
100
AcDbEntity
  8
0
100
AcDbLine
 10
351.479813
 20
567.233201
 30
0.0
 11
351.479813
 21
562.829201
 31
0.0
  0
ARC
  5
CFC1
100
AcDbEntity
  8
0
100
AcDbCircle
 10
354.095813
 20
567.011201
 30
0.0
 40
0.3375
100
AcDbArc
 50
360.0
 51
180.0
  0
ARC
  5
CFC2
100
AcDbEntity
  8
0
100
AcDbCircle
 10
354.095813
 20
562.902701
 30
0.0
 40
0.3375
100
AcDbArc
 50
180.0
 51
0.0
  0
LINE
  5
CFC3
100
AcDbEntity
  8
0
100
AcDbLine
 10
353.758313
 20
567.011201
 30
0.0
 11
353.758313
 21
562.902701
 31
0.0
  0
LINE
  5
CFC4
100
AcDbEntity
  8
0
100
AcDbLine
 10
354.433313
 20
567.011201
 30
0.0
 11
354.433313
 21
562.902701
 31
0.0
  0
LINE
  5
CFC5
100
AcDbEntity
  8
0
100
AcDbLine
 10
352.154813
 20
562.853348
 30
0.0
 11
352.154813
 21
567.074201
 31
0.0
  0
LINE
  5
CFC6
100
AcDbEntity
  8
0
100
AcDbLine
 10
353.630813
 20
568.262348
 30
0.0
 11
354.560813
 21
568.262348
 31
0.0
  0
ARC
  5
CFC7
100
AcDbEntity
  8
0
100
AcDbCircle
 10
354.578974
 20
563.153509
 30
0.0
 40
1.488419
100
AcDbArc
 50
269.300887
 51
348.365732
  0
ARC
  5
CFC8
100
AcDbEntity
  8
0
100
AcDbCircle
 10
354.578974
 20
566.77404
 30
0.0
 40
1.488419
100
AcDbArc
 50
11.634268
 51
90.699113
  0
LINE
  5
CFC9
100
AcDbEntity
  8
0
100
AcDbLine
 10
358.256813
 20
569.861201
 30
0.0
 11
358.256813
 21
561.665201
 31
0.0
  0
LINE
  5
CFCA
100
AcDbEntity
  8
1
100
AcDbLine
 10
361.839456
 20
557.649937
 30
0.0
 11
361.839456
 21
572.339774
 31
0.0
  0
LINE
  5
CFCB
100
AcDbEntity
  8
WYMIARY
 62
     3
100
AcDbLine
 10
384.742781
 20
572.339774
 30
0.0
 11
384.742781
 21
557.649937
 31
0.0
  0
TEXT
  5
CFCC
100
AcDbEntity
  8
1
100
AcDbText
 10
381.612228
 20
731.278372
 30
0.0
 40
3.0
  1
A2
 41
0.65
  7
ITALIC
100
AcDbText
  0
LINE
  5
CFCD
100
AcDbEntity
  8
WYMIARY
 62
     3
100
AcDbLine
 10
385.772875
 20
722.340587
 30
0.0
 11
383.800402
 21
722.340587
 31
0.0
  0
LINE
  5
CFCE
100
AcDbEntity
  8
WYMIARY
 62
     3
100
AcDbLine
 10
385.772875
 20
720.952461
 30
0.0
 11
383.800402
 21
720.952461
 31
0.0
  0
CIRCLE
  5
CFCF
100
AcDbEntity
  8
WYMIARY
 62
     3
100
AcDbCircle
 10
383.17946
 20
721.567378
 30
0.0
 40
3.3
  0
LINE
  5
CFD0
100
AcDbEntity
  8
WYMIARY
 62
     3
100
AcDbLine
 10
378.650374
 20
729.465674
 30
0.0
 11
378.650374
 21
728.068047
 31
0.0
  0
LINE
  5
CFD1
100
AcDbEntity
  8
WYMIARY
 62
     3
100
AcDbLine
 10
379.622062
 20
729.465674
 30
0.0
 11
379.622062
 21
728.068047
 31
0.0
  0
CIRCLE
  5
CFD2
100
AcDbEntity
  8
WYMIARY
 62
     3
100
AcDbCircle
 10
379.136218
 20
729.951518
 30
0.0
 40
2.25
  0
LINE
  5
CFD3
100
AcDbEntity
  8
WYMIARY
 62
     3
100
AcDbLine
 10
375.846645
 20
720.952461
 30
0.0
 11
378.025685
 21
720.952461
 31
0.0
  0
LINE
  5
CFD4
100
AcDbEntity
  8
WYMIARY
 62
     3
100
AcDbLine
 10
375.846645
 20
722.340587
 30
0.0
 11
378.025685
 21
722.340587
 31
0.0
  0
CIRCLE
  5
CFD5
100
AcDbEntity
  8
WYMIARY
 62
     3
100
AcDbCircle
 10
375.07946
 20
721.567378
 30
0.0
 40
3.3
  0
LINE
  5
CFD6
100
AcDbEntity
  8
WYMIARY
 62
     3
100
AcDbLine
 10
374.458519
 20
724.337198
 30
0.0
 11
375.846645
 21
724.337198
 31
0.0
  0
LINE
  5
CFD7
100
AcDbEntity
  8
WYMIARY
 62
     3
100
AcDbLine
 10
374.458519
 20
722.340587
 30
0.0
 11
374.458519
 21
724.337198
 31
0.0
  0
LINE
  5
CFD8
100
AcDbEntity
  8
WYMIARY
 62
     3
100
AcDbLine
 10
375.846645
 20
722.340587
 30
0.0
 11
375.846645
 21
724.337198
 31
0.0
  0
LINE
  5
CFD9
100
AcDbEntity
  8
WYMIARY
 62
     3
100
AcDbLine
 10
374.458519
 20
718.797558
 30
0.0
 11
375.846645
 21
718.797558
 31
0.0
  0
LINE
  5
CFDA
100
AcDbEntity
  8
WYMIARY
 62
     3
100
AcDbLine
 10
374.458519
 20
718.797558
 30
0.0
 11
375.846645
 21
718.797558
 31
0.0
  0
LINE
  5
CFDB
100
AcDbEntity
  8
WYMIARY
 62
     3
100
AcDbLine
 10
374.458519
 20
718.797558
 30
0.0
 11
375.846645
 21
718.797558
 31
0.0
  0
LINE
  5
CFDC
100
AcDbEntity
  8
WYMIARY
 62
     3
100
AcDbLine
 10
374.458519
 20
718.797558
 30
0.0
 11
374.458519
 21
720.952461
 31
0.0
  0
LINE
  5
CFDD
100
AcDbEntity
  8
WYMIARY
 62
     3
100
AcDbLine
 10
375.846645
 20
718.797558
 30
0.0
 11
375.846645
 21
720.952461
 31
0.0
  0
LINE
  5
CFDE
100
AcDbEntity
  8
WYMIARY
 62
     3
100
AcDbLine
 10
372.486045
 20
722.340587
 30
0.0
 11
372.486045
 21
720.952461
 31
0.0
  0
TEXT
  5
CFDF
100
AcDbEntity
  8
1
100
AcDbText
 10
372.015935
 20
725.240119
 30
0.0
 40
3.0
  1
2
 41
0.65
  7
ITALIC
100
AcDbText
  0
LINE
  5
CFE0
100
AcDbEntity
  8
WYMIARY
 62
     3
100
AcDbLine
 10
372.486045
 20
720.952461
 30
0.0
 11
374.458519
 21
720.952461
 31
0.0
  0
LINE
  5
CFE1
100
AcDbEntity
  8
WYMIARY
 62
     3
100
AcDbLine
 10
372.486045
 20
722.340587
 30
0.0
 11
374.458519
 21
722.340587
 31
0.0
  0
LINE
  5
CFE2
100
AcDbEntity
  8
WYMIARY
 62
     3
100
AcDbLine
 10
382.412276
 20
722.340587
 30
0.0
 11
382.412276
 21
724.337198
 31
0.0
  0
LINE
  5
CFE3
100
AcDbEntity
  8
WYMIARY
 62
     3
100
AcDbLine
 10
383.800402
 20
722.340587
 30
0.0
 11
383.800402
 21
724.337198
 31
0.0
  0
LINE
  5
CFE4
100
AcDbEntity
  8
WYMIARY
 62
     3
100
AcDbLine
 10
383.800402
 20
724.337198
 30
0.0
 11
382.412276
 21
724.337198
 31
0.0
  0
LINE
  5
CFE5
100
AcDbEntity
  8
WYMIARY
 62
     3
100
AcDbLine
 10
383.800402
 20
718.797558
 30
0.0
 11
382.412276
 21
718.797558
 31
0.0
  0
LINE
  5
CFE6
100
AcDbEntity
  8
WYMIARY
 62
     3
100
AcDbLine
 10
383.800402
 20
718.797558
 30
0.0
 11
382.412276
 21
718.797558
 31
0.0
  0
LINE
  5
CFE7
100
AcDbEntity
  8
WYMIARY
 62
     3
100
AcDbLine
 10
383.800402
 20
718.797558
 30
0.0
 11
382.412276
 21
718.797558
 31
0.0
  0
LINE
  5
CFE8
100
AcDbEntity
  8
WYMIARY
 62
     3
100
AcDbLine
 10
382.412276
 20
718.797558
 30
0.0
 11
382.412276
 21
720.952461
 31
0.0
  0
LINE
  5
CFE9
100
AcDbEntity
  8
WYMIARY
 62
     3
100
AcDbLine
 10
383.800402
 20
718.797558
 30
0.0
 11
383.800402
 21
720.952461
 31
0.0
  0
LINE
  5
CFEA
100
AcDbEntity
  8
WYMIARY
 62
     3
100
AcDbLine
 10
378.025685
 20
722.340587
 30
0.0
 11
378.025685
 21
720.952461
 31
0.0
  0
LINE
  5
CFEB
100
AcDbEntity
  8
WYMIARY
 62
     3
100
AcDbLine
 10
378.650374
 20
728.068047
 30
0.0
 11
379.622062
 21
728.068047
 31
0.0
  0
LINE
  5
CFEC
100
AcDbEntity
  8
WYMIARY
 62
     3
100
AcDbLine
 10
380.233235
 20
722.340587
 30
0.0
 11
380.233235
 21
720.952461
 31
0.0
  0
LINE
  5
CFED
100
AcDbEntity
  8
WYMIARY
 62
     3
100
AcDbLine
 10
382.412276
 20
722.340587
 30
0.0
 11
380.233235
 21
722.340587
 31
0.0
  0
LINE
  5
CFEE
100
AcDbEntity
  8
WYMIARY
 62
     3
100
AcDbLine
 10
382.412276
 20
720.952461
 30
0.0
 11
380.233235
 21
720.952461
 31
0.0
  0
LINE
  5
CFEF
100
AcDbEntity
  8
WYMIARY
 62
     3
100
AcDbLine
 10
377.269642
 20
730.437362
 30
0.0
 11
378.650374
 21
730.437362
 31
0.0
  0
LINE
  5
CFF0
100
AcDbEntity
  8
WYMIARY
 62
     3
100
AcDbLine
 10
377.269642
 20
729.465674
 30
0.0
 11
378.650374
 21
729.465674
 31
0.0
  0
LINE
  5
CFF1
100
AcDbEntity
  8
WYMIARY
 62
     3
100
AcDbLine
 10
377.269642
 20
729.465674
 30
0.0
 11
377.269642
 21
730.437362
 31
0.0
  0
LINE
  5
CFF2
100
AcDbEntity
  8
WYMIARY
 62
     3
100
AcDbLine
 10
379.622062
 20
730.437362
 30
0.0
 11
381.14739
 21
730.437362
 31
0.0
  0
LINE
  5
CFF3
100
AcDbEntity
  8
WYMIARY
 62
     3
100
AcDbLine
 10
378.650374
 20
731.945795
 30
0.0
 11
379.622062
 21
731.945795
 31
0.0
  0
LINE
  5
CFF4
100
AcDbEntity
  8
WYMIARY
 62
     3
100
AcDbLine
 10
378.650374
 20
731.945795
 30
0.0
 11
378.650374
 21
730.437362
 31
0.0
  0
LINE
  5
CFF5
100
AcDbEntity
  8
WYMIARY
 62
     3
100
AcDbLine
 10
379.622062
 20
731.945795
 30
0.0
 11
379.622062
 21
730.437362
 31
0.0
  0
LINE
  5
CFF6
100
AcDbEntity
  8
WYMIARY
 62
     3
100
AcDbLine
 10
379.622062
 20
729.465674
 30
0.0
 11
381.14739
 21
729.465674
 31
0.0
  0
LINE
  5
CFF7
100
AcDbEntity
  8
WYMIARY
 62
     3
100
AcDbLine
 10
381.14739
 20
729.465674
 30
0.0
 11
381.14739
 21
730.437362
 31
0.0
  0
TEXT
  5
CFF8
100
AcDbEntity
  8
1
100
AcDbText
 10
384.210114
 20
725.240119
 30
0.0
 40
3.0
  1
R4
 41
0.65
  7
ITALIC
100
AcDbText
  0
LINE
  5
CFF9
100
AcDbEntity
  8
WYMIARY
 62
     3
100
AcDbLine
 10
385.772875
 20
722.340587
 30
0.0
 11
385.772875
 21
720.952461
 31
0.0
  0
LINE
  5
CFFA
100
AcDbEntity
  8
WYMIARY
 62
     3
100
AcDbLine
 10
370.37946
 20
800.362621
 30
0.0
 11
387.87946
 21
800.362621
 31
0.0
  0
LINE
  5
CFFB
100
AcDbEntity
  8
WYMIARY
 62
     3
100
AcDbLine
 10
387.87946
 20
780.362621
 30
0.0
 11
370.37946
 21
780.362621
 31
0.0
  0
LINE
  5
CFFC
100
AcDbEntity
  8
WYMIARY
 62
     3
100
AcDbLine
 10
387.87946
 20
800.362621
 30
0.0
 11
383.17946
 21
800.362621
 31
0.0
  0
TEXT
  5
CFFD
100
AcDbEntity
  8
1
100
AcDbText
 10
383.97055
 20
787.411886
 30
0.0
 40
3.0
  1
R3
 41
0.65
  7
ITALIC
100
AcDbText
  0
LINE
  5
CFFE
100
AcDbEntity
  8
WYMIARY
 62
     3
100
AcDbLine
 10
385.772875
 20
794.772781
 30
0.0
 11
383.800402
 21
794.772781
 31
0.0
  0
LINE
  5
CFFF
100
AcDbEntity
  8
WYMIARY
 62
     3
100
AcDbLine
 10
385.772875
 20
793.384655
 30
0.0
 11
383.800402
 21
793.384655
 31
0.0
  0
CIRCLE
  5
D000
100
AcDbEntity
  8
WYMIARY
 62
     3
100
AcDbCircle
 10
383.17946
 20
794.157865
 30
0.0
 40
3.3
  0
LINE
  5
D001
100
AcDbEntity
  8
WYMIARY
 62
     3
100
AcDbLine
 10
383.800402
 20
796.927685
 30
0.0
 11
383.800402
 21
794.772781
 31
0.0
  0
LINE
  5
D002
100
AcDbEntity
  8
WYMIARY
 62
     3
100
AcDbLine
 10
382.412276
 20
796.927685
 30
0.0
 11
382.412276
 21
794.772781
 31
0.0
  0
LINE
  5
D003
100
AcDbEntity
  8
WYMIARY
 62
     3
100
AcDbLine
 10
375.846645
 20
796.927685
 30
0.0
 11
375.846645
 21
794.772781
 31
0.0
  0
LINE
  5
D004
100
AcDbEntity
  8
WYMIARY
 62
     3
100
AcDbLine
 10
374.458519
 20
796.927685
 30
0.0
 11
374.458519
 21
794.772781
 31
0.0
  0
CIRCLE
  5
D005
100
AcDbEntity
  8
WYMIARY
 62
     3
100
AcDbCircle
 10
375.07946
 20
794.157865
 30
0.0
 40
3.3
  0
LINE
  5
D006
100
AcDbEntity
  8
WYMIARY
 62
     3
100
AcDbLine
 10
375.846645
 20
793.384655
 30
0.0
 11
378.025685
 21
793.384655
 31
0.0
  0
LINE
  5
D007
100
AcDbEntity
  8
WYMIARY
 62
     3
100
AcDbLine
 10
375.846645
 20
794.772781
 30
0.0
 11
378.025685
 21
794.772781
 31
0.0
  0
LINE
  5
D008
100
AcDbEntity
  8
WYMIARY
 62
     3
100
AcDbLine
 10
377.269642
 20
786.259568
 30
0.0
 11
378.650374
 21
786.259568
 31
0.0
  0
LINE
  5
D009
100
AcDbEntity
  8
WYMIARY
 62
     3
100
AcDbLine
 10
377.269642
 20
785.28788
 30
0.0
 11
378.650374
 21
785.28788
 31
0.0
  0
CIRCLE
  5
D00A
100
AcDbEntity
  8
WYMIARY
 62
     3
100
AcDbCircle
 10
379.136218
 20
785.773724
 30
0.0
 40
2.25
  0
TEXT
  5
D00B
100
AcDbEntity
  8
1
100
AcDbText
 10
373.290357
 20
787.411886
 30
0.0
 40
3.0
  1
1
 41
0.65
  7
ITALIC
100
AcDbText
  0
LINE
  5
D00C
100
AcDbEntity
  8
WYMIARY
 62
     3
100
AcDbLine
 10
375.846645
 20
793.384655
 30
0.0
 11
375.846645
 21
791.388045
 31
0.0
  0
LINE
  5
D00D
100
AcDbEntity
  8
WYMIARY
 62
     3
100
AcDbLine
 10
374.458519
 20
793.384655
 30
0.0
 11
374.458519
 21
791.388045
 31
0.0
  0
LINE
  5
D00E
100
AcDbEntity
  8
WYMIARY
 62
     3
100
AcDbLine
 10
374.458519
 20
791.388045
 30
0.0
 11
375.846645
 21
791.388045
 31
0.0
  0
LINE
  5
D00F
100
AcDbEntity
  8
WYMIARY
 62
     3
100
AcDbLine
 10
377.269642
 20
785.28788
 30
0.0
 11
377.269642
 21
786.259568
 31
0.0
  0
LINE
  5
D010
100
AcDbEntity
  8
WYMIARY
 62
     3
100
AcDbLine
 10
372.486045
 20
793.384655
 30
0.0
 11
372.486045
 21
794.772781
 31
0.0
  0
LINE
  5
D011
100
AcDbEntity
  8
WYMIARY
 62
     3
100
AcDbLine
 10
372.486045
 20
793.384655
 30
0.0
 11
374.458519
 21
793.384655
 31
0.0
  0
LINE
  5
D012
100
AcDbEntity
  8
WYMIARY
 62
     3
100
AcDbLine
 10
372.486045
 20
794.772781
 30
0.0
 11
374.458519
 21
794.772781
 31
0.0
  0
TEXT
  5
D013
100
AcDbEntity
  8
1
100
AcDbText
 10
381.541109
 20
781.605875
 30
0.0
 40
3.0
  1
A1
 41
0.65
  7
ITALIC
100
AcDbText
  0
LINE
  5
D014
100
AcDbEntity
  8
WYMIARY
 62
     3
100
AcDbLine
 10
383.800402
 20
791.388045
 30
0.0
 11
382.412276
 21
791.388045
 31
0.0
  0
LINE
  5
D015
100
AcDbEntity
  8
WYMIARY
 62
     3
100
AcDbLine
 10
383.800402
 20
793.384655
 30
0.0
 11
383.800402
 21
791.388045
 31
0.0
  0
LINE
  5
D016
100
AcDbEntity
  8
WYMIARY
 62
     3
100
AcDbLine
 10
382.412276
 20
793.384655
 30
0.0
 11
382.412276
 21
791.388045
 31
0.0
  0
LINE
  5
D017
100
AcDbEntity
  8
WYMIARY
 62
     3
100
AcDbLine
 10
379.622062
 20
786.259568
 30
0.0
 11
381.14739
 21
786.259568
 31
0.0
  0
LINE
  5
D018
100
AcDbEntity
  8
WYMIARY
 62
     3
100
AcDbLine
 10
379.622062
 20
785.28788
 30
0.0
 11
381.14739
 21
785.28788
 31
0.0
  0
LINE
  5
D019
100
AcDbEntity
  8
WYMIARY
 62
     3
100
AcDbLine
 10
378.025685
 20
793.384655
 30
0.0
 11
378.025685
 21
794.772781
 31
0.0
  0
LINE
  5
D01A
100
AcDbEntity
  8
WYMIARY
 62
     3
100
AcDbLine
 10
378.650374
 20
787.768001
 30
0.0
 11
378.650374
 21
786.259568
 31
0.0
  0
LINE
  5
D01B
100
AcDbEntity
  8
WYMIARY
 62
     3
100
AcDbLine
 10
379.622062
 20
787.768001
 30
0.0
 11
379.622062
 21
786.259568
 31
0.0
  0
LINE
  5
D01C
100
AcDbEntity
  8
WYMIARY
 62
     3
100
AcDbLine
 10
378.650374
 20
787.768001
 30
0.0
 11
379.622062
 21
787.768001
 31
0.0
  0
LINE
  5
D01D
100
AcDbEntity
  8
WYMIARY
 62
     3
100
AcDbLine
 10
378.650374
 20
785.28788
 30
0.0
 11
378.650374
 21
783.890253
 31
0.0
  0
LINE
  5
D01E
100
AcDbEntity
  8
WYMIARY
 62
     3
100
AcDbLine
 10
379.622062
 20
785.28788
 30
0.0
 11
379.622062
 21
783.890253
 31
0.0
  0
LINE
  5
D01F
100
AcDbEntity
  8
WYMIARY
 62
     3
100
AcDbLine
 10
378.650374
 20
783.890253
 30
0.0
 11
379.622062
 21
783.890253
 31
0.0
  0
LINE
  5
D020
100
AcDbEntity
  8
WYMIARY
 62
     3
100
AcDbLine
 10
380.233235
 20
793.384655
 30
0.0
 11
380.233235
 21
794.772781
 31
0.0
  0
LINE
  5
D021
100
AcDbEntity
  8
WYMIARY
 62
     3
100
AcDbLine
 10
381.14739
 20
785.28788
 30
0.0
 11
381.14739
 21
786.259568
 31
0.0
  0
LINE
  5
D022
100
AcDbEntity
  8
WYMIARY
 62
     3
100
AcDbLine
 10
382.412276
 20
794.772781
 30
0.0
 11
380.233235
 21
794.772781
 31
0.0
  0
LINE
  5
D023
100
AcDbEntity
  8
WYMIARY
 62
     3
100
AcDbLine
 10
382.412276
 20
793.384655
 30
0.0
 11
380.233235
 21
793.384655
 31
0.0
  0
LINE
  5
D024
100
AcDbEntity
  8
WYMIARY
 62
     3
100
AcDbLine
 10
374.458519
 20
796.927685
 30
0.0
 11
375.846645
 21
796.927685
 31
0.0
  0
LINE
  5
D025
100
AcDbEntity
  8
WYMIARY
 62
     3
100
AcDbLine
 10
374.458519
 20
796.927685
 30
0.0
 11
375.846645
 21
796.927685
 31
0.0
  0
LINE
  5
D026
100
AcDbEntity
  8
WYMIARY
 62
     3
100
AcDbLine
 10
374.458519
 20
796.927685
 30
0.0
 11
375.846645
 21
796.927685
 31
0.0
  0
LINE
  5
D027
100
AcDbEntity
  8
WYMIARY
 62
     3
100
AcDbLine
 10
383.800402
 20
796.927685
 30
0.0
 11
382.412276
 21
796.927685
 31
0.0
  0
LINE
  5
D028
100
AcDbEntity
  8
WYMIARY
 62
     3
100
AcDbLine
 10
383.800402
 20
796.927685
 30
0.0
 11
382.412276
 21
796.927685
 31
0.0
  0
LINE
  5
D029
100
AcDbEntity
  8
WYMIARY
 62
     3
100
AcDbLine
 10
383.800402
 20
796.927685
 30
0.0
 11
382.412276
 21
796.927685
 31
0.0
  0
LINE
  5
D02A
100
AcDbEntity
  8
WYMIARY
 62
     3
100
AcDbLine
 10
385.772875
 20
793.384655
 30
0.0
 11
385.772875
 21
794.772781
 31
0.0
  0
LINE
  5
D02B
100
AcDbEntity
  8
WYMIARY
 62
     3
100
AcDbLine
 10
421.356684
 20
715.362621
 30
0.0
 11
421.356684
 21
800.362621
 31
0.0
  0
LINE
  5
D02C
100
AcDbEntity
  8
WYMIARY
 62
     3
100
AcDbLine
 10
438.856684
 20
800.362621
 30
0.0
 11
438.856684
 21
715.362621
 31
0.0
  0
LINE
  5
D02D
100
AcDbEntity
  8
WYMIARY
 62
     3
100
AcDbLine
 10
438.856684
 20
800.362621
 30
0.0
 11
438.856684
 21
715.362621
 31
0.0
  0
CIRCLE
  5
D02E
100
AcDbEntity
  8
WYMIARY
 62
     3
100
AcDbCircle
 10
426.056684
 20
721.567378
 30
0.0
 40
3.3
  0
LINE
  5
D02F
100
AcDbEntity
  8
WYMIARY
 62
     3
100
AcDbLine
 10
423.463269
 20
722.340587
 30
0.0
 11
425.435743
 21
722.340587
 31
0.0
  0
LINE
  5
D030
100
AcDbEntity
  8
WYMIARY
 62
     3
100
AcDbLine
 10
423.463269
 20
720.952461
 30
0.0
 11
425.435743
 21
720.952461
 31
0.0
  0
TEXT
  5
D031
100
AcDbEntity
  8
1
100
AcDbText
 10
422.993159
 20
725.240119
 30
0.0
 40
3.0
  1
R2
 41
0.65
  7
ITALIC
100
AcDbText
  0
LINE
  5
D032
100
AcDbEntity
  8
WYMIARY
 62
     3
100
AcDbLine
 10
438.856684
 20
735.362621
 30
0.0
 11
421.356684
 21
735.362621
 31
0.0
  0
LINE
  5
D033
100
AcDbEntity
  8
WYMIARY
 62
     3
100
AcDbLine
 10
438.856684
 20
715.362621
 30
0.0
 11
421.356684
 21
715.362621
 31
0.0
  0
TEXT
  5
D034
100
AcDbEntity
  8
1
100
AcDbText
 10
420.57312
 20
705.334854
 30
0.0
 40
5.0
  1
RIK20-02
 41
0.75
  7
ITALIC
100
AcDbText
  0
LINE
  5
D035
100
AcDbEntity
  8
WYMIARY
 62
     3
100
AcDbLine
 10
423.463269
 20
722.340587
 30
0.0
 11
423.463269
 21
720.952461
 31
0.0
  0
TEXT
  5
D036
100
AcDbEntity
  8
WY
100
AcDbText
 10
427.955025
 20
569.249185
 30
0.0
 40
2.0
  1
Product type
 51
15.0
  7
ITALIC
100
AcDbText
  0
TEXT
  5
D037
100
AcDbEntity
  8
1
100
AcDbText
 10
427.758884
 20
561.713946
 30
0.0
 40
5.0
  1
RIK20
 41
0.75
  7
ITALIC
100
AcDbText
  0
LINE
  5
D038
100
AcDbEntity
  8
1
100
AcDbLine
 10
425.763828
 20
557.649937
 30
0.0
 11
425.763828
 21
572.339774
 31
0.0
  0
TEXT
  5
D039
100
AcDbEntity
  8
1
100
AcDbText
 10
435.187338
 20
725.240119
 30
0.0
 40
3.0
  1
R4
 41
0.65
  7
ITALIC
100
AcDbText
  0
LINE
  5
D03A
100
AcDbEntity
  8
WYMIARY
 62
     3
100
AcDbLine
 10
430.599286
 20
729.465674
 30
0.0
 11
430.599286
 21
728.068047
 31
0.0
  0
LINE
  5
D03B
100
AcDbEntity
  8
WYMIARY
 62
     3
100
AcDbLine
 10
429.627598
 20
729.465674
 30
0.0
 11
429.627598
 21
728.068047
 31
0.0
  0
CIRCLE
  5
D03C
100
AcDbEntity
  8
WYMIARY
 62
     3
100
AcDbCircle
 10
430.113442
 20
729.951518
 30
0.0
 40
2.25
  0
CIRCLE
  5
D03D
100
AcDbEntity
  8
WYMIARY
 62
     3
100
AcDbCircle
 10
434.156684
 20
721.567378
 30
0.0
 40
3.3
  0
LINE
  5
D03E
100
AcDbEntity
  8
WYMIARY
 62
     3
100
AcDbLine
 10
426.823869
 20
718.797558
 30
0.0
 11
426.823869
 21
720.952461
 31
0.0
  0
LINE
  5
D03F
100
AcDbEntity
  8
WYMIARY
 62
     3
100
AcDbLine
 10
425.435743
 20
718.797558
 30
0.0
 11
425.435743
 21
720.952461
 31
0.0
  0
LINE
  5
D040
100
AcDbEntity
  8
WYMIARY
 62
     3
100
AcDbLine
 10
425.435743
 20
718.797558
 30
0.0
 11
426.823869
 21
718.797558
 31
0.0
  0
LINE
  5
D041
100
AcDbEntity
  8
WYMIARY
 62
     3
100
AcDbLine
 10
425.435743
 20
718.797558
 30
0.0
 11
426.823869
 21
718.797558
 31
0.0
  0
LINE
  5
D042
100
AcDbEntity
  8
WYMIARY
 62
     3
100
AcDbLine
 10
425.435743
 20
718.797558
 30
0.0
 11
426.823869
 21
718.797558
 31
0.0
  0
LINE
  5
D043
100
AcDbEntity
  8
WYMIARY
 62
     3
100
AcDbLine
 10
429.627598
 20
728.068047
 30
0.0
 11
430.599286
 21
728.068047
 31
0.0
  0
LINE
  5
D044
100
AcDbEntity
  8
WYMIARY
 62
     3
100
AcDbLine
 10
426.823869
 20
722.340587
 30
0.0
 11
429.002909
 21
722.340587
 31
0.0
  0
LINE
  5
D045
100
AcDbEntity
  8
WYMIARY
 62
     3
100
AcDbLine
 10
426.823869
 20
720.952461
 30
0.0
 11
429.002909
 21
720.952461
 31
0.0
  0
LINE
  5
D046
100
AcDbEntity
  8
WYMIARY
 62
     3
100
AcDbLine
 10
429.002909
 20
722.340587
 30
0.0
 11
429.002909
 21
720.952461
 31
0.0
  0
LINE
  5
D047
100
AcDbEntity
  8
WYMIARY
 62
     3
100
AcDbLine
 10
426.823869
 20
722.340587
 30
0.0
 11
426.823869
 21
724.337198
 31
0.0
  0
LINE
  5
D048
100
AcDbEntity
  8
WYMIARY
 62
     3
100
AcDbLine
 10
425.435743
 20
722.340587
 30
0.0
 11
425.435743
 21
724.337198
 31
0.0
  0
LINE
  5
D049
100
AcDbEntity
  8
WYMIARY
 62
     3
100
AcDbLine
 10
425.435743
 20
724.337198
 30
0.0
 11
426.823869
 21
724.337198
 31
0.0
  0
LINE
  5
D04A
100
AcDbEntity
  8
WYMIARY
 62
     3
100
AcDbLine
 10
434.777625
 20
718.797558
 30
0.0
 11
434.777625
 21
720.952461
 31
0.0
  0
LINE
  5
D04B
100
AcDbEntity
  8
WYMIARY
 62
     3
100
AcDbLine
 10
436.750099
 20
720.952461
 30
0.0
 11
434.777625
 21
720.952461
 31
0.0
  0
LINE
  5
D04C
100
AcDbEntity
  8
WYMIARY
 62
     3
100
AcDbLine
 10
436.750099
 20
722.340587
 30
0.0
 11
434.777625
 21
722.340587
 31
0.0
  0
LINE
  5
D04D
100
AcDbEntity
  8
WYMIARY
 62
     3
100
AcDbLine
 10
434.777625
 20
722.340587
 30
0.0
 11
434.777625
 21
724.337198
 31
0.0
  0
LINE
  5
D04E
100
AcDbEntity
  8
WYMIARY
 62
     3
100
AcDbLine
 10
436.750099
 20
722.340587
 30
0.0
 11
436.750099
 21
720.952461
 31
0.0
  0
LINE
  5
D04F
100
AcDbEntity
  8
WYMIARY
 62
     3
100
AcDbLine
 10
433.389499
 20
720.952461
 30
0.0
 11
431.210459
 21
720.952461
 31
0.0
  0
LINE
  5
D050
100
AcDbEntity
  8
WYMIARY
 62
     3
100
AcDbLine
 10
433.389499
 20
722.340587
 30
0.0
 11
431.210459
 21
722.340587
 31
0.0
  0
LINE
  5
D051
100
AcDbEntity
  8
WYMIARY
 62
     3
100
AcDbLine
 10
431.210459
 20
722.340587
 30
0.0
 11
431.210459
 21
720.952461
 31
0.0
  0
LINE
  5
D052
100
AcDbEntity
  8
WYMIARY
 62
     3
100
AcDbLine
 10
433.389499
 20
718.797558
 30
0.0
 11
433.389499
 21
720.952461
 31
0.0
  0
LINE
  5
D053
100
AcDbEntity
  8
WYMIARY
 62
     3
100
AcDbLine
 10
433.389499
 20
722.340587
 30
0.0
 11
433.389499
 21
724.337198
 31
0.0
  0
LINE
  5
D054
100
AcDbEntity
  8
WYMIARY
 62
     3
100
AcDbLine
 10
434.777625
 20
718.797558
 30
0.0
 11
433.389499
 21
718.797558
 31
0.0
  0
LINE
  5
D055
100
AcDbEntity
  8
WYMIARY
 62
     3
100
AcDbLine
 10
434.777625
 20
718.797558
 30
0.0
 11
433.389499
 21
718.797558
 31
0.0
  0
LINE
  5
D056
100
AcDbEntity
  8
WYMIARY
 62
     3
100
AcDbLine
 10
434.777625
 20
718.797558
 30
0.0
 11
433.389499
 21
718.797558
 31
0.0
  0
LINE
  5
D057
100
AcDbEntity
  8
WYMIARY
 62
     3
100
AcDbLine
 10
434.777625
 20
724.337198
 30
0.0
 11
433.389499
 21
724.337198
 31
0.0
  0
LINE
  5
D058
100
AcDbEntity
  8
WYMIARY
 62
     3
100
AcDbLine
 10
430.599286
 20
730.437362
 30
0.0
 11
432.124614
 21
730.437362
 31
0.0
  0
LINE
  5
D059
100
AcDbEntity
  8
WYMIARY
 62
     3
100
AcDbLine
 10
430.599286
 20
729.465674
 30
0.0
 11
432.124614
 21
729.465674
 31
0.0
  0
LINE
  5
D05A
100
AcDbEntity
  8
WYMIARY
 62
     3
100
AcDbLine
 10
430.599286
 20
731.945795
 30
0.0
 11
430.599286
 21
730.437362
 31
0.0
  0
LINE
  5
D05B
100
AcDbEntity
  8
WYMIARY
 62
     3
100
AcDbLine
 10
428.246866
 20
730.437362
 30
0.0
 11
429.627598
 21
730.437362
 31
0.0
  0
LINE
  5
D05C
100
AcDbEntity
  8
WYMIARY
 62
     3
100
AcDbLine
 10
429.627598
 20
731.945795
 30
0.0
 11
429.627598
 21
730.437362
 31
0.0
  0
LINE
  5
D05D
100
AcDbEntity
  8
WYMIARY
 62
     3
100
AcDbLine
 10
429.627598
 20
731.945795
 30
0.0
 11
430.599286
 21
731.945795
 31
0.0
  0
LINE
  5
D05E
100
AcDbEntity
  8
WYMIARY
 62
     3
100
AcDbLine
 10
428.246866
 20
729.465674
 30
0.0
 11
429.627598
 21
729.465674
 31
0.0
  0
LINE
  5
D05F
100
AcDbEntity
  8
WYMIARY
 62
     3
100
AcDbLine
 10
428.246866
 20
729.465674
 30
0.0
 11
428.246866
 21
730.437362
 31
0.0
  0
LINE
  5
D060
100
AcDbEntity
  8
WYMIARY
 62
     3
100
AcDbLine
 10
432.124614
 20
729.465674
 30
0.0
 11
432.124614
 21
730.437362
 31
0.0
  0
TEXT
  5
D061
100
AcDbEntity
  8
1
100
AcDbText
 10
432.589452
 20
731.278372
 30
0.0
 40
3.0
  1
A2
 41
0.65
  7
ITALIC
100
AcDbText
  0
LINE
  5
D062
100
AcDbEntity
  8
WYMIARY
 62
     3
100
AcDbLine
 10
423.463269
 20
794.772781
 30
0.0
 11
425.435743
 21
794.772781
 31
0.0
  0
LINE
  5
D063
100
AcDbEntity
  8
WYMIARY
 62
     3
100
AcDbLine
 10
423.463269
 20
793.384655
 30
0.0
 11
425.435743
 21
793.384655
 31
0.0
  0
TEXT
  5
D064
100
AcDbEntity
  8
1
100
AcDbText
 10
424.26758
 20
787.411886
 30
0.0
 40
3.0
  1
R1
 41
0.65
  7
ITALIC
100
AcDbText
  0
CIRCLE
  5
D065
100
AcDbEntity
  8
WYMIARY
 62
     3
100
AcDbCircle
 10
426.056684
 20
794.157865
 30
0.0
 40
3.3
  0
LINE
  5
D066
100
AcDbEntity
  8
WYMIARY
 62
     3
100
AcDbLine
 10
438.856684
 20
780.362621
 30
0.0
 11
421.356684
 21
780.362621
 31
0.0
  0
LINE
  5
D067
100
AcDbEntity
  8
WYMIARY
 62
     3
100
AcDbLine
 10
421.356684
 20
800.362621
 30
0.0
 11
438.856684
 21
800.362621
 31
0.0
  0
LINE
  5
D068
100
AcDbEntity
  8
WYMIARY
 62
     3
100
AcDbLine
 10
423.463269
 20
793.384655
 30
0.0
 11
423.463269
 21
794.772781
 31
0.0
  0
LINE
  5
D069
100
AcDbEntity
  8
WYMIARY
 62
     3
100
AcDbLine
 10
438.856684
 20
800.362621
 30
0.0
 11
434.156684
 21
800.362621
 31
0.0
  0
TEXT
  5
D06A
100
AcDbEntity
  8
1
100
AcDbText
 10
434.947774
 20
787.411886
 30
0.0
 40
3.0
  1
R3
 41
0.65
  7
ITALIC
100
AcDbText
  0
LINE
  5
D06B
100
AcDbEntity
  8
WYMIARY
 62
     3
100
AcDbLine
 10
434.777625
 20
796.927685
 30
0.0
 11
434.777625
 21
794.772781
 31
0.0
  0
LINE
  5
D06C
100
AcDbEntity
  8
WYMIARY
 62
     3
100
AcDbLine
 10
425.435743
 20
796.927685
 30
0.0
 11
425.435743
 21
794.772781
 31
0.0
  0
LINE
  5
D06D
100
AcDbEntity
  8
WYMIARY
 62
     3
100
AcDbLine
 10
426.823869
 20
796.927685
 30
0.0
 11
426.823869
 21
794.772781
 31
0.0
  0
LINE
  5
D06E
100
AcDbEntity
  8
WYMIARY
 62
     3
100
AcDbLine
 10
433.389499
 20
796.927685
 30
0.0
 11
433.389499
 21
794.772781
 31
0.0
  0
CIRCLE
  5
D06F
100
AcDbEntity
  8
WYMIARY
 62
     3
100
AcDbCircle
 10
434.156684
 20
794.157865
 30
0.0
 40
3.3
  0
CIRCLE
  5
D070
100
AcDbEntity
  8
WYMIARY
 62
     3
100
AcDbCircle
 10
430.113442
 20
785.773724
 30
0.0
 40
2.25
  0
LINE
  5
D071
100
AcDbEntity
  8
WYMIARY
 62
     3
100
AcDbLine
 10
430.599286
 20
785.28788
 30
0.0
 11
432.124614
 21
785.28788
 31
0.0
  0
LINE
  5
D072
100
AcDbEntity
  8
WYMIARY
 62
     3
100
AcDbLine
 10
430.599286
 20
786.259568
 30
0.0
 11
432.124614
 21
786.259568
 31
0.0
  0
LINE
  5
D073
100
AcDbEntity
  8
WYMIARY
 62
     3
100
AcDbLine
 10
428.246866
 20
785.28788
 30
0.0
 11
428.246866
 21
786.259568
 31
0.0
  0
LINE
  5
D074
100
AcDbEntity
  8
WYMIARY
 62
     3
100
AcDbLine
 10
429.627598
 20
783.890253
 30
0.0
 11
430.599286
 21
783.890253
 31
0.0
  0
LINE
  5
D075
100
AcDbEntity
  8
WYMIARY
 62
     3
100
AcDbLine
 10
430.599286
 20
785.28788
 30
0.0
 11
430.599286
 21
783.890253
 31
0.0
  0
LINE
  5
D076
100
AcDbEntity
  8
WYMIARY
 62
     3
100
AcDbLine
 10
429.627598
 20
785.28788
 30
0.0
 11
429.627598
 21
783.890253
 31
0.0
  0
LINE
  5
D077
100
AcDbEntity
  8
WYMIARY
 62
     3
100
AcDbLine
 10
428.246866
 20
785.28788
 30
0.0
 11
429.627598
 21
785.28788
 31
0.0
  0
LINE
  5
D078
100
AcDbEntity
  8
WYMIARY
 62
     3
100
AcDbLine
 10
429.627598
 20
787.768001
 30
0.0
 11
430.599286
 21
787.768001
 31
0.0
  0
LINE
  5
D079
100
AcDbEntity
  8
WYMIARY
 62
     3
100
AcDbLine
 10
430.599286
 20
787.768001
 30
0.0
 11
430.599286
 21
786.259568
 31
0.0
  0
LINE
  5
D07A
100
AcDbEntity
  8
WYMIARY
 62
     3
100
AcDbLine
 10
429.627598
 20
787.768001
 30
0.0
 11
429.627598
 21
786.259568
 31
0.0
  0
LINE
  5
D07B
100
AcDbEntity
  8
WYMIARY
 62
     3
100
AcDbLine
 10
428.246866
 20
786.259568
 30
0.0
 11
429.627598
 21
786.259568
 31
0.0
  0
LINE
  5
D07C
100
AcDbEntity
  8
WYMIARY
 62
     3
100
AcDbLine
 10
425.435743
 20
791.388045
 30
0.0
 11
426.823869
 21
791.388045
 31
0.0
  0
LINE
  5
D07D
100
AcDbEntity
  8
WYMIARY
 62
     3
100
AcDbLine
 10
425.435743
 20
793.384655
 30
0.0
 11
425.435743
 21
791.388045
 31
0.0
  0
LINE
  5
D07E
100
AcDbEntity
  8
WYMIARY
 62
     3
100
AcDbLine
 10
426.823869
 20
793.384655
 30
0.0
 11
426.823869
 21
791.388045
 31
0.0
  0
LINE
  5
D07F
100
AcDbEntity
  8
WYMIARY
 62
     3
100
AcDbLine
 10
429.002909
 20
793.384655
 30
0.0
 11
429.002909
 21
794.772781
 31
0.0
  0
LINE
  5
D080
100
AcDbEntity
  8
WYMIARY
 62
     3
100
AcDbLine
 10
426.823869
 20
794.772781
 30
0.0
 11
429.002909
 21
794.772781
 31
0.0
  0
LINE
  5
D081
100
AcDbEntity
  8
WYMIARY
 62
     3
100
AcDbLine
 10
426.823869
 20
793.384655
 30
0.0
 11
429.002909
 21
793.384655
 31
0.0
  0
LINE
  5
D082
100
AcDbEntity
  8
WYMIARY
 62
     3
100
AcDbLine
 10
436.750099
 20
793.384655
 30
0.0
 11
436.750099
 21
794.772781
 31
0.0
  0
LINE
  5
D083
100
AcDbEntity
  8
WYMIARY
 62
     3
100
AcDbLine
 10
434.777625
 20
793.384655
 30
0.0
 11
434.777625
 21
791.388045
 31
0.0
  0
LINE
  5
D084
100
AcDbEntity
  8
WYMIARY
 62
     3
100
AcDbLine
 10
436.750099
 20
793.384655
 30
0.0
 11
434.777625
 21
793.384655
 31
0.0
  0
LINE
  5
D085
100
AcDbEntity
  8
WYMIARY
 62
     3
100
AcDbLine
 10
436.750099
 20
794.772781
 30
0.0
 11
434.777625
 21
794.772781
 31
0.0
  0
LINE
  5
D086
100
AcDbEntity
  8
WYMIARY
 62
     3
100
AcDbLine
 10
433.389499
 20
793.384655
 30
0.0
 11
431.210459
 21
793.384655
 31
0.0
  0
LINE
  5
D087
100
AcDbEntity
  8
WYMIARY
 62
     3
100
AcDbLine
 10
433.389499
 20
794.772781
 30
0.0
 11
431.210459
 21
794.772781
 31
0.0
  0
LINE
  5
D088
100
AcDbEntity
  8
WYMIARY
 62
     3
100
AcDbLine
 10
432.124614
 20
785.28788
 30
0.0
 11
432.124614
 21
786.259568
 31
0.0
  0
LINE
  5
D089
100
AcDbEntity
  8
WYMIARY
 62
     3
100
AcDbLine
 10
431.210459
 20
793.384655
 30
0.0
 11
431.210459
 21
794.772781
 31
0.0
  0
LINE
  5
D08A
100
AcDbEntity
  8
WYMIARY
 62
     3
100
AcDbLine
 10
433.389499
 20
793.384655
 30
0.0
 11
433.389499
 21
791.388045
 31
0.0
  0
LINE
  5
D08B
100
AcDbEntity
  8
WYMIARY
 62
     3
100
AcDbLine
 10
434.777625
 20
791.388045
 30
0.0
 11
433.389499
 21
791.388045
 31
0.0
  0
TEXT
  5
D08C
100
AcDbEntity
  8
1
100
AcDbText
 10
432.518333
 20
781.605875
 30
0.0
 40
3.0
  1
A1
 41
0.65
  7
ITALIC
100
AcDbText
  0
LINE
  5
D08D
100
AcDbEntity
  8
WYMIARY
 62
     3
100
AcDbLine
 10
425.435743
 20
796.927685
 30
0.0
 11
426.823869
 21
796.927685
 31
0.0
  0
LINE
  5
D08E
100
AcDbEntity
  8
WYMIARY
 62
     3
100
AcDbLine
 10
425.435743
 20
796.927685
 30
0.0
 11
426.823869
 21
796.927685
 31
0.0
  0
LINE
  5
D08F
100
AcDbEntity
  8
WYMIARY
 62
     3
100
AcDbLine
 10
425.435743
 20
796.927685
 30
0.0
 11
426.823869
 21
796.927685
 31
0.0
  0
LINE
  5
D090
100
AcDbEntity
  8
WYMIARY
 62
     3
100
AcDbLine
 10
434.777625
 20
796.927685
 30
0.0
 11
433.389499
 21
796.927685
 31
0.0
  0
LINE
  5
D091
100
AcDbEntity
  8
WYMIARY
 62
     3
100
AcDbLine
 10
434.777625
 20
796.927685
 30
0.0
 11
433.389499
 21
796.927685
 31
0.0
  0
LINE
  5
D092
100
AcDbEntity
  8
WYMIARY
 62
     3
100
AcDbLine
 10
434.777625
 20
796.927685
 30
0.0
 11
433.389499
 21
796.927685
 31
0.0
  0
LINE
  5
D093
100
AcDbEntity
  8
2
100
AcDbLine
 10
481.041244
 20
844.649937
 30
0.0
 11
296.041244
 21
844.649937
 31
0.0
  0
LINE
  5
D094
100
AcDbEntity
  8
2
100
AcDbLine
 10
486.041244
 20
849.649937
 30
0.0
 11
296.041244
 21
849.649937
 31
0.0
  0
TEXT
  5
D0AC
100
AcDbEntity
  8
1
100
AcDbText
 10
374.272774
 20
826.419038
 30
0.0
 40
5.0
  1
RIK20
 41
0.75
  7
ITALIC
100
AcDbText
  0
ENDSEC
  0
SECTION
  2
OBJECTS
  0
DICTIONARY
  5
C
100
AcDbDictionary
  3
ACAD_GROUP
350
D
  3
ACAD_MLINESTYLE
350
E
  3
ACDBVARIABLEDICTIONARY
350
C1B
  0
DICTIONARY
  5
D
102
{ACAD_REACTORS
330
C
102
}
100
AcDbDictionary
  0
DICTIONARY
  5
E
102
{ACAD_REACTORS
330
C
102
}
100
AcDbDictionary
  3
STANDARD
350
1B
  0
DICTIONARY
  5
C1B
102
{ACAD_REACTORS
330
C
102
}
100
AcDbDictionary
  3
SORTENTS
350
C1C
  0
MLINESTYLE
  5
1B
102
{ACAD_REACTORS
330
E
102
}
100
AcDbMlineStyle
  2
STANDARD
 70
     0
  3

 62
     0
 51
90.0
 52
90.0
 71
     2
 49
0.5
 62
   256
  6
BYLAYER
 49
-0.5
 62
   256
  6
BYLAYER
  0
DICTIONARYVAR
  5
C1C
102
{ACAD_REACTORS
330
C1B
102
}
100
DictionaryVariables
280
     0
  1
96
  0
ENDSEC
  0
EOF
