  0
SECTION
  2
HEADER
  9
$ACADVER
  1
AC1014
  9
$ACADMAINTVER
 70
     9
  9
$DWGCODEPAGE
  3
ANSI_1250
  9
$INSBASE
 10
0.0
 20
0.0
 30
0.0
  9
$EXTMIN
 10
0.0
 20
0.0
 30
0.0
  9
$EXTMAX
 10
201.630407
 20
297.0
 30
0.0
  9
$LIMMIN
 10
0.0
 20
0.0
  9
$LIMMAX
 10
210.0
 20
297.0
  9
$ORTHOMODE
 70
     0
  9
$REGENMODE
 70
     1
  9
$FILLMODE
 70
     1
  9
$QTEXTMODE
 70
     0
  9
$MIRRTEXT
 70
     1
  9
$DRAGMODE
 70
     2
  9
$LTSCALE
 40
1.0
  9
$OSMODE
 70
  9143
  9
$ATTMODE
 70
     1
  9
$TEXTSIZE
 40
2.5
  9
$TRACEWID
 40
1.0
  9
$TEXTSTYLE
  7
STANDARD
  9
$CLAYER
  8
WY
  9
$CELTYPE
  6
BYLAYER
  9
$CECOLOR
 62
   256
  9
$CELTSCALE
 40
1.0
  9
$DELOBJ
 70
     1
  9
$DISPSILH
 70
     0
  9
$DIMSCALE
 40
1.0
  9
$DIMASZ
 40
2.0
  9
$DIMEXO
 40
1.0
  9
$DIMDLI
 40
3.75
  9
$DIMRND
 40
0.0
  9
$DIMDLE
 40
0.0
  9
$DIMEXE
 40
1.0
  9
$DIMTP
 40
0.0
  9
$DIMTM
 40
0.0
  9
$DIMTXT
 40
2.0
  9
$DIMCEN
 40
2.5
  9
$DIMTSZ
 40
0.0
  9
$DIMTOL
 70
     0
  9
$DIMLIM
 70
     0
  9
$DIMTIH
 70
     0
  9
$DIMTOH
 70
     1
  9
$DIMSE1
 70
     0
  9
$DIMSE2
 70
     0
  9
$DIMTAD
 70
     1
  9
$DIMZIN
 70
     8
  9
$DIMBLK
  1

  9
$DIMASO
 70
     1
  9
$DIMSHO
 70
     1
  9
$DIMPOST
  1

  9
$DIMAPOST
  1

  9
$DIMALT
 70
     0
  9
$DIMALTD
 70
     3
  9
$DIMALTF
 40
0.0393700787401575
  9
$DIMLFAC
 40
1.0
  9
$DIMTOFL
 70
     1
  9
$DIMTVP
 40
0.0
  9
$DIMTIX
 70
     1
  9
$DIMSOXD
 70
     0
  9
$DIMSAH
 70
     0
  9
$DIMBLK1
  1

  9
$DIMBLK2
  1

  9
$DIMSTYLE
  2
ISO-25
  9
$DIMCLRD
 70
     0
  9
$DIMCLRE
 70
     0
  9
$DIMCLRT
 70
     0
  9
$DIMTFAC
 40
1.0
  9
$DIMGAP
 40
1.0
  9
$DIMJUST
 70
     0
  9
$DIMSD1
 70
     0
  9
$DIMSD2
 70
     0
  9
$DIMTOLJ
 70
     0
  9
$DIMTZIN
 70
     8
  9
$DIMALTZ
 70
     0
  9
$DIMALTTZ
 70
     0
  9
$DIMFIT
 70
     3
  9
$DIMUPT
 70
     0
  9
$DIMUNIT
 70
     2
  9
$DIMDEC
 70
     2
  9
$DIMTDEC
 70
     2
  9
$DIMALTU
 70
     2
  9
$DIMALTTD
 70
     3
  9
$DIMTXSTY
  7
STANDARD
  9
$DIMAUNIT
 70
     0
  9
$LUNITS
 70
     2
  9
$LUPREC
 70
     2
  9
$SKETCHINC
 40
1.0
  9
$FILLETRAD
 40
10.0
  9
$AUNITS
 70
     0
  9
$AUPREC
 70
     2
  9
$MENU
  1
.
  9
$ELEVATION
 40
0.0
  9
$PELEVATION
 40
0.0
  9
$THICKNESS
 40
0.0
  9
$LIMCHECK
 70
     0
  9
$CHAMFERA
 40
0.0
  9
$CHAMFERB
 40
0.0
  9
$CHAMFERC
 40
0.0
  9
$CHAMFERD
 40
0.0
  9
$SKPOLY
 70
     0
  9
$TDCREATE
 40
2457525.56523897
  9
$TDUPDATE
 40
2457525.574216967
  9
$TDINDWG
 40
0.0003241782
  9
$TDUSRTIMER
 40
2457525.490558542
  9
$USRTIMER
 70
     1
  9
$ANGBASE
 50
0.0
  9
$ANGDIR
 70
     0
  9
$PDMODE
 70
     0
  9
$PDSIZE
 40
-1.0
  9
$PLINEWID
 40
0.0
  9
$COORDS
 70
     1
  9
$SPLFRAME
 70
     0
  9
$SPLINETYPE
 70
     6
  9
$SPLINESEGS
 70
     8
  9
$ATTDIA
 70
     0
  9
$ATTREQ
 70
     1
  9
$HANDLING
 70
     1
  9
$HANDSEED
  5
961
  9
$SURFTAB1
 70
     6
  9
$SURFTAB2
 70
     6
  9
$SURFTYPE
 70
     6
  9
$SURFU
 70
     6
  9
$SURFV
 70
     6
  9
$UCSNAME
  2

  9
$UCSORG
 10
0.0
 20
0.0
 30
0.0
  9
$UCSXDIR
 10
1.0
 20
0.0
 30
0.0
  9
$UCSYDIR
 10
0.0
 20
1.0
 30
0.0
  9
$PUCSNAME
  2

  9
$PUCSORG
 10
0.0
 20
0.0
 30
0.0
  9
$PUCSXDIR
 10
1.0
 20
0.0
 30
0.0
  9
$PUCSYDIR
 10
0.0
 20
1.0
 30
0.0
  9
$USERI1
 70
     0
  9
$USERI2
 70
     0
  9
$USERI3
 70
     0
  9
$USERI4
 70
     0
  9
$USERI5
 70
     0
  9
$USERR1
 40
0.0
  9
$USERR2
 40
0.0
  9
$USERR3
 40
0.0
  9
$USERR4
 40
0.0
  9
$USERR5
 40
0.0
  9
$WORLDVIEW
 70
     1
  9
$SHADEDGE
 70
     3
  9
$SHADEDIF
 70
    70
  9
$TILEMODE
 70
     1
  9
$MAXACTVP
 70
    64
  9
$PINSBASE
 10
0.0
 20
0.0
 30
0.0
  9
$PLIMCHECK
 70
     0
  9
$PEXTMIN
 10
1.000000000000000E+20
 20
1.000000000000000E+20
 30
1.000000000000000E+20
  9
$PEXTMAX
 10
-1.000000000000000E+20
 20
-1.000000000000000E+20
 30
-1.000000000000000E+20
  9
$PLIMMIN
 10
0.0
 20
0.0
  9
$PLIMMAX
 10
0.0
 20
0.0
  9
$UNITMODE
 70
     0
  9
$VISRETAIN
 70
     1
  9
$PLINEGEN
 70
     0
  9
$PSLTSCALE
 70
     1
  9
$TREEDEPTH
 70
  3020
  9
$PICKSTYLE
 70
     1
  9
$CMLSTYLE
  2
STANDARD
  9
$CMLJUST
 70
     0
  9
$CMLSCALE
 40
20.0
  9
$PROXYGRAPHICS
 70
     1
  9
$MEASUREMENT
 70
     1
  0
ENDSEC
  0
SECTION
  2
CLASSES
  0
CLASS
  1
ACDBDICTIONARYWDFLT
  2
AcDbDictionaryWithDefault
  3
ObjectDBX Classes
 90
        0
280
     0
281
     0
  0
CLASS
  1
VISUALSTYLE
  2
AcDbVisualStyle
  3
ObjectDBX Classes
 90
     4095
280
     0
281
     0
  0
CLASS
  1
MATERIAL
  2
AcDbMaterial
  3
ObjectDBX Classes
 90
     1153
280
     0
281
     0
  0
CLASS
  1
SCALE
  2
AcDbScale
  3
ObjectDBX Classes
 90
     1153
280
     0
281
     0
  0
CLASS
  1
TABLESTYLE
  2
AcDbTableStyle
  3
ObjectDBX Classes
 90
     4095
280
     0
281
     0
  0
CLASS
  1
MLEADERSTYLE
  2
AcDbMLeaderStyle
  3
ACDB_MLEADERSTYLE_CLASS
 90
     4095
280
     0
281
     0
  0
CLASS
  1
SUN
  2
AcDbSun
  3
SCENEOE
 90
     1153
280
     0
281
     0
  0
CLASS
  1
ACDBPLACEHOLDER
  2
AcDbPlaceHolder
  3
ObjectDBX Classes
 90
        0
280
     0
281
     0
  0
CLASS
  1
LAYOUT
  2
AcDbLayout
  3
ObjectDBX Classes
 90
        0
280
     0
281
     0
  0
CLASS
  1
RASTERVARIABLES
  2
AcDbRasterVariables
  3
ISM
 90
        0
280
     0
281
     0
  0
CLASS
  1
DICTIONARYVAR
  2
AcDbDictionaryVar
  3
ObjectDBX Classes
 90
        0
280
     0
281
     0
  0
CLASS
  1
DIMASSOC
  2
AcDbDimAssoc
  3
"AcDbDimAssoc|Product Desc:     AcDim ARX App For Dimension|Company:          Autodesk, Inc.|WEB Address:      www.autodesk.com"
 90
        0
280
     0
281
     0
  0
CLASS
  1
XRECORD
  2
AcDbXrecord
  3
ObjectDBX Classes
 90
        0
280
     0
281
     0
  0
CLASS
  1
LWPOLYLINE
  2
AcDbPolyline
  3
ObjectDBX Classes
 90
        0
280
     0
281
     1
  0
CLASS
  1
HATCH
  2
AcDbHatch
  3
ObjectDBX Classes
 90
        0
280
     0
281
     1
  0
ENDSEC
  0
SECTION
  2
TABLES
  0
TABLE
  2
VPORT
  5
8
330
0
100
AcDbSymbolTable
 70
     1
  0
VPORT
  5
29
330
8
100
AcDbSymbolTableRecord
100
AcDbViewportTableRecord
  2
*ACTIVE
 70
     0
 10
0.0
 20
0.0
 11
1.0
 21
1.0
 12
100.8152035
 22
148.5
 13
0.0
 23
0.0
 14
10.0
 24
10.0
 15
10.0
 25
10.0
 16
0.0
 26
0.0
 36
1.0
 17
0.0
 27
0.0
 37
0.0
 40
302.94
 41
2.811127379209371
 42
50.0
 43
0.0
 44
0.0
 50
0.0
 51
0.0
 71
    16
 72
  2000
 73
     1
 74
     3
 75
     0
 76
     0
 77
     0
 78
     0
  0
ENDTAB
  0
TABLE
  2
LTYPE
  5
5
330
0
100
AcDbSymbolTable
 70
     6
  0
LTYPE
  5
14
330
5
100
AcDbSymbolTableRecord
100
AcDbLinetypeTableRecord
  2
BYBLOCK
 70
     0
  3

 72
    65
 73
     0
 40
0.0
  0
LTYPE
  5
15
330
5
100
AcDbSymbolTableRecord
100
AcDbLinetypeTableRecord
  2
BYLAYER
 70
     0
  3

 72
    65
 73
     0
 40
0.0
  0
LTYPE
  5
16
330
5
100
AcDbSymbolTableRecord
100
AcDbLinetypeTableRecord
  2
CONTINUOUS
 70
     0
  3
Solid line
 72
    65
 73
     0
 40
0.0
  0
LTYPE
  5
6E
330
5
100
AcDbSymbolTableRecord
100
AcDbLinetypeTableRecord
  2
HIDDEN
 70
     0
  3
Hidden __ __ __ __ __ __ __ __ __ __ __ __ __ __
 72
    65
 73
     2
 40
1.905
 49
1.27
 74
     0
 49
-0.635
 74
     0
  0
LTYPE
  5
6F
330
5
100
AcDbSymbolTableRecord
100
AcDbLinetypeTableRecord
  2
PHANTOM
 70
     0
  3
Phantom ______  __  __  ______  __  __  ______
 72
    65
 73
     6
 40
12.7
 49
6.35
 74
     0
 49
-1.27
 74
     0
 49
1.27
 74
     0
 49
-1.27
 74
     0
 49
1.27
 74
     0
 49
-1.27
 74
     0
  0
LTYPE
  5
70
330
5
100
AcDbSymbolTableRecord
100
AcDbLinetypeTableRecord
  2
CENTER
 70
     0
  3
Center ____ _ ____ _ ____ _ ____ _ ____ _ ____
 72
    65
 73
     4
 40
10.16
 49
6.35
 74
     0
 49
-1.27
 74
     0
 49
1.27
 74
     0
 49
-1.27
 74
     0
  0
LTYPE
  5
71
330
5
100
AcDbSymbolTableRecord
100
AcDbLinetypeTableRecord
  2
CENTERX2
 70
     0
  3
Center (2x) ________  __  ________  __  _____
 72
    65
 73
     4
 40
20.32
 49
12.7
 74
     0
 49
-2.54
 74
     0
 49
2.54
 74
     0
 49
-2.54
 74
     0
  0
LTYPE
  5
72
330
5
100
AcDbSymbolTableRecord
100
AcDbLinetypeTableRecord
  2
DOT2
 70
     0
  3
Dot (.5x) ........................................
 72
    65
 73
     2
 40
0.635
 49
0.0
 74
     0
 49
-0.635
 74
     0
  0
ENDTAB
  0
TABLE
  2
LAYER
  5
2
102
{ACAD_XDICTIONARY
360
596
102
}
330
0
100
AcDbSymbolTable
 70
     9
  0
LAYER
  5
10
330
2
100
AcDbSymbolTableRecord
100
AcDbLayerTableRecord
  2
0
 70
     0
 62
     7
  6
CONTINUOUS
  0
LAYER
  5
73
330
2
100
AcDbSymbolTableRecord
100
AcDbLayerTableRecord
  2
FORMAT
 70
     0
 62
     7
  6
CONTINUOUS
  0
LAYER
  5
26D
330
2
100
AcDbSymbolTableRecord
100
AcDbLayerTableRecord
  2
DEFPOINTS
 70
     0
 62
     7
  6
CONTINUOUS
  0
LAYER
  5
26E
330
2
100
AcDbSymbolTableRecord
100
AcDbLayerTableRecord
  2
1
 70
     0
 62
     3
  6
CONTINUOUS
  0
LAYER
  5
270
330
2
100
AcDbSymbolTableRecord
100
AcDbLayerTableRecord
  2
2
 70
     0
 62
     6
  6
CONTINUOUS
  0
LAYER
  5
271
330
2
100
AcDbSymbolTableRecord
100
AcDbLayerTableRecord
  2
3
 70
     0
 62
     4
  6
HIDDEN
  0
LAYER
  5
273
330
2
100
AcDbSymbolTableRecord
100
AcDbLayerTableRecord
  2
OSIE
 70
     0
 62
     2
  6
CENTER
  0
LAYER
  5
275
330
2
100
AcDbSymbolTableRecord
100
AcDbLayerTableRecord
  2
WY
 70
     0
 62
     1
  6
CONTINUOUS
  0
LAYER
  5
276
330
2
100
AcDbSymbolTableRecord
100
AcDbLayerTableRecord
  2
WYMIARY
 70
     0
 62
     1
  6
CONTINUOUS
  0
ENDTAB
  0
TABLE
  2
STYLE
  5
3
330
0
100
AcDbSymbolTable
 70
     5
  0
STYLE
  5
11
330
3
100
AcDbSymbolTableRecord
100
AcDbTextStyleTableRecord
  2
STANDARD
 70
     0
 40
0.0
 41
1.0
 50
0.0
 71
     0
 42
2.5
  3
txt
  4

  0
STYLE
  5
125
330
3
100
AcDbSymbolTableRecord
100
AcDbTextStyleTableRecord
  2
SLDTEXTSTYLE0
 70
     0
 40
0.0
 41
0.75
 50
0.0
 71
     0
 42
2.5
  3
TXT
  4

  0
STYLE
  5
127
330
3
100
AcDbSymbolTableRecord
100
AcDbTextStyleTableRecord
  2
SLDTEXTSTYLE1
 70
     0
 40
0.0
 41
0.75
 50
0.0
 71
     0
 42
2.5
  3
TXT
  4
bigfont
  0
STYLE
  5
146
330
3
100
AcDbSymbolTableRecord
100
AcDbTextStyleTableRecord
  2
SLDTEXTSTYLE2
 70
     0
 40
0.0
 41
0.605
 50
0.0
 71
     0
 42
2.5
  3
TXT
  4

  0
STYLE
  5
279
330
3
100
AcDbSymbolTableRecord
100
AcDbTextStyleTableRecord
  2
ITALIC
 70
     0
 40
0.0
 41
1.0
 50
15.0
 71
     0
 42
2.5
  3
simplex
  4

  0
ENDTAB
  0
TABLE
  2
VIEW
  5
6
330
0
100
AcDbSymbolTable
 70
     0
  0
ENDTAB
  0
TABLE
  2
UCS
  5
7
330
0
100
AcDbSymbolTable
 70
     0
  0
ENDTAB
  0
TABLE
  2
APPID
  5
9
330
0
100
AcDbSymbolTable
 70
     1
  0
APPID
  5
12
330
9
100
AcDbSymbolTableRecord
100
AcDbRegAppTableRecord
  2
ACAD
 70
     0
  0
ENDTAB
  0
TABLE
  2
DIMSTYLE
  5
A
330
0
100
AcDbSymbolTable
 70
     1
  0
DIMSTYLE
105
27
102
{ACAD_REACTORS
330
501
330
50E
330
51B
330
528
330
535
330
544
330
551
330
55E
330
56B
330
578
330
588
330
80E
330
80F
330
810
330
811
330
812
330
813
330
814
330
815
330
816
330
817
330
94F
102
}
330
A
100
AcDbSymbolTableRecord
100
AcDbDimStyleTableRecord
  2
ISO-25
 70
     0
  3

  4

  5

  6

  7

 40
1.0
 41
2.5
 42
0.625
 43
3.75
 44
1.25
 45
0.0
 46
0.0
 47
0.0
 48
0.0
140
2.5
141
2.5
142
0.0
143
0.03937007874016
144
1.0
145
0.0
146
1.0
147
0.625
 71
     0
 72
     0
 73
     0
 74
     0
 75
     0
 76
     0
 77
     1
 78
     8
170
     0
171
     3
172
     1
173
     0
174
     0
175
     0
176
     0
177
     0
178
     0
270
     2
271
     2
272
     2
273
     2
274
     3
340
11
275
     0
280
     0
281
     0
282
     0
283
     0
284
     8
285
     0
286
     0
287
     3
288
     0
  0
ENDTAB
  0
TABLE
  2
BLOCK_RECORD
  5
1
330
0
100
AcDbSymbolTable
 70
    27
  0
BLOCK_RECORD
  5
1F
330
1
100
AcDbSymbolTableRecord
100
AcDbBlockTableRecord
  2
*MODEL_SPACE
  0
BLOCK_RECORD
  5
1B
330
1
100
AcDbSymbolTableRecord
100
AcDbBlockTableRecord
  2
*PAPER_SPACE
  0
BLOCK_RECORD
  5
23
330
1
100
AcDbSymbolTableRecord
100
AcDbBlockTableRecord
  2
*PAPER_SPACE0
  0
BLOCK_RECORD
  5
14E
330
1
100
AcDbSymbolTableRecord
100
AcDbBlockTableRecord
  2
SW_NOTE_0
  0
BLOCK_RECORD
  5
502
330
1
100
AcDbSymbolTableRecord
100
AcDbBlockTableRecord
  2
*D3
  0
BLOCK_RECORD
  5
50F
330
1
100
AcDbSymbolTableRecord
100
AcDbBlockTableRecord
  2
*D4
  0
BLOCK_RECORD
  5
51C
330
1
100
AcDbSymbolTableRecord
100
AcDbBlockTableRecord
  2
*D5
  0
BLOCK_RECORD
  5
529
330
1
100
AcDbSymbolTableRecord
100
AcDbBlockTableRecord
  2
*D6
  0
BLOCK_RECORD
  5
536
330
1
100
AcDbSymbolTableRecord
100
AcDbBlockTableRecord
  2
*D7
  0
BLOCK_RECORD
  5
545
330
1
100
AcDbSymbolTableRecord
100
AcDbBlockTableRecord
  2
*D8
  0
BLOCK_RECORD
  5
552
330
1
100
AcDbSymbolTableRecord
100
AcDbBlockTableRecord
  2
*D9
  0
BLOCK_RECORD
  5
55F
330
1
100
AcDbSymbolTableRecord
100
AcDbBlockTableRecord
  2
*D10
  0
BLOCK_RECORD
  5
56C
330
1
100
AcDbSymbolTableRecord
100
AcDbBlockTableRecord
  2
*D11
  0
BLOCK_RECORD
  5
579
330
1
100
AcDbSymbolTableRecord
100
AcDbBlockTableRecord
  2
*D12
  0
BLOCK_RECORD
  5
589
330
1
100
AcDbSymbolTableRecord
100
AcDbBlockTableRecord
  2
*D13
  0
BLOCK_RECORD
  5
5A0
330
1
100
AcDbSymbolTableRecord
100
AcDbBlockTableRecord
  2
_NONE
  0
BLOCK_RECORD
  5
818
330
1
100
AcDbSymbolTableRecord
100
AcDbBlockTableRecord
  2
*D15
  0
BLOCK_RECORD
  5
824
330
1
100
AcDbSymbolTableRecord
100
AcDbBlockTableRecord
  2
*D16
  0
BLOCK_RECORD
  5
830
330
1
100
AcDbSymbolTableRecord
100
AcDbBlockTableRecord
  2
*D17
  0
BLOCK_RECORD
  5
83E
330
1
100
AcDbSymbolTableRecord
100
AcDbBlockTableRecord
  2
*D18
  0
BLOCK_RECORD
  5
84C
330
1
100
AcDbSymbolTableRecord
100
AcDbBlockTableRecord
  2
*D19
  0
BLOCK_RECORD
  5
85A
330
1
100
AcDbSymbolTableRecord
100
AcDbBlockTableRecord
  2
*D20
  0
BLOCK_RECORD
  5
868
330
1
100
AcDbSymbolTableRecord
100
AcDbBlockTableRecord
  2
*D21
  0
BLOCK_RECORD
  5
874
330
1
100
AcDbSymbolTableRecord
100
AcDbBlockTableRecord
  2
*D22
  0
BLOCK_RECORD
  5
880
330
1
100
AcDbSymbolTableRecord
100
AcDbBlockTableRecord
  2
*D23
  0
BLOCK_RECORD
  5
88C
330
1
100
AcDbSymbolTableRecord
100
AcDbBlockTableRecord
  2
*D24
  0
BLOCK_RECORD
  5
89B
330
1
100
AcDbSymbolTableRecord
100
AcDbBlockTableRecord
  2
*D25
  0
BLOCK_RECORD
  5
952
330
1
100
AcDbSymbolTableRecord
100
AcDbBlockTableRecord
  2
*D26
  0
ENDTAB
  0
ENDSEC
  0
SECTION
  2
BLOCKS
  0
BLOCK
  5
20
330
1F
100
AcDbEntity
  8
0
100
AcDbBlockBegin
  2
*MODEL_SPACE
 70
     0
 10
0.0
 20
0.0
 30
0.0
  3
*MODEL_SPACE
  1

  0
ENDBLK
  5
21
330
1F
100
AcDbEntity
  8
0
100
AcDbBlockEnd
  0
BLOCK
  5
1C
330
1B
100
AcDbEntity
 67
     1
  8
0
100
AcDbBlockBegin
  2
*PAPER_SPACE
 70
     0
 10
0.0
 20
0.0
 30
0.0
  3
*PAPER_SPACE
  1

  0
ENDBLK
  5
1D
330
1B
100
AcDbEntity
 67
     1
  8
0
100
AcDbBlockEnd
  0
BLOCK
  5
24
330
23
100
AcDbEntity
  8
0
100
AcDbBlockBegin
  2
*PAPER_SPACE0
 70
     0
 10
0.0
 20
0.0
 30
0.0
  3
*PAPER_SPACE0
  1
*PAPER_SPACE0
  0
ENDBLK
  5
25
330
23
100
AcDbEntity
  8
0
100
AcDbBlockEnd
  0
BLOCK
  5
14F
330
14E
100
AcDbEntity
  8
0
100
AcDbBlockBegin
  2
SW_NOTE_0
 70
     0
 10
0.0
 20
0.0
 30
0.0
  3
SW_NOTE_0
  1
SW_NOTE_0
  0
MTEXT
  5
151
330
14E
100
AcDbEntity
  8
0
  6
CONTINUOUS
 62
     0
100
AcDbMText
 10
0.0
 20
3.867203219315898
 30
0.0
 40
3.0
 41
0.0
 71
     1
 72
     1
  1
%%p
  7
SLDTEXTSTYLE2
  0
MTEXT
  5
152
330
14E
100
AcDbEntity
  8
0
  6
CONTINUOUS
 62
     0
100
AcDbMText
 10
2.762499963864684
 20
3.867203219315898
 30
0.0
 40
3.0
 41
0.0
 71
     1
 72
     1
  1
0,03
  7
SLDTEXTSTYLE2
  0
ENDBLK
  5
150
330
14E
100
AcDbEntity
  8
0
100
AcDbBlockEnd
  0
BLOCK
  5
503
330
502
100
AcDbEntity
  8
0
100
AcDbBlockBegin
  2
*D3
 70
     1
 10
0.0
 20
0.0
 30
0.0
  3
*D3
  1
*D3
  0
LINE
  5
504
330
502
100
AcDbEntity
  8
WY
 62
     0
100
AcDbLine
 10
89.93794586625478
 20
222.0019270423327
 30
0.0
 11
103.5792284253973
 21
222.0019270423327
 31
0.0
  0
LINE
  5
505
330
502
100
AcDbEntity
  8
WY
 62
     0
100
AcDbLine
 10
89.93794586625478
 20
208.8019271138583
 30
0.0
 11
103.5792284253973
 21
208.8019271138583
 31
0.0
  0
LINE
  5
506
330
502
100
AcDbEntity
  8
WY
 62
     0
100
AcDbLine
 10
102.5792284253973
 20
220.0019270423327
 30
0.0
 11
102.5792284253973
 21
210.8019271138583
 31
0.0
  0
SOLID
  5
507
330
502
100
AcDbEntity
  8
WY
 62
     0
100
AcDbTrace
 10
102.9125617587307
 20
220.0019270423327
 30
0.0
 11
102.245895092064
 21
220.0019270423327
 31
0.0
 12
102.5792284253973
 22
222.0019270423327
 32
0.0
 13
102.5792284253973
 23
222.0019270423327
 33
0.0
  0
SOLID
  5
508
330
502
100
AcDbEntity
  8
WY
 62
     0
100
AcDbTrace
 10
102.245895092064
 20
210.8019271138583
 30
0.0
 11
102.9125617587307
 21
210.8019271138583
 31
0.0
 12
102.5792284253973
 22
208.8019271138583
 32
0.0
 13
102.5792284253973
 23
208.8019271138583
 33
0.0
  0
MTEXT
  5
509
330
502
100
AcDbEntity
  8
WY
 62
     0
100
AcDbMText
 10
100.4125617587307
 20
215.4019270780955
 30
0.0
 40
2.0
 41
0.0
 71
     5
 72
     1
  1
13,2
 11
0.0
 21
1.0
 31
0.0
  0
POINT
  5
50A
330
502
100
AcDbEntity
  8
DEFPOINTS
 62
     0
100
AcDbPoint
 10
88.93794586625478
 20
222.0019270423327
 30
0.0
  0
POINT
  5
50B
330
502
100
AcDbEntity
  8
DEFPOINTS
 62
     0
100
AcDbPoint
 10
88.93794586625478
 20
208.8019271138583
 30
0.0
  0
POINT
  5
50C
330
502
100
AcDbEntity
  8
DEFPOINTS
 62
     0
100
AcDbPoint
 10
102.5792284253973
 20
208.8019271138583
 30
0.0
  0
ENDBLK
  5
50D
330
502
100
AcDbEntity
  8
0
100
AcDbBlockEnd
  0
BLOCK
  5
510
330
50F
100
AcDbEntity
  8
0
100
AcDbBlockBegin
  2
*D4
 70
     1
 10
0.0
 20
0.0
 30
0.0
  3
*D4
  1
*D4
  0
LINE
  5
511
330
50F
100
AcDbEntity
  8
WY
 62
     0
100
AcDbLine
 10
93.13458886398513
 20
226.0019270780955
 30
0.0
 11
109.9082506628353
 21
226.0019270780955
 31
0.0
  0
LINE
  5
512
330
50F
100
AcDbEntity
  8
WY
 62
     0
100
AcDbLine
 10
93.13458886398513
 20
204.8019270780952
 30
0.0
 11
109.9082506628353
 21
204.8019270780952
 31
0.0
  0
LINE
  5
513
330
50F
100
AcDbEntity
  8
WY
 62
     0
100
AcDbLine
 10
108.9082506628353
 20
224.0019270780955
 30
0.0
 11
108.9082506628353
 21
206.8019270780952
 31
0.0
  0
SOLID
  5
514
330
50F
100
AcDbEntity
  8
WY
 62
     0
100
AcDbTrace
 10
109.2415839961686
 20
224.0019270780955
 30
0.0
 11
108.5749173295019
 21
224.0019270780955
 31
0.0
 12
108.9082506628353
 22
226.0019270780955
 32
0.0
 13
108.9082506628353
 23
226.0019270780955
 33
0.0
  0
SOLID
  5
515
330
50F
100
AcDbEntity
  8
WY
 62
     0
100
AcDbTrace
 10
108.5749173295019
 20
206.8019270780952
 30
0.0
 11
109.2415839961686
 21
206.8019270780952
 31
0.0
 12
108.9082506628353
 22
204.8019270780952
 32
0.0
 13
108.9082506628353
 23
204.8019270780952
 33
0.0
  0
MTEXT
  5
516
330
50F
100
AcDbEntity
  8
WY
 62
     0
100
AcDbMText
 10
106.7415839961686
 20
215.4019270780954
 30
0.0
 40
2.0
 41
0.0
 71
     5
 72
     1
  1
21,2
 11
0.0
 21
1.0
 31
0.0
  0
POINT
  5
517
330
50F
100
AcDbEntity
  8
DEFPOINTS
 62
     0
100
AcDbPoint
 10
92.13458886398513
 20
226.0019270780955
 30
0.0
  0
POINT
  5
518
330
50F
100
AcDbEntity
  8
DEFPOINTS
 62
     0
100
AcDbPoint
 10
92.13458886398513
 20
204.8019270780952
 30
0.0
  0
POINT
  5
519
330
50F
100
AcDbEntity
  8
DEFPOINTS
 62
     0
100
AcDbPoint
 10
108.9082506628353
 20
204.8019270780952
 30
0.0
  0
ENDBLK
  5
51A
330
50F
100
AcDbEntity
  8
0
100
AcDbBlockEnd
  0
BLOCK
  5
51D
330
51C
100
AcDbEntity
  8
0
100
AcDbBlockBegin
  2
*D5
 70
     1
 10
0.0
 20
0.0
 30
0.0
  3
*D5
  1
*D5
  0
LINE
  5
51E
330
51C
100
AcDbEntity
  8
WY
 62
     0
100
AcDbLine
 10
71.33458888372928
 20
128.3421645258205
 30
0.0
 11
71.33458888372928
 21
121.5762067540788
 31
0.0
  0
LINE
  5
51F
330
51C
100
AcDbEntity
  8
WY
 62
     0
100
AcDbLine
 10
77.63458883371726
 20
128.3421645258205
 30
0.0
 11
77.63458883371726
 21
121.5762067540788
 31
0.0
  0
LINE
  5
520
330
51C
100
AcDbEntity
  8
WY
 62
     0
100
AcDbLine
 10
71.33458888372928
 20
122.5762067540788
 30
0.0
 11
77.63458883371726
 21
122.5762067540788
 31
0.0
  0
LINE
  5
521
330
51C
100
AcDbEntity
  8
WY
 62
     0
100
AcDbLine
 10
69.33458888372928
 20
122.5762067540788
 30
0.0
 11
67.33458888372928
 21
122.5762067540788
 31
0.0
  0
LINE
  5
522
330
51C
100
AcDbEntity
  8
WY
 62
     0
100
AcDbLine
 10
79.63458883371726
 20
122.5762067540788
 30
0.0
 11
81.63458883371726
 21
122.5762067540788
 31
0.0
  0
SOLID
  5
523
330
51C
100
AcDbEntity
  8
WY
 62
     0
100
AcDbTrace
 10
69.33458888372928
 20
122.2428734207455
 30
0.0
 11
69.33458888372928
 21
122.9095400874121
 31
0.0
 12
71.33458888372928
 22
122.5762067540788
 32
0.0
 13
71.33458888372928
 23
122.5762067540788
 33
0.0
  0
SOLID
  5
524
330
51C
100
AcDbEntity
  8
WY
 62
     0
100
AcDbTrace
 10
79.63458883371726
 20
122.9095400874121
 30
0.0
 11
79.63458883371726
 21
122.2428734207455
 31
0.0
 12
77.63458883371726
 22
122.5762067540788
 32
0.0
 13
77.63458883371726
 23
122.5762067540788
 33
0.0
  0
MTEXT
  5
525
330
51C
100
AcDbEntity
  8
WY
 62
     0
100
AcDbMText
 10
74.48458885872327
 20
124.7428734207455
 30
0.0
 40
2.0
 41
0.0
 71
     5
 72
     1
  1
6,3
  0
POINT
  5
526
330
51C
100
AcDbEntity
  8
DEFPOINTS
 62
     0
100
AcDbPoint
 10
71.33458888372928
 20
129.3421645258205
 30
0.0
  0
POINT
  5
59A
330
51C
100
AcDbEntity
  8
DEFPOINTS
 62
     0
100
AcDbPoint
 10
77.63458883371726
 20
129.3421645258205
 30
0.0
  0
POINT
  5
59B
330
51C
100
AcDbEntity
  8
DEFPOINTS
 62
     0
100
AcDbPoint
 10
77.63458883371726
 20
122.5762067540788
 30
0.0
  0
ENDBLK
  5
527
330
51C
100
AcDbEntity
  8
0
100
AcDbBlockEnd
  0
BLOCK
  5
52A
330
529
100
AcDbEntity
  8
0
100
AcDbBlockBegin
  2
*D6
 70
     1
 10
0.0
 20
0.0
 30
0.0
  3
*D6
  1
*D6
  0
LINE
  5
52B
330
529
100
AcDbEntity
  8
WY
 62
     0
100
AcDbLine
 10
77.63458883371726
 20
128.3421645258205
 30
0.0
 11
77.63458883371726
 21
121.5762067540788
 31
0.0
  0
LINE
  5
52C
330
529
100
AcDbEntity
  8
WY
 62
     0
100
AcDbLine
 10
83.93458890012056
 20
128.3421645258205
 30
0.0
 11
83.93458890012056
 21
121.5762067540788
 31
0.0
  0
LINE
  5
52D
330
529
100
AcDbEntity
  8
WY
 62
     0
100
AcDbLine
 10
77.63458883371726
 20
122.5762067540788
 30
0.0
 11
83.93458890012056
 21
122.5762067540788
 31
0.0
  0
LINE
  5
52E
330
529
100
AcDbEntity
  8
WY
 62
     0
100
AcDbLine
 10
75.63458883371726
 20
122.5762067540788
 30
0.0
 11
73.63458883371726
 21
122.5762067540788
 31
0.0
  0
LINE
  5
52F
330
529
100
AcDbEntity
  8
WY
 62
     0
100
AcDbLine
 10
85.93458890012056
 20
122.5762067540788
 30
0.0
 11
87.93458890012056
 21
122.5762067540788
 31
0.0
  0
SOLID
  5
530
330
529
100
AcDbEntity
  8
WY
 62
     0
100
AcDbTrace
 10
75.63458883371726
 20
122.2428734207455
 30
0.0
 11
75.63458883371726
 21
122.9095400874121
 31
0.0
 12
77.63458883371726
 22
122.5762067540788
 32
0.0
 13
77.63458883371726
 23
122.5762067540788
 33
0.0
  0
SOLID
  5
531
330
529
100
AcDbEntity
  8
WY
 62
     0
100
AcDbTrace
 10
85.93458890012056
 20
122.9095400874121
 30
0.0
 11
85.93458890012056
 21
122.2428734207455
 31
0.0
 12
83.93458890012056
 22
122.5762067540788
 32
0.0
 13
83.93458890012056
 23
122.5762067540788
 33
0.0
  0
MTEXT
  5
532
330
529
100
AcDbEntity
  8
WY
 62
     0
100
AcDbMText
 10
80.78458886691891
 20
124.7428734207455
 30
0.0
 40
2.0
 41
0.0
 71
     5
 72
     1
  1
6,3
  0
POINT
  5
533
330
529
100
AcDbEntity
  8
DEFPOINTS
 62
     0
100
AcDbPoint
 10
77.63458883371726
 20
129.3421645258205
 30
0.0
  0
POINT
  5
59C
330
529
100
AcDbEntity
  8
DEFPOINTS
 62
     0
100
AcDbPoint
 10
83.93458890012056
 20
129.3421645258205
 30
0.0
  0
POINT
  5
59D
330
529
100
AcDbEntity
  8
DEFPOINTS
 62
     0
100
AcDbPoint
 10
83.93458890012056
 20
122.5762067540788
 30
0.0
  0
ENDBLK
  5
534
330
529
100
AcDbEntity
  8
0
100
AcDbBlockEnd
  0
BLOCK
  5
537
330
536
100
AcDbEntity
  8
0
100
AcDbBlockBegin
  2
*D7
 70
     1
 10
0.0
 20
0.0
 30
0.0
  3
*D7
  1
*D7
  0
LINE
  5
538
330
536
100
AcDbEntity
  8
WY
 62
     0
100
AcDbLine
 10
83.93458890012056
 20
128.3421645258205
 30
0.0
 11
83.93458890012056
 21
121.5762067540788
 31
0.0
  0
LINE
  5
539
330
536
100
AcDbEntity
  8
WY
 62
     0
100
AcDbLine
 10
88.03458868740648
 20
128.3421645258205
 30
0.0
 11
88.03458868740648
 21
121.5762067540788
 31
0.0
  0
LINE
  5
53A
330
536
100
AcDbEntity
  8
WY
 62
     0
100
AcDbLine
 10
83.93458890012056
 20
122.5762067540788
 30
0.0
 11
88.03458868740648
 21
122.5762067540788
 31
0.0
  0
LINE
  5
53B
330
536
100
AcDbEntity
  8
WY
 62
     0
100
AcDbLine
 10
81.93458890012056
 20
122.5762067540788
 30
0.0
 11
79.93458890012056
 21
122.5762067540788
 31
0.0
  0
LINE
  5
53C
330
536
100
AcDbEntity
  8
WY
 62
     0
100
AcDbLine
 10
90.03458868740648
 20
122.5762067540788
 30
0.0
 11
92.03458868740648
 21
122.5762067540788
 31
0.0
  0
SOLID
  5
53D
330
536
100
AcDbEntity
  8
WY
 62
     0
100
AcDbTrace
 10
81.93458890012056
 20
122.2428734207455
 30
0.0
 11
81.93458890012056
 21
122.9095400874121
 31
0.0
 12
83.93458890012056
 22
122.5762067540788
 32
0.0
 13
83.93458890012056
 23
122.5762067540788
 33
0.0
  0
SOLID
  5
53E
330
536
100
AcDbEntity
  8
WY
 62
     0
100
AcDbTrace
 10
90.03458868740648
 20
122.9095400874121
 30
0.0
 11
90.03458868740648
 21
122.2428734207455
 31
0.0
 12
88.03458868740648
 22
122.5762067540788
 32
0.0
 13
88.03458868740648
 23
122.5762067540788
 33
0.0
  0
MTEXT
  5
53F
330
536
100
AcDbEntity
  8
WY
 62
     0
100
AcDbMText
 10
85.98458879376352
 20
124.7428734207455
 30
0.0
 40
2.0
 41
0.0
 71
     5
 72
     1
  1
4,1
  0
POINT
  5
540
330
536
100
AcDbEntity
  8
DEFPOINTS
 62
     0
100
AcDbPoint
 10
83.93458890012056
 20
129.3421645258205
 30
0.0
  0
POINT
  5
541
330
536
100
AcDbEntity
  8
DEFPOINTS
 62
     0
100
AcDbPoint
 10
88.03458868740648
 20
129.3421645258205
 30
0.0
  0
POINT
  5
542
330
536
100
AcDbEntity
  8
DEFPOINTS
 62
     0
100
AcDbPoint
 10
88.03458868740648
 20
122.5762067540788
 30
0.0
  0
ENDBLK
  5
543
330
536
100
AcDbEntity
  8
0
100
AcDbBlockEnd
  0
BLOCK
  5
546
330
545
100
AcDbEntity
  8
0
100
AcDbBlockBegin
  2
*D8
 70
     1
 10
0.0
 20
0.0
 30
0.0
  3
*D8
  1
*D8
  0
LINE
  5
547
330
545
100
AcDbEntity
  8
WY
 62
     0
100
AcDbLine
 10
71.33458888372928
 20
128.3421645258205
 30
0.0
 11
71.33458888372928
 21
121.5762067540788
 31
0.0
  0
LINE
  5
548
330
545
100
AcDbEntity
  8
WY
 62
     0
100
AcDbLine
 10
65.13458893849105
 20
138.2901764951618
 30
0.0
 11
65.13458893849105
 21
121.5762067540788
 31
0.0
  0
LINE
  5
549
330
545
100
AcDbEntity
  8
WY
 62
     0
100
AcDbLine
 10
71.33458888372928
 20
122.5762067540788
 30
0.0
 11
65.13458893849105
 21
122.5762067540788
 31
0.0
  0
LINE
  5
54A
330
545
100
AcDbEntity
  8
WY
 62
     0
100
AcDbLine
 10
73.33458888372928
 20
122.5762067540788
 30
0.0
 11
75.33458888372928
 21
122.5762067540788
 31
0.0
  0
LINE
  5
54B
330
545
100
AcDbEntity
  8
WY
 62
     0
100
AcDbLine
 10
63.13458893849105
 20
122.5762067540788
 30
0.0
 11
61.13458893849105
 21
122.5762067540788
 31
0.0
  0
SOLID
  5
54C
330
545
100
AcDbEntity
  8
WY
 62
     0
100
AcDbTrace
 10
73.33458888372928
 20
122.9095400874121
 30
0.0
 11
73.33458888372928
 21
122.2428734207455
 31
0.0
 12
71.33458888372928
 22
122.5762067540788
 32
0.0
 13
71.33458888372928
 23
122.5762067540788
 33
0.0
  0
SOLID
  5
54D
330
545
100
AcDbEntity
  8
WY
 62
     0
100
AcDbTrace
 10
63.13458893849105
 20
122.2428734207455
 30
0.0
 11
63.13458893849105
 21
122.9095400874121
 31
0.0
 12
65.13458893849105
 22
122.5762067540788
 32
0.0
 13
65.13458893849105
 23
122.5762067540788
 33
0.0
  0
MTEXT
  5
54E
330
545
100
AcDbEntity
  8
WY
 62
     0
100
AcDbMText
 10
68.23458891111017
 20
124.7428734207455
 30
0.0
 40
2.0
 41
0.0
 71
     5
 72
     1
  1
6,2
  0
POINT
  5
54F
330
545
100
AcDbEntity
  8
DEFPOINTS
 62
     0
100
AcDbPoint
 10
71.33458888372928
 20
129.3421645258205
 30
0.0
  0
POINT
  5
59E
330
545
100
AcDbEntity
  8
DEFPOINTS
 62
     0
100
AcDbPoint
 10
65.13458893849105
 20
139.2901764951618
 30
0.0
  0
POINT
  5
59F
330
545
100
AcDbEntity
  8
DEFPOINTS
 62
     0
100
AcDbPoint
 10
65.13458893849105
 20
122.5762067540788
 30
0.0
  0
ENDBLK
  5
550
330
545
100
AcDbEntity
  8
0
100
AcDbBlockEnd
  0
BLOCK
  5
553
330
552
100
AcDbEntity
  8
0
100
AcDbBlockBegin
  2
*D9
 70
     1
 10
0.0
 20
0.0
 30
0.0
  3
*D9
  1
*D9
  0
LINE
  5
554
330
552
100
AcDbEntity
  8
WY
 62
     0
100
AcDbLine
 10
65.13458893849105
 20
138.2901764951618
 30
0.0
 11
65.13458893849105
 21
115.0674084239634
 31
0.0
  0
LINE
  5
555
330
552
100
AcDbEntity
  8
WY
 62
     0
100
AcDbLine
 10
92.63458878947944
 20
138.2901764951618
 30
0.0
 11
92.63458878947944
 21
115.0674084239634
 31
0.0
  0
LINE
  5
556
330
552
100
AcDbEntity
  8
WY
 62
     0
100
AcDbLine
 10
67.13458893849105
 20
116.0674084239634
 30
0.0
 11
90.63458878947944
 21
116.0674084239634
 31
0.0
  0
SOLID
  5
557
330
552
100
AcDbEntity
  8
WY
 62
     0
100
AcDbTrace
 10
67.13458893849105
 20
116.4007417572967
 30
0.0
 11
67.13458893849105
 21
115.73407509063
 31
0.0
 12
65.13458893849105
 22
116.0674084239634
 32
0.0
 13
65.13458893849105
 23
116.0674084239634
 33
0.0
  0
SOLID
  5
558
330
552
100
AcDbEntity
  8
WY
 62
     0
100
AcDbTrace
 10
90.63458878947944
 20
115.73407509063
 30
0.0
 11
90.63458878947944
 21
116.4007417572967
 31
0.0
 12
92.63458878947944
 22
116.0674084239634
 32
0.0
 13
92.63458878947944
 23
116.0674084239634
 33
0.0
  0
MTEXT
  5
559
330
552
100
AcDbEntity
  8
WY
 62
     0
100
AcDbMText
 10
78.88458886398524
 20
118.23407509063
 30
0.0
 40
2.0
 41
0.0
 71
     5
 72
     1
  1
27,5
  0
POINT
  5
55A
330
552
100
AcDbEntity
  8
DEFPOINTS
 62
     0
100
AcDbPoint
 10
65.13458893849105
 20
139.2901764951618
 30
0.0
  0
POINT
  5
55B
330
552
100
AcDbEntity
  8
DEFPOINTS
 62
     0
100
AcDbPoint
 10
92.63458878947944
 20
139.2901764951618
 30
0.0
  0
POINT
  5
55C
330
552
100
AcDbEntity
  8
DEFPOINTS
 62
     0
100
AcDbPoint
 10
92.63458878947944
 20
116.0674084239634
 30
0.0
  0
ENDBLK
  5
55D
330
552
100
AcDbEntity
  8
0
100
AcDbBlockEnd
  0
BLOCK
  5
560
330
55F
100
AcDbEntity
  8
0
100
AcDbBlockBegin
  2
*D10
 70
     1
 10
0.0
 20
0.0
 30
0.0
  3
*D10
  1
*D10
  0
LINE
  5
561
330
55F
100
AcDbEntity
  8
WY
 62
     0
100
AcDbLine
 10
157.7368558665972
 20
173.3901764821234
 30
0.0
 11
167.8327198266734
 21
173.3901764821234
 31
0.0
  0
LINE
  5
562
330
55F
100
AcDbEntity
  8
WY
 62
     0
100
AcDbLine
 10
158.1368557252417
 20
137.7901764821234
 30
0.0
 11
167.8327198266734
 21
137.7901764821234
 31
0.0
  0
LINE
  5
563
330
55F
100
AcDbEntity
  8
WY
 62
     0
100
AcDbLine
 10
166.8327198266734
 20
171.3901764821234
 30
0.0
 11
166.8327198266734
 21
139.7901764821234
 31
0.0
  0
SOLID
  5
564
330
55F
100
AcDbEntity
  8
WY
 62
     0
100
AcDbTrace
 10
167.1660531600067
 20
171.3901764821234
 30
0.0
 11
166.49938649334
 21
171.3901764821234
 31
0.0
 12
166.8327198266734
 22
173.3901764821234
 32
0.0
 13
166.8327198266734
 23
173.3901764821234
 33
0.0
  0
SOLID
  5
565
330
55F
100
AcDbEntity
  8
WY
 62
     0
100
AcDbTrace
 10
166.49938649334
 20
139.7901764821234
 30
0.0
 11
167.1660531600067
 21
139.7901764821234
 31
0.0
 12
166.8327198266734
 22
137.7901764821234
 32
0.0
 13
166.8327198266734
 23
137.7901764821234
 33
0.0
  0
MTEXT
  5
566
330
55F
100
AcDbEntity
  8
WY
 62
     0
100
AcDbMText
 10
164.6660531600067
 20
155.5901764821234
 30
0.0
 40
2.0
 41
0.0
 71
     5
 72
     1
  1
35,6
 11
0.0
 21
1.0
 31
0.0
  0
POINT
  5
567
330
55F
100
AcDbEntity
  8
DEFPOINTS
 62
     0
100
AcDbPoint
 10
156.7368558665972
 20
173.3901764821234
 30
0.0
  0
POINT
  5
568
330
55F
100
AcDbEntity
  8
DEFPOINTS
 62
     0
100
AcDbPoint
 10
157.1368557252417
 20
137.7901764821234
 30
0.0
  0
POINT
  5
569
330
55F
100
AcDbEntity
  8
DEFPOINTS
 62
     0
100
AcDbPoint
 10
166.8327198266734
 20
137.7901764821234
 30
0.0
  0
ENDBLK
  5
56A
330
55F
100
AcDbEntity
  8
0
100
AcDbBlockEnd
  0
BLOCK
  5
56D
330
56C
100
AcDbEntity
  8
0
100
AcDbBlockBegin
  2
*D11
 70
     1
 10
0.0
 20
0.0
 30
0.0
  3
*D11
  1
*D11
  0
LINE
  5
56E
330
56C
100
AcDbEntity
  8
WY
 62
     0
100
AcDbLine
 10
154.7368559129964
 20
131.2901763480129
 30
0.0
 11
167.8327198266734
 21
131.2901763480129
 31
0.0
  0
LINE
  5
56F
330
56C
100
AcDbEntity
  8
WY
 62
     0
100
AcDbLine
 10
158.1368557252417
 20
137.7901764821234
 30
0.0
 11
167.8327198266734
 21
137.7901764821234
 31
0.0
  0
LINE
  5
570
330
56C
100
AcDbEntity
  8
WY
 62
     0
100
AcDbLine
 10
166.8327198266734
 20
133.2901763480129
 30
0.0
 11
166.8327198266734
 21
135.7901764821234
 31
0.0
  0
SOLID
  5
571
330
56C
100
AcDbEntity
  8
WY
 62
     0
100
AcDbTrace
 10
166.49938649334
 20
133.2901763480129
 30
0.0
 11
167.1660531600067
 21
133.2901763480129
 31
0.0
 12
166.8327198266734
 22
131.2901763480129
 32
0.0
 13
166.8327198266734
 23
131.2901763480129
 33
0.0
  0
SOLID
  5
572
330
56C
100
AcDbEntity
  8
WY
 62
     0
100
AcDbTrace
 10
167.1660531600067
 20
135.7901764821234
 30
0.0
 11
166.49938649334
 21
135.7901764821234
 31
0.0
 12
166.8327198266734
 22
137.7901764821234
 32
0.0
 13
166.8327198266734
 23
137.7901764821234
 33
0.0
  0
MTEXT
  5
573
330
56C
100
AcDbEntity
  8
WY
 62
     0
100
AcDbMText
 10
164.6660531600067
 20
134.5401764150681
 30
0.0
 40
2.0
 41
0.0
 71
     5
 72
     1
  1
6,5
 11
0.0
 21
1.0
 31
0.0
  0
POINT
  5
574
330
56C
100
AcDbEntity
  8
DEFPOINTS
 62
     0
100
AcDbPoint
 10
153.7368559129964
 20
131.2901763480129
 30
0.0
  0
POINT
  5
575
330
56C
100
AcDbEntity
  8
DEFPOINTS
 62
     0
100
AcDbPoint
 10
157.1368557252417
 20
137.7901764821234
 30
0.0
  0
POINT
  5
576
330
56C
100
AcDbEntity
  8
DEFPOINTS
 62
     0
100
AcDbPoint
 10
166.8327198266734
 20
137.7901764821234
 30
0.0
  0
ENDBLK
  5
577
330
56C
100
AcDbEntity
  8
0
100
AcDbBlockEnd
  0
BLOCK
  5
57A
330
579
100
AcDbEntity
  8
0
100
AcDbBlockBegin
  2
*D12
 70
     1
 10
0.0
 20
0.0
 30
0.0
  3
*D12
  1
*D12
  0
LINE
  5
57B
330
579
100
AcDbEntity
  8
WY
 62
     0
100
AcDbLine
 10
152.1368558370004
 20
131.0901763860109
 30
0.0
 11
152.1368558370004
 21
123.2593735364392
 31
0.0
  0
LINE
  5
57C
330
579
100
AcDbEntity
  8
WY
 62
     0
100
AcDbLine
 10
154.3368558250795
 20
131.0901763860109
 30
0.0
 11
154.3368558250795
 21
123.2593735364392
 31
0.0
  0
LINE
  5
57D
330
579
100
AcDbEntity
  8
WY
 62
     0
100
AcDbLine
 10
154.3368558250795
 20
124.2593735364392
 30
0.0
 11
171.3368558250795
 21
124.2593735364392
 31
0.0
  0
LINE
  5
57E
330
579
100
AcDbEntity
  8
WY
 62
     0
100
AcDbLine
 10
152.1368558370004
 20
124.2593735364392
 30
0.0
 11
154.3368558250795
 21
124.2593735364392
 31
0.0
  0
LINE
  5
57F
330
579
100
AcDbEntity
  8
WY
 62
     0
100
AcDbLine
 10
150.1368558370004
 20
124.2593735364392
 30
0.0
 11
148.1368558370004
 21
124.2593735364392
 31
0.0
  0
LINE
  5
580
330
579
100
AcDbEntity
  8
WY
 62
     0
100
AcDbLine
 10
156.3368558250795
 20
124.2593735364392
 30
0.0
 11
158.3368558250795
 21
124.2593735364392
 31
0.0
  0
SOLID
  5
581
330
579
100
AcDbEntity
  8
WY
 62
     0
100
AcDbTrace
 10
150.1368558370004
 20
123.9260402031058
 30
0.0
 11
150.1368558370004
 21
124.5927068697725
 31
0.0
 12
152.1368558370004
 22
124.2593735364392
 32
0.0
 13
152.1368558370004
 23
124.2593735364392
 33
0.0
  0
SOLID
  5
582
330
579
100
AcDbEntity
  8
WY
 62
     0
100
AcDbTrace
 10
156.3368558250795
 20
124.5927068697725
 30
0.0
 11
156.3368558250795
 21
123.9260402031058
 31
0.0
 12
154.3368558250795
 22
124.2593735364392
 32
0.0
 13
154.3368558250795
 23
124.2593735364392
 33
0.0
  0
MTEXT
  5
583
330
579
100
AcDbEntity
  8
WY
 62
     0
100
AcDbMText
 10
164.8368558250795
 20
126.4260402031058
 30
0.0
 40
2.0
 41
0.0
 71
     5
 72
     1
  1
2,2x0,5
  0
POINT
  5
584
330
579
100
AcDbEntity
  8
DEFPOINTS
 62
     0
100
AcDbPoint
 10
152.1368558370004
 20
132.0901763860109
 30
0.0
  0
POINT
  5
585
330
579
100
AcDbEntity
  8
DEFPOINTS
 62
     0
100
AcDbPoint
 10
154.3368558250795
 20
132.0901763860109
 30
0.0
  0
POINT
  5
586
330
579
100
AcDbEntity
  8
DEFPOINTS
 62
     0
100
AcDbPoint
 10
154.3368558250795
 20
124.2593735364392
 30
0.0
  0
ENDBLK
  5
587
330
579
100
AcDbEntity
  8
0
100
AcDbBlockEnd
  0
BLOCK
  5
58A
330
589
100
AcDbEntity
  8
0
100
AcDbBlockBegin
  2
*D13
 70
     1
 10
0.0
 20
0.0
 30
0.0
  3
*D13
  1
*D13
  0
LINE
  5
58B
330
589
100
AcDbEntity
  8
WY
 62
     0
100
AcDbLine
 10
89.5345888641005
 20
74.21495768982754
 30
0.0
 11
89.5345888641005
 21
68.74848598309293
 31
0.0
  0
LINE
  5
58C
330
589
100
AcDbEntity
  8
WY
 62
     0
100
AcDbLine
 10
101.6712252657765
 20
86.79371644602467
 30
0.0
 11
107.5798193270322
 21
86.79371644602467
 31
0.0
  0
ARC
  5
58D
330
589
100
AcDbEntity
  8
WY
 62
     0
100
AcDbCircle
 10
89.5345888641005
 20
86.79371644602467
 30
0.0
 40
17.04523046293173
100
AcDbArc
 50
270.0
 51
353.273344344668
  0
SOLID
  5
58E
330
589
100
AcDbEntity
  8
WY
 62
     0
100
AcDbTrace
 10
106.7952436453618
 20
84.77760546837901
 30
0.0
 11
106.1297252570265
 21
84.81671709365837
 31
0.0
 12
106.5798193270322
 22
86.79371644602467
 32
0.0
 13
106.5798193270322
 23
86.79371644602467
 33
0.0
  0
MTEXT
  5
58F
330
589
100
AcDbEntity
  8
WY
 62
     0
100
AcDbMText
 10
100.173173348954
 20
76.15513196117122
 30
0.0
 40
2.0
 41
0.0
 71
     5
 72
     1
  1
 
 11
0.7071067811865475
 21
0.7071067811865475
 31
0.0
  0
POINT
  5
590
330
589
100
AcDbEntity
  8
DEFPOINTS
 62
     0
100
AcDbPoint
 10
98.05720409556636
 20
72.0321138517654
 30
0.0
  0
POINT
  5
591
330
589
100
AcDbEntity
  8
DEFPOINTS
 62
     0
100
AcDbPoint
 10
86.85406515824712
 20
86.79371644602467
 30
0.0
  0
POINT
  5
592
330
589
100
AcDbEntity
  8
DEFPOINTS
 62
     0
100
AcDbPoint
 10
89.5345888641005
 20
89.57869008004674
 30
0.0
  0
POINT
  5
593
330
589
100
AcDbEntity
  8
DEFPOINTS
 62
     0
100
AcDbPoint
 10
89.5345888641005
 20
75.21495768982754
 30
0.0
  0
POINT
  5
594
330
589
100
AcDbEntity
  8
DEFPOINTS
 62
     0
100
AcDbPoint
 10
100.6712252657765
 20
86.79371644602467
 30
0.0
  0
ENDBLK
  5
595
330
589
100
AcDbEntity
  8
0
100
AcDbBlockEnd
  0
BLOCK
  5
5A1
330
5A0
100
AcDbEntity
  8
0
100
AcDbBlockBegin
  2
_NONE
 70
     0
 10
0.0
 20
0.0
 30
0.0
  3
_NONE
  1
_NONE
  0
ENDBLK
  5
5A2
330
5A0
100
AcDbEntity
  8
0
100
AcDbBlockEnd
  0
BLOCK
  5
819
330
818
100
AcDbEntity
  8
0
100
AcDbBlockBegin
  2
*D15
 70
     1
 10
0.0
 20
0.0
 30
0.0
  3
*D15
  1
*D15
  0
LINE
  5
81B
330
818
100
AcDbEntity
  8
WY
 62
     0
100
AcDbLine
 10
327.4777289921698
 20
227.4403658026758
 30
0.0
 11
341.1190115513123
 21
227.4403658026758
 31
0.0
  0
LINE
  5
81C
330
818
100
AcDbEntity
  8
WY
 62
     0
100
AcDbLine
 10
327.4777289921698
 20
214.2403658742014
 30
0.0
 11
341.1190115513123
 21
214.2403658742014
 31
0.0
  0
LINE
  5
81D
330
818
100
AcDbEntity
  8
WY
 62
     0
100
AcDbLine
 10
340.1190115513123
 20
225.4403658026758
 30
0.0
 11
340.1190115513123
 21
216.2403658742014
 31
0.0
  0
SOLID
  5
81E
330
818
100
AcDbEntity
  8
WY
 62
     0
100
AcDbTrace
 10
340.4523448846456
 20
225.4403658026758
 30
0.0
 11
339.785678217979
 21
225.4403658026758
 31
0.0
 12
340.1190115513123
 22
227.4403658026758
 32
0.0
 13
340.1190115513123
 23
227.4403658026758
 33
0.0
  0
SOLID
  5
81F
330
818
100
AcDbEntity
  8
WY
 62
     0
100
AcDbTrace
 10
339.785678217979
 20
216.2403658742014
 30
0.0
 11
340.4523448846456
 21
216.2403658742014
 31
0.0
 12
340.1190115513123
 22
214.2403658742014
 32
0.0
 13
340.1190115513123
 23
214.2403658742014
 33
0.0
  0
MTEXT
  5
820
330
818
100
AcDbEntity
  8
WY
 62
     0
100
AcDbMText
 10
337.9523448846456
 20
220.8403658384386
 30
0.0
 40
2.0
 41
0.0
 71
     5
 72
     1
  1
13,2
 11
0.0
 21
1.0
 31
0.0
  0
POINT
  5
821
330
818
100
AcDbEntity
  8
DEFPOINTS
 62
     0
100
AcDbPoint
 10
326.4777289921698
 20
227.4403658026758
 30
0.0
  0
POINT
  5
822
330
818
100
AcDbEntity
  8
DEFPOINTS
 62
     0
100
AcDbPoint
 10
326.4777289921698
 20
214.2403658742014
 30
0.0
  0
POINT
  5
823
330
818
100
AcDbEntity
  8
DEFPOINTS
 62
     0
100
AcDbPoint
 10
340.1190115513123
 20
214.2403658742014
 30
0.0
  0
ENDBLK
  5
81A
330
818
100
AcDbEntity
  8
0
100
AcDbBlockEnd
  0
BLOCK
  5
825
330
824
100
AcDbEntity
  8
0
100
AcDbBlockBegin
  2
*D16
 70
     1
 10
0.0
 20
0.0
 30
0.0
  3
*D16
  1
*D16
  0
LINE
  5
827
330
824
100
AcDbEntity
  8
WY
 62
     0
100
AcDbLine
 10
93.13458886398513
 20
226.0019270780955
 30
0.0
 11
109.9082506628353
 21
226.0019270780955
 31
0.0
  0
LINE
  5
828
330
824
100
AcDbEntity
  8
WY
 62
     0
100
AcDbLine
 10
93.13458886398513
 20
204.8019270780952
 30
0.0
 11
109.9082506628353
 21
204.8019270780952
 31
0.0
  0
LINE
  5
829
330
824
100
AcDbEntity
  8
WY
 62
     0
100
AcDbLine
 10
108.9082506628353
 20
224.0019270780955
 30
0.0
 11
108.9082506628353
 21
206.8019270780952
 31
0.0
  0
SOLID
  5
82A
330
824
100
AcDbEntity
  8
WY
 62
     0
100
AcDbTrace
 10
109.2415839961686
 20
224.0019270780955
 30
0.0
 11
108.5749173295019
 21
224.0019270780955
 31
0.0
 12
108.9082506628353
 22
226.0019270780955
 32
0.0
 13
108.9082506628353
 23
226.0019270780955
 33
0.0
  0
SOLID
  5
82B
330
824
100
AcDbEntity
  8
WY
 62
     0
100
AcDbTrace
 10
108.5749173295019
 20
206.8019270780952
 30
0.0
 11
109.2415839961686
 21
206.8019270780952
 31
0.0
 12
108.9082506628353
 22
204.8019270780952
 32
0.0
 13
108.9082506628353
 23
204.8019270780952
 33
0.0
  0
MTEXT
  5
82C
330
824
100
AcDbEntity
  8
WY
 62
     0
100
AcDbMText
 10
106.7415839961686
 20
215.4019270780954
 30
0.0
 40
2.0
 41
0.0
 71
     5
 72
     1
  1
21,2
 11
0.0
 21
1.0
 31
0.0
  0
POINT
  5
82D
330
824
100
AcDbEntity
  8
DEFPOINTS
 62
     0
100
AcDbPoint
 10
92.13458886398513
 20
226.0019270780955
 30
0.0
  0
POINT
  5
82E
330
824
100
AcDbEntity
  8
DEFPOINTS
 62
     0
100
AcDbPoint
 10
92.13458886398513
 20
204.8019270780952
 30
0.0
  0
POINT
  5
82F
330
824
100
AcDbEntity
  8
DEFPOINTS
 62
     0
100
AcDbPoint
 10
108.9082506628353
 20
204.8019270780952
 30
0.0
  0
ENDBLK
  5
826
330
824
100
AcDbEntity
  8
0
100
AcDbBlockEnd
  0
BLOCK
  5
831
330
830
100
AcDbEntity
  8
0
100
AcDbBlockBegin
  2
*D17
 70
     1
 10
0.0
 20
0.0
 30
0.0
  3
*D17
  1
*D17
  0
LINE
  5
833
330
830
100
AcDbEntity
  8
WY
 62
     0
100
AcDbLine
 10
71.33458888372928
 20
128.3421645258205
 30
0.0
 11
71.33458888372928
 21
121.5762067540788
 31
0.0
  0
LINE
  5
834
330
830
100
AcDbEntity
  8
WY
 62
     0
100
AcDbLine
 10
77.63458883371726
 20
128.3421645258205
 30
0.0
 11
77.63458883371726
 21
121.5762067540788
 31
0.0
  0
LINE
  5
835
330
830
100
AcDbEntity
  8
WY
 62
     0
100
AcDbLine
 10
71.33458888372928
 20
122.5762067540788
 30
0.0
 11
77.63458883371726
 21
122.5762067540788
 31
0.0
  0
LINE
  5
836
330
830
100
AcDbEntity
  8
WY
 62
     0
100
AcDbLine
 10
69.33458888372928
 20
122.5762067540788
 30
0.0
 11
67.33458888372928
 21
122.5762067540788
 31
0.0
  0
LINE
  5
837
330
830
100
AcDbEntity
  8
WY
 62
     0
100
AcDbLine
 10
79.63458883371726
 20
122.5762067540788
 30
0.0
 11
81.63458883371726
 21
122.5762067540788
 31
0.0
  0
SOLID
  5
838
330
830
100
AcDbEntity
  8
WY
 62
     0
100
AcDbTrace
 10
69.33458888372928
 20
122.2428734207455
 30
0.0
 11
69.33458888372928
 21
122.9095400874121
 31
0.0
 12
71.33458888372928
 22
122.5762067540788
 32
0.0
 13
71.33458888372928
 23
122.5762067540788
 33
0.0
  0
SOLID
  5
839
330
830
100
AcDbEntity
  8
WY
 62
     0
100
AcDbTrace
 10
79.63458883371726
 20
122.9095400874121
 30
0.0
 11
79.63458883371726
 21
122.2428734207455
 31
0.0
 12
77.63458883371726
 22
122.5762067540788
 32
0.0
 13
77.63458883371726
 23
122.5762067540788
 33
0.0
  0
MTEXT
  5
83A
330
830
100
AcDbEntity
  8
WY
 62
     0
100
AcDbMText
 10
74.48458885872327
 20
124.7428734207455
 30
0.0
 40
2.0
 41
0.0
 71
     5
 72
     1
  1
6,3
  0
POINT
  5
83B
330
830
100
AcDbEntity
  8
DEFPOINTS
 62
     0
100
AcDbPoint
 10
71.33458888372928
 20
129.3421645258205
 30
0.0
  0
POINT
  5
83C
330
830
100
AcDbEntity
  8
DEFPOINTS
 62
     0
100
AcDbPoint
 10
77.63458883371726
 20
129.3421645258205
 30
0.0
  0
POINT
  5
83D
330
830
100
AcDbEntity
  8
DEFPOINTS
 62
     0
100
AcDbPoint
 10
77.63458883371726
 20
122.5762067540788
 30
0.0
  0
ENDBLK
  5
832
330
830
100
AcDbEntity
  8
0
100
AcDbBlockEnd
  0
BLOCK
  5
83F
330
83E
100
AcDbEntity
  8
0
100
AcDbBlockBegin
  2
*D18
 70
     1
 10
0.0
 20
0.0
 30
0.0
  3
*D18
  1
*D18
  0
LINE
  5
841
330
83E
100
AcDbEntity
  8
WY
 62
     0
100
AcDbLine
 10
77.63458883371726
 20
128.3421645258205
 30
0.0
 11
77.63458883371726
 21
121.5762067540788
 31
0.0
  0
LINE
  5
842
330
83E
100
AcDbEntity
  8
WY
 62
     0
100
AcDbLine
 10
83.93458890012056
 20
128.3421645258205
 30
0.0
 11
83.93458890012056
 21
121.5762067540788
 31
0.0
  0
LINE
  5
843
330
83E
100
AcDbEntity
  8
WY
 62
     0
100
AcDbLine
 10
77.63458883371726
 20
122.5762067540788
 30
0.0
 11
83.93458890012056
 21
122.5762067540788
 31
0.0
  0
LINE
  5
844
330
83E
100
AcDbEntity
  8
WY
 62
     0
100
AcDbLine
 10
75.63458883371726
 20
122.5762067540788
 30
0.0
 11
73.63458883371726
 21
122.5762067540788
 31
0.0
  0
LINE
  5
845
330
83E
100
AcDbEntity
  8
WY
 62
     0
100
AcDbLine
 10
85.93458890012056
 20
122.5762067540788
 30
0.0
 11
87.93458890012056
 21
122.5762067540788
 31
0.0
  0
SOLID
  5
846
330
83E
100
AcDbEntity
  8
WY
 62
     0
100
AcDbTrace
 10
75.63458883371726
 20
122.2428734207455
 30
0.0
 11
75.63458883371726
 21
122.9095400874121
 31
0.0
 12
77.63458883371726
 22
122.5762067540788
 32
0.0
 13
77.63458883371726
 23
122.5762067540788
 33
0.0
  0
SOLID
  5
847
330
83E
100
AcDbEntity
  8
WY
 62
     0
100
AcDbTrace
 10
85.93458890012056
 20
122.9095400874121
 30
0.0
 11
85.93458890012056
 21
122.2428734207455
 31
0.0
 12
83.93458890012056
 22
122.5762067540788
 32
0.0
 13
83.93458890012056
 23
122.5762067540788
 33
0.0
  0
MTEXT
  5
848
330
83E
100
AcDbEntity
  8
WY
 62
     0
100
AcDbMText
 10
80.78458886691891
 20
124.7428734207455
 30
0.0
 40
2.0
 41
0.0
 71
     5
 72
     1
  1
6,3
  0
POINT
  5
849
330
83E
100
AcDbEntity
  8
DEFPOINTS
 62
     0
100
AcDbPoint
 10
77.63458883371726
 20
129.3421645258205
 30
0.0
  0
POINT
  5
84A
330
83E
100
AcDbEntity
  8
DEFPOINTS
 62
     0
100
AcDbPoint
 10
83.93458890012056
 20
129.3421645258205
 30
0.0
  0
POINT
  5
84B
330
83E
100
AcDbEntity
  8
DEFPOINTS
 62
     0
100
AcDbPoint
 10
83.93458890012056
 20
122.5762067540788
 30
0.0
  0
ENDBLK
  5
840
330
83E
100
AcDbEntity
  8
0
100
AcDbBlockEnd
  0
BLOCK
  5
84D
330
84C
100
AcDbEntity
  8
0
100
AcDbBlockBegin
  2
*D19
 70
     1
 10
0.0
 20
0.0
 30
0.0
  3
*D19
  1
*D19
  0
LINE
  5
84F
330
84C
100
AcDbEntity
  8
WY
 62
     0
100
AcDbLine
 10
83.93458890012056
 20
128.3421645258205
 30
0.0
 11
83.93458890012056
 21
121.5762067540788
 31
0.0
  0
LINE
  5
850
330
84C
100
AcDbEntity
  8
WY
 62
     0
100
AcDbLine
 10
88.03458868740648
 20
128.3421645258205
 30
0.0
 11
88.03458868740648
 21
121.5762067540788
 31
0.0
  0
LINE
  5
851
330
84C
100
AcDbEntity
  8
WY
 62
     0
100
AcDbLine
 10
83.93458890012056
 20
122.5762067540788
 30
0.0
 11
88.03458868740648
 21
122.5762067540788
 31
0.0
  0
LINE
  5
852
330
84C
100
AcDbEntity
  8
WY
 62
     0
100
AcDbLine
 10
81.93458890012056
 20
122.5762067540788
 30
0.0
 11
79.93458890012056
 21
122.5762067540788
 31
0.0
  0
LINE
  5
853
330
84C
100
AcDbEntity
  8
WY
 62
     0
100
AcDbLine
 10
90.03458868740648
 20
122.5762067540788
 30
0.0
 11
92.03458868740648
 21
122.5762067540788
 31
0.0
  0
SOLID
  5
854
330
84C
100
AcDbEntity
  8
WY
 62
     0
100
AcDbTrace
 10
81.93458890012056
 20
122.2428734207455
 30
0.0
 11
81.93458890012056
 21
122.9095400874121
 31
0.0
 12
83.93458890012056
 22
122.5762067540788
 32
0.0
 13
83.93458890012056
 23
122.5762067540788
 33
0.0
  0
SOLID
  5
855
330
84C
100
AcDbEntity
  8
WY
 62
     0
100
AcDbTrace
 10
90.03458868740648
 20
122.9095400874121
 30
0.0
 11
90.03458868740648
 21
122.2428734207455
 31
0.0
 12
88.03458868740648
 22
122.5762067540788
 32
0.0
 13
88.03458868740648
 23
122.5762067540788
 33
0.0
  0
MTEXT
  5
856
330
84C
100
AcDbEntity
  8
WY
 62
     0
100
AcDbMText
 10
85.98458879376352
 20
124.7428734207455
 30
0.0
 40
2.0
 41
0.0
 71
     5
 72
     1
  1
4,1
  0
POINT
  5
857
330
84C
100
AcDbEntity
  8
DEFPOINTS
 62
     0
100
AcDbPoint
 10
83.93458890012056
 20
129.3421645258205
 30
0.0
  0
POINT
  5
858
330
84C
100
AcDbEntity
  8
DEFPOINTS
 62
     0
100
AcDbPoint
 10
88.03458868740648
 20
129.3421645258205
 30
0.0
  0
POINT
  5
859
330
84C
100
AcDbEntity
  8
DEFPOINTS
 62
     0
100
AcDbPoint
 10
88.03458868740648
 20
122.5762067540788
 30
0.0
  0
ENDBLK
  5
84E
330
84C
100
AcDbEntity
  8
0
100
AcDbBlockEnd
  0
BLOCK
  5
85B
330
85A
100
AcDbEntity
  8
0
100
AcDbBlockBegin
  2
*D20
 70
     1
 10
0.0
 20
0.0
 30
0.0
  3
*D20
  1
*D20
  0
LINE
  5
85D
330
85A
100
AcDbEntity
  8
WY
 62
     0
100
AcDbLine
 10
71.33458888372928
 20
128.3421645258205
 30
0.0
 11
71.33458888372928
 21
121.5762067540788
 31
0.0
  0
LINE
  5
85E
330
85A
100
AcDbEntity
  8
WY
 62
     0
100
AcDbLine
 10
65.13458893849105
 20
138.2901764951618
 30
0.0
 11
65.13458893849105
 21
121.5762067540788
 31
0.0
  0
LINE
  5
85F
330
85A
100
AcDbEntity
  8
WY
 62
     0
100
AcDbLine
 10
71.33458888372928
 20
122.5762067540788
 30
0.0
 11
65.13458893849105
 21
122.5762067540788
 31
0.0
  0
LINE
  5
860
330
85A
100
AcDbEntity
  8
WY
 62
     0
100
AcDbLine
 10
73.33458888372928
 20
122.5762067540788
 30
0.0
 11
75.33458888372928
 21
122.5762067540788
 31
0.0
  0
LINE
  5
861
330
85A
100
AcDbEntity
  8
WY
 62
     0
100
AcDbLine
 10
63.13458893849105
 20
122.5762067540788
 30
0.0
 11
61.13458893849105
 21
122.5762067540788
 31
0.0
  0
SOLID
  5
862
330
85A
100
AcDbEntity
  8
WY
 62
     0
100
AcDbTrace
 10
73.33458888372928
 20
122.9095400874121
 30
0.0
 11
73.33458888372928
 21
122.2428734207455
 31
0.0
 12
71.33458888372928
 22
122.5762067540788
 32
0.0
 13
71.33458888372928
 23
122.5762067540788
 33
0.0
  0
SOLID
  5
863
330
85A
100
AcDbEntity
  8
WY
 62
     0
100
AcDbTrace
 10
63.13458893849105
 20
122.2428734207455
 30
0.0
 11
63.13458893849105
 21
122.9095400874121
 31
0.0
 12
65.13458893849105
 22
122.5762067540788
 32
0.0
 13
65.13458893849105
 23
122.5762067540788
 33
0.0
  0
MTEXT
  5
864
330
85A
100
AcDbEntity
  8
WY
 62
     0
100
AcDbMText
 10
68.23458891111017
 20
124.7428734207455
 30
0.0
 40
2.0
 41
0.0
 71
     5
 72
     1
  1
6,2
  0
POINT
  5
865
330
85A
100
AcDbEntity
  8
DEFPOINTS
 62
     0
100
AcDbPoint
 10
71.33458888372928
 20
129.3421645258205
 30
0.0
  0
POINT
  5
866
330
85A
100
AcDbEntity
  8
DEFPOINTS
 62
     0
100
AcDbPoint
 10
65.13458893849105
 20
139.2901764951618
 30
0.0
  0
POINT
  5
867
330
85A
100
AcDbEntity
  8
DEFPOINTS
 62
     0
100
AcDbPoint
 10
65.13458893849105
 20
122.5762067540788
 30
0.0
  0
ENDBLK
  5
85C
330
85A
100
AcDbEntity
  8
0
100
AcDbBlockEnd
  0
BLOCK
  5
869
330
868
100
AcDbEntity
  8
0
100
AcDbBlockBegin
  2
*D21
 70
     1
 10
0.0
 20
0.0
 30
0.0
  3
*D21
  1
*D21
  0
LINE
  5
86B
330
868
100
AcDbEntity
  8
WY
 62
     0
100
AcDbLine
 10
65.13458893849105
 20
138.2901764951618
 30
0.0
 11
65.13458893849105
 21
115.0674084239634
 31
0.0
  0
LINE
  5
86C
330
868
100
AcDbEntity
  8
WY
 62
     0
100
AcDbLine
 10
92.63458878947944
 20
138.2901764951618
 30
0.0
 11
92.63458878947944
 21
115.0674084239634
 31
0.0
  0
LINE
  5
86D
330
868
100
AcDbEntity
  8
WY
 62
     0
100
AcDbLine
 10
67.13458893849105
 20
116.0674084239634
 30
0.0
 11
90.63458878947944
 21
116.0674084239634
 31
0.0
  0
SOLID
  5
86E
330
868
100
AcDbEntity
  8
WY
 62
     0
100
AcDbTrace
 10
67.13458893849105
 20
116.4007417572967
 30
0.0
 11
67.13458893849105
 21
115.73407509063
 31
0.0
 12
65.13458893849105
 22
116.0674084239634
 32
0.0
 13
65.13458893849105
 23
116.0674084239634
 33
0.0
  0
SOLID
  5
86F
330
868
100
AcDbEntity
  8
WY
 62
     0
100
AcDbTrace
 10
90.63458878947944
 20
115.73407509063
 30
0.0
 11
90.63458878947944
 21
116.4007417572967
 31
0.0
 12
92.63458878947944
 22
116.0674084239634
 32
0.0
 13
92.63458878947944
 23
116.0674084239634
 33
0.0
  0
MTEXT
  5
870
330
868
100
AcDbEntity
  8
WY
 62
     0
100
AcDbMText
 10
78.88458886398524
 20
118.23407509063
 30
0.0
 40
2.0
 41
0.0
 71
     5
 72
     1
  1
27,5
  0
POINT
  5
871
330
868
100
AcDbEntity
  8
DEFPOINTS
 62
     0
100
AcDbPoint
 10
65.13458893849105
 20
139.2901764951618
 30
0.0
  0
POINT
  5
872
330
868
100
AcDbEntity
  8
DEFPOINTS
 62
     0
100
AcDbPoint
 10
92.63458878947944
 20
139.2901764951618
 30
0.0
  0
POINT
  5
873
330
868
100
AcDbEntity
  8
DEFPOINTS
 62
     0
100
AcDbPoint
 10
92.63458878947944
 20
116.0674084239634
 30
0.0
  0
ENDBLK
  5
86A
330
868
100
AcDbEntity
  8
0
100
AcDbBlockEnd
  0
BLOCK
  5
875
330
874
100
AcDbEntity
  8
0
100
AcDbBlockBegin
  2
*D22
 70
     1
 10
0.0
 20
0.0
 30
0.0
  3
*D22
  1
*D22
  0
LINE
  5
877
330
874
100
AcDbEntity
  8
WY
 62
     0
100
AcDbLine
 10
157.7368558665972
 20
173.3901764821234
 30
0.0
 11
167.8327198266734
 21
173.3901764821234
 31
0.0
  0
LINE
  5
878
330
874
100
AcDbEntity
  8
WY
 62
     0
100
AcDbLine
 10
158.1368557252417
 20
137.7901764821234
 30
0.0
 11
167.8327198266734
 21
137.7901764821234
 31
0.0
  0
LINE
  5
879
330
874
100
AcDbEntity
  8
WY
 62
     0
100
AcDbLine
 10
166.8327198266734
 20
171.3901764821234
 30
0.0
 11
166.8327198266734
 21
139.7901764821234
 31
0.0
  0
SOLID
  5
87A
330
874
100
AcDbEntity
  8
WY
 62
     0
100
AcDbTrace
 10
167.1660531600067
 20
171.3901764821234
 30
0.0
 11
166.49938649334
 21
171.3901764821234
 31
0.0
 12
166.8327198266734
 22
173.3901764821234
 32
0.0
 13
166.8327198266734
 23
173.3901764821234
 33
0.0
  0
SOLID
  5
87B
330
874
100
AcDbEntity
  8
WY
 62
     0
100
AcDbTrace
 10
166.49938649334
 20
139.7901764821234
 30
0.0
 11
167.1660531600067
 21
139.7901764821234
 31
0.0
 12
166.8327198266734
 22
137.7901764821234
 32
0.0
 13
166.8327198266734
 23
137.7901764821234
 33
0.0
  0
MTEXT
  5
87C
330
874
100
AcDbEntity
  8
WY
 62
     0
100
AcDbMText
 10
164.6660531600067
 20
155.5901764821234
 30
0.0
 40
2.0
 41
0.0
 71
     5
 72
     1
  1
35,6
 11
0.0
 21
1.0
 31
0.0
  0
POINT
  5
87D
330
874
100
AcDbEntity
  8
DEFPOINTS
 62
     0
100
AcDbPoint
 10
156.7368558665972
 20
173.3901764821234
 30
0.0
  0
POINT
  5
87E
330
874
100
AcDbEntity
  8
DEFPOINTS
 62
     0
100
AcDbPoint
 10
157.1368557252417
 20
137.7901764821234
 30
0.0
  0
POINT
  5
87F
330
874
100
AcDbEntity
  8
DEFPOINTS
 62
     0
100
AcDbPoint
 10
166.8327198266734
 20
137.7901764821234
 30
0.0
  0
ENDBLK
  5
876
330
874
100
AcDbEntity
  8
0
100
AcDbBlockEnd
  0
BLOCK
  5
881
330
880
100
AcDbEntity
  8
0
100
AcDbBlockBegin
  2
*D23
 70
     1
 10
0.0
 20
0.0
 30
0.0
  3
*D23
  1
*D23
  0
LINE
  5
883
330
880
100
AcDbEntity
  8
WY
 62
     0
100
AcDbLine
 10
154.7368559129964
 20
131.2901763480129
 30
0.0
 11
167.8327198266734
 21
131.2901763480129
 31
0.0
  0
LINE
  5
884
330
880
100
AcDbEntity
  8
WY
 62
     0
100
AcDbLine
 10
158.1368557252417
 20
137.7901764821234
 30
0.0
 11
167.8327198266734
 21
137.7901764821234
 31
0.0
  0
LINE
  5
885
330
880
100
AcDbEntity
  8
WY
 62
     0
100
AcDbLine
 10
166.8327198266734
 20
133.2901763480129
 30
0.0
 11
166.8327198266734
 21
135.7901764821234
 31
0.0
  0
SOLID
  5
886
330
880
100
AcDbEntity
  8
WY
 62
     0
100
AcDbTrace
 10
166.49938649334
 20
133.2901763480129
 30
0.0
 11
167.1660531600067
 21
133.2901763480129
 31
0.0
 12
166.8327198266734
 22
131.2901763480129
 32
0.0
 13
166.8327198266734
 23
131.2901763480129
 33
0.0
  0
SOLID
  5
887
330
880
100
AcDbEntity
  8
WY
 62
     0
100
AcDbTrace
 10
167.1660531600067
 20
135.7901764821234
 30
0.0
 11
166.49938649334
 21
135.7901764821234
 31
0.0
 12
166.8327198266734
 22
137.7901764821234
 32
0.0
 13
166.8327198266734
 23
137.7901764821234
 33
0.0
  0
MTEXT
  5
888
330
880
100
AcDbEntity
  8
WY
 62
     0
100
AcDbMText
 10
164.6660531600067
 20
134.5401764150681
 30
0.0
 40
2.0
 41
0.0
 71
     5
 72
     1
  1
6,5
 11
0.0
 21
1.0
 31
0.0
  0
POINT
  5
889
330
880
100
AcDbEntity
  8
DEFPOINTS
 62
     0
100
AcDbPoint
 10
153.7368559129964
 20
131.2901763480129
 30
0.0
  0
POINT
  5
88A
330
880
100
AcDbEntity
  8
DEFPOINTS
 62
     0
100
AcDbPoint
 10
157.1368557252417
 20
137.7901764821234
 30
0.0
  0
POINT
  5
88B
330
880
100
AcDbEntity
  8
DEFPOINTS
 62
     0
100
AcDbPoint
 10
166.8327198266734
 20
137.7901764821234
 30
0.0
  0
ENDBLK
  5
882
330
880
100
AcDbEntity
  8
0
100
AcDbBlockEnd
  0
BLOCK
  5
88D
330
88C
100
AcDbEntity
  8
0
100
AcDbBlockBegin
  2
*D24
 70
     1
 10
0.0
 20
0.0
 30
0.0
  3
*D24
  1
*D24
  0
LINE
  5
88F
330
88C
100
AcDbEntity
  8
WY
 62
     0
100
AcDbLine
 10
152.1368558370004
 20
131.0901763860109
 30
0.0
 11
152.1368558370004
 21
123.2593735364392
 31
0.0
  0
LINE
  5
890
330
88C
100
AcDbEntity
  8
WY
 62
     0
100
AcDbLine
 10
154.3368558250795
 20
131.0901763860109
 30
0.0
 11
154.3368558250795
 21
123.2593735364392
 31
0.0
  0
LINE
  5
891
330
88C
100
AcDbEntity
  8
WY
 62
     0
100
AcDbLine
 10
154.3368558250795
 20
124.2593735364392
 30
0.0
 11
171.3368558250795
 21
124.2593735364392
 31
0.0
  0
LINE
  5
892
330
88C
100
AcDbEntity
  8
WY
 62
     0
100
AcDbLine
 10
152.1368558370004
 20
124.2593735364392
 30
0.0
 11
154.3368558250795
 21
124.2593735364392
 31
0.0
  0
LINE
  5
893
330
88C
100
AcDbEntity
  8
WY
 62
     0
100
AcDbLine
 10
150.1368558370004
 20
124.2593735364392
 30
0.0
 11
148.1368558370004
 21
124.2593735364392
 31
0.0
  0
LINE
  5
894
330
88C
100
AcDbEntity
  8
WY
 62
     0
100
AcDbLine
 10
156.3368558250795
 20
124.2593735364392
 30
0.0
 11
158.3368558250795
 21
124.2593735364392
 31
0.0
  0
SOLID
  5
895
330
88C
100
AcDbEntity
  8
WY
 62
     0
100
AcDbTrace
 10
150.1368558370004
 20
123.9260402031058
 30
0.0
 11
150.1368558370004
 21
124.5927068697725
 31
0.0
 12
152.1368558370004
 22
124.2593735364392
 32
0.0
 13
152.1368558370004
 23
124.2593735364392
 33
0.0
  0
SOLID
  5
896
330
88C
100
AcDbEntity
  8
WY
 62
     0
100
AcDbTrace
 10
156.3368558250795
 20
124.5927068697725
 30
0.0
 11
156.3368558250795
 21
123.9260402031058
 31
0.0
 12
154.3368558250795
 22
124.2593735364392
 32
0.0
 13
154.3368558250795
 23
124.2593735364392
 33
0.0
  0
MTEXT
  5
897
330
88C
100
AcDbEntity
  8
WY
 62
     0
100
AcDbMText
 10
164.8368558250795
 20
126.4260402031058
 30
0.0
 40
2.0
 41
0.0
 71
     5
 72
     1
  1
2,2x0,5
  0
POINT
  5
898
330
88C
100
AcDbEntity
  8
DEFPOINTS
 62
     0
100
AcDbPoint
 10
152.1368558370004
 20
132.0901763860109
 30
0.0
  0
POINT
  5
899
330
88C
100
AcDbEntity
  8
DEFPOINTS
 62
     0
100
AcDbPoint
 10
154.3368558250795
 20
132.0901763860109
 30
0.0
  0
POINT
  5
89A
330
88C
100
AcDbEntity
  8
DEFPOINTS
 62
     0
100
AcDbPoint
 10
154.3368558250795
 20
124.2593735364392
 30
0.0
  0
ENDBLK
  5
88E
330
88C
100
AcDbEntity
  8
0
100
AcDbBlockEnd
  0
BLOCK
  5
89C
330
89B
100
AcDbEntity
  8
0
100
AcDbBlockBegin
  2
*D25
 70
     1
 10
0.0
 20
0.0
 30
0.0
  3
*D25
  1
*D25
  0
LINE
  5
89E
330
89B
100
AcDbEntity
  8
WY
 62
     0
100
AcDbLine
 10
89.5345888641005
 20
74.21495768982754
 30
0.0
 11
89.5345888641005
 21
68.74848598309296
 31
0.0
  0
LINE
  5
89F
330
89B
100
AcDbEntity
  8
WY
 62
     0
100
AcDbLine
 10
101.6712252657765
 20
86.79371644602467
 30
0.0
 11
107.5798193270322
 21
86.79371644602467
 31
0.0
  0
ARC
  5
8A0
330
89B
100
AcDbEntity
  8
WY
 62
     0
100
AcDbCircle
 10
89.5345888641005
 20
86.79371644602467
 30
0.0
 40
17.04523046293171
100
AcDbArc
 50
270.0
 51
353.273344344668
  0
SOLID
  5
8A1
330
89B
100
AcDbEntity
  8
WY
 62
     0
100
AcDbTrace
 10
106.7952436453618
 20
84.77760546837901
 30
0.0
 11
106.1297252570264
 21
84.81671709365837
 31
0.0
 12
106.5798193270322
 22
86.79371644602467
 32
0.0
 13
106.5798193270322
 23
86.79371644602467
 33
0.0
  0
MTEXT
  5
8A2
330
89B
100
AcDbEntity
  8
WY
 62
     0
100
AcDbMText
 10
100.1731733489539
 20
76.15513196117124
 30
0.0
 40
2.0
 41
0.0
 71
     5
 72
     1
  1
 
 11
0.7071067811865475
 21
0.7071067811865475
 31
0.0
  0
POINT
  5
8A3
330
89B
100
AcDbEntity
  8
DEFPOINTS
 62
     0
100
AcDbPoint
 10
98.05720409556636
 20
72.03211385176543
 30
0.0
  0
POINT
  5
8A4
330
89B
100
AcDbEntity
  8
DEFPOINTS
 62
     0
100
AcDbPoint
 10
86.85406515824712
 20
86.79371644602467
 30
0.0
  0
POINT
  5
8A5
330
89B
100
AcDbEntity
  8
DEFPOINTS
 62
     0
100
AcDbPoint
 10
89.5345888641005
 20
89.57869008004674
 30
0.0
  0
POINT
  5
8A6
330
89B
100
AcDbEntity
  8
DEFPOINTS
 62
     0
100
AcDbPoint
 10
89.5345888641005
 20
75.21495768982754
 30
0.0
  0
POINT
  5
8A7
330
89B
100
AcDbEntity
  8
DEFPOINTS
 62
     0
100
AcDbPoint
 10
100.6712252657765
 20
86.79371644602467
 30
0.0
  0
ENDBLK
  5
89D
330
89B
100
AcDbEntity
  8
0
100
AcDbBlockEnd
  0
BLOCK
  5
953
330
952
100
AcDbEntity
  8
0
100
AcDbBlockBegin
  2
*D26
 70
     1
 10
0.0
 20
0.0
 30
0.0
  3
*D26
  1
*D26
  0
LINE
  5
955
330
952
100
AcDbEntity
  8
WY
 62
     0
100
AcDbLine
 10
90.80204523704549
 20
222.0019270780954
 30
0.0
 11
103.5801960856581
 21
222.0019270780954
 31
0.0
  0
LINE
  5
956
330
952
100
AcDbEntity
  8
WY
 62
     0
100
AcDbLine
 10
90.80204523704549
 20
208.8019270780955
 30
0.0
 11
103.5801960856581
 21
208.8019270780955
 31
0.0
  0
LINE
  5
957
330
952
100
AcDbEntity
  8
WY
 62
     0
100
AcDbLine
 10
102.5801960856581
 20
220.0019270780954
 30
0.0
 11
102.5801960856581
 21
210.8019270780955
 31
0.0
  0
SOLID
  5
958
330
952
100
AcDbEntity
  8
WY
 62
     0
100
AcDbTrace
 10
102.9135294189914
 20
220.0019270780954
 30
0.0
 11
102.2468627523248
 21
220.0019270780954
 31
0.0
 12
102.5801960856581
 22
222.0019270780954
 32
0.0
 13
102.5801960856581
 23
222.0019270780954
 33
0.0
  0
SOLID
  5
959
330
952
100
AcDbEntity
  8
WY
 62
     0
100
AcDbTrace
 10
102.2468627523248
 20
210.8019270780955
 30
0.0
 11
102.9135294189914
 21
210.8019270780955
 31
0.0
 12
102.5801960856581
 22
208.8019270780955
 32
0.0
 13
102.5801960856581
 23
208.8019270780955
 33
0.0
  0
MTEXT
  5
95A
330
952
100
AcDbEntity
  8
WY
 62
     0
100
AcDbMText
 10
100.4135294189914
 20
215.4019270780955
 30
0.0
 40
2.0
 41
0.0
 71
     5
 72
     1
  1
13,2
 11
0.0
 21
1.0
 31
0.0
  0
POINT
  5
95B
330
952
100
AcDbEntity
  8
DEFPOINTS
 62
     0
100
AcDbPoint
 10
89.80204523704549
 20
222.0019270780954
 30
0.0
  0
POINT
  5
95C
330
952
100
AcDbEntity
  8
DEFPOINTS
 62
     0
100
AcDbPoint
 10
89.80204523704549
 20
208.8019270780955
 30
0.0
  0
POINT
  5
95D
330
952
100
AcDbEntity
  8
DEFPOINTS
 62
     0
100
AcDbPoint
 10
102.5801960856581
 20
208.8019270780955
 30
0.0
  0
ENDBLK
  5
954
330
952
100
AcDbEntity
  8
0
100
AcDbBlockEnd
  0
ENDSEC
  0
SECTION
  2
ENTITIES
  0
LINE
  5
62E
330
1F
100
AcDbEntity
  8
1
  6
CONTINUOUS
 62
     7
100
AcDbLine
 10
90.5845885465904
 20
219.0019270162556
 30
0.0
 11
67.18458918137986
 21
219.0019270162556
 31
0.0
  0
LINE
  5
62F
330
1F
100
AcDbEntity
  8
1
  6
CONTINUOUS
 62
     7
100
AcDbLine
 10
90.5845885465904
 20
218.4019271041725
 30
0.0
 11
90.5845885465904
 21
219.0019270162556
 31
0.0
  0
LINE
  5
630
330
1F
100
AcDbEntity
  8
1
  6
CONTINUOUS
 62
     7
100
AcDbLine
 10
67.18458918137986
 20
218.4019271041725
 30
0.0
 11
90.5845885465904
 21
218.4019271041725
 31
0.0
  0
LINE
  5
631
330
1F
100
AcDbEntity
  8
1
  6
CONTINUOUS
 62
     7
100
AcDbLine
 10
67.18458918137986
 20
219.0019270162556
 30
0.0
 11
67.18458918137986
 21
218.4019271041725
 31
0.0
  0
LINE
  5
632
330
1F
100
AcDbEntity
  8
1
  6
CONTINUOUS
 62
     7
100
AcDbLine
 10
90.5845885465904
 20
212.4019270520184
 30
0.0
 11
67.18458918137986
 21
212.4019270520184
 31
0.0
  0
LINE
  5
633
330
1F
100
AcDbEntity
  8
1
  6
CONTINUOUS
 62
     7
100
AcDbLine
 10
90.5845885465904
 20
211.8019271399353
 30
0.0
 11
90.5845885465904
 21
212.4019270520184
 31
0.0
  0
LINE
  5
634
330
1F
100
AcDbEntity
  8
1
  6
CONTINUOUS
 62
     7
100
AcDbLine
 10
67.18458918137986
 20
211.8019271399353
 30
0.0
 11
90.5845885465904
 21
211.8019271399353
 31
0.0
  0
LINE
  5
635
330
1F
100
AcDbEntity
  8
1
  6
CONTINUOUS
 62
     7
100
AcDbLine
 10
67.18458918137986
 20
212.4019270520184
 30
0.0
 11
67.18458918137986
 21
211.8019271399353
 31
0.0
  0
ARC
  5
680
330
1F
100
AcDbEntity
  8
1
  6
CONTINUOUS
 62
     7
100
AcDbCircle
 10
66.18458886398514
 20
205.9019270780954
 30
0.0
 40
1.0
100
AcDbArc
 50
179.9999999999984
 51
270.0
  0
ARC
  5
681
330
1F
100
AcDbEntity
  8
1
  6
CONTINUOUS
 62
     7
100
AcDbCircle
 10
66.18458886398514
 20
224.9019270780955
 30
0.0
 40
1.0
100
AcDbArc
 50
90.0
 51
180.0
  0
LINE
  5
682
330
1F
100
AcDbEntity
  8
1
  6
CONTINUOUS
 62
     7
100
AcDbLine
 10
75.8845888379081
 20
225.9019269365344
 30
0.0
 11
66.18458901746709
 21
225.9019269365344
 31
0.0
  0
LINE
  5
683
330
1F
100
AcDbEntity
  8
1
  6
CONTINUOUS
 62
     7
100
AcDbLine
 10
91.58458871050317
 20
225.9019269365344
 30
0.0
 11
81.88458889006216
 21
225.9019269365344
 31
0.0
  0
ARC
  5
684
330
1F
100
AcDbEntity
  8
1
  6
CONTINUOUS
 62
     7
100
AcDbCircle
 10
91.58458886398512
 20
224.9019270780955
 30
0.0
 40
1.0
100
AcDbArc
 50
0.0
 51
90.0
  0
LINE
  5
685
330
1F
100
AcDbEntity
  8
1
  6
CONTINUOUS
 62
     7
100
AcDbLine
 10
92.58458887441594
 20
205.9019273835693
 30
0.0
 11
92.58458887441594
 21
224.9019267726217
 31
0.0
  0
ARC
  5
686
330
1F
100
AcDbEntity
  8
1
  6
CONTINUOUS
 62
     7
100
AcDbCircle
 10
91.58458886398512
 20
205.9019270780954
 30
0.0
 40
1.0
100
AcDbArc
 50
270.0
 51
0.0000000000016284
  0
LINE
  5
687
330
1F
100
AcDbEntity
  8
1
  6
CONTINUOUS
 62
     7
100
AcDbLine
 10
81.88458889006216
 20
204.9019272196565
 30
0.0
 11
91.58458871050317
 21
204.9019272196565
 31
0.0
  0
LINE
  5
688
330
1F
100
AcDbEntity
  8
1
  6
CONTINUOUS
 62
     7
100
AcDbLine
 10
66.18458901746709
 20
204.9019272196565
 30
0.0
 11
75.8845888379081
 21
204.9019272196565
 31
0.0
  0
LINE
  5
689
330
1F
100
AcDbEntity
  8
1
  6
CONTINUOUS
 62
     7
100
AcDbLine
 10
81.88458889006216
 20
204.9019272196565
 30
0.0
 11
81.88458889006216
 21
205.8019266221199
 31
0.0
  0
LINE
  5
68A
330
1F
100
AcDbEntity
  8
1
  6
CONTINUOUS
 62
     7
100
AcDbLine
 10
75.8845888379081
 20
205.8019266221199
 30
0.0
 11
75.8845888379081
 21
204.9019272196565
 31
0.0
  0
LINE
  5
68B
330
1F
100
AcDbEntity
  8
1
  6
CONTINUOUS
 62
     7
100
AcDbLine
 10
81.88458889006216
 20
225.001927534071
 30
0.0
 11
81.88458889006216
 21
225.9019269365344
 31
0.0
  0
LINE
  5
68C
330
1F
100
AcDbEntity
  8
1
  6
CONTINUOUS
 62
     7
100
AcDbLine
 10
75.8845888379081
 20
225.9019269365344
 30
0.0
 11
75.8845888379081
 21
225.001927534071
 31
0.0
  0
LINE
  5
68D
330
1F
100
AcDbEntity
  8
1
  6
CONTINUOUS
 62
     7
100
AcDbLine
 10
75.8845888379081
 20
225.001927534071
 30
0.0
 11
81.88458889006216
 21
225.001927534071
 31
0.0
  0
LINE
  5
68E
330
1F
100
AcDbEntity
  8
1
  6
CONTINUOUS
 62
     7
100
AcDbLine
 10
81.88458889006216
 20
205.8019266221199
 30
0.0
 11
75.8845888379081
 21
205.8019266221199
 31
0.0
  0
LINE
  5
68F
330
1F
100
AcDbEntity
  8
1
  6
CONTINUOUS
 62
     7
100
AcDbLine
 10
65.18458885355432
 20
224.9019267726217
 30
0.0
 11
65.18458885355432
 21
205.9019273835693
 31
0.0
  0
ARC
  5
690
330
1F
100
AcDbEntity
  8
1
  6
CONTINUOUS
 62
     7
100
AcDbCircle
 10
92.13458886398513
 20
225.5019270780955
 30
0.0
 40
0.5
100
AcDbArc
 50
0.0
 51
90.0
  0
LINE
  5
691
330
1F
100
AcDbEntity
  8
1
  6
CONTINUOUS
 62
     7
100
AcDbLine
 10
81.88458889006216
 20
225.1519272792611
 30
0.0
 11
75.8845888379081
 21
225.1519272792611
 31
0.0
  0
LINE
  5
692
330
1F
100
AcDbEntity
  8
1
  6
CONTINUOUS
 62
     7
100
AcDbLine
 10
75.8845888379081
 20
205.6519268769298
 30
0.0
 11
81.88458889006216
 21
205.6519268769298
 31
0.0
  0
LINE
  5
693
330
1F
100
AcDbEntity
  8
1
  6
CONTINUOUS
 62
     7
100
AcDbLine
 10
92.13458870752294
 20
226.0019267666612
 30
0.0
 11
65.63458902044732
 21
226.0019267666612
 31
0.0
  0
ARC
  5
694
330
1F
100
AcDbEntity
  8
1
  6
CONTINUOUS
 62
     7
100
AcDbCircle
 10
65.63458886398513
 20
205.3019270780952
 30
0.0
 40
0.5
100
AcDbArc
 50
179.9999999999739
 51
270.0
  0
LINE
  5
695
330
1F
100
AcDbEntity
  8
1
  6
CONTINUOUS
 62
     7
100
AcDbLine
 10
65.13458893849094
 20
225.5019266847048
 30
0.0
 11
65.13458893849094
 21
205.3019274714861
 31
0.0
  0
ARC
  5
696
330
1F
100
AcDbEntity
  8
1
  6
CONTINUOUS
 62
     7
100
AcDbCircle
 10
92.13458886398513
 20
205.3019270780952
 30
0.0
 40
0.5
100
AcDbArc
 50
270.0
 51
0.0000000000260551
  0
LINE
  5
697
330
1F
100
AcDbEntity
  8
1
  6
CONTINUOUS
 62
     7
100
AcDbLine
 10
92.63458878947932
 20
205.3019274714861
 30
0.0
 11
92.63458878947932
 21
225.5019266847048
 31
0.0
  0
ARC
  5
698
330
1F
100
AcDbEntity
  8
1
  6
CONTINUOUS
 62
     7
100
AcDbCircle
 10
65.63458886398513
 20
225.5019270780952
 30
0.0
 40
0.5000000000002274
100
AcDbArc
 50
90.0
 51
179.9999999999739
  0
LINE
  5
699
330
1F
100
AcDbEntity
  8
1
  6
CONTINUOUS
 62
     7
100
AcDbLine
 10
65.63458902044732
 20
204.8019273895297
 30
0.0
 11
92.13458870752294
 21
204.8019273895297
 31
0.0
  0
LINE
  5
69A
330
1F
100
AcDbEntity
  8
1
  6
CONTINUOUS
 62
     7
100
AcDbLine
 10
77.08458889490504
 20
225.001927534071
 30
0.0
 11
77.08458889490504
 21
225.1519272792611
 31
0.0
  0
LINE
  5
69B
330
1F
100
AcDbEntity
  8
1
  6
CONTINUOUS
 62
     7
100
AcDbLine
 10
80.68458883306522
 20
225.001927534071
 30
0.0
 11
80.68458883306522
 21
225.1519272792611
 31
0.0
  0
LINE
  5
69C
330
1F
100
AcDbEntity
  8
1
  6
CONTINUOUS
 62
     7
100
AcDbLine
 10
77.08458889490504
 20
205.8019266221199
 30
0.0
 11
77.08458889490504
 21
205.6519268769298
 31
0.0
  0
LINE
  5
69D
330
1F
100
AcDbEntity
  8
1
  6
CONTINUOUS
 62
     7
100
AcDbLine
 10
80.68458883306522
 20
205.8019266221199
 30
0.0
 11
80.68458883306522
 21
205.6519268769298
 31
0.0
  0
LINE
  5
69E
330
1F
100
AcDbEntity
  8
1
  6
CONTINUOUS
 62
     7
100
AcDbLine
 10
91.03458871348352
 20
170.8901779960812
 30
0.0
 11
91.03458871348352
 21
171.1054401706876
 31
0.0
  0
LINE
  5
69F
330
1F
100
AcDbEntity
  8
1
  6
CONTINUOUS
 62
     7
100
AcDbLine
 10
88.03458915306777
 20
171.1054401706876
 30
0.0
 11
88.03458915306777
 21
170.8901779960812
 31
0.0
  0
LINE
  5
6A0
330
1F
100
AcDbEntity
  8
1
  6
CONTINUOUS
 62
     7
100
AcDbLine
 10
80.88458895898015
 20
140.7401765931369
 30
0.0
 11
76.88458876899034
 21
140.7401765931369
 31
0.0
  0
LINE
  5
6A1
330
1F
100
AcDbEntity
  8
1
  6
CONTINUOUS
 62
     7
100
AcDbLine
 10
80.88458895898015
 20
142.7401764553012
 30
0.0
 11
80.88458895898015
 21
140.7401765931369
 31
0.0
  0
LINE
  5
6A2
330
1F
100
AcDbEntity
  8
1
  6
CONTINUOUS
 62
     7
100
AcDbLine
 10
76.88458876899034
 20
142.7401764553012
 30
0.0
 11
80.88458895898015
 21
142.7401764553012
 31
0.0
  0
LINE
  5
6A3
330
1F
100
AcDbEntity
  8
1
  6
CONTINUOUS
 62
     7
100
AcDbLine
 10
76.88458876899034
 20
140.7401765931369
 30
0.0
 11
76.88458876899034
 21
142.7401764553012
 31
0.0
  0
LINE
  5
6A4
330
1F
100
AcDbEntity
  8
1
  6
CONTINUOUS
 62
     7
100
AcDbLine
 10
92.13458870752305
 20
139.2901764951618
 30
0.0
 11
65.63458902044744
 21
139.2901764951618
 31
0.0
  0
LINE
  5
6A5
330
1F
100
AcDbEntity
  8
1
  6
CONTINUOUS
 62
     7
100
AcDbLine
 10
86.53458890719861
 20
170.8901779960812
 30
0.0
 11
92.13458870752305
 21
170.8901779960812
 31
0.0
  0
LINE
  5
6A6
330
1F
100
AcDbEntity
  8
1
  6
CONTINUOUS
 62
     7
100
AcDbLine
 10
86.53458890719861
 20
172.8901783239068
 30
0.0
 11
86.53458890719861
 21
170.8901779960812
 31
0.0
  0
LINE
  5
6A7
330
1F
100
AcDbEntity
  8
1
  6
CONTINUOUS
 62
     7
100
AcDbLine
 10
65.13458893849105
 20
172.8901783239068
 30
0.0
 11
65.13458893849105
 21
139.2901764951618
 31
0.0
  0
LINE
  5
6A8
330
1F
100
AcDbEntity
  8
1
  6
CONTINUOUS
 62
     7
100
AcDbLine
 10
65.63458902044744
 20
139.2901764951618
 30
0.0
 11
65.13458893849105
 21
139.2901764951618
 31
0.0
  0
LINE
  5
6A9
330
1F
100
AcDbEntity
  8
1
  6
CONTINUOUS
 62
     7
100
AcDbLine
 10
65.63458902044744
 20
173.3901756118954
 30
0.0
 11
86.03458882524222
 21
173.3901756118954
 31
0.0
  0
ARC
  5
6AA
330
1F
100
AcDbEntity
  8
1
  6
CONTINUOUS
 62
     7
100
AcDbCircle
 10
86.03458886398522
 20
172.8901764821233
 30
0.0
 40
0.5
100
AcDbArc
 50
0.0
 51
89.99999963932571
  0
ARC
  5
6AB
330
1F
100
AcDbEntity
  8
1
  6
CONTINUOUS
 62
     7
100
AcDbCircle
 10
65.63458886398524
 20
172.8901764821233
 30
0.0
 40
0.5
100
AcDbArc
 50
89.99999998824914
 51
180.0
  0
LINE
  5
6AC
330
1F
100
AcDbEntity
  8
1
  6
CONTINUOUS
 62
     7
100
AcDbLine
 10
92.63458878947944
 20
139.2901764951618
 30
0.0
 11
92.63458878947944
 21
170.8901779960812
 31
0.0
  0
LINE
  5
6AD
330
1F
100
AcDbEntity
  8
1
  6
CONTINUOUS
 62
     7
100
AcDbLine
 10
92.63458878947944
 20
139.2901764951618
 30
0.0
 11
92.13458870752305
 21
139.2901764951618
 31
0.0
  0
LINE
  5
6AE
330
1F
100
AcDbEntity
  8
1
  6
CONTINUOUS
 62
     7
100
AcDbLine
 10
92.63458878947944
 20
170.8901779960812
 30
0.0
 11
92.13458870752305
 21
170.8901779960812
 31
0.0
  0
LINE
  5
6AF
330
1F
100
AcDbEntity
  8
1
  6
CONTINUOUS
 62
     7
100
AcDbLine
 10
65.18458885355443
 20
139.2901764951618
 30
0.0
 11
65.18458885355443
 21
137.7901764821233
 31
0.0
  0
LINE
  5
6B0
330
1F
100
AcDbEntity
  8
1
  6
CONTINUOUS
 62
     7
100
AcDbLine
 10
66.1845890174672
 20
137.7901764821233
 30
0.0
 11
65.18458885355443
 21
137.7901764821233
 31
0.0
  0
LINE
  5
6B1
330
1F
100
AcDbEntity
  8
1
  6
CONTINUOUS
 62
     7
100
AcDbLine
 10
81.88458889006228
 20
139.2901764951618
 30
0.0
 11
81.88458889006228
 21
137.7901764821233
 31
0.0
  0
LINE
  5
6B2
330
1F
100
AcDbEntity
  8
1
  6
CONTINUOUS
 62
     7
100
AcDbLine
 10
91.58458871050328
 20
137.7901764821233
 30
0.0
 11
81.88458889006228
 21
137.7901764821233
 31
0.0
  0
LINE
  5
6B3
330
1F
100
AcDbEntity
  8
1
  6
CONTINUOUS
 62
     7
100
AcDbLine
 10
92.58458887441606
 20
139.2901764951618
 30
0.0
 11
92.58458887441606
 21
137.7901764821233
 31
0.0
  0
LINE
  5
6B4
330
1F
100
AcDbEntity
  8
1
  6
CONTINUOUS
 62
     7
100
AcDbLine
 10
92.58458887441606
 20
137.7901764821233
 30
0.0
 11
91.58458871050328
 21
137.7901764821233
 31
0.0
  0
LINE
  5
6B5
330
1F
100
AcDbEntity
  8
1
  6
CONTINUOUS
 62
     7
100
AcDbLine
 10
75.88458883790821
 20
139.2901764951618
 30
0.0
 11
75.88458883790821
 21
137.7901764821233
 31
0.0
  0
LINE
  5
6B6
330
1F
100
AcDbEntity
  8
1
  6
CONTINUOUS
 62
     7
100
AcDbLine
 10
75.88458883790821
 20
137.7901764821233
 30
0.0
 11
66.1845890174672
 21
137.7901764821233
 31
0.0
  0
LINE
  5
6B7
330
1F
100
AcDbEntity
  8
1
  6
CONTINUOUS
 62
     7
100
AcDbLine
 10
77.08458889490515
 20
141.9027498226584
 30
0.0
 11
80.68458883306533
 21
141.9027498226584
 31
0.0
  0
LINE
  5
6B8
330
1F
100
AcDbEntity
  8
1
  6
CONTINUOUS
 62
     7
100
AcDbLine
 10
80.68458883306533
 20
140.8901765711577
 30
0.0
 11
80.68458883306533
 21
141.9027498226584
 31
0.0
  0
LINE
  5
6B9
330
1F
100
AcDbEntity
  8
1
  6
CONTINUOUS
 62
     7
100
AcDbLine
 10
77.08458889490515
 20
140.8901765711577
 30
0.0
 11
80.68458883306533
 21
140.8901765711577
 31
0.0
  0
LINE
  5
6BA
330
1F
100
AcDbEntity
  8
1
  6
CONTINUOUS
 62
     7
100
AcDbLine
 10
77.08458889490515
 20
140.8901765711577
 30
0.0
 11
77.08458889490515
 21
141.9027498226584
 31
0.0
  0
LINE
  5
6BB
330
1F
100
AcDbEntity
  8
1
  6
CONTINUOUS
 62
     7
100
AcDbLine
 10
77.08458889490515
 20
142.6901765402378
 30
0.0
 11
80.68458883306533
 21
142.6901765402378
 31
0.0
  0
LINE
  5
6BC
330
1F
100
AcDbEntity
  8
1
  6
CONTINUOUS
 62
     7
100
AcDbLine
 10
80.68458883306533
 20
141.9027498226584
 30
0.0
 11
80.68458883306533
 21
142.6901765402378
 31
0.0
  0
LINE
  5
6BD
330
1F
100
AcDbEntity
  8
1
  6
CONTINUOUS
 62
     7
100
AcDbLine
 10
77.08458889490515
 20
141.9027498226584
 30
0.0
 11
77.08458889490515
 21
142.6901765402378
 31
0.0
  0
LINE
  5
6BE
330
1F
100
AcDbEntity
  8
1
  6
CONTINUOUS
 62
     7
100
AcDbLine
 10
89.03458931698054
 20
172.7411071073235
 30
0.0
 11
90.03458854957074
 21
172.7411071073235
 31
0.0
  0
LINE
  5
6BF
330
1F
100
AcDbEntity
  8
1
  6
CONTINUOUS
 62
     7
100
AcDbLine
 10
90.03458854957074
 20
172.1514756094636
 30
0.0
 11
90.03458854957074
 21
172.7411071073235
 31
0.0
  0
LINE
  5
6C0
330
1F
100
AcDbEntity
  8
1
  6
CONTINUOUS
 62
     7
100
AcDbLine
 10
89.03458931698054
 20
172.1514756094636
 30
0.0
 11
89.03458931698054
 21
172.7411071073235
 31
0.0
  0
LINE
  5
6C1
330
1F
100
AcDbEntity
  8
1
  6
CONTINUOUS
 62
     7
100
AcDbLine
 10
88.03458915306777
 20
171.1054401706876
 30
0.0
 11
91.03458871348352
 21
171.1054401706876
 31
0.0
  0
LINE
  5
6C2
330
1F
100
AcDbEntity
  8
1
  6
CONTINUOUS
 62
     7
100
AcDbLine
 10
89.03458931698054
 20
172.0733041178406
 30
0.0
 11
88.03458915306777
 21
172.0733041178406
 31
0.0
  0
LINE
  5
6C3
330
1F
100
AcDbEntity
  8
1
  6
CONTINUOUS
 62
     7
100
AcDbLine
 10
91.03458871348352
 20
172.0733041178406
 30
0.0
 11
90.03458854957074
 21
172.0733041178406
 31
0.0
  0
LINE
  5
6C4
330
1F
100
AcDbEntity
  8
1
  6
CONTINUOUS
 62
     7
100
AcDbLine
 10
90.03458854957074
 20
172.1514756094636
 30
0.0
 11
90.03458854957074
 21
172.0733041178406
 31
0.0
  0
LINE
  5
6C5
330
1F
100
AcDbEntity
  8
1
  6
CONTINUOUS
 62
     7
100
AcDbLine
 10
89.03458931698054
 20
172.0733041178406
 30
0.0
 11
89.03458931698054
 21
172.1514756094636
 31
0.0
  0
ARC
  5
6C6
330
1F
100
AcDbEntity
  8
1
  6
CONTINUOUS
 62
     7
100
AcDbCircle
 10
87.91361290192043
 20
172.8378453725445
 30
0.0
 40
0.7740533466666565
100
AcDbArc
 50
240.6816894073056
 51
278.9915787349316
  0
LINE
  5
6C7
330
1F
100
AcDbEntity
  8
1
  6
CONTINUOUS
 62
     7
100
AcDbLine
 10
87.53458907111138
 20
173.3901756118954
 30
0.0
 11
87.53458907111138
 21
172.1629383277119
 31
0.0
  0
LINE
  5
6C8
330
1F
100
AcDbEntity
  8
1
  6
CONTINUOUS
 62
     7
100
AcDbLine
 10
87.53458907111138
 20
173.3901756118954
 30
0.0
 11
91.5345887954399
 21
173.3901756118954
 31
0.0
  0
LINE
  5
6C9
330
1F
100
AcDbEntity
  8
1
  6
CONTINUOUS
 62
     7
100
AcDbLine
 10
91.5345887954399
 20
172.1629383277119
 30
0.0
 11
91.5345887954399
 21
173.3901756118954
 31
0.0
  0
ARC
  5
6CA
330
1F
100
AcDbEntity
  8
1
  6
CONTINUOUS
 62
     7
100
AcDbCircle
 10
91.1555649646308
 20
172.8378453725445
 30
0.0
 40
0.7740533466666565
100
AcDbArc
 50
261.0084212650726
 51
299.318310592698
  0
ARC
  5
6CB
330
1F
100
AcDbEntity
  8
1
  6
CONTINUOUS
 62
     7
100
AcDbCircle
 10
91.15556939118613
 20
171.8699567330554
 30
0.0
 40
0.774029649633747
100
AcDbArc
 50
261.0078119613747
 51
299.3189198963959
  0
LINE
  5
6CC
330
1F
100
AcDbEntity
  8
1
  6
CONTINUOUS
 62
     7
100
AcDbLine
 10
91.5345887954399
 20
171.1950743805589
 30
0.0
 11
91.5345887954399
 21
172.1629383277119
 31
0.0
  0
ARC
  5
6CD
330
1F
100
AcDbEntity
  8
1
  6
CONTINUOUS
 62
     7
100
AcDbCircle
 10
87.9136084753651
 20
171.8699567330554
 30
0.0
 40
0.7740296496337479
100
AcDbArc
 50
240.6810801036078
 51
278.9921880386294
  0
LINE
  5
6CE
330
1F
100
AcDbEntity
  8
1
  6
CONTINUOUS
 62
     7
100
AcDbLine
 10
87.53458907111138
 20
172.1629383277119
 30
0.0
 11
87.53458907111138
 21
171.1950743805589
 31
0.0
  0
LINE
  5
6CF
330
1F
100
AcDbEntity
  8
1
  6
CONTINUOUS
 62
     7
100
AcDbLine
 10
75.88458883790821
 20
137.7901764821233
 30
0.0
 11
81.88458889006228
 21
137.7901764821233
 31
0.0
  0
LINE
  5
6D0
330
1F
100
AcDbEntity
  8
1
  6
CONTINUOUS
 62
     7
100
AcDbLine
 10
71.58458869187683
 20
131.2901763480128
 30
0.0
 11
71.08458907558173
 21
131.2901763480128
 31
0.0
  0
LINE
  5
6D1
330
1F
100
AcDbEntity
  8
1
  6
CONTINUOUS
 62
     7
100
AcDbLine
 10
71.08458907558173
 20
132.0901763860108
 30
0.0
 11
71.08458907558173
 21
131.2901763480128
 31
0.0
  0
LINE
  5
6D2
330
1F
100
AcDbEntity
  8
1
  6
CONTINUOUS
 62
     7
100
AcDbLine
 10
71.08458907558173
 20
132.0901763860108
 30
0.0
 11
71.58458869187683
 21
132.0901763860108
 31
0.0
  0
LINE
  5
6D3
330
1F
100
AcDbEntity
  8
1
  6
CONTINUOUS
 62
     7
100
AcDbLine
 10
71.58458869187683
 20
131.2901763480128
 30
0.0
 11
71.58458869187683
 21
132.0901763860108
 31
0.0
  0
LINE
  5
6D4
330
1F
100
AcDbEntity
  8
1
  6
CONTINUOUS
 62
     7
100
AcDbLine
 10
71.08458907558173
 20
137.7901764821233
 30
0.0
 11
71.08458907558173
 21
132.0901763860108
 31
0.0
  0
LINE
  5
6D5
330
1F
100
AcDbEntity
  8
1
  6
CONTINUOUS
 62
     7
100
AcDbLine
 10
71.58458869187683
 20
132.0901763860108
 30
0.0
 11
71.58458869187683
 21
137.7901764821233
 31
0.0
  0
LINE
  5
6D6
330
1F
100
AcDbEntity
  8
1
  6
CONTINUOUS
 62
     7
100
AcDbLine
 10
77.38458885094673
 20
137.7901764821233
 30
0.0
 11
77.38458885094673
 21
132.0901763860108
 31
0.0
  0
LINE
  5
6D7
330
1F
100
AcDbEntity
  8
1
  6
CONTINUOUS
 62
     7
100
AcDbLine
 10
77.88458881648779
 20
132.0901763860108
 30
0.0
 11
77.88458881648779
 21
137.7901764821233
 31
0.0
  0
LINE
  5
6D8
330
1F
100
AcDbEntity
  8
1
  6
CONTINUOUS
 62
     7
100
AcDbLine
 10
77.88458881648779
 20
132.0901763860108
 30
0.0
 11
77.38458885094673
 21
132.0901763860108
 31
0.0
  0
LINE
  5
6D9
330
1F
100
AcDbEntity
  8
1
  6
CONTINUOUS
 62
     7
100
AcDbLine
 10
88.28458872838468
 20
131.2901763480128
 30
0.0
 11
87.78458864642829
 21
131.2901763480128
 31
0.0
  0
LINE
  5
6DA
330
1F
100
AcDbEntity
  8
1
  6
CONTINUOUS
 62
     7
100
AcDbLine
 10
87.78458864642829
 20
132.0901763860108
 30
0.0
 11
88.28458872838468
 21
132.0901763860108
 31
0.0
  0
LINE
  5
6DB
330
1F
100
AcDbEntity
  8
1
  6
CONTINUOUS
 62
     7
100
AcDbLine
 10
88.28458872838468
 20
131.2901763480128
 30
0.0
 11
88.28458872838468
 21
132.0901763860108
 31
0.0
  0
LINE
  5
6DC
330
1F
100
AcDbEntity
  8
1
  6
CONTINUOUS
 62
     7
100
AcDbLine
 10
87.78458864642829
 20
132.0901763860108
 30
0.0
 11
87.78458864642829
 21
131.2901763480128
 31
0.0
  0
LINE
  5
6DD
330
1F
100
AcDbEntity
  8
1
  6
CONTINUOUS
 62
     7
100
AcDbLine
 10
84.18458870826811
 20
131.2901763480128
 30
0.0
 11
83.68458909197301
 21
131.2901763480128
 31
0.0
  0
LINE
  5
6DE
330
1F
100
AcDbEntity
  8
1
  6
CONTINUOUS
 62
     7
100
AcDbLine
 10
83.68458909197301
 20
132.0901763860108
 30
0.0
 11
83.68458909197301
 21
131.2901763480128
 31
0.0
  0
LINE
  5
6DF
330
1F
100
AcDbEntity
  8
1
  6
CONTINUOUS
 62
     7
100
AcDbLine
 10
83.68458909197301
 20
132.0901763860108
 30
0.0
 11
84.18458870826811
 21
132.0901763860108
 31
0.0
  0
LINE
  5
6E0
330
1F
100
AcDbEntity
  8
1
  6
CONTINUOUS
 62
     7
100
AcDbLine
 10
84.18458870826811
 20
131.2901763480128
 30
0.0
 11
84.18458870826811
 21
132.0901763860108
 31
0.0
  0
LINE
  5
6E1
330
1F
100
AcDbEntity
  8
1
  6
CONTINUOUS
 62
     7
100
AcDbLine
 10
77.88458881648779
 20
131.2901763480128
 30
0.0
 11
77.38458885094673
 21
131.2901763480128
 31
0.0
  0
LINE
  5
6E2
330
1F
100
AcDbEntity
  8
1
  6
CONTINUOUS
 62
     7
100
AcDbLine
 10
77.38458885094673
 20
132.0901763860108
 30
0.0
 11
77.38458885094673
 21
131.2901763480128
 31
0.0
  0
LINE
  5
6E3
330
1F
100
AcDbEntity
  8
1
  6
CONTINUOUS
 62
     7
100
AcDbLine
 10
77.88458881648779
 20
131.2901763480128
 30
0.0
 11
77.88458881648779
 21
132.0901763860108
 31
0.0
  0
LINE
  5
6E4
330
1F
100
AcDbEntity
  8
1
  6
CONTINUOUS
 62
     7
100
AcDbLine
 10
83.68458909197301
 20
137.7901764821233
 30
0.0
 11
83.68458909197301
 21
132.0901763860108
 31
0.0
  0
LINE
  5
6E5
330
1F
100
AcDbEntity
  8
1
  6
CONTINUOUS
 62
     7
100
AcDbLine
 10
84.18458870826811
 20
132.0901763860108
 30
0.0
 11
84.18458870826811
 21
137.7901764821233
 31
0.0
  0
LINE
  5
6E6
330
1F
100
AcDbEntity
  8
1
  6
CONTINUOUS
 62
     7
100
AcDbLine
 10
88.28458872838468
 20
132.0901763860108
 30
0.0
 11
88.28458872838468
 21
137.7901764821233
 31
0.0
  0
LINE
  5
6E7
330
1F
100
AcDbEntity
  8
1
  6
CONTINUOUS
 62
     7
100
AcDbLine
 10
87.78458864642829
 20
137.7901764821233
 30
0.0
 11
87.78458864642829
 21
132.0901763860108
 31
0.0
  0
LINE
  5
6E8
330
1F
100
AcDbEntity
  8
1
  6
CONTINUOUS
 62
     7
100
AcDbLine
 10
73.54958898602575
 20
137.490176467874
 30
0.0
 11
73.54958898602575
 21
137.7901764821233
 31
0.0
  0
LINE
  5
6E9
330
1F
100
AcDbEntity
  8
1
  6
CONTINUOUS
 62
     7
100
AcDbLine
 10
73.37230521468967
 20
137.490176467874
 30
0.0
 11
73.54958898602575
 21
137.490176467874
 31
0.0
  0
LINE
  5
6EA
330
1F
100
AcDbEntity
  8
1
  6
CONTINUOUS
 62
     7
100
AcDbLine
 10
73.37230521468967
 20
137.490176467874
 30
0.0
 11
73.37230521468967
 21
137.7901764821233
 31
0.0
  0
LINE
  5
6EB
330
1F
100
AcDbEntity
  8
1
  6
CONTINUOUS
 62
     7
100
AcDbLine
 10
73.9245888146624
 20
137.490176467874
 30
0.0
 11
73.9245888146624
 21
137.7901764821233
 31
0.0
  0
SPLINE
  5
6EC
330
1F
100
AcDbEntity
  8
1
  6
CONTINUOUS
 62
     7
100
AcDbSpline
210
0.0
220
0.0
230
1.0
 70
    24
 71
     3
 72
    15
 73
    11
 74
     0
 42
0.000000001
 43
0.00000001
 40
0.0
 40
0.0
 40
0.0
 40
0.0
 40
0.1426572507006141
 40
0.281168993905443
 40
0.4169771923679744
 40
0.550852492747558
 40
0.6783641702618126
 40
0.7950324430070954
 40
0.9019981783473525
 40
1.0
 40
1.0
 40
1.0
 40
1.0
 10
73.54958886711023
 20
137.4901764821233
 30
0.0
 10
73.56196467489417
 20
137.4901764821233
 30
0.0
 10
73.58635665922219
 20
137.4901764821233
 30
0.0
 10
73.62848496932565
 20
137.4901764821233
 30
0.0
 10
73.67415379172127
 20
137.4901764821233
 30
0.0
 10
73.72335301531962
 20
137.4901764821233
 30
0.0
 10
73.7736434536921
 20
137.4901764821233
 30
0.0
 10
73.82438848139196
 20
137.4901764821233
 30
0.0
 10
73.87372800490851
 20
137.4901764821233
 30
0.0
 10
73.90813685084089
 20
137.4901764821233
 30
0.0
 10
73.92458886711023
 20
137.4901764821233
 30
0.0
  0
LINE
  5
6ED
330
1F
100
AcDbEntity
  8
1
  6
CONTINUOUS
 62
     7
100
AcDbLine
 10
72.42458903445453
 20
137.490176467874
 30
0.0
 11
72.42458903445453
 21
137.7901764821233
 31
0.0
  0
LINE
  5
6EE
330
1F
100
AcDbEntity
  8
1
  6
CONTINUOUS
 62
     7
100
AcDbLine
 10
72.42458903445453
 20
137.490176467874
 30
0.0
 11
73.37230521468967
 21
137.490176467874
 31
0.0
  0
LINE
  5
6EF
330
1F
100
AcDbEntity
  8
1
  6
CONTINUOUS
 62
     7
100
AcDbLine
 10
79.72669224935174
 20
137.490176467874
 30
0.0
 11
79.72669224935174
 21
137.7901764821233
 31
0.0
  0
SPLINE
  5
6F0
330
1F
100
AcDbEntity
  8
1
  6
CONTINUOUS
 62
     7
100
AcDbSpline
210
0.0
220
0.0
230
1.0
 70
    24
 71
     3
 72
    23
 73
    19
 74
     0
 42
0.000000001
 43
0.00000001
 40
0.0
 40
0.0
 40
0.0
 40
0.0
 40
0.0609753707416263
 40
0.1200311895024042
 40
0.1777020019136865
 40
0.2348773214864141
 40
0.2923380336586185
 40
0.3505390012738346
 40
0.4098902295696114
 40
0.4718381872386221
 40
0.5345982915562483
 40
0.5968447075410368
 40
0.6593700692027111
 40
0.7229716304100651
 40
0.7883008558381371
 40
0.8559593229503921
 40
0.926537130409339
 40
0.9999999999999999
 40
0.9999999999999999
 40
0.9999999999999999
 40
0.9999999999999999
 10
79.24381963571602
 20
137.4901764821233
 30
0.0
 10
79.24419909938791
 20
137.4901764821233
 30
0.0
 10
79.24494608092095
 20
137.4901764821233
 30
0.0
 10
79.25158792576576
 20
137.4901764821233
 30
0.0
 10
79.26154156320717
 20
137.4901764821233
 30
0.0
 10
79.27663692036646
 20
137.4901764821233
 30
0.0
 10
79.29517942020874
 20
137.4901764821233
 30
0.0
 10
79.31826412271556
 20
137.4901764821233
 30
0.0
 10
79.34522318708338
 20
137.4901764821233
 30
0.0
 10
79.3763462666376
 20
137.4901764821233
 30
0.0
 10
79.41053000224275
 20
137.4901764821233
 30
0.0
 10
79.4481730709781
 20
137.4901764821233
 30
0.0
 10
79.48798660973887
 20
137.4901764821233
 30
0.0
 10
79.53062194390947
 20
137.4901764821233
 30
0.0
 10
79.5759109354583
 20
137.4901764821233
 30
0.0
 10
79.62392386913996
 20
137.4901764821233
 30
0.0
 10
79.67444036532083
 20
137.4901764821233
 30
0.0
 10
79.70904391248632
 20
137.4901764821233
 30
0.0
 10
79.72669223186983
 20
137.4901764821233
 30
0.0
  0
LINE
  5
6F1
330
1F
100
AcDbEntity
  8
1
  6
CONTINUOUS
 62
     7
100
AcDbLine
 10
79.24381962609999
 20
137.490176467874
 30
0.0
 11
79.24381962609999
 21
137.7901764821233
 31
0.0
  0
LINE
  5
6F2
330
1F
100
AcDbEntity
  8
1
  6
CONTINUOUS
 62
     7
100
AcDbLine
 10
85.4284351992473
 20
137.490176467874
 30
0.0
 11
85.4284351992473
 21
137.7901764821233
 31
0.0
  0
LINE
  5
6F3
330
1F
100
AcDbEntity
  8
1
  6
CONTINUOUS
 62
     7
100
AcDbLine
 10
85.00535817100257
 20
137.490176467874
 30
0.0
 11
85.00535817100257
 21
137.7901764821233
 31
0.0
  0
SPLINE
  5
6F4
330
1F
100
AcDbEntity
  8
1
  6
CONTINUOUS
 62
     7
100
AcDbSpline
210
0.0
220
0.0
230
1.0
 70
    24
 71
     3
 72
    23
 73
    19
 74
     0
 42
0.000000001
 43
0.00000001
 40
0.0
 40
0.0
 40
0.0
 40
0.0
 40
0.0693090282251997
 40
0.1355823716314865
 40
0.1997026640843807
 40
0.2617577999381232
 40
0.3227131697758966
 40
0.3829677307200957
 40
0.4427458782340106
 40
0.503224235158293
 40
0.5637591760962208
 40
0.6237551854227408
 40
0.6834140228899437
 40
0.7438433995616675
 40
0.8050351253690199
 40
0.8676277251230722
 40
0.932767409158885
 40
1.0
 40
1.0
 40
1.0
 40
1.0
 10
85.0053580966295
 20
137.4901764821233
 30
0.0
 10
85.00568556264545
 20
137.4901764821233
 30
0.0
 10
85.006326151905
 20
137.4901764821233
 30
0.0
 10
85.01189434258958
 20
137.4901764821233
 30
0.0
 10
85.0207754983769
 20
137.4901764821233
 30
0.0
 10
85.03350738034607
 20
137.4901764821233
 30
0.0
 10
85.0496178144839
 20
137.4901764821233
 30
0.0
 10
85.0699609357581
 20
137.4901764821233
 30
0.0
 10
85.09352049976752
 20
137.4901764821233
 30
0.0
 10
85.12058957822495
 20
137.4901764821233
 30
0.0
 10
85.15045858371946
 20
137.4901764821233
 30
0.0
 10
85.1834150560353
 20
137.4901764821233
 30
0.0
 10
85.21854890292667
 20
137.4901764821233
 30
0.0
 10
85.25575628858832
 20
137.4901764821233
 30
0.0
 10
85.29576986536921
 20
137.4901764821233
 30
0.0
 10
85.337786763655
 20
137.4901764821233
 30
0.0
 10
85.38222175146666
 20
137.4901764821233
 30
0.0
 10
85.41286907774492
 20
137.4901764821233
 30
0.0
 10
85.4284350197064
 20
137.4901764821233
 30
0.0
  0
LINE
  5
6F5
330
1F
100
AcDbEntity
  8
1
  6
CONTINUOUS
 62
     7
100
AcDbLine
 10
80.22458882285804
 20
137.490176467874
 30
0.0
 11
80.22458882285804
 21
137.7901764821233
 31
0.0
  0
SPLINE
  5
6F6
330
1F
100
AcDbEntity
  8
1
  6
CONTINUOUS
 62
     7
100
AcDbSpline
210
0.0
220
0.0
230
1.0
 70
    24
 71
     3
 72
    23
 73
    19
 74
     0
 42
0.000000001
 43
0.00000001
 40
0.0
 40
0.0
 40
0.0
 40
0.0
 40
0.0719908334539412
 40
0.1408265555703651
 40
0.2070278897882308
 40
0.2707864458835811
 40
0.3334824908940914
 40
0.3948703491262079
 40
0.4564919022058552
 40
0.5181426048551393
 40
0.5793673666586296
 40
0.6393756041323848
 40
0.6979490797775452
 40
0.7562887015661571
 40
0.8150485901988535
 40
0.8748690814557827
 40
0.9363027325433422
 40
1.0
 40
1.0
 40
1.0
 40
1.0
 10
79.72669223186983
 20
137.4901764821233
 30
0.0
 10
79.74493796546506
 20
137.4901764821233
 30
0.0
 10
79.7806297847257
 20
137.4901764821233
 30
0.0
 10
79.83282042619118
 20
137.4901764821233
 30
0.0
 10
79.88224663176493
 20
137.4901764821233
 30
0.0
 10
79.92893391931523
 20
137.4901764821233
 30
0.0
 10
79.97284426581444
 20
137.4901764821233
 30
0.0
 10
80.01412071206357
 20
137.4901764821233
 30
0.0
 10
80.05264886393115
 20
137.4901764821233
 30
0.0
 10
80.08796929624992
 20
137.4901764821233
 30
0.0
 10
80.12013580363538
 20
137.4901764821233
 30
0.0
 10
80.14810502966685
 20
137.4901764821233
 30
0.0
 10
80.17176615767426
 20
137.4901764821233
 30
0.0
 10
80.19110491036759
 20
137.4901764821233
 30
0.0
 10
80.20617036307874
 20
137.4901764821233
 30
0.0
 10
80.21703589190952
 20
137.4901764821233
 30
0.0
 10
80.2234170387311
 20
137.4901764821233
 30
0.0
 10
80.22419357472586
 20
137.4901764821233
 30
0.0
 10
80.22458886648519
 20
137.4901764821233
 30
0.0
  0
LINE
  5
6F7
330
1F
100
AcDbEntity
  8
1
  6
CONTINUOUS
 62
     7
100
AcDbLine
 10
85.44766561342925
 20
137.490176467874
 30
0.0
 11
85.44766561342925
 21
137.7901764821233
 31
0.0
  0
LINE
  5
6F8
330
1F
100
AcDbEntity
  8
1
  6
CONTINUOUS
 62
     7
100
AcDbLine
 10
85.4284351992473
 20
137.490176467874
 30
0.0
 11
85.44766561342925
 21
137.490176467874
 31
0.0
  0
LINE
  5
6F9
330
1F
100
AcDbEntity
  8
1
  6
CONTINUOUS
 62
     7
100
AcDbLine
 10
79.10920425300077
 20
137.490176467874
 30
0.0
 11
79.10920425300077
 21
137.7901764821233
 31
0.0
  0
LINE
  5
6FA
330
1F
100
AcDbEntity
  8
1
  6
CONTINUOUS
 62
     7
100
AcDbLine
 10
79.08997347502094
 20
137.490176467874
 30
0.0
 11
79.08997347502094
 21
137.7901764821233
 31
0.0
  0
LINE
  5
6FB
330
1F
100
AcDbEntity
  8
1
  6
CONTINUOUS
 62
     7
100
AcDbLine
 10
79.08997347502094
 20
137.490176467874
 30
0.0
 11
79.10920425300077
 21
137.490176467874
 31
0.0
  0
LINE
  5
6FC
330
1F
100
AcDbEntity
  8
1
  6
CONTINUOUS
 62
     7
100
AcDbLine
 10
86.50535795121044
 20
137.490176467874
 30
0.0
 11
86.50535795121044
 21
137.7901764821233
 31
0.0
  0
LINE
  5
6FD
330
1F
100
AcDbEntity
  8
1
  6
CONTINUOUS
 62
     7
100
AcDbLine
 10
85.73612741409391
 20
137.490176467874
 30
0.0
 11
85.73612741409391
 21
137.7901764821233
 31
0.0
  0
LINE
  5
6FE
330
1F
100
AcDbEntity
  8
1
  6
CONTINUOUS
 62
     7
100
AcDbLine
 10
85.73612741409391
 20
137.490176467874
 30
0.0
 11
86.50535795121044
 21
137.490176467874
 31
0.0
  0
LINE
  5
6FF
330
1F
100
AcDbEntity
  8
1
  6
CONTINUOUS
 62
     7
100
AcDbLine
 10
78.70535809004735
 20
137.490176467874
 30
0.0
 11
78.70535809004735
 21
137.7901764821233
 31
0.0
  0
SPLINE
  5
700
330
1F
100
AcDbEntity
  8
1
  6
CONTINUOUS
 62
     7
100
AcDbSpline
210
0.0
220
0.0
230
1.0
 70
    24
 71
     3
 72
    23
 73
    19
 74
     0
 42
0.000000001
 43
0.00000001
 40
0.0
 40
0.0
 40
0.0
 40
0.0
 40
0.0676309140234769
 40
0.1323201583402377
 40
0.1944603395573178
 40
0.2551128697920794
 40
0.3142208976417898
 40
0.3729838828544944
 40
0.4313486299583535
 40
0.4902073379211459
 40
0.5495249143209555
 40
0.6088908919041364
 40
0.6691176250109667
 40
0.7306483918904932
 40
0.7940333306929453
 40
0.8598319463824375
 40
0.9282045478040603
 40
0.9999999999999999
 40
0.9999999999999999
 40
0.9999999999999999
 40
0.9999999999999999
 10
78.70535809725448
 20
137.4901764821233
 30
0.0
 10
78.70560293686151
 20
137.4901764821233
 30
0.0
 10
78.70608196654848
 20
137.4901764821233
 30
0.0
 10
78.71110574912291
 20
137.4901764821233
 30
0.0
 10
78.71877096799574
 20
137.4901764821233
 30
0.0
 10
78.72996154277956
 20
137.4901764821233
 30
0.0
 10
78.74409389371266
 20
137.4901764821233
 30
0.0
 10
78.76161182684194
 20
137.4901764821233
 30
0.0
 10
78.7820750604526
 20
137.4901764821233
 30
0.0
 10
78.80602936847094
 20
137.4901764821233
 30
0.0
 10
78.83225457189491
 20
137.4901764821233
 30
0.0
 10
78.86178685349603
 20
137.4901764821233
 30
0.0
 10
78.89330586435796
 20
137.4901764821233
 30
0.0
 10
78.9278866108973
 20
137.4901764821233
 30
0.0
 10
78.96460027843654
 20
137.4901764821233
 30
0.0
 10
79.0041358146537
 20
137.4901764821233
 30
0.0
 10
79.0460872549229
 20
137.4901764821233
 30
0.0
 10
79.07510851020061
 20
137.4901764821233
 30
0.0
 10
79.08997348186983
 20
137.4901764821233
 30
0.0
  0
LINE
  5
701
330
1F
100
AcDbEntity
  8
1
  6
CONTINUOUS
 62
     7
100
AcDbLine
 10
85.71689653425068
 20
137.490176467874
 30
0.0
 11
85.71689653425068
 21
137.7901764821233
 31
0.0
  0
LINE
  5
702
330
1F
100
AcDbEntity
  8
1
  6
CONTINUOUS
 62
     7
100
AcDbLine
 10
85.71689653425068
 20
137.490176467874
 30
0.0
 11
85.73612741409391
 21
137.490176467874
 31
0.0
  0
LINE
  5
703
330
1F
100
AcDbEntity
  8
1
  6
CONTINUOUS
 62
     7
100
AcDbLine
 10
90.2495890225336
 20
137.490176467874
 30
0.0
 11
90.2495890225336
 21
137.7901764821233
 31
0.0
  0
LINE
  5
704
330
1F
100
AcDbEntity
  8
1
  6
CONTINUOUS
 62
     7
100
AcDbLine
 10
90.07230525119752
 20
137.490176467874
 30
0.0
 11
90.07230525119752
 21
137.7901764821233
 31
0.0
  0
LINE
  5
705
330
1F
100
AcDbEntity
  8
1
  6
CONTINUOUS
 62
     7
100
AcDbLine
 10
90.07230525119752
 20
137.490176467874
 30
0.0
 11
90.2495890225336
 21
137.490176467874
 31
0.0
  0
LINE
  5
706
330
1F
100
AcDbEntity
  8
1
  6
CONTINUOUS
 62
     7
100
AcDbLine
 10
90.62458885117024
 20
137.490176467874
 30
0.0
 11
90.62458885117024
 21
137.7901764821233
 31
0.0
  0
SPLINE
  5
707
330
1F
100
AcDbEntity
  8
1
  6
CONTINUOUS
 62
     7
100
AcDbSpline
210
0.0
220
0.0
230
1.0
 70
    24
 71
     3
 72
    15
 73
    11
 74
     0
 42
0.000000001
 43
0.00000001
 40
0.0
 40
0.0
 40
0.0
 40
0.0
 40
0.142657250700614
 40
0.2811689939054435
 40
0.4169771923679739
 40
0.5508524927475593
 40
0.6783641702618116
 40
0.7950324430070955
 40
0.9019981783473513
 40
1.0
 40
1.0
 40
1.0
 40
1.0
 10
90.24958886523524
 20
137.4901764821233
 30
0.0
 10
90.26196467301918
 20
137.4901764821233
 30
0.0
 10
90.2863566573472
 20
137.4901764821233
 30
0.0
 10
90.32848496745066
 20
137.4901764821233
 30
0.0
 10
90.37415378984622
 20
137.4901764821233
 30
0.0
 10
90.42335301344463
 20
137.4901764821233
 30
0.0
 10
90.47364345181711
 20
137.4901764821233
 30
0.0
 10
90.52438847951697
 20
137.4901764821233
 30
0.0
 10
90.57372800303352
 20
137.4901764821233
 30
0.0
 10
90.6081368489659
 20
137.4901764821233
 30
0.0
 10
90.62458886523524
 20
137.4901764821233
 30
0.0
  0
LINE
  5
708
330
1F
100
AcDbEntity
  8
1
  6
CONTINUOUS
 62
     7
100
AcDbLine
 10
79.13650035723634
 20
137.490176467874
 30
0.0
 11
79.24381962609999
 21
137.490176467874
 31
0.0
  0
LINE
  5
709
330
1F
100
AcDbEntity
  8
1
  6
CONTINUOUS
 62
     7
100
AcDbLine
 10
85.5275935794279
 20
137.490176467874
 30
0.0
 11
85.5275935794279
 21
137.7901764821233
 31
0.0
  0
LINE
  5
70A
330
1F
100
AcDbEntity
  8
1
  6
CONTINUOUS
 62
     7
100
AcDbLine
 10
85.46389158098549
 20
137.490176467874
 30
0.0
 11
85.5275935794279
 21
137.490176467874
 31
0.0
  0
SPLINE
  5
70B
330
1F
100
AcDbEntity
  8
1
  6
CONTINUOUS
 62
     7
100
AcDbSpline
210
0.0
220
0.0
230
1.0
 70
    24
 71
     3
 72
     9
 73
     5
 74
     0
 42
0.000000001
 43
0.00000001
 40
0.0
 40
0.0
 40
0.0
 40
0.0
 40
0.83677897681831
 40
0.9999999999999999
 40
0.9999999999999999
 40
0.9999999999999999
 40
0.9999999999999999
 10
85.5275935794279
 20
137.490176467874
 30
0.0
 10
85.57673220691538
 20
137.490176467874
 30
0.0
 10
85.63545575142217
 20
137.490176467874
 30
0.0
 10
85.68200292380823
 20
137.490176467874
 30
0.0
 10
85.68960040091127
 20
137.490176467874
 30
0.0
  0
LINE
  5
70C
330
1F
100
AcDbEntity
  8
1
  6
CONTINUOUS
 62
     7
100
AcDbLine
 10
89.12458860530108
 20
137.490176467874
 30
0.0
 11
89.12458860530108
 21
137.7901764821233
 31
0.0
  0
LINE
  5
70D
330
1F
100
AcDbEntity
  8
1
  6
CONTINUOUS
 62
     7
100
AcDbLine
 10
89.12458860530108
 20
137.490176467874
 30
0.0
 11
90.07230525119752
 21
137.490176467874
 31
0.0
  0
LINE
  5
70E
330
1F
100
AcDbEntity
  8
1
  6
CONTINUOUS
 62
     7
100
AcDbLine
 10
72.40535815461129
 20
137.490176467874
 30
0.0
 11
72.40535815461129
 21
137.7901764821233
 31
0.0
  0
LINE
  5
70F
330
1F
100
AcDbEntity
  8
1
  6
CONTINUOUS
 62
     7
100
AcDbLine
 10
89.12458860530108
 20
137.490176467874
 30
0.0
 11
88.28458872838468
 21
137.490176467874
 31
0.0
  0
LINE
  5
710
330
1F
100
AcDbEntity
  8
1
  6
CONTINUOUS
 62
     7
100
AcDbLine
 10
87.78458864642829
 20
137.490176467874
 30
0.0
 11
86.50535795121044
 21
137.490176467874
 31
0.0
  0
LINE
  5
711
330
1F
100
AcDbEntity
  8
1
  6
CONTINUOUS
 62
     7
100
AcDbLine
 10
84.97806203766316
 20
137.490176467874
 30
0.0
 11
84.18458870826811
 21
137.490176467874
 31
0.0
  0
LINE
  5
712
330
1F
100
AcDbEntity
  8
1
  6
CONTINUOUS
 62
     7
100
AcDbLine
 10
83.68458909197301
 20
137.490176467874
 30
0.0
 11
80.25188495619744
 21
137.490176467874
 31
0.0
  0
LINE
  5
713
330
1F
100
AcDbEntity
  8
1
  6
CONTINUOUS
 62
     7
100
AcDbLine
 10
78.67806198581178
 20
137.490176467874
 30
0.0
 11
77.88458881648779
 21
137.490176467874
 31
0.0
  0
LINE
  5
714
330
1F
100
AcDbEntity
  8
1
  6
CONTINUOUS
 62
     7
100
AcDbLine
 10
77.38458885094673
 20
137.490176467874
 30
0.0
 11
73.9518849480018
 21
137.490176467874
 31
0.0
  0
LINE
  5
715
330
1F
100
AcDbEntity
  8
1
  6
CONTINUOUS
 62
     7
100
AcDbLine
 10
72.37806202127189
 20
137.490176467874
 30
0.0
 11
71.58458869187683
 21
137.490176467874
 31
0.0
  0
LINE
  5
716
330
1F
100
AcDbEntity
  8
1
  6
CONTINUOUS
 62
     7
100
AcDbLine
 10
71.08458907558173
 20
137.490176467874
 30
0.0
 11
67.18458918137998
 21
137.490176467874
 31
0.0
  0
LINE
  5
717
330
1F
100
AcDbEntity
  8
1
  6
CONTINUOUS
 62
     7
100
AcDbLine
 10
67.18458918137998
 20
137.490176467874
 30
0.0
 11
67.18458918137998
 21
137.7901764821233
 31
0.0
  0
LINE
  5
718
330
1F
100
AcDbEntity
  8
1
  6
CONTINUOUS
 62
     7
100
AcDbLine
 10
86.03458882524222
 20
173.3901756118954
 30
0.0
 11
87.53458907111138
 21
173.3901756118954
 31
0.0
  0
LINE
  5
719
330
1F
100
AcDbEntity
  8
1
  6
CONTINUOUS
 62
     7
100
AcDbLine
 10
92.63458878947944
 20
170.8901779960812
 30
0.0
 11
92.63458878947944
 21
172.8901783239068
 31
0.0
  0
ARC
  5
71A
330
1F
100
AcDbEntity
  8
1
  6
CONTINUOUS
 62
     7
100
AcDbCircle
 10
92.13458886398524
 20
172.8901764821233
 30
0.0
 40
0.5000000000000284
100
AcDbArc
 50
0.0000000000032569
 51
89.99999961626695
  0
LINE
  5
71B
330
1F
100
AcDbEntity
  8
1
  6
CONTINUOUS
 62
     7
100
AcDbLine
 10
91.5345887954399
 20
173.3901756118954
 30
0.0
 11
92.13458870752305
 21
173.3901756118954
 31
0.0
  0
LINE
  5
71C
330
1F
100
AcDbEntity
  8
1
  6
CONTINUOUS
 62
     7
100
AcDbLine
 10
136.0368561782366
 20
172.8901783239067
 30
0.0
 11
136.0368561782369
 21
139.2901764951617
 31
0.0
  0
LINE
  5
71D
330
1F
100
AcDbEntity
  8
1
  6
CONTINUOUS
 62
     7
100
AcDbLine
 10
136.5368562601933
 20
139.2901764951617
 30
0.0
 11
136.0368561782369
 21
139.2901764951617
 31
0.0
  0
LINE
  5
71E
330
1F
100
AcDbEntity
  8
1
  6
CONTINUOUS
 62
     7
100
AcDbLine
 10
156.736855473412
 20
139.2901764951619
 30
0.0
 11
136.5368562601933
 21
139.2901764951617
 31
0.0
  0
LINE
  5
71F
330
1F
100
AcDbEntity
  8
1
  6
CONTINUOUS
 62
     7
100
AcDbLine
 10
157.2368555553684
 20
139.2901764951619
 30
0.0
 11
157.236855555368
 21
172.8901783239069
 31
0.0
  0
LINE
  5
720
330
1F
100
AcDbEntity
  8
1
  6
CONTINUOUS
 62
     7
100
AcDbLine
 10
157.2368555553684
 20
139.2901764951619
 30
0.0
 11
156.736855473412
 21
139.2901764951619
 31
0.0
  0
LINE
  5
721
330
1F
100
AcDbEntity
  8
1
  6
CONTINUOUS
 62
     7
100
AcDbLine
 10
136.536856260193
 20
173.3901756118954
 30
0.0
 11
156.7368554734117
 21
173.3901756118956
 31
0.0
  0
ARC
  5
722
330
1F
100
AcDbEntity
  8
1
  6
CONTINUOUS
 62
     7
100
AcDbCircle
 10
136.5368558668023
 20
172.8901764821232
 30
0.0
 40
0.5
100
AcDbArc
 50
90.00000001029177
 51
180.0
  0
ARC
  5
723
330
1F
100
AcDbEntity
  8
1
  6
CONTINUOUS
 62
     7
100
AcDbCircle
 10
156.7368558668023
 20
172.8901764821234
 30
0.0
 40
0.5
100
AcDbArc
 50
0.0000000000032569
 51
90.0000000235017
  0
LINE
  5
724
330
1F
100
AcDbEntity
  8
1
  6
CONTINUOUS
 62
     7
100
AcDbLine
 10
157.1368557252416
 20
139.2901764951619
 30
0.0
 11
157.1368557252417
 21
137.7901764821234
 31
0.0
  0
LINE
  5
725
330
1F
100
AcDbEntity
  8
1
  6
CONTINUOUS
 62
     7
100
AcDbLine
 10
157.1368557252417
 20
137.7901764821234
 30
0.0
 11
156.1368555613289
 21
137.7901764821234
 31
0.0
  0
LINE
  5
726
330
1F
100
AcDbEntity
  8
1
  6
CONTINUOUS
 62
     7
100
AcDbLine
 10
156.1368555613289
 20
137.7901764821234
 30
0.0
 11
137.1368561722765
 21
137.7901764821232
 31
0.0
  0
LINE
  5
727
330
1F
100
AcDbEntity
  8
1
  6
CONTINUOUS
 62
     7
100
AcDbLine
 10
136.1368560083637
 20
139.2901764951617
 30
0.0
 11
136.1368560083637
 21
137.7901764821231
 31
0.0
  0
LINE
  5
728
330
1F
100
AcDbEntity
  8
1
  6
CONTINUOUS
 62
     7
100
AcDbLine
 10
137.1368561722765
 20
137.7901764821232
 30
0.0
 11
136.1368560083637
 21
137.7901764821231
 31
0.0
  0
LINE
  5
729
330
1F
100
AcDbEntity
  8
1
  6
CONTINUOUS
 62
     7
100
AcDbLine
 10
149.6368558928797
 20
137.4901764678741
 30
0.0
 11
149.6368558928797
 21
137.7901764821233
 31
0.0
  0
LINE
  5
72A
330
1F
100
AcDbEntity
  8
1
  6
CONTINUOUS
 62
     7
100
AcDbLine
 10
150.2368558049629
 20
137.4901764678741
 30
0.0
 11
149.6368558928797
 21
137.4901764678741
 31
0.0
  0
LINE
  5
72B
330
1F
100
AcDbEntity
  8
1
  6
CONTINUOUS
 62
     7
100
AcDbLine
 10
150.2368558049629
 20
137.4901764678741
 30
0.0
 11
150.2368558049629
 21
137.7901764821233
 31
0.0
  0
LINE
  5
72C
330
1F
100
AcDbEntity
  8
1
  6
CONTINUOUS
 62
     7
100
AcDbLine
 10
143.0368559286425
 20
137.490176467874
 30
0.0
 11
143.0368559286425
 21
137.7901764821232
 31
0.0
  0
LINE
  5
72D
330
1F
100
AcDbEntity
  8
1
  6
CONTINUOUS
 62
     7
100
AcDbLine
 10
143.6368558407257
 20
137.490176467874
 30
0.0
 11
143.6368558407257
 21
137.7901764821232
 31
0.0
  0
LINE
  5
72E
330
1F
100
AcDbEntity
  8
1
  6
CONTINUOUS
 62
     7
100
AcDbLine
 10
143.6368558407257
 20
137.490176467874
 30
0.0
 11
143.0368559286425
 21
137.490176467874
 31
0.0
  0
LINE
  5
72F
330
1F
100
AcDbEntity
  8
1
  6
CONTINUOUS
 62
     7
100
AcDbLine
 10
154.3368558250795
 20
132.0901763860109
 30
0.0
 11
153.7368559129964
 21
131.2901763480129
 31
0.0
  0
LINE
  5
730
330
1F
100
AcDbEntity
  8
1
  6
CONTINUOUS
 62
     7
100
AcDbLine
 10
153.7368559129964
 20
131.2901763480129
 30
0.0
 11
152.7368557490836
 21
131.2901763480129
 31
0.0
  0
LINE
  5
731
330
1F
100
AcDbEntity
  8
1
  6
CONTINUOUS
 62
     7
100
AcDbLine
 10
152.7368557490836
 20
131.2901763480129
 30
0.0
 11
152.1368558370004
 21
132.0901763860109
 31
0.0
  0
LINE
  5
732
330
1F
100
AcDbEntity
  8
1
  6
CONTINUOUS
 62
     7
100
AcDbLine
 10
153.6368560828696
 20
132.7901765938821
 30
0.0
 11
153.6368560828696
 21
133.7901762921335
 31
0.0
  0
ARC
  5
733
330
1F
100
AcDbEntity
  8
1
  6
CONTINUOUS
 62
     7
100
AcDbCircle
 10
153.2368558668027
 20
133.7901764821233
 30
0.0
 40
0.4000000002000377
100
AcDbArc
 50
0.0
 51
180.0
  0
LINE
  5
734
330
1F
100
AcDbEntity
  8
1
  6
CONTINUOUS
 62
     7
100
AcDbLine
 10
152.8368560448716
 20
133.7901762921335
 30
0.0
 11
152.8368560448716
 21
132.7901765938821
 31
0.0
  0
ARC
  5
735
330
1F
100
AcDbEntity
  8
1
  6
CONTINUOUS
 62
     7
100
AcDbCircle
 10
153.2368558668028
 20
132.7901764821233
 30
0.0
 40
0.4000000002000093
100
AcDbArc
 50
180.0000000110205
 51
0.0
  0
LINE
  5
736
330
1F
100
AcDbEntity
  8
1
  6
CONTINUOUS
 62
     7
100
AcDbLine
 10
152.1368558370004
 20
132.0901763860109
 30
0.0
 11
152.1368558370004
 21
137.7901764821233
 31
0.0
  0
LINE
  5
737
330
1F
100
AcDbEntity
  8
1
  6
CONTINUOUS
 62
     7
100
AcDbLine
 10
154.3368558250795
 20
137.7901764821233
 30
0.0
 11
154.3368558250795
 21
132.0901763860109
 31
0.0
  0
LINE
  5
738
330
1F
100
AcDbEntity
  8
1
  6
CONTINUOUS
 62
     7
100
AcDbLine
 10
138.936855908526
 20
132.0901763860107
 30
0.0
 11
138.936855908526
 21
137.7901764821232
 31
0.0
  0
LINE
  5
739
330
1F
100
AcDbEntity
  8
1
  6
CONTINUOUS
 62
     7
100
AcDbLine
 10
141.1368558966051
 20
132.0901763860107
 30
0.0
 11
140.5368559845219
 21
131.2901763480127
 31
0.0
  0
LINE
  5
73A
330
1F
100
AcDbEntity
  8
1
  6
CONTINUOUS
 62
     7
100
AcDbLine
 10
140.5368559845219
 20
131.2901763480127
 30
0.0
 11
139.5368558206092
 21
131.2901763480127
 31
0.0
  0
LINE
  5
73B
330
1F
100
AcDbEntity
  8
1
  6
CONTINUOUS
 62
     7
100
AcDbLine
 10
139.5368558206092
 20
131.2901763480127
 30
0.0
 11
138.936855908526
 21
132.0901763860107
 31
0.0
  0
LINE
  5
73C
330
1F
100
AcDbEntity
  8
1
  6
CONTINUOUS
 62
     7
100
AcDbLine
 10
140.4368556887339
 20
132.7901765938819
 30
0.0
 11
140.4368556887339
 21
133.7901762921334
 31
0.0
  0
ARC
  5
73D
330
1F
100
AcDbEntity
  8
1
  6
CONTINUOUS
 62
     7
100
AcDbCircle
 10
140.0368558668027
 20
133.7901764821232
 30
0.0
 40
0.4000000002000093
100
AcDbArc
 50
0.0
 51
180.0
  0
LINE
  5
73E
330
1F
100
AcDbEntity
  8
1
  6
CONTINUOUS
 62
     7
100
AcDbLine
 10
139.6368556507359
 20
133.7901762921334
 30
0.0
 11
139.6368556507359
 21
132.7901765938819
 31
0.0
  0
ARC
  5
73F
330
1F
100
AcDbEntity
  8
1
  6
CONTINUOUS
 62
     7
100
AcDbCircle
 10
140.0368558668027
 20
132.7901764821232
 30
0.0
 40
0.4000000002000377
100
AcDbArc
 50
180.0000000110205
 51
0.0
  0
LINE
  5
740
330
1F
100
AcDbEntity
  8
1
  6
CONTINUOUS
 62
     7
100
AcDbLine
 10
141.136855896605
 20
137.7901764821232
 30
0.0
 11
141.1368558966051
 21
132.0901763860107
 31
0.0
  0
LINE
  5
741
330
1F
100
AcDbEntity
  8
1
  6
CONTINUOUS
 62
     7
100
AcDbLine
 10
152.0253173858354
 20
137.4901764678741
 30
0.0
 11
152.0253173858354
 21
137.7901764821233
 31
0.0
  0
SPLINE
  5
742
330
1F
100
AcDbEntity
  8
1
  6
CONTINUOUS
 62
     7
100
AcDbSpline
210
0.0
220
0.0
230
1.0
 70
    24
 71
     3
 72
     9
 73
     5
 74
     0
 42
0.000000001
 43
0.00000001
 40
0.0
 40
0.0
 40
0.0
 40
0.0
 40
0.6741946183758334
 40
1.0
 40
1.0
 40
1.0
 40
1.0
 10
152.0253173858354
 20
137.4901764678741
 30
0.0
 10
152.0308337276111
 20
137.4901764678741
 30
0.0
 10
152.0390158483597
 20
137.4901764678741
 30
0.0
 10
152.1128124930232
 20
137.4901764678741
 30
0.0
 10
152.1368558370004
 20
137.4901764678741
 30
0.0
  0
LINE
  5
743
330
1F
100
AcDbEntity
  8
WYMIARY
 62
     6
100
AcDbLine
 10
0.0
 20
0.0
 30
0.0
 11
0.0
 21
297.0
 31
0.0
  0
LINE
  5
744
330
1F
100
AcDbEntity
  8
WYMIARY
 62
     6
100
AcDbLine
 10
11.63040699999999
 20
292.0
 30
0.0
 11
11.63040699999999
 21
4.999999999999999
 31
0.0
  0
LINE
  5
745
330
1F
100
AcDbEntity
  8
2
100
AcDbLine
 10
196.630407
 20
4.999999999999999
 30
0.0
 11
196.630407
 21
292.0
 31
0.0
  0
LINE
  5
746
330
1F
100
AcDbEntity
  8
2
100
AcDbLine
 10
201.630407
 20
0.0
 30
0.0
 11
201.630407
 21
297.0
 31
0.0
  0
LINE
  5
747
330
1F
100
AcDbEntity
  8
WY
  6
CONTINUOUS
 62
     3
100
AcDbLine
 10
196.630407
 20
19.689837
 30
0.0
 11
11.63040699999999
 21
19.689837
 31
0.0
  0
LINE
  5
748
330
1F
100
AcDbEntity
  8
2
100
AcDbLine
 10
11.63040699999999
 20
4.999999999999999
 30
0.0
 11
196.630407
 21
4.999999999999999
 31
0.0
  0
LINE
  5
749
330
1F
100
AcDbEntity
  8
2
 62
     6
100
AcDbLine
 10
11.63040699999999
 20
0.0
 30
0.0
 11
201.630407
 21
0.0
 31
0.0
  0
LINE
  5
74A
330
1F
100
AcDbEntity
  8
0
100
AcDbLine
 10
43.65642300000002
 20
11.742481
 30
0.0
 11
42.75401199999999
 21
11.742481
 31
0.0
  0
ELLIPSE
  5
74B
330
1F
100
AcDbEntity
  8
0
100
AcDbEllipse
 10
43.65642300000002
 20
11.742481
 30
0.0
 11
-1.203215696869327
 21
1.967000000000000E-13
 31
0.0
210
0.0
220
0.0
230
1.0
 40
0.958812
 41
-1.570796326794739
 42
0.0000000000001705
  0
TEXT
  5
74C
330
1F
100
AcDbEntity
  8
1
100
AcDbText
 10
29.56633399999998
 20
8.797457000000001
 30
0.0
 40
5.0
  1
A4
 51
15.0
  7
ITALIC
100
AcDbText
  0
LINE
  5
74D
330
1F
100
AcDbEntity
  8
WYMIARY
 62
     6
100
AcDbLine
 10
11.63040699999999
 20
0.0
 30
0.0
 11
0.0
 21
0.0
 31
0.0
  0
TEXT
  5
74E
330
1F
100
AcDbEntity
  8
WY
100
AcDbText
 10
16.89552099999997
 20
16.373844
 30
0.0
 40
1.999999999999999
  1
Skala
 41
1.000000000000001
 51
15.0
  7
ITALIC
100
AcDbText
  0
TEXT
  5
74F
330
1F
100
AcDbEntity
  8
WY
100
AcDbText
 10
29.00097500000004
 20
16.329369
 30
0.0
 40
1.999999999999999
  1
Format
 41
1.000000000000001
 51
15.0
  7
ITALIC
100
AcDbText
  0
LINE
  5
750
330
1F
100
AcDbEntity
  8
0
100
AcDbLine
 10
42.45320800000002
 20
11.742481
 30
0.0
 11
42.75401199999999
 21
11.742481
 31
0.0
  0
LINE
  5
751
330
1F
100
AcDbEntity
  8
0
100
AcDbLine
 10
73.84597599999995
 20
17.211264
 30
0.0
 11
73.84597599999995
 21
9.015264000000002
 31
0.0
  0
LINE
  5
752
330
1F
100
AcDbEntity
  8
0
100
AcDbLine
 10
64.85197600000004
 20
9.438264
 30
0.0
 11
64.85197600000004
 21
7.416264000000001
 31
0.0
  0
ARC
  5
753
330
1F
100
AcDbEntity
  8
0
100
AcDbCircle
 10
65.50155600000005
 20
9.724764
 30
0.0
 40
0.709955
100
AcDbArc
 50
203.8000800000036
 51
272.0519180000003
  0
LINE
  5
754
330
1F
100
AcDbEntity
  8
0
100
AcDbLine
 10
63.30697599999996
 20
7.416264000000001
 30
0.0
 11
63.30697599999996
 21
15.612264
 31
0.0
  0
ARC
  5
755
330
1F
100
AcDbEntity
  8
0
100
AcDbCircle
 10
65.94088199999999
 20
10.136416
 30
0.0
 40
1.128907
100
AcDbArc
 50
276.7195760000022
 51
2.175193999999967
  0
ARC
  5
756
330
1F
100
AcDbEntity
  8
0
100
AcDbCircle
 10
69.20181500000001
 20
10.503572
 30
0.0
 40
1.488419
100
AcDbArc
 50
191.6342679999998
 51
270.699112999999
  0
ARC
  5
757
330
1F
100
AcDbEntity
  8
0
100
AcDbCircle
 10
70.168137
 20
10.503572
 30
0.0
 40
1.488419
100
AcDbArc
 50
269.300887000001
 51
348.365732
  0
LINE
  5
758
330
1F
100
AcDbEntity
  8
0
100
AcDbLine
 10
72.30097599999999
 20
9.015264000000002
 30
0.0
 11
72.30097599999999
 21
17.211264
 31
0.0
  0
ARC
  5
759
330
1F
100
AcDbEntity
  8
0
100
AcDbCircle
 10
59.01534700000002
 20
10.472364
 30
0.0
 40
1.425319
100
AcDbArc
 50
269.7036710000015
 51
350.4651709999993
  0
ARC
  5
75A
330
1F
100
AcDbEntity
  8
0
100
AcDbCircle
 10
58.16060400000003
 20
10.472364
 30
0.0
 40
1.425319
100
AcDbArc
 50
189.5348290000001
 51
270.2963289999985
  0
LINE
  5
75B
330
1F
100
AcDbEntity
  8
0
100
AcDbLine
 10
61.10797600000001
 20
9.015264000000002
 30
0.0
 11
61.10797600000001
 21
17.211264
 31
0.0
  0
LINE
  5
75C
330
1F
100
AcDbEntity
  8
0
100
AcDbLine
 10
62.65297599999997
 20
17.211264
 30
0.0
 11
62.65297599999997
 21
9.015264000000002
 31
0.0
  0
LINE
  5
75D
330
1F
100
AcDbEntity
  8
0
100
AcDbLine
 10
53.85099200000002
 20
14.361264
 30
0.0
 11
53.86256500000002
 21
9.015264000000002
 31
0.0
  0
LINE
  5
75E
330
1F
100
AcDbEntity
  8
0
100
AcDbLine
 10
52.32045000000005
 20
9.015264000000002
 30
0.0
 11
52.32045000000005
 21
15.60367
 31
0.0
  0
LINE
  5
75F
330
1F
100
AcDbEntity
  8
0
100
AcDbLine
 10
43.65642300000002
 20
9.895061000000002
 30
0.0
 11
43.65642300000002
 21
8.185369000000001
 31
0.0
  0
LINE
  5
760
330
1F
100
AcDbEntity
  8
0
100
AcDbLine
 10
49.57223399999998
 20
8.185369000000001
 30
0.0
 11
49.57223399999998
 21
11.742481
 31
0.0
  0
LINE
  5
761
330
1F
100
AcDbEntity
  8
1
100
AcDbLine
 10
77.42861900000003
 20
4.999999999999999
 30
0.0
 11
77.42861900000003
 21
19.689837
 31
0.0
  0
LINE
  5
762
330
1F
100
AcDbEntity
  8
0
100
AcDbLine
 10
44.45856700000002
 20
7.416263
 30
0.0
 11
48.77008999999998
 21
7.416263
 31
0.0
  0
ELLIPSE
  5
763
330
1F
100
AcDbEntity
  8
0
100
AcDbEllipse
 10
44.45856700000002
 20
8.185369000000001
 30
0.0
 11
-0.8021437979128705
 21
1.540000000000000E-14
 31
0.0
210
0.0
220
0.0
230
1.0
 40
0.958812
 41
0.00000000000002
 42
1.570796326794914
  0
ELLIPSE
  5
764
330
1F
100
AcDbEntity
  8
0
100
AcDbEllipse
 10
48.77008999999998
 20
8.185369000000001
 30
0.0
 11
0.8021437979128704
 21
1.602000000000000E-13
 31
0.0
210
0.0
220
0.0
230
1.0
 40
0.958812
 41
4.712388980384497
 42
6.283185307179378
  0
LINE
  5
765
330
1F
100
AcDbEntity
  8
0
100
AcDbLine
 10
53.85099200000002
 20
9.015264000000002
 30
0.0
 11
53.86256500000002
 21
9.022759
 31
0.0
  0
LINE
  5
766
330
1F
100
AcDbEntity
  8
0
100
AcDbLine
 10
52.32045000000005
 20
9.015264000000002
 30
0.0
 11
53.86256500000002
 21
9.015264000000002
 31
0.0
  0
LINE
  5
767
330
1F
100
AcDbEntity
  8
0
100
AcDbLine
 10
58.153233
 20
9.047064000000002
 30
0.0
 11
59.00797599999999
 21
9.047064000000002
 31
0.0
  0
LINE
  5
768
330
1F
100
AcDbEntity
  8
0
100
AcDbLine
 10
64.85197600000004
 20
7.416264000000001
 30
0.0
 11
63.30697599999996
 21
7.416264000000001
 31
0.0
  0
LINE
  5
769
330
1F
100
AcDbEntity
  8
0
100
AcDbLine
 10
62.65297599999997
 20
9.015264000000002
 30
0.0
 11
61.10797600000001
 21
9.015264000000002
 31
0.0
  0
LINE
  5
76A
330
1F
100
AcDbEntity
  8
0
100
AcDbLine
 10
65.53502200000003
 20
9.015264000000002
 30
0.0
 11
66.07297600000004
 21
9.015264000000002
 31
0.0
  0
LINE
  5
76B
330
1F
100
AcDbEntity
  8
0
100
AcDbLine
 10
69.21997599999997
 20
9.015264000000002
 30
0.0
 11
70.14997600000004
 21
9.015264000000002
 31
0.0
  0
LINE
  5
76C
330
1F
100
AcDbEntity
  8
0
100
AcDbLine
 10
73.84597599999995
 20
9.015264000000002
 30
0.0
 11
72.30097599999999
 21
9.015264000000002
 31
0.0
  0
ARC
  5
76D
330
1F
100
AcDbEntity
  8
0
100
AcDbCircle
 10
59.01534700000002
 20
14.17837
 30
0.0
 40
1.425319
100
AcDbArc
 50
9.53482900000062
 51
90.29632899999848
  0
LINE
  5
76E
330
1F
100
AcDbEntity
  8
0
100
AcDbLine
 10
60.420976
 20
11.81167
 30
0.0
 11
58.29697599999997
 21
11.81167
 31
0.0
  0
LINE
  5
76F
330
1F
100
AcDbEntity
  8
0
100
AcDbLine
 10
58.97197600000004
 20
11.13667
 30
0.0
 11
60.420976
 21
11.13667
 31
0.0
  0
LINE
  5
770
330
1F
100
AcDbEntity
  8
0
100
AcDbLine
 10
43.65642300000002
 20
13.461283
 30
0.0
 11
43.65642300000002
 21
16.260974
 31
0.0
  0
ELLIPSE
  5
771
330
1F
100
AcDbEntity
  8
0
100
AcDbEllipse
 10
46.58926199999996
 20
15.17942
 30
0.0
 11
2.983077570132104
 21
2.996000000000000E-13
 31
0.0
210
0.0
220
0.0
230
1.0
 40
0.9588119999999999
 41
-1.562393163247347
 42
0.0084031635475457
  0
ELLIPSE
  5
772
330
1F
100
AcDbEntity
  8
0
100
AcDbEllipse
 10
46.54608599999995
 20
15.509539
 30
0.0
 11
-4.072692107280919
 21
9.250000000000000E-14
 31
0.0
210
0.0
220
0.0
230
1.0
 40
0.958812
 41
1.587553347046634
 42
2.408388587343224
  0
LINE
  5
773
330
1F
100
AcDbEntity
  8
0
100
AcDbLine
 10
43.65642300000002
 20
11.742481
 30
0.0
 11
43.65642300000002
 21
11.034514
 31
0.0
  0
LINE
  5
774
330
1F
100
AcDbEntity
  8
0
100
AcDbLine
 10
43.65642300000002
 20
13.461283
 30
0.0
 11
43.65642300000002
 21
12.896138
 31
0.0
  0
ELLIPSE
  5
775
330
1F
100
AcDbEntity
  8
0
100
AcDbEllipse
 10
46.20835399999999
 20
9.872487
 30
0.0
 11
2.960559210508897
 21
0.3570763225581005
 31
0.0
210
0.0
220
0.0
230
1.0
 40
0.820999
 41
1.335209029023201
 42
2.503032872947537
  0
ELLIPSE
  5
776
330
1F
100
AcDbEntity
  8
0
100
AcDbEllipse
 10
46.43885999999998
 20
8.937306
 30
0.0
 11
3.015746449176215
 21
0.7746519372140024
 31
0.0
210
0.0
220
0.0
230
1.0
 40
0.8467749999999999
 41
1.29973646820557
 42
2.479974117225238
  0
LINE
  5
777
330
1F
100
AcDbEntity
  8
0
100
AcDbLine
 10
50.77544999999998
 20
12.896138
 30
0.0
 11
50.47464600000001
 21
12.896138
 31
0.0
  0
LINE
  5
778
330
1F
100
AcDbEntity
  8
0
100
AcDbLine
 10
49.57223399999998
 20
12.896138
 30
0.0
 11
50.47464600000001
 21
12.896138
 31
0.0
  0
ELLIPSE
  5
779
330
1F
100
AcDbEntity
  8
0
100
AcDbEllipse
 10
49.57223399999998
 20
12.896138
 30
0.0
 11
1.203215696869352
 21
8.930000000000000E-14
 31
0.0
210
0.0
220
0.0
230
1.0
 40
0.9588119999999999
 41
4.712388980384611
 42
6.283185307179508
  0
LINE
  5
77A
330
1F
100
AcDbEntity
  8
0
100
AcDbLine
 10
44.45856700000002
 20
17.030079
 30
0.0
 11
48.77008999999998
 21
17.030079
 31
0.0
  0
ELLIPSE
  5
77B
330
1F
100
AcDbEntity
  8
0
100
AcDbEllipse
 10
44.45856700000002
 20
16.260974
 30
0.0
 11
0.8021437979128704
 21
3.800000000000000E-14
 31
0.0
210
0.0
220
0.0
230
1.0
 40
0.958812
 41
1.570796326794851
 42
3.141592653589743
  0
LINE
  5
77C
330
1F
100
AcDbEntity
  8
0
100
AcDbLine
 10
49.57223399999998
 20
15.155385
 30
0.0
 11
49.57223399999998
 21
16.260974
 31
0.0
  0
ELLIPSE
  5
77D
330
1F
100
AcDbEntity
  8
0
100
AcDbEllipse
 10
48.77008999999998
 20
16.260974
 30
0.0
 11
-0.8021437979128705
 21
3.800000000000000E-14
 31
0.0
210
0.0
220
0.0
230
1.0
 40
0.958812
 41
3.141592653589842
 42
4.712388980384734
  0
ARC
  5
77E
330
1F
100
AcDbEntity
  8
0
100
AcDbCircle
 10
54.75765000000001
 20
14.34127
 30
0.0
 40
1.377457
100
AcDbArc
 50
16.26506100000005
 51
130.5272989999999
  0
ARC
  5
77F
330
1F
100
AcDbEntity
  8
0
100
AcDbCircle
 10
58.16060400000003
 20
14.17837
 30
0.0
 40
1.425319
100
AcDbArc
 50
89.70367100000153
 51
170.4651709999999
  0
LINE
  5
780
330
1F
100
AcDbEntity
  8
0
100
AcDbLine
 10
54.86990300000002
 20
12.93607
 30
0.0
 11
56.07997599999999
 21
12.93607
 31
0.0
  0
LINE
  5
781
330
1F
100
AcDbEntity
  8
0
100
AcDbLine
 10
54.53756499999997
 20
12.93607
 30
0.0
 11
56.07997599999999
 21
12.93607
 31
0.0
  0
ARC
  5
782
330
1F
100
AcDbEntity
  8
0
100
AcDbCircle
 10
54.188492
 20
14.361264
 30
0.0
 40
0.3375
100
AcDbArc
 50
0.0
 51
180.0
  0
LINE
  5
783
330
1F
100
AcDbEntity
  8
0
100
AcDbLine
 10
54.52599199999997
 20
14.361264
 30
0.0
 11
54.53756499999997
 21
12.93607
 31
0.0
  0
ARC
  5
784
330
1F
100
AcDbEntity
  8
0
100
AcDbCircle
 10
58.63447599999995
 20
14.361264
 30
0.0
 40
0.3375
100
AcDbArc
 50
0.0
 51
180.0
  0
LINE
  5
785
330
1F
100
AcDbEntity
  8
0
100
AcDbLine
 10
58.29697599999997
 20
11.81167
 30
0.0
 11
58.29697599999997
 21
10.236264
 31
0.0
  0
LINE
  5
786
330
1F
100
AcDbEntity
  8
0
100
AcDbLine
 10
58.29697599999997
 20
12.71167
 30
0.0
 11
58.97197600000004
 21
12.71167
 31
0.0
  0
LINE
  5
787
330
1F
100
AcDbEntity
  8
0
100
AcDbLine
 10
58.97197600000004
 20
11.13667
 30
0.0
 11
58.97197600000004
 21
10.252764
 31
0.0
  0
LINE
  5
788
330
1F
100
AcDbEntity
  8
0
100
AcDbLine
 10
58.29697599999997
 20
11.81167
 30
0.0
 11
58.29697599999997
 21
10.252764
 31
0.0
  0
ARC
  5
789
330
1F
100
AcDbEntity
  8
0
100
AcDbCircle
 10
58.63447599999995
 20
10.252764
 30
0.0
 40
0.3375
100
AcDbArc
 50
180.0
 51
0.0
  0
LINE
  5
78A
330
1F
100
AcDbEntity
  8
0
100
AcDbLine
 10
58.97197600000004
 20
14.361264
 30
0.0
 11
58.97197600000004
 21
12.71167
 31
0.0
  0
LINE
  5
78B
330
1F
100
AcDbEntity
  8
0
100
AcDbLine
 10
58.29697599999997
 20
14.361264
 30
0.0
 11
58.29697599999997
 21
12.71167
 31
0.0
  0
LINE
  5
78C
330
1F
100
AcDbEntity
  8
0
100
AcDbLine
 10
56.07997599999999
 20
12.93607
 30
0.0
 11
56.07997599999999
 21
14.72707
 31
0.0
  0
LINE
  5
78D
330
1F
100
AcDbEntity
  8
0
100
AcDbLine
 10
56.75497599999994
 20
10.236264
 30
0.0
 11
56.75497599999994
 21
14.41447
 31
0.0
  0
LINE
  5
78E
330
1F
100
AcDbEntity
  8
0
100
AcDbLine
 10
53.86256500000002
 20
15.60367
 30
0.0
 11
53.86256500000002
 21
15.38827
 31
0.0
  0
LINE
  5
78F
330
1F
100
AcDbEntity
  8
0
100
AcDbLine
 10
52.32045000000005
 20
15.60367
 30
0.0
 11
53.86256500000002
 21
15.60367
 31
0.0
  0
LINE
  5
790
330
1F
100
AcDbEntity
  8
0
100
AcDbLine
 10
58.153233
 20
15.60367
 30
0.0
 11
59.00797599999999
 21
15.60367
 31
0.0
  0
ARC
  5
791
330
1F
100
AcDbEntity
  8
0
100
AcDbCircle
 10
69.20181500000001
 20
14.124104
 30
0.0
 40
1.488419
100
AcDbArc
 50
89.30088700000103
 51
168.3657320000002
  0
ARC
  5
792
330
1F
100
AcDbEntity
  8
0
100
AcDbCircle
 10
65.711003
 20
14.207365
 30
0.0
 40
1.409039
100
AcDbArc
 50
15.47254999999875
 51
127.5645399999992
  0
LINE
  5
793
330
1F
100
AcDbEntity
  8
0
100
AcDbLine
 10
60.420976
 20
11.13667
 30
0.0
 11
60.420976
 21
10.236264
 31
0.0
  0
LINE
  5
794
330
1F
100
AcDbEntity
  8
0
100
AcDbLine
 10
60.420976
 20
11.81167
 30
0.0
 11
60.420976
 21
14.41447
 31
0.0
  0
LINE
  5
795
330
1F
100
AcDbEntity
  8
0
100
AcDbLine
 10
67.06897600000002
 20
14.583264
 30
0.0
 11
67.06897600000002
 21
10.179264
 31
0.0
  0
LINE
  5
796
330
1F
100
AcDbEntity
  8
0
100
AcDbLine
 10
65.52697599999999
 20
14.361264
 30
0.0
 11
65.52697599999999
 21
10.252764
 31
0.0
  0
LINE
  5
797
330
1F
100
AcDbEntity
  8
0
100
AcDbLine
 10
64.85197600000004
 20
14.361264
 30
0.0
 11
64.85197600000004
 21
10.252764
 31
0.0
  0
ARC
  5
798
330
1F
100
AcDbEntity
  8
0
100
AcDbCircle
 10
65.18947600000001
 20
10.252764
 30
0.0
 40
0.3375
100
AcDbArc
 50
180.0
 51
0.0
  0
ARC
  5
799
330
1F
100
AcDbEntity
  8
0
100
AcDbCircle
 10
65.18947600000001
 20
14.361264
 30
0.0
 40
0.3375
100
AcDbArc
 50
0.0
 51
180.0
  0
LINE
  5
79A
330
1F
100
AcDbEntity
  8
0
100
AcDbLine
 10
63.30697599999996
 20
15.612264
 30
0.0
 11
64.85197600000004
 21
15.612264
 31
0.0
  0
LINE
  5
79B
330
1F
100
AcDbEntity
  8
0
100
AcDbLine
 10
61.10797600000001
 20
17.211264
 30
0.0
 11
62.65297599999997
 21
17.211264
 31
0.0
  0
LINE
  5
79C
330
1F
100
AcDbEntity
  8
0
100
AcDbLine
 10
64.85197600000004
 20
15.612264
 30
0.0
 11
64.85197600000004
 21
15.324264
 31
0.0
  0
ARC
  5
79D
330
1F
100
AcDbEntity
  8
0
100
AcDbCircle
 10
70.168137
 20
14.124104
 30
0.0
 40
1.488419
100
AcDbArc
 50
11.63426799999984
 51
90.69911299999899
  0
LINE
  5
79E
330
1F
100
AcDbEntity
  8
0
100
AcDbLine
 10
71.62597600000004
 20
14.424264
 30
0.0
 11
71.62597600000004
 21
10.203412
 31
0.0
  0
ARC
  5
79F
330
1F
100
AcDbEntity
  8
0
100
AcDbCircle
 10
69.684976
 20
14.361264
 30
0.0
 40
0.3375
100
AcDbArc
 50
0.0
 51
180.0
  0
ARC
  5
7A0
330
1F
100
AcDbEntity
  8
0
100
AcDbCircle
 10
69.684976
 20
10.252764
 30
0.0
 40
0.3375
100
AcDbArc
 50
180.0
 51
0.0
  0
LINE
  5
7A1
330
1F
100
AcDbEntity
  8
0
100
AcDbLine
 10
69.34747600000003
 20
14.361264
 30
0.0
 11
69.34747600000003
 21
10.252764
 31
0.0
  0
LINE
  5
7A2
330
1F
100
AcDbEntity
  8
0
100
AcDbLine
 10
70.02247599999998
 20
14.361264
 30
0.0
 11
70.02247599999998
 21
10.252764
 31
0.0
  0
LINE
  5
7A3
330
1F
100
AcDbEntity
  8
0
100
AcDbLine
 10
67.74397599999998
 20
10.203412
 30
0.0
 11
67.74397599999998
 21
14.424264
 31
0.0
  0
LINE
  5
7A4
330
1F
100
AcDbEntity
  8
0
100
AcDbLine
 10
69.21997599999997
 20
15.612412
 30
0.0
 11
70.14997600000004
 21
15.612412
 31
0.0
  0
LINE
  5
7A5
330
1F
100
AcDbEntity
  8
0
100
AcDbLine
 10
72.30097599999999
 20
17.211264
 30
0.0
 11
73.84597599999995
 21
17.211264
 31
0.0
  0
TEXT
  5
7A6
330
1F
100
AcDbEntity
  8
WY
100
AcDbText
 10
78.37616300000002
 20
11.60401
 30
0.0
 40
1.999999999999998
  1
16-05-2016
 41
1.000000000000001
 51
15.0
  7
ITALIC
100
AcDbText
  0
TEXT
  5
7A7
330
1F
100
AcDbEntity
  8
WY
100
AcDbText
 10
82.80753200000004
 20
16.149239
 30
0.0
 40
1.999999999999999
  1
Data
 41
1.000000000000001
 51
15.0
  7
ITALIC
100
AcDbText
  0
TEXT
  5
7A8
330
1F
100
AcDbEntity
  8
1
100
AcDbText
 10
151.38151
 20
9.064009000000002
 30
0.0
 40
5.0
  1
R3N
 41
0.8
 51
15.0
  7
ITALIC
100
AcDbText
  0
LINE
  5
7A9
330
1F
100
AcDbEntity
  8
1
100
AcDbLine
 10
141.35299
 20
4.999999999999999
 30
0.0
 11
141.35299
 21
19.689837
 31
0.0
  0
TEXT
  5
7AA
330
1F
100
AcDbEntity
  8
WY
100
AcDbText
 10
143.544188
 20
16.599248
 30
0.0
 40
1.999999999999999
  1
Product type
 41
1.000000000000001
 51
15.0
  7
ITALIC
100
AcDbText
  0
LINE
  5
7AB
330
1F
100
AcDbEntity
  8
2
100
AcDbLine
 10
196.630407
 20
292.0
 30
0.0
 11
11.63040699999999
 21
292.0
 31
0.0
  0
LINE
  5
7AC
330
1F
100
AcDbEntity
  8
2
100
AcDbLine
 10
201.630407
 20
297.0
 30
0.0
 11
11.63040699999999
 21
297.0
 31
0.0
  0
LINE
  5
7AD
330
1F
100
AcDbEntity
  8
WYMIARY
 62
     6
100
AcDbLine
 10
11.63040699999999
 20
297.0
 30
0.0
 11
0.0
 21
297.0
 31
0.0
  0
TEXT
  5
7AE
330
1F
100
AcDbEntity
  8
1
100
AcDbText
 10
14.260741
 20
8.797457000000001
 30
0.0
 40
5.0
  1
1:1
 51
15.0
  7
ITALIC
100
AcDbText
  0
LINE
  5
7AF
330
1F
100
AcDbEntity
  8
WYMIARY
 62
     6
100
AcDbLine
 10
201.630407
 20
0.0
 30
0.0
 11
201.630407
 21
297.0
 31
0.0
  0
LINE
  5
7B0
330
1F
100
AcDbEntity
  8
WYMIARY
 62
     3
100
AcDbLine
 10
26.63040699999999
 20
19.689837
 30
0.0
 11
26.63040699999999
 21
4.999999999999999
 31
0.0
  0
LINE
  5
7B1
330
1F
100
AcDbEntity
  8
WYMIARY
 62
     3
100
AcDbLine
 10
41.63040699999999
 20
19.689837
 30
0.0
 11
41.63040699999999
 21
4.999999999999999
 31
0.0
  0
LINE
  5
7B2
330
1F
100
AcDbEntity
  8
WYMIARY
 62
     3
100
AcDbLine
 10
100.331943
 20
19.689837
 30
0.0
 11
100.331943
 21
4.999999999999999
 31
0.0
  0
TEXT
  5
7B3
330
1F
100
AcDbEntity
  8
WY
100
AcDbText
 10
101.520952
 20
16.599248
 30
0.0
 40
1.999999999999999
  1
Draw. No.
 41
1.000000000000001
 51
15.0
  7
ITALIC
100
AcDbText
  0
TEXT
  5
7B4
330
1F
100
AcDbEntity
  8
1
100
AcDbText
 10
105.893897
 20
9.064009000000002
 30
0.0
 40
3.999999999999996
  1
R3N-01A
 41
0.7000000000000006
 51
15.0
  7
ITALIC
100
AcDbText
  0
LINE
  5
7B5
330
1F
100
AcDbEntity
  8
WYMIARY
 62
     6
100
AcDbLine
 10
201.630407
 20
0.0
 30
0.0
 11
201.630407
 21
297.0
 31
0.0
  0
LINE
  5
7B6
330
1F
100
AcDbEntity
  8
WYMIARY
 62
     6
100
AcDbLine
 10
201.630407
 20
0.0
 30
0.0
 11
201.630407
 21
297.0
 31
0.0
  0
LINE
  5
7B7
330
1F
100
AcDbEntity
  8
2
100
AcDbLine
 10
201.630407
 20
0.0
 30
0.0
 11
201.630407
 21
297.0
 31
0.0
  0
LINE
  5
7B8
330
1F
100
AcDbEntity
  8
WYMIARY
 62
     6
100
AcDbLine
 10
201.630407
 20
0.0
 30
0.0
 11
201.630407
 21
297.0
 31
0.0
  0
LINE
  5
7B9
330
1F
100
AcDbEntity
  8
2
100
AcDbLine
 10
201.630407
 20
0.0
 30
0.0
 11
201.630407
 21
297.0
 31
0.0
  0
TEXT
  5
7BA
330
1F
100
AcDbEntity
  8
1
100
AcDbText
 10
98.36702256954607
 20
274.4436562884334
 30
0.0
 40
5.0
  1
R3N 
 41
0.8
 51
15.0
  7
ITALIC
100
AcDbText
  0
LINE
  5
7BB
330
1F
100
AcDbEntity
  8
2
100
AcDbLine
 10
201.630407
 20
0.0
 30
0.0
 11
11.63040699999999
 21
0.0
 31
0.0
  0
LINE
  5
7BC
330
1F
100
AcDbEntity
  8
WYMIARY
 62
     6
100
AcDbLine
 10
11.63040699999999
 20
0.0
 30
0.0
 11
0.0
 21
0.0
 31
0.0
  0
LINE
  5
7BD
330
1F
100
AcDbEntity
  8
WYMIARY
 62
     6
100
AcDbLine
 10
201.630407
 20
0.0
 30
0.0
 11
201.630407
 21
297.0
 31
0.0
  0
LINE
  5
7BE
330
1F
100
AcDbEntity
  8
2
100
AcDbLine
 10
201.630407
 20
0.0
 30
0.0
 11
11.63040699999999
 21
0.0
 31
0.0
  0
TEXT
  5
7BF
330
1F
100
AcDbEntity
  8
1
100
AcDbText
 10
63.92236656954606
 20
250.6819662884334
 30
0.0
 40
5.0
  1
R3N - plug-in version
 41
0.8
 51
15.0
  7
ITALIC
100
AcDbText
  0
TEXT
  5
7C0
330
1F
100
AcDbEntity
  8
1
100
AcDbText
 10
63.92236656954606
 20
259.7611412884334
 30
0.0
 40
5.0
  1
R3N- do gniazd wtykowych
 41
0.8
 51
15.0
  7
ITALIC
100
AcDbText
  0
LINE
  5
7C1
330
1F
100
AcDbEntity
  8
1
  6
CONTINUOUS
 62
     7
100
AcDbLine
 10
89.03458931698054
 20
77.54435191647458
 30
0.0
 11
90.03458854957074
 21
77.54435191647458
 31
0.0
  0
LINE
  5
7C2
330
1F
100
AcDbEntity
  8
1
  6
CONTINUOUS
 62
     7
100
AcDbLine
 10
65.13458893849105
 20
97.693716052634
 30
0.0
 11
65.13458893849105
 21
77.49371683941531
 31
0.0
  0
LINE
  5
7C3
330
1F
100
AcDbEntity
  8
1
  6
CONTINUOUS
 62
     7
100
AcDbLine
 10
65.63458902044744
 20
76.99371675745893
 30
0.0
 11
86.53458890719861
 21
76.99371675745893
 31
0.0
  0
LINE
  5
7C4
330
1F
100
AcDbEntity
  8
1
  6
CONTINUOUS
 62
     7
100
AcDbLine
 10
92.63458878947944
 20
89.79371643410373
 30
0.0
 11
92.63458878947944
 21
97.693716052634
 31
0.0
  0
LINE
  5
7C5
330
1F
100
AcDbEntity
  8
1
  6
CONTINUOUS
 62
     7
100
AcDbLine
 10
92.13458870752305
 20
98.19371613459039
 30
0.0
 11
65.63458902044744
 21
98.19371613459039
 31
0.0
  0
LINE
  5
7C6
330
1F
100
AcDbEntity
  8
1
  6
CONTINUOUS
 62
     7
100
AcDbLine
 10
86.53458890719861
 20
76.99371675745893
 30
0.0
 11
86.53458890719861
 21
86.79371646623436
 31
0.0
  0
LINE
  5
7C7
330
1F
100
AcDbEntity
  8
1
  6
CONTINUOUS
 62
     7
100
AcDbLine
 10
89.53458846761436
 20
89.79371643410373
 30
0.0
 11
92.63458878947944
 21
89.79371643410373
 31
0.0
  0
ARC
  5
7C8
330
1F
100
AcDbEntity
  8
1
  6
CONTINUOUS
 62
     7
100
AcDbCircle
 10
89.53458886398522
 20
86.79371644602467
 30
0.0
 40
3.0
100
AcDbArc
 50
89.99999997795956
 51
179.9999999897115
  0
ARC
  5
7C9
330
1F
100
AcDbEntity
  8
1
  6
CONTINUOUS
 62
     7
100
AcDbCircle
 10
65.63458886398524
 20
97.69371644602465
 30
0.0
 40
0.5
100
AcDbArc
 50
90.00000002204263
 51
180.0
  0
ARC
  5
7CA
330
1F
100
AcDbEntity
  8
1
  6
CONTINUOUS
 62
     7
100
AcDbCircle
 10
65.63458886398524
 20
77.49371644602466
 30
0.0
 40
0.5
100
AcDbArc
 50
180.0
 51
269.9999999882426
  0
ARC
  5
7CB
330
1F
100
AcDbEntity
  8
1
  6
CONTINUOUS
 62
     7
100
AcDbCircle
 10
92.13458886398524
 20
97.69371644602465
 30
0.0
 40
0.5
100
AcDbArc
 50
0.0000000102885092
 51
90.0
  0
LINE
  5
7CC
330
1F
100
AcDbEntity
  8
1
  6
CONTINUOUS
 62
     7
100
AcDbLine
 10
91.03458871348352
 20
77.56669527636218
 30
0.0
 11
90.03458854957074
 21
77.56669527636218
 31
0.0
  0
LINE
  5
7CD
330
1F
100
AcDbEntity
  8
1
  6
CONTINUOUS
 62
     7
100
AcDbLine
 10
89.03458931698054
 20
81.23161119194079
 30
0.0
 11
90.03458854957074
 21
81.23161119194079
 31
0.0
  0
LINE
  5
7CE
330
1F
100
AcDbEntity
  8
1
  6
CONTINUOUS
 62
     7
100
AcDbLine
 10
89.03458931698054
 20
77.56669527636218
 30
0.0
 11
88.03458915306777
 21
77.56669527636218
 31
0.0
  0
ARC
  5
7CF
330
1F
100
AcDbEntity
  8
1
  6
CONTINUOUS
 62
     7
100
AcDbCircle
 10
88.0305726715618
 20
78.06267942636605
 30
0.0
 40
0.4960004124784145
100
AcDbArc
 50
180.4717456350552
 51
270.4639712954012
  0
LINE
  5
7D0
330
1F
100
AcDbEntity
  8
1
  6
CONTINUOUS
 62
     7
100
AcDbLine
 10
87.53458907111138
 20
84.79371654586244
 30
0.0
 11
87.53458907111138
 21
78.05859564588714
 31
0.0
  0
LINE
  5
7D1
330
1F
100
AcDbEntity
  8
1
  6
CONTINUOUS
 62
     7
100
AcDbLine
 10
87.53458907111138
 20
84.79371654586244
 30
0.0
 11
91.5345887954399
 21
84.79371654586244
 31
0.0
  0
ARC
  5
7D2
330
1F
100
AcDbEntity
  8
1
  6
CONTINUOUS
 62
     7
100
AcDbCircle
 10
91.03860519498949
 20
78.06267942636605
 30
0.0
 40
0.4960004124784287
100
AcDbArc
 50
269.5360287045988
 51
359.5282543649448
  0
LINE
  5
7D3
330
1F
100
AcDbEntity
  8
1
  6
CONTINUOUS
 62
     7
100
AcDbLine
 10
91.5345887954399
 20
78.05859564588714
 30
0.0
 11
91.5345887954399
 21
84.79371654586244
 31
0.0
  0
CIRCLE
  5
7D4
330
1F
100
AcDbEntity
  8
1
  6
CONTINUOUS
 62
     7
100
AcDbCircle
 10
89.53458886398522
 20
86.79371644602467
 30
0.0
 40
1.0
  0
ARC
  5
7D5
330
1F
100
AcDbEntity
  8
1
  6
CONTINUOUS
 62
     7
100
AcDbCircle
 10
89.53458886398522
 20
86.79371644602467
 30
0.0
 40
2.0
100
AcDbArc
 50
0.0000000051450688
 51
179.99999998825
  0
LINE
  5
7D6
330
1F
100
AcDbEntity
  8
1
  6
CONTINUOUS
 62
     7
100
AcDbLine
 10
87.53458907111138
 20
86.79371646623436
 30
0.0
 11
87.53458907111138
 21
84.79371654586244
 31
0.0
  0
LINE
  5
7D7
330
1F
100
AcDbEntity
  8
1
  6
CONTINUOUS
 62
     7
100
AcDbLine
 10
91.5345887954399
 20
84.79371654586244
 30
0.0
 11
91.5345887954399
 21
86.79371646623436
 31
0.0
  0
LINE
  5
7D8
330
1F
100
AcDbEntity
  8
1
  6
CONTINUOUS
 62
     7
100
AcDbLine
 10
89.03458931698054
 20
78.04435199843097
 30
0.0
 11
89.03458931698054
 21
81.23161119194079
 31
0.0
  0
LINE
  5
7D9
330
1F
100
AcDbEntity
  8
1
  6
CONTINUOUS
 62
     7
100
AcDbLine
 10
89.03458931698054
 20
78.04435199843097
 30
0.0
 11
90.03458854957074
 21
78.04435199843097
 31
0.0
  0
LINE
  5
7DA
330
1F
100
AcDbEntity
  8
1
  6
CONTINUOUS
 62
     7
100
AcDbLine
 10
90.03458854957074
 20
78.04435199843097
 30
0.0
 11
90.03458854957074
 21
81.23161119194079
 31
0.0
  0
LINE
  5
7DB
330
1F
100
AcDbEntity
  8
1
  6
CONTINUOUS
 62
     7
100
AcDbLine
 10
89.03458931698054
 20
77.54435191647458
 30
0.0
 11
89.03458931698054
 21
78.04435199843097
 31
0.0
  0
LINE
  5
7DC
330
1F
100
AcDbEntity
  8
1
  6
CONTINUOUS
 62
     7
100
AcDbLine
 10
90.03458854957074
 20
77.54435191647458
 30
0.0
 11
90.03458854957074
 21
78.04435199843097
 31
0.0
  0
ARC
  5
7DD
330
1F
100
AcDbEntity
  8
1
  6
CONTINUOUS
 62
     7
100
AcDbCircle
 10
92.13458886398524
 20
77.49371644602466
 30
0.0
 40
0.5
100
AcDbArc
 50
270.0
 51
359.9999999598947
  0
LINE
  5
7DE
330
1F
100
AcDbEntity
  8
1
  6
CONTINUOUS
 62
     7
100
AcDbLine
 10
92.63458878947944
 20
77.49371683941531
 30
0.0
 11
92.63458878947944
 21
89.79371643410373
 31
0.0
  0
LINE
  5
7DF
330
1F
100
AcDbEntity
  8
1
  6
CONTINUOUS
 62
     7
100
AcDbLine
 10
86.53458890719861
 20
76.99371675745893
 30
0.0
 11
92.13458870752305
 21
76.99371675745893
 31
0.0
  0
LINE
  5
7E0
330
1F
100
AcDbEntity
  8
OSIE
100
AcDbLine
 10
89.5345888641005
 20
89.57869008004674
 30
0.0
 11
89.5345888641005
 21
75.21495768982754
 31
0.0
  0
LINE
  5
7E1
330
1F
100
AcDbEntity
  8
OSIE
100
AcDbLine
 10
89.53458893327564
 20
174.5875645215166
 30
0.0
 11
89.53458893327564
 21
169.251761768228
 31
0.0
  0
LINE
  5
7E2
330
1F
100
AcDbEntity
  8
OSIE
100
AcDbLine
 10
146.6368558668023
 20
176.5902006214827
 30
0.0
 11
146.6368558668023
 21
127.0719282654066
 31
0.0
  0
LINE
  5
7E3
330
1F
100
AcDbEntity
  8
OSIE
100
AcDbLine
 10
140.0368559025655
 20
129.5348923534231
 30
0.0
 11
140.0368559025655
 21
138.7797622951718
 31
0.0
  0
LINE
  5
7E4
330
1F
100
AcDbEntity
  8
OSIE
100
AcDbLine
 10
153.23685583104
 20
129.5348923534233
 30
0.0
 11
153.23685583104
 21
138.779762295172
 31
0.0
  0
LINE
  5
7E5
330
1F
100
AcDbEntity
  8
OSIE
100
AcDbLine
 10
63.10703643341674
 20
215.4019270780955
 30
0.0
 11
95.08121287841442
 21
215.4019270780955
 31
0.0
  0
LINE
  5
7E6
330
1F
100
AcDbEntity
  8
OSIE
100
AcDbLine
 10
71.33458888372928
 20
129.3421645258205
 30
0.0
 11
71.33458888372928
 21
138.9284409777413
 31
0.0
  0
LINE
  5
7E7
330
1F
100
AcDbEntity
  8
OSIE
100
AcDbLine
 10
77.63458883371726
 20
129.3421645258205
 30
0.0
 11
77.63458883371726
 21
138.9284409777413
 31
0.0
  0
LINE
  5
7E8
330
1F
100
AcDbEntity
  8
OSIE
100
AcDbLine
 10
83.93458890012056
 20
129.3421645258205
 30
0.0
 11
83.93458890012056
 21
138.9284409777413
 31
0.0
  0
LINE
  5
7E9
330
1F
100
AcDbEntity
  8
OSIE
100
AcDbLine
 10
88.03458868740648
 20
129.3421645258205
 30
0.0
 11
88.03458868740648
 21
138.9284409777413
 31
0.0
  0
LINE
  5
7EA
330
1F
100
AcDbEntity
  8
OSIE
100
AcDbLine
 10
78.88458886398513
 20
228.7581004351613
 30
0.0
 11
78.88458886398513
 21
201.4911327842096
 31
0.0
  0
LINE
  5
7EB
330
1F
100
AcDbEntity
  8
OSIE
100
AcDbLine
 10
78.88458886398524
 20
135.8621891204582
 30
0.0
 11
78.88458886398524
 21
176.141427942577
 31
0.0
  0
LINE
  5
7EC
330
1F
100
AcDbEntity
  8
OSIE
100
AcDbLine
 10
61.86878213870614
 20
87.59371644602466
 30
0.0
 11
95.38253000400618
 21
87.59371644602466
 31
0.0
  0
LINE
  5
7ED
330
1F
100
AcDbEntity
  8
OSIE
100
AcDbLine
 10
78.88458886398524
 20
101.5188363548758
 30
0.0
 11
78.88458886398524
 21
74.17565251367682
 31
0.0
  0
LINE
  5
7EE
330
1F
100
AcDbEntity
  8
OSIE
100
AcDbLine
 10
86.85406515824712
 20
86.79371644602467
 30
0.0
 11
100.6712252657765
 21
86.79371644602467
 31
0.0
  0
LINE
  5
7EF
330
1F
100
AcDbEntity
  8
3
100
AcDbLine
 10
91.51619365371755
 20
84.79371665315084
 30
0.0
 11
91.51619365371755
 21
88.79371637747936
 31
0.0
  0
LINE
  5
7F0
330
1F
100
AcDbEntity
  8
3
100
AcDbLine
 10
98.25131455369285
 20
88.79371637747936
 30
0.0
 11
91.51619365371755
 21
88.79371637747936
 31
0.0
  0
LINE
  5
7F1
330
1F
100
AcDbEntity
  8
3
100
AcDbLine
 10
91.51619365371755
 20
88.79371637747936
 30
0.0
 11
89.51619373334563
 21
88.79371637747936
 31
0.0
  0
CIRCLE
  5
7F2
330
1F
100
AcDbEntity
  8
3
100
AcDbCircle
 10
89.51619375355529
 20
86.79371644602467
 30
0.0
 40
1.0
  0
LINE
  5
7F3
330
1F
100
AcDbEntity
  8
3
100
AcDbLine
 10
91.51619365371755
 20
84.79371665315084
 30
0.0
 11
98.25131455369285
 21
84.79371665315084
 31
0.0
  0
LINE
  5
7F4
330
1F
100
AcDbEntity
  8
3
100
AcDbLine
 10
89.51619373334563
 20
84.79371665315084
 30
0.0
 11
91.51619365371755
 21
84.79371665315084
 31
0.0
  0
ARC
  5
7F5
330
1F
100
AcDbEntity
  8
3
100
AcDbCircle
 10
89.51619375355529
 20
86.79371644602467
 30
0.0
 40
2.0
100
AcDbArc
 50
90.00000000514588
 51
269.9999999882492
  0
LINE
  5
7F6
330
1F
100
AcDbEntity
  8
3
100
AcDbLine
 10
98.7655582831054
 20
86.29371689902
 30
0.0
 11
98.7655582831054
 21
87.2937161316102
 31
0.0
  0
LINE
  5
7F7
330
1F
100
AcDbEntity
  8
3
100
AcDbLine
 10
98.7432149232178
 20
86.29371689902
 30
0.0
 11
98.7432149232178
 21
85.29371673510722
 31
0.0
  0
LINE
  5
7F8
330
1F
100
AcDbEntity
  8
3
100
AcDbLine
 10
98.26555820114902
 20
86.29371689902
 30
0.0
 11
95.0782990076392
 21
86.29371689902
 31
0.0
  0
LINE
  5
7F9
330
1F
100
AcDbEntity
  8
3
100
AcDbLine
 10
98.26555820114902
 20
86.29371689902
 30
0.0
 11
98.26555820114902
 21
87.2937161316102
 31
0.0
  0
LINE
  5
7FA
330
1F
100
AcDbEntity
  8
3
100
AcDbLine
 10
98.7655582831054
 20
86.29371689902
 30
0.0
 11
98.26555820114902
 21
86.29371689902
 31
0.0
  0
ARC
  5
7FB
330
1F
100
AcDbEntity
  8
3
100
AcDbCircle
 10
98.24723077321391
 20
85.28970025360125
 30
0.0
 40
0.4960004124784145
100
AcDbArc
 50
270.4717456350584
 51
0.4639712954011419
  0
LINE
  5
7FC
330
1F
100
AcDbEntity
  8
3
100
AcDbLine
 10
95.0782990076392
 20
86.29371689902
 30
0.0
 11
95.0782990076392
 21
87.2937161316102
 31
0.0
  0
LINE
  5
7FD
330
1F
100
AcDbEntity
  8
3
100
AcDbLine
 10
98.26555820114902
 20
87.2937161316102
 30
0.0
 11
95.0782990076392
 21
87.2937161316102
 31
0.0
  0
LINE
  5
7FE
330
1F
100
AcDbEntity
  8
3
100
AcDbLine
 10
98.7432149232178
 20
88.29371629552297
 30
0.0
 11
98.7432149232178
 21
87.2937161316102
 31
0.0
  0
ARC
  5
7FF
330
1F
100
AcDbEntity
  8
3
100
AcDbCircle
 10
98.24723077321391
 20
88.29773277702894
 30
0.0
 40
0.4960004124784287
100
AcDbArc
 50
359.5360287045988
 51
89.52825436494159
  0
LINE
  5
800
330
1F
100
AcDbEntity
  8
3
100
AcDbLine
 10
98.7655582831054
 20
87.2937161316102
 30
0.0
 11
98.26555820114902
 21
87.2937161316102
 31
0.0
  0
LINE
  5
802
330
1F
100
AcDbEntity
  8
OSIE
100
AcDbLine
 10
66.05938312796678
 20
218.7019270602141
 30
0.0
 11
91.6686066918574
 21
218.7019270602141
 31
0.0
  0
LINE
  5
803
330
1F
100
AcDbEntity
  8
OSIE
100
AcDbLine
 10
66.05938312796678
 20
212.1019270959769
 30
0.0
 11
91.6686066918574
 21
212.1019270959769
 31
0.0
  0
DIMENSION
  5
80E
330
1F
100
AcDbEntity
  8
WY
100
AcDbDimension
  2
*D16
 10
108.9082506628353
 20
204.8019270780952
 30
0.0
 11
106.7415839961686
 21
215.4019270780954
 31
0.0
 70
    32
  3
ISO-25
100
AcDbAlignedDimension
 13
92.13458886398513
 23
226.0019270780955
 33
0.0
 14
92.13458886398513
 24
204.8019270780952
 34
0.0
 50
90.0
100
AcDbRotatedDimension
1001
ACAD
1000
DSTYLE
1002
{
1070
   287
1070
     5
1070
   179
1070
     2
1070
   143
1040
0.0393700787401575
1070
    41
1040
2.0
1070
    44
1040
1.0
1070
    42
1040
1.0
1070
   147
1040
1.0
1070
    77
1070
     3
1070
   174
1070
     1
1070
   279
1070
     2
1070
    74
1070
     1
1070
   140
1040
2.0
1002
}
  0
DIMENSION
  5
80F
330
1F
100
AcDbEntity
  8
WY
100
AcDbDimension
  2
*D17
 10
77.63458883371726
 20
122.5762067540788
 30
0.0
 11
74.48458885872327
 21
124.7428734207455
 31
0.0
 70
    32
  3
ISO-25
100
AcDbAlignedDimension
 13
71.33458888372928
 23
129.3421645258205
 33
0.0
 14
77.63458883371726
 24
129.3421645258205
 34
0.0
100
AcDbRotatedDimension
1001
ACAD
1000
DSTYLE
1002
{
1070
   287
1070
     5
1070
   179
1070
     2
1070
   143
1040
0.0393700787401575
1070
    41
1040
2.0
1070
    44
1040
1.0
1070
    42
1040
1.0
1070
   147
1040
1.0
1070
    77
1070
     3
1070
   174
1070
     1
1070
   279
1070
     2
1070
    74
1070
     1
1070
   140
1040
2.0
1002
}
  0
DIMENSION
  5
810
330
1F
100
AcDbEntity
  8
WY
100
AcDbDimension
  2
*D18
 10
83.93458890012056
 20
122.5762067540788
 30
0.0
 11
80.78458886691891
 21
124.7428734207455
 31
0.0
 70
    32
  3
ISO-25
100
AcDbAlignedDimension
 13
77.63458883371726
 23
129.3421645258205
 33
0.0
 14
83.93458890012056
 24
129.3421645258205
 34
0.0
100
AcDbRotatedDimension
1001
ACAD
1000
DSTYLE
1002
{
1070
   287
1070
     5
1070
   179
1070
     2
1070
   143
1040
0.0393700787401575
1070
    41
1040
2.0
1070
    44
1040
1.0
1070
    42
1040
1.0
1070
   147
1040
1.0
1070
    77
1070
     3
1070
   174
1070
     1
1070
   279
1070
     2
1070
    74
1070
     1
1070
   140
1040
2.0
1002
}
  0
DIMENSION
  5
811
330
1F
100
AcDbEntity
  8
WY
100
AcDbDimension
  2
*D19
 10
88.03458868740648
 20
122.5762067540788
 30
0.0
 11
85.98458879376352
 21
124.7428734207455
 31
0.0
 70
    32
  3
ISO-25
100
AcDbAlignedDimension
 13
83.93458890012056
 23
129.3421645258205
 33
0.0
 14
88.03458868740648
 24
129.3421645258205
 34
0.0
100
AcDbRotatedDimension
1001
ACAD
1000
DSTYLE
1002
{
1070
   287
1070
     5
1070
   179
1070
     2
1070
   143
1040
0.0393700787401575
1070
    41
1040
2.0
1070
    44
1040
1.0
1070
    42
1040
1.0
1070
   147
1040
1.0
1070
    77
1070
     3
1070
   174
1070
     1
1070
   279
1070
     2
1070
    74
1070
     1
1070
   140
1040
2.0
1002
}
  0
DIMENSION
  5
812
330
1F
100
AcDbEntity
  8
WY
100
AcDbDimension
  2
*D20
 10
65.13458893849105
 20
122.5762067540788
 30
0.0
 11
68.23458891111017
 21
124.7428734207455
 31
0.0
 70
    32
  3
ISO-25
100
AcDbAlignedDimension
 13
71.33458888372928
 23
129.3421645258205
 33
0.0
 14
65.13458893849105
 24
139.2901764951618
 34
0.0
100
AcDbRotatedDimension
1001
ACAD
1000
DSTYLE
1002
{
1070
   287
1070
     5
1070
   179
1070
     2
1070
   143
1040
0.0393700787401575
1070
    41
1040
2.0
1070
    44
1040
1.0
1070
    42
1040
1.0
1070
   147
1040
1.0
1070
    77
1070
     3
1070
   174
1070
     1
1070
   279
1070
     2
1070
    74
1070
     1
1070
   140
1040
2.0
1002
}
  0
DIMENSION
  5
813
330
1F
100
AcDbEntity
  8
WY
100
AcDbDimension
  2
*D21
 10
92.63458878947944
 20
116.0674084239634
 30
0.0
 11
78.88458886398524
 21
118.23407509063
 31
0.0
 70
    32
  3
ISO-25
100
AcDbAlignedDimension
 13
65.13458893849105
 23
139.2901764951618
 33
0.0
 14
92.63458878947944
 24
139.2901764951618
 34
0.0
100
AcDbRotatedDimension
1001
ACAD
1000
DSTYLE
1002
{
1070
   287
1070
     5
1070
   179
1070
     2
1070
   143
1040
0.0393700787401575
1070
    41
1040
2.0
1070
    44
1040
1.0
1070
    42
1040
1.0
1070
   147
1040
1.0
1070
    77
1070
     3
1070
   174
1070
     1
1070
   279
1070
     2
1070
    74
1070
     1
1070
   140
1040
2.0
1002
}
  0
DIMENSION
  5
814
330
1F
100
AcDbEntity
  8
WY
100
AcDbDimension
  2
*D22
 10
166.8327198266734
 20
137.7901764821234
 30
0.0
 11
164.6660531600067
 21
155.5901764821234
 31
0.0
 70
    32
  3
ISO-25
100
AcDbAlignedDimension
 13
156.7368558665972
 23
173.3901764821234
 33
0.0
 14
157.1368557252417
 24
137.7901764821234
 34
0.0
 50
90.0
100
AcDbRotatedDimension
1001
ACAD
1000
DSTYLE
1002
{
1070
   287
1070
     5
1070
   179
1070
     2
1070
   143
1040
0.0393700787401575
1070
    41
1040
2.0
1070
    44
1040
1.0
1070
    42
1040
1.0
1070
   147
1040
1.0
1070
    77
1070
     3
1070
   174
1070
     1
1070
   279
1070
     2
1070
    74
1070
     1
1070
   140
1040
2.0
1002
}
  0
DIMENSION
  5
815
330
1F
100
AcDbEntity
  8
WY
100
AcDbDimension
  2
*D23
 10
166.8327198266734
 20
137.7901764821234
 30
0.0
 11
164.6660531600067
 21
134.5401764150681
 31
0.0
 70
    32
  3
ISO-25
100
AcDbAlignedDimension
 13
153.7368559129964
 23
131.2901763480129
 33
0.0
 14
157.1368557252417
 24
137.7901764821234
 34
0.0
 50
90.0
100
AcDbRotatedDimension
1001
ACAD
1000
DSTYLE
1002
{
1070
   287
1070
     5
1070
   179
1070
     2
1070
   143
1040
0.0393700787401575
1070
    41
1040
2.0
1070
    44
1040
1.0
1070
    42
1040
1.0
1070
   147
1040
1.0
1070
    77
1070
     3
1070
   174
1070
     1
1070
   279
1070
     2
1070
    74
1070
     1
1070
   140
1040
2.0
1002
}
  0
DIMENSION
  5
816
330
1F
100
AcDbEntity
  8
WY
100
AcDbDimension
  2
*D24
 10
154.3368558250795
 20
124.2593735364392
 30
0.0
 11
164.8368558250795
 21
124.2593735364392
 31
0.0
 70
   160
  3
ISO-25
100
AcDbAlignedDimension
 13
152.1368558370004
 23
132.0901763860109
 33
0.0
 14
154.3368558250795
 24
132.0901763860109
 34
0.0
100
AcDbRotatedDimension
1001
ACAD
1000
DSTYLE
1002
{
1070
   287
1070
     3
1070
     3
1000
x0,5
1070
   179
1070
     2
1070
   143
1040
0.0393700787401575
1070
    41
1040
2.0
1070
    44
1040
1.0
1070
    42
1040
1.0
1070
   147
1040
1.0
1070
    77
1070
     3
1070
   174
1070
     1
1070
   279
1070
     0
1070
    74
1070
     1
1070
   140
1040
2.0
1002
}
  0
DIMENSION
  5
817
330
1F
100
AcDbEntity
  8
WY
100
AcDbDimension
  2
*D25
 10
100.6712252657765
 20
86.79371644602467
 30
0.0
 11
100.1731733489539
 21
76.15513196117124
 31
0.0
 70
    34
  1
 
  3
ISO-25
100
AcDb2LineAngularDimension
 13
89.5345888641005
 23
89.57869008004674
 33
0.0
 14
89.5345888641005
 24
75.21495768982754
 34
0.0
 15
86.85406515824712
 25
86.79371644602467
 35
0.0
 16
98.05720409556636
 26
72.03211385176543
 36
0.0
1001
ACAD
1000
DSTYLE
1002
{
1070
   287
1070
     5
1070
     7
1000

1070
     6
1000
NONE
1070
     5
1000

1070
   173
1070
     1
1070
    79
1070
     2
1070
   179
1070
     2
1070
   143
1040
0.0393700787401575
1070
    41
1040
2.0
1070
    44
1040
1.0
1070
    42
1040
1.0
1070
   147
1040
1.0
1070
    77
1070
     3
1070
   174
1070
     1
1070
   279
1070
     2
1070
    74
1070
     1
1070
   140
1040
2.0
1002
}
  0
LINE
  5
8A8
330
1F
100
AcDbEntity
  8
1
  6
CONTINUOUS
 62
     7
100
AcDbLine
 10
87.7845887894793
 20
208.3019270780955
 30
0.0
 11
88.2845887894793
 21
208.3019270780955
 31
0.0
  0
LINE
  5
8A9
330
1F
100
AcDbEntity
  8
1
  6
CONTINUOUS
 62
     7
100
AcDbLine
 10
87.7845887894793
 20
208.3019270780955
 30
0.0
 11
87.7845887894793
 21
209.3019270780955
 31
0.0
  0
LINE
  5
8AA
330
1F
100
AcDbEntity
  8
1
  6
CONTINUOUS
 62
     7
100
AcDbLine
 10
87.7845887894793
 20
209.3019270780955
 30
0.0
 11
88.2845887894793
 21
209.3019270780955
 31
0.0
  0
LINE
  5
8AB
330
1F
100
AcDbEntity
  8
1
  6
CONTINUOUS
 62
     7
100
AcDbLine
 10
88.2845887894793
 20
209.3019270780955
 30
0.0
 11
88.2845887894793
 21
208.3019270780955
 31
0.0
  0
LINE
  5
8AC
330
1F
100
AcDbEntity
  8
1
  6
CONTINUOUS
 62
     7
100
AcDbLine
 10
83.68458878947933
 20
208.3019270780955
 30
0.0
 11
84.18458878947933
 21
208.3019270780955
 31
0.0
  0
LINE
  5
8AD
330
1F
100
AcDbEntity
  8
1
  6
CONTINUOUS
 62
     7
100
AcDbLine
 10
83.68458878947933
 20
208.3019270780955
 30
0.0
 11
83.68458878947933
 21
209.3019270780955
 31
0.0
  0
LINE
  5
8AE
330
1F
100
AcDbEntity
  8
1
  6
CONTINUOUS
 62
     7
100
AcDbLine
 10
83.68458878947933
 20
209.3019270780955
 30
0.0
 11
84.18458878947933
 21
209.3019270780955
 31
0.0
  0
LINE
  5
8AF
330
1F
100
AcDbEntity
  8
1
  6
CONTINUOUS
 62
     7
100
AcDbLine
 10
84.18458878947933
 20
209.3019270780955
 30
0.0
 11
84.18458878947933
 21
208.3019270780955
 31
0.0
  0
LINE
  5
8B0
330
1F
100
AcDbEntity
  8
1
  6
CONTINUOUS
 62
     7
100
AcDbLine
 10
83.68458878947933
 20
222.5019270780955
 30
0.0
 11
83.68458878947933
 21
221.5019270780955
 31
0.0
  0
LINE
  5
8B1
330
1F
100
AcDbEntity
  8
1
  6
CONTINUOUS
 62
     7
100
AcDbLine
 10
83.68458878947933
 20
222.5019270780955
 30
0.0
 11
84.18458878947933
 21
222.5019270780955
 31
0.0
  0
LINE
  5
8B2
330
1F
100
AcDbEntity
  8
1
  6
CONTINUOUS
 62
     7
100
AcDbLine
 10
84.18458878947933
 20
221.5019270780955
 30
0.0
 11
84.18458878947933
 21
222.5019270780955
 31
0.0
  0
LINE
  5
8B3
330
1F
100
AcDbEntity
  8
1
  6
CONTINUOUS
 62
     7
100
AcDbLine
 10
83.68458878947933
 20
221.5019270780955
 30
0.0
 11
84.18458878947933
 21
221.5019270780955
 31
0.0
  0
LINE
  5
8B4
330
1F
100
AcDbEntity
  8
1
  6
CONTINUOUS
 62
     7
100
AcDbLine
 10
71.08458878947931
 20
209.3019270780955
 30
0.0
 11
71.08458878947931
 21
209.9019270780955
 31
0.0
  0
LINE
  5
8B5
330
1F
100
AcDbEntity
  8
1
  6
CONTINUOUS
 62
     7
100
AcDbLine
 10
71.08458878947931
 20
209.9019270780955
 30
0.0
 11
71.58458878947931
 21
209.9019270780955
 31
0.0
  0
LINE
  5
8B6
330
1F
100
AcDbEntity
  8
1
  6
CONTINUOUS
 62
     7
100
AcDbLine
 10
71.58458878947931
 20
209.9019270780955
 30
0.0
 11
71.58458878947931
 21
209.3019270780955
 31
0.0
  0
LINE
  5
8B7
330
1F
100
AcDbEntity
  8
1
  6
CONTINUOUS
 62
     7
100
AcDbLine
 10
71.08458878947931
 20
209.3019270780955
 30
0.0
 11
71.58458878947931
 21
209.3019270780955
 31
0.0
  0
LINE
  5
8B8
330
1F
100
AcDbEntity
  8
1
  6
CONTINUOUS
 62
     7
100
AcDbLine
 10
71.08458878947931
 20
220.9019270780954
 30
0.0
 11
71.08458878947931
 21
221.5019270780954
 31
0.0
  0
LINE
  5
8B9
330
1F
100
AcDbEntity
  8
1
  6
CONTINUOUS
 62
     7
100
AcDbLine
 10
71.58458878947931
 20
221.5019270780954
 30
0.0
 11
71.08458878947931
 21
221.5019270780954
 31
0.0
  0
LINE
  5
8BA
330
1F
100
AcDbEntity
  8
1
  6
CONTINUOUS
 62
     7
100
AcDbLine
 10
71.58458878947931
 20
221.5019270780954
 30
0.0
 11
71.58458878947931
 21
220.9019270780954
 31
0.0
  0
LINE
  5
8BB
330
1F
100
AcDbEntity
  8
1
  6
CONTINUOUS
 62
     7
100
AcDbLine
 10
71.08458878947931
 20
220.9019270780954
 30
0.0
 11
71.58458878947931
 21
220.9019270780954
 31
0.0
  0
LINE
  5
8BC
330
1F
100
AcDbEntity
  8
1
  6
CONTINUOUS
 62
     7
100
AcDbLine
 10
83.68458878947933
 20
209.9019270780955
 30
0.0
 11
84.18458878947933
 21
209.9019270780955
 31
0.0
  0
LINE
  5
8BD
330
1F
100
AcDbEntity
  8
1
  6
CONTINUOUS
 62
     7
100
AcDbLine
 10
83.68458878947933
 20
209.3019270780955
 30
0.0
 11
83.68458878947933
 21
209.9019270780955
 31
0.0
  0
LINE
  5
8BE
330
1F
100
AcDbEntity
  8
1
  6
CONTINUOUS
 62
     7
100
AcDbLine
 10
84.18458878947933
 20
209.9019270780955
 30
0.0
 11
84.18458878947933
 21
209.3019270780955
 31
0.0
  0
LINE
  5
8BF
330
1F
100
AcDbEntity
  8
1
  6
CONTINUOUS
 62
     7
100
AcDbLine
 10
77.38458878947932
 20
209.9019270780955
 30
0.0
 11
77.88458878947932
 21
209.9019270780955
 31
0.0
  0
LINE
  5
8C0
330
1F
100
AcDbEntity
  8
1
  6
CONTINUOUS
 62
     7
100
AcDbLine
 10
77.38458878947932
 20
209.3019270780955
 30
0.0
 11
77.88458878947932
 21
209.3019270780955
 31
0.0
  0
LINE
  5
8C1
330
1F
100
AcDbEntity
  8
1
  6
CONTINUOUS
 62
     7
100
AcDbLine
 10
77.88458878947932
 20
209.9019270780955
 30
0.0
 11
77.88458878947932
 21
209.3019270780955
 31
0.0
  0
LINE
  5
8C2
330
1F
100
AcDbEntity
  8
1
  6
CONTINUOUS
 62
     7
100
AcDbLine
 10
77.38458878947932
 20
209.3019270780955
 30
0.0
 11
77.38458878947932
 21
209.9019270780955
 31
0.0
  0
LINE
  5
8C3
330
1F
100
AcDbEntity
  8
1
  6
CONTINUOUS
 62
     7
100
AcDbLine
 10
87.7845887894793
 20
209.9019270780955
 30
0.0
 11
88.2845887894793
 21
209.9019270780955
 31
0.0
  0
LINE
  5
8C4
330
1F
100
AcDbEntity
  8
1
  6
CONTINUOUS
 62
     7
100
AcDbLine
 10
88.2845887894793
 20
209.9019270780955
 30
0.0
 11
88.2845887894793
 21
209.3019270780955
 31
0.0
  0
LINE
  5
8C5
330
1F
100
AcDbEntity
  8
1
  6
CONTINUOUS
 62
     7
100
AcDbLine
 10
87.7845887894793
 20
209.3019270780955
 30
0.0
 11
87.7845887894793
 21
209.9019270780955
 31
0.0
  0
LINE
  5
8C6
330
1F
100
AcDbEntity
  8
1
  6
CONTINUOUS
 62
     7
100
AcDbLine
 10
77.38458878947932
 20
221.5019270780955
 30
0.0
 11
77.88458878947932
 21
221.5019270780955
 31
0.0
  0
LINE
  5
8C7
330
1F
100
AcDbEntity
  8
1
  6
CONTINUOUS
 62
     7
100
AcDbLine
 10
77.88458878947932
 20
221.5019270780955
 30
0.0
 11
77.88458878947932
 21
220.9019270780954
 31
0.0
  0
LINE
  5
8C8
330
1F
100
AcDbEntity
  8
1
  6
CONTINUOUS
 62
     7
100
AcDbLine
 10
77.38458878947932
 20
220.9019270780954
 30
0.0
 11
77.88458878947932
 21
220.9019270780954
 31
0.0
  0
LINE
  5
8C9
330
1F
100
AcDbEntity
  8
1
  6
CONTINUOUS
 62
     7
100
AcDbLine
 10
77.38458878947932
 20
220.9019270780954
 30
0.0
 11
77.38458878947932
 21
221.5019270780955
 31
0.0
  0
LINE
  5
8CA
330
1F
100
AcDbEntity
  8
1
  6
CONTINUOUS
 62
     7
100
AcDbLine
 10
77.38458878947932
 20
208.3019270780955
 30
0.0
 11
77.88458878947932
 21
208.3019270780955
 31
0.0
  0
LINE
  5
8CB
330
1F
100
AcDbEntity
  8
1
  6
CONTINUOUS
 62
     7
100
AcDbLine
 10
77.88458878947932
 20
209.3019270780955
 30
0.0
 11
77.88458878947932
 21
208.3019270780955
 31
0.0
  0
LINE
  5
8CC
330
1F
100
AcDbEntity
  8
1
  6
CONTINUOUS
 62
     7
100
AcDbLine
 10
77.38458878947932
 20
208.3019270780955
 30
0.0
 11
77.38458878947932
 21
209.3019270780955
 31
0.0
  0
LINE
  5
8CD
330
1F
100
AcDbEntity
  8
1
  6
CONTINUOUS
 62
     7
100
AcDbLine
 10
71.08458878947931
 20
208.3019270780955
 30
0.0
 11
71.58458878947931
 21
208.3019270780955
 31
0.0
  0
LINE
  5
8CE
330
1F
100
AcDbEntity
  8
1
  6
CONTINUOUS
 62
     7
100
AcDbLine
 10
71.58458878947931
 20
209.3019270780955
 30
0.0
 11
71.58458878947931
 21
208.3019270780955
 31
0.0
  0
LINE
  5
8CF
330
1F
100
AcDbEntity
  8
1
  6
CONTINUOUS
 62
     7
100
AcDbLine
 10
71.08458878947931
 20
208.3019270780955
 30
0.0
 11
71.08458878947931
 21
209.3019270780955
 31
0.0
  0
LINE
  5
8D0
330
1F
100
AcDbEntity
  8
1
  6
CONTINUOUS
 62
     7
100
AcDbLine
 10
77.38458878947932
 20
222.5019270780955
 30
0.0
 11
77.88458878947932
 21
222.5019270780955
 31
0.0
  0
LINE
  5
8D1
330
1F
100
AcDbEntity
  8
1
  6
CONTINUOUS
 62
     7
100
AcDbLine
 10
77.88458878947932
 20
221.5019270780955
 30
0.0
 11
77.88458878947932
 21
222.5019270780955
 31
0.0
  0
LINE
  5
8D2
330
1F
100
AcDbEntity
  8
1
  6
CONTINUOUS
 62
     7
100
AcDbLine
 10
77.38458878947932
 20
222.5019270780955
 30
0.0
 11
77.38458878947932
 21
221.5019270780955
 31
0.0
  0
LINE
  5
8D3
330
1F
100
AcDbEntity
  8
1
  6
CONTINUOUS
 62
     7
100
AcDbLine
 10
87.7845887894793
 20
222.5019270780955
 30
0.0
 11
87.7845887894793
 21
221.5019270780955
 31
0.0
  0
LINE
  5
8D4
330
1F
100
AcDbEntity
  8
1
  6
CONTINUOUS
 62
     7
100
AcDbLine
 10
87.7845887894793
 20
222.5019270780955
 30
0.0
 11
88.2845887894793
 21
222.5019270780955
 31
0.0
  0
LINE
  5
8D5
330
1F
100
AcDbEntity
  8
1
  6
CONTINUOUS
 62
     7
100
AcDbLine
 10
88.2845887894793
 20
221.5019270780955
 30
0.0
 11
88.2845887894793
 21
222.5019270780955
 31
0.0
  0
LINE
  5
8D6
330
1F
100
AcDbEntity
  8
1
  6
CONTINUOUS
 62
     7
100
AcDbLine
 10
87.7845887894793
 20
221.5019270780955
 30
0.0
 11
88.2845887894793
 21
221.5019270780955
 31
0.0
  0
LINE
  5
8D7
330
1F
100
AcDbEntity
  8
1
  6
CONTINUOUS
 62
     7
100
AcDbLine
 10
84.18458878947933
 20
221.5019270780955
 30
0.0
 11
84.18458878947933
 21
220.9019270780955
 31
0.0
  0
LINE
  5
8D8
330
1F
100
AcDbEntity
  8
1
  6
CONTINUOUS
 62
     7
100
AcDbLine
 10
83.68458878947933
 20
220.9019270780955
 30
0.0
 11
84.18458878947933
 21
220.9019270780955
 31
0.0
  0
LINE
  5
8D9
330
1F
100
AcDbEntity
  8
1
  6
CONTINUOUS
 62
     7
100
AcDbLine
 10
83.68458878947933
 20
220.9019270780955
 30
0.0
 11
83.68458878947933
 21
221.5019270780955
 31
0.0
  0
LINE
  5
8DA
330
1F
100
AcDbEntity
  8
1
  6
CONTINUOUS
 62
     7
100
AcDbLine
 10
88.2845887894793
 20
220.9019270780955
 30
0.0
 11
88.2845887894793
 21
221.5019270780955
 31
0.0
  0
LINE
  5
8DB
330
1F
100
AcDbEntity
  8
1
  6
CONTINUOUS
 62
     7
100
AcDbLine
 10
87.7845887894793
 20
220.9019270780955
 30
0.0
 11
88.2845887894793
 21
220.9019270780955
 31
0.0
  0
LINE
  5
8DC
330
1F
100
AcDbEntity
  8
1
  6
CONTINUOUS
 62
     7
100
AcDbLine
 10
87.7845887894793
 20
220.9019270780955
 30
0.0
 11
87.7845887894793
 21
221.5019270780955
 31
0.0
  0
LINE
  5
8DD
330
1F
100
AcDbEntity
  8
1
  6
CONTINUOUS
 62
     7
100
AcDbLine
 10
71.08458878947931
 20
222.5019270780954
 30
0.0
 11
71.58458878947931
 21
222.5019270780954
 31
0.0
  0
LINE
  5
8DE
330
1F
100
AcDbEntity
  8
1
  6
CONTINUOUS
 62
     7
100
AcDbLine
 10
71.58458878947931
 20
221.5019270780954
 30
0.0
 11
71.58458878947931
 21
222.5019270780954
 31
0.0
  0
LINE
  5
8DF
330
1F
100
AcDbEntity
  8
1
  6
CONTINUOUS
 62
     7
100
AcDbLine
 10
71.08458878947931
 20
222.5019270780954
 30
0.0
 11
71.08458878947931
 21
221.5019270780954
 31
0.0
  0
LINE
  5
8E0
330
1F
100
AcDbEntity
  8
1
  6
CONTINUOUS
 62
     7
100
AcDbLine
 10
87.7845887894793
 20
216.5019270780955
 30
0.0
 11
88.2845887894793
 21
216.5019270780955
 31
0.0
  0
LINE
  5
8E1
330
1F
100
AcDbEntity
  8
1
  6
CONTINUOUS
 62
     7
100
AcDbLine
 10
88.2845887894793
 20
215.9019270780955
 30
0.0
 11
88.2845887894793
 21
216.5019270780955
 31
0.0
  0
LINE
  5
8E2
330
1F
100
AcDbEntity
  8
1
  6
CONTINUOUS
 62
     7
100
AcDbLine
 10
87.7845887894793
 20
215.9019270780955
 30
0.0
 11
88.2845887894793
 21
215.9019270780955
 31
0.0
  0
LINE
  5
8E3
330
1F
100
AcDbEntity
  8
1
  6
CONTINUOUS
 62
     7
100
AcDbLine
 10
87.7845887894793
 20
215.9019270780955
 30
0.0
 11
87.7845887894793
 21
216.5019270780955
 31
0.0
  0
LINE
  5
8E4
330
1F
100
AcDbEntity
  8
1
  6
CONTINUOUS
 62
     7
100
AcDbLine
 10
88.2845887894793
 20
214.9019270780955
 30
0.0
 11
88.2845887894793
 21
215.9019270780955
 31
0.0
  0
LINE
  5
8E5
330
1F
100
AcDbEntity
  8
1
  6
CONTINUOUS
 62
     7
100
AcDbLine
 10
87.7845887894793
 20
214.9019270780955
 30
0.0
 11
88.2845887894793
 21
214.9019270780955
 31
0.0
  0
LINE
  5
8E6
330
1F
100
AcDbEntity
  8
1
  6
CONTINUOUS
 62
     7
100
AcDbLine
 10
87.7845887894793
 20
215.9019270780955
 30
0.0
 11
87.7845887894793
 21
214.9019270780955
 31
0.0
  0
LINE
  5
8E7
330
1F
100
AcDbEntity
  8
1
  6
CONTINUOUS
 62
     7
100
AcDbLine
 10
83.68458878947933
 20
214.9019270780955
 30
0.0
 11
84.18458878947933
 21
214.9019270780955
 31
0.0
  0
LINE
  5
8E8
330
1F
100
AcDbEntity
  8
1
  6
CONTINUOUS
 62
     7
100
AcDbLine
 10
84.18458878947933
 20
214.3019270780955
 30
0.0
 11
84.18458878947933
 21
214.9019270780955
 31
0.0
  0
LINE
  5
8E9
330
1F
100
AcDbEntity
  8
1
  6
CONTINUOUS
 62
     7
100
AcDbLine
 10
83.68458878947933
 20
214.3019270780955
 30
0.0
 11
84.18458878947933
 21
214.3019270780955
 31
0.0
  0
LINE
  5
8EA
330
1F
100
AcDbEntity
  8
1
  6
CONTINUOUS
 62
     7
100
AcDbLine
 10
83.68458878947933
 20
214.9019270780955
 30
0.0
 11
83.68458878947933
 21
214.3019270780955
 31
0.0
  0
LINE
  5
8EB
330
1F
100
AcDbEntity
  8
1
  6
CONTINUOUS
 62
     7
100
AcDbLine
 10
71.08458878947931
 20
207.7019270780955
 30
0.0
 11
71.58458878947931
 21
207.7019270780955
 31
0.0
  0
LINE
  5
8EC
330
1F
100
AcDbEntity
  8
1
  6
CONTINUOUS
 62
     7
100
AcDbLine
 10
71.58458878947931
 20
208.3019270780955
 30
0.0
 11
71.58458878947931
 21
207.7019270780955
 31
0.0
  0
LINE
  5
8ED
330
1F
100
AcDbEntity
  8
1
  6
CONTINUOUS
 62
     7
100
AcDbLine
 10
71.08458878947931
 20
207.7019270780955
 30
0.0
 11
71.08458878947931
 21
208.3019270780955
 31
0.0
  0
LINE
  5
8EE
330
1F
100
AcDbEntity
  8
1
  6
CONTINUOUS
 62
     7
100
AcDbLine
 10
83.68458878947933
 20
215.9019270780955
 30
0.0
 11
83.68458878947933
 21
216.5019270780955
 31
0.0
  0
LINE
  5
8EF
330
1F
100
AcDbEntity
  8
1
  6
CONTINUOUS
 62
     7
100
AcDbLine
 10
83.68458878947933
 20
216.5019270780955
 30
0.0
 11
84.18458878947933
 21
216.5019270780955
 31
0.0
  0
LINE
  5
8F0
330
1F
100
AcDbEntity
  8
1
  6
CONTINUOUS
 62
     7
100
AcDbLine
 10
84.18458878947933
 20
216.5019270780955
 30
0.0
 11
84.18458878947933
 21
215.9019270780955
 31
0.0
  0
LINE
  5
8F1
330
1F
100
AcDbEntity
  8
1
  6
CONTINUOUS
 62
     7
100
AcDbLine
 10
83.68458878947933
 20
215.9019270780955
 30
0.0
 11
84.18458878947933
 21
215.9019270780955
 31
0.0
  0
LINE
  5
8F2
330
1F
100
AcDbEntity
  8
1
  6
CONTINUOUS
 62
     7
100
AcDbLine
 10
77.38458878947932
 20
215.9019270780954
 30
0.0
 11
77.88458878947932
 21
215.9019270780954
 31
0.0
  0
LINE
  5
8F3
330
1F
100
AcDbEntity
  8
1
  6
CONTINUOUS
 62
     7
100
AcDbLine
 10
77.38458878947932
 20
214.9019270780955
 30
0.0
 11
77.88458878947932
 21
214.9019270780955
 31
0.0
  0
LINE
  5
8F4
330
1F
100
AcDbEntity
  8
1
  6
CONTINUOUS
 62
     7
100
AcDbLine
 10
77.38458878947932
 20
215.9019270780954
 30
0.0
 11
77.38458878947932
 21
214.9019270780955
 31
0.0
  0
LINE
  5
8F5
330
1F
100
AcDbEntity
  8
1
  6
CONTINUOUS
 62
     7
100
AcDbLine
 10
77.88458878947932
 20
214.9019270780955
 30
0.0
 11
77.88458878947932
 21
215.9019270780954
 31
0.0
  0
LINE
  5
8F6
330
1F
100
AcDbEntity
  8
1
  6
CONTINUOUS
 62
     7
100
AcDbLine
 10
83.68458878947933
 20
223.1019270780955
 30
0.0
 11
84.18458878947933
 21
223.1019270780955
 31
0.0
  0
LINE
  5
8F7
330
1F
100
AcDbEntity
  8
1
  6
CONTINUOUS
 62
     7
100
AcDbLine
 10
84.18458878947933
 20
223.1019270780955
 30
0.0
 11
84.18458878947933
 21
222.5019270780955
 31
0.0
  0
LINE
  5
8F8
330
1F
100
AcDbEntity
  8
1
  6
CONTINUOUS
 62
     7
100
AcDbLine
 10
83.68458878947933
 20
222.5019270780955
 30
0.0
 11
83.68458878947933
 21
223.1019270780955
 31
0.0
  0
LINE
  5
8F9
330
1F
100
AcDbEntity
  8
1
  6
CONTINUOUS
 62
     7
100
AcDbLine
 10
84.18458878947933
 20
214.9019270780955
 30
0.0
 11
84.18458878947933
 21
215.9019270780955
 31
0.0
  0
LINE
  5
8FA
330
1F
100
AcDbEntity
  8
1
  6
CONTINUOUS
 62
     7
100
AcDbLine
 10
83.68458878947933
 20
215.9019270780955
 30
0.0
 11
83.68458878947933
 21
214.9019270780955
 31
0.0
  0
LINE
  5
8FB
330
1F
100
AcDbEntity
  8
1
  6
CONTINUOUS
 62
     7
100
AcDbLine
 10
87.7845887894793
 20
207.7019270780955
 30
0.0
 11
88.2845887894793
 21
207.7019270780955
 31
0.0
  0
LINE
  5
8FC
330
1F
100
AcDbEntity
  8
1
  6
CONTINUOUS
 62
     7
100
AcDbLine
 10
88.2845887894793
 20
208.3019270780955
 30
0.0
 11
88.2845887894793
 21
207.7019270780955
 31
0.0
  0
LINE
  5
8FD
330
1F
100
AcDbEntity
  8
1
  6
CONTINUOUS
 62
     7
100
AcDbLine
 10
87.7845887894793
 20
207.7019270780955
 30
0.0
 11
87.7845887894793
 21
208.3019270780955
 31
0.0
  0
LINE
  5
8FE
330
1F
100
AcDbEntity
  8
1
  6
CONTINUOUS
 62
     7
100
AcDbLine
 10
77.38458878947932
 20
207.7019270780955
 30
0.0
 11
77.88458878947932
 21
207.7019270780955
 31
0.0
  0
LINE
  5
8FF
330
1F
100
AcDbEntity
  8
1
  6
CONTINUOUS
 62
     7
100
AcDbLine
 10
77.88458878947932
 20
208.3019270780955
 30
0.0
 11
77.88458878947932
 21
207.7019270780955
 31
0.0
  0
LINE
  5
900
330
1F
100
AcDbEntity
  8
1
  6
CONTINUOUS
 62
     7
100
AcDbLine
 10
77.38458878947932
 20
207.7019270780955
 30
0.0
 11
77.38458878947932
 21
208.3019270780955
 31
0.0
  0
LINE
  5
901
330
1F
100
AcDbEntity
  8
1
  6
CONTINUOUS
 62
     7
100
AcDbLine
 10
77.38458878947932
 20
223.1019270780955
 30
0.0
 11
77.88458878947932
 21
223.1019270780955
 31
0.0
  0
LINE
  5
902
330
1F
100
AcDbEntity
  8
1
  6
CONTINUOUS
 62
     7
100
AcDbLine
 10
77.88458878947932
 20
223.1019270780955
 30
0.0
 11
77.88458878947932
 21
222.5019270780955
 31
0.0
  0
LINE
  5
903
330
1F
100
AcDbEntity
  8
1
  6
CONTINUOUS
 62
     7
100
AcDbLine
 10
77.38458878947932
 20
222.5019270780955
 30
0.0
 11
77.38458878947932
 21
223.1019270780955
 31
0.0
  0
LINE
  5
904
330
1F
100
AcDbEntity
  8
1
  6
CONTINUOUS
 62
     7
100
AcDbLine
 10
71.08458878947931
 20
223.1019270780955
 30
0.0
 11
71.58458878947931
 21
223.1019270780955
 31
0.0
  0
LINE
  5
905
330
1F
100
AcDbEntity
  8
1
  6
CONTINUOUS
 62
     7
100
AcDbLine
 10
71.58458878947931
 20
223.1019270780955
 30
0.0
 11
71.58458878947931
 21
222.5019270780954
 31
0.0
  0
LINE
  5
906
330
1F
100
AcDbEntity
  8
1
  6
CONTINUOUS
 62
     7
100
AcDbLine
 10
71.08458878947931
 20
222.5019270780954
 30
0.0
 11
71.08458878947931
 21
223.1019270780955
 31
0.0
  0
LINE
  5
907
330
1F
100
AcDbEntity
  8
1
  6
CONTINUOUS
 62
     7
100
AcDbLine
 10
77.88458878947932
 20
214.3019270780955
 30
0.0
 11
77.38458878947932
 21
214.3019270780955
 31
0.0
  0
LINE
  5
908
330
1F
100
AcDbEntity
  8
1
  6
CONTINUOUS
 62
     7
100
AcDbLine
 10
77.38458878947932
 20
214.9019270780955
 30
0.0
 11
77.38458878947932
 21
214.3019270780955
 31
0.0
  0
LINE
  5
909
330
1F
100
AcDbEntity
  8
1
  6
CONTINUOUS
 62
     7
100
AcDbLine
 10
77.88458878947932
 20
214.3019270780955
 30
0.0
 11
77.88458878947932
 21
214.9019270780955
 31
0.0
  0
LINE
  5
90A
330
1F
100
AcDbEntity
  8
1
  6
CONTINUOUS
 62
     7
100
AcDbLine
 10
87.7845887894793
 20
223.1019270780955
 30
0.0
 11
88.2845887894793
 21
223.1019270780955
 31
0.0
  0
LINE
  5
90B
330
1F
100
AcDbEntity
  8
1
  6
CONTINUOUS
 62
     7
100
AcDbLine
 10
88.2845887894793
 20
222.5019270780955
 30
0.0
 11
88.2845887894793
 21
223.1019270780955
 31
0.0
  0
LINE
  5
90C
330
1F
100
AcDbEntity
  8
1
  6
CONTINUOUS
 62
     7
100
AcDbLine
 10
87.7845887894793
 20
222.5019270780955
 30
0.0
 11
87.7845887894793
 21
223.1019270780955
 31
0.0
  0
LINE
  5
90D
330
1F
100
AcDbEntity
  8
1
  6
CONTINUOUS
 62
     7
100
AcDbLine
 10
77.38458878947932
 20
216.5019270780955
 30
0.0
 11
77.88458878947932
 21
216.5019270780955
 31
0.0
  0
LINE
  5
90E
330
1F
100
AcDbEntity
  8
1
  6
CONTINUOUS
 62
     7
100
AcDbLine
 10
77.38458878947932
 20
215.9019270780954
 30
0.0
 11
77.38458878947932
 21
216.5019270780955
 31
0.0
  0
LINE
  5
90F
330
1F
100
AcDbEntity
  8
1
  6
CONTINUOUS
 62
     7
100
AcDbLine
 10
77.88458878947932
 20
216.5019270780955
 30
0.0
 11
77.88458878947932
 21
215.9019270780954
 31
0.0
  0
LINE
  5
910
330
1F
100
AcDbEntity
  8
1
  6
CONTINUOUS
 62
     7
100
AcDbLine
 10
87.7845887894793
 20
214.3019270780955
 30
0.0
 11
88.2845887894793
 21
214.3019270780955
 31
0.0
  0
LINE
  5
911
330
1F
100
AcDbEntity
  8
1
  6
CONTINUOUS
 62
     7
100
AcDbLine
 10
88.2845887894793
 20
214.9019270780955
 30
0.0
 11
88.2845887894793
 21
214.3019270780955
 31
0.0
  0
LINE
  5
912
330
1F
100
AcDbEntity
  8
1
  6
CONTINUOUS
 62
     7
100
AcDbLine
 10
87.7845887894793
 20
214.9019270780955
 30
0.0
 11
87.7845887894793
 21
214.3019270780955
 31
0.0
  0
LINE
  5
913
330
1F
100
AcDbEntity
  8
1
  6
CONTINUOUS
 62
     7
100
AcDbLine
 10
83.68458878947933
 20
207.7019270780955
 30
0.0
 11
84.18458878947933
 21
207.7019270780955
 31
0.0
  0
LINE
  5
914
330
1F
100
AcDbEntity
  8
1
  6
CONTINUOUS
 62
     7
100
AcDbLine
 10
83.68458878947933
 20
207.7019270780955
 30
0.0
 11
83.68458878947933
 21
208.3019270780955
 31
0.0
  0
LINE
  5
915
330
1F
100
AcDbEntity
  8
1
  6
CONTINUOUS
 62
     7
100
AcDbLine
 10
84.18458878947933
 20
208.3019270780955
 30
0.0
 11
84.18458878947933
 21
207.7019270780955
 31
0.0
  0
LINE
  5
917
330
1F
100
AcDbEntity
  8
OSIE
100
AcDbLine
 10
71.33458878947931
 20
210.8597492152061
 30
0.0
 11
71.33458878947931
 21
206.7441049409849
 31
0.0
  0
LINE
  5
918
330
1F
100
AcDbEntity
  8
OSIE
100
AcDbLine
 10
77.63458878947932
 20
210.8597492152061
 30
0.0
 11
77.63458878947932
 21
206.7441049409849
 31
0.0
  0
LINE
  5
919
330
1F
100
AcDbEntity
  8
OSIE
100
AcDbLine
 10
83.93458878947933
 20
210.8597492152061
 30
0.0
 11
83.93458878947933
 21
206.7441049409849
 31
0.0
  0
LINE
  5
91A
330
1F
100
AcDbEntity
  8
OSIE
100
AcDbLine
 10
88.0345887894793
 20
210.8597492152061
 30
0.0
 11
88.0345887894793
 21
206.7441049409849
 31
0.0
  0
LINE
  5
922
330
1F
100
AcDbEntity
  8
OSIE
100
AcDbLine
 10
71.33458878947931
 20
224.0597492152061
 30
0.0
 11
71.33458878947931
 21
219.9441049409849
 31
0.0
  0
LINE
  5
923
330
1F
100
AcDbEntity
  8
OSIE
100
AcDbLine
 10
77.63458878947932
 20
224.0597492152061
 30
0.0
 11
77.63458878947932
 21
219.9441049409849
 31
0.0
  0
LINE
  5
924
330
1F
100
AcDbEntity
  8
OSIE
100
AcDbLine
 10
83.93458878947933
 20
224.0597492152061
 30
0.0
 11
83.93458878947933
 21
219.9441049409849
 31
0.0
  0
LINE
  5
925
330
1F
100
AcDbEntity
  8
OSIE
100
AcDbLine
 10
88.0345887894793
 20
224.0597492152061
 30
0.0
 11
88.0345887894793
 21
219.9441049409849
 31
0.0
  0
LINE
  5
927
330
1F
100
AcDbEntity
  8
OSIE
100
AcDbLine
 10
77.63458878947932
 20
217.4597492152061
 30
0.0
 11
77.63458878947932
 21
213.3441049409849
 31
0.0
  0
LINE
  5
928
330
1F
100
AcDbEntity
  8
OSIE
100
AcDbLine
 10
83.93458878947933
 20
217.4597492152061
 30
0.0
 11
83.93458878947933
 21
213.3441049409849
 31
0.0
  0
LINE
  5
929
330
1F
100
AcDbEntity
  8
OSIE
100
AcDbLine
 10
88.0345887894793
 20
217.4597492152061
 30
0.0
 11
88.0345887894793
 21
213.3441049409849
 31
0.0
  0
LINE
  5
92A
102
{ACAD_REACTORS
102
}
330
1F
100
AcDbEntity
  8
OSIE
100
AcDbLine
 10
69.56806920486156
 20
222.0019270780954
 30
0.0
 11
89.80204523704549
 21
222.0019270780954
 31
0.0
  0
LINE
  5
92B
102
{ACAD_REACTORS
102
}
330
1F
100
AcDbEntity
  8
OSIE
100
AcDbLine
 10
69.56806920486156
 20
208.8019270780955
 30
0.0
 11
89.80204523704549
 21
208.8019270780955
 31
0.0
  0
LINE
  5
92C
330
1F
100
AcDbEntity
  8
1
  6
CONTINUOUS
 62
     7
100
AcDbLine
 10
145.5368558727632
 20
132.0901763860108
 30
0.0
 11
145.5368558727631
 21
137.7901764821233
 31
0.0
  0
LINE
  5
92D
330
1F
100
AcDbEntity
  8
1
  6
CONTINUOUS
 62
     7
100
AcDbLine
 10
147.7368558608422
 20
132.0901763860108
 30
0.0
 11
147.1368559487591
 21
131.2901763480128
 31
0.0
  0
LINE
  5
92E
330
1F
100
AcDbEntity
  8
1
  6
CONTINUOUS
 62
     7
100
AcDbLine
 10
147.1368559487591
 20
131.2901763480128
 30
0.0
 11
146.1368557848463
 21
131.2901763480128
 31
0.0
  0
LINE
  5
92F
330
1F
100
AcDbEntity
  8
1
  6
CONTINUOUS
 62
     7
100
AcDbLine
 10
146.1368557848463
 20
131.2901763480128
 30
0.0
 11
145.5368558727632
 21
132.0901763860108
 31
0.0
  0
LINE
  5
930
330
1F
100
AcDbEntity
  8
1
  6
CONTINUOUS
 62
     7
100
AcDbLine
 10
147.036855652971
 20
132.790176593882
 30
0.0
 11
147.036855652971
 21
133.7901762921335
 31
0.0
  0
ARC
  5
931
330
1F
100
AcDbEntity
  8
1
  6
CONTINUOUS
 62
     7
100
AcDbCircle
 10
146.6368558310399
 20
133.7901764821233
 30
0.0
 40
0.4000000002000093
100
AcDbArc
 50
0.0
 51
180.0
  0
LINE
  5
932
330
1F
100
AcDbEntity
  8
1
  6
CONTINUOUS
 62
     7
100
AcDbLine
 10
146.2368556149731
 20
133.7901762921335
 30
0.0
 11
146.2368556149731
 21
132.790176593882
 31
0.0
  0
ARC
  5
933
330
1F
100
AcDbEntity
  8
1
  6
CONTINUOUS
 62
     7
100
AcDbCircle
 10
146.6368558310399
 20
132.7901764821233
 30
0.0
 40
0.4000000002000377
100
AcDbArc
 50
180.0000000110205
 51
0.0
  0
LINE
  5
934
330
1F
100
AcDbEntity
  8
1
  6
CONTINUOUS
 62
     7
100
AcDbLine
 10
147.7368558608422
 20
137.7901764821233
 30
0.0
 11
147.7368558608422
 21
132.0901763860108
 31
0.0
  0
DIMENSION
  5
94F
102
{ACAD_REACTORS
102
}
102
{ACAD_XDICTIONARY
360
950
102
}
330
1F
100
AcDbEntity
  8
WY
100
AcDbDimension
  2
*D26
 10
102.5801960856581
 20
208.8019270780955
 30
0.0
 11
100.4135294189914
 21
215.4019270780955
 31
0.0
 70
    32
  3
ISO-25
100
AcDbAlignedDimension
 13
89.80204523704549
 23
222.0019270780954
 33
0.0
 14
89.80204523704549
 24
208.8019270780955
 34
0.0
 50
90.0
100
AcDbRotatedDimension
1001
ACAD
1000
DSTYLE
1002
{
1070
   179
1070
     2
1070
   143
1040
0.0393700787401575
1070
    41
1040
2.0
1070
    44
1040
1.0
1070
    42
1040
1.0
1070
   147
1040
1.0
1070
   174
1070
     1
1070
    74
1070
     1
1070
   140
1040
2.0
1002
}
  0
ENDSEC
  0
SECTION
  2
OBJECTS
  0
DICTIONARY
  5
C
330
0
100
AcDbDictionary
  3
ACAD_DETAILVIEWSTYLE
350
920
  3
ACAD_GROUP
350
D
  3
ACAD_IMAGE_VARS
350
26B
  3
ACAD_MLINESTYLE
350
17
  3
ACAD_SCALELIST
350
47
  3
ACAD_SECTIONVIEWSTYLE
350
921
  3
ACDBVARIABLEDICTIONARY
350
91B
  3
APPDATA
350
269
  3
DIMOFFSETDICTIONARY
350
93A
  3
DWGPROPS
350
960
  0
DICTIONARY
  5
596
330
2
100
AcDbDictionary
280
     1
  3
ACAD_LAYERSTATES
360
597
  0
DICTIONARY
  5
950
330
94F
100
AcDbDictionary
280
     1
  0
DICTIONARY
  5
920
102
{ACAD_REACTORS
330
C
102
}
330
C
100
AcDbDictionary
  0
DICTIONARY
  5
D
102
{ACAD_REACTORS
330
C
102
}
330
C
100
AcDbDictionary
  0
RASTERVARIABLES
  5
26B
102
{ACAD_REACTORS
330
C
102
}
330
C
100
AcDbRasterVariables
 90
        0
 70
     1
 71
     1
 72
     1
  0
DICTIONARY
  5
17
102
{ACAD_REACTORS
330
C
102
}
330
C
100
AcDbDictionary
  3
STANDARD
350
18
  0
DICTIONARY
  5
47
102
{ACAD_REACTORS
330
C
102
}
330
C
100
AcDbDictionary
  0
DICTIONARY
  5
921
102
{ACAD_REACTORS
330
C
102
}
330
C
100
AcDbDictionary
  0
DICTIONARY
  5
91B
102
{ACAD_REACTORS
330
C
102
}
330
C
100
AcDbDictionary
  3
HPTRANSPARENCY
350
939
  0
DICTIONARY
  5
269
102
{ACAD_REACTORS
330
C
102
}
330
C
100
AcDbDictionary
  0
DICTIONARY
  5
93A
102
{ACAD_REACTORS
330
C
102
}
330
C
100
AcDbDictionary
  3
DIMRAILANGLE
350
94D
  3
DIMRAILFIRSTOFFSET
350
94B
  3
DIMRAILOFFSET
350
94C
  3
DIMRAILSENABLED
350
94E
  0
XRECORD
  5
960
102
{ACAD_REACTORS
330
C
102
}
330
C
100
AcDbXrecord
  1
DWGPROPS COOKIE
  2

  3

  4

  6

  7

  8
pikusl
  9

300
=
301
=
302
=
303
=
304
=
305
=
306
=
307
=
308
=
309
=
 40
0.0
 41
2457525.481905636
 42
2457525.490883634
  1

 90
        0
  0
DICTIONARY
  5
597
102
{ACAD_REACTORS
330
596
102
}
330
596
100
AcDbDictionary
  0
MLINESTYLE
  5
18
102
{ACAD_REACTORS
330
17
102
}
330
17
100
AcDbMlineStyle
  2
Standard
 70
     0
  3

 62
   256
 51
90.0
 52
90.0
 71
     2
 49
0.5
 62
   256
  6
BYLAYER
 49
-0.5
 62
   256
  6
BYLAYER
  0
DICTIONARYVAR
  5
939
102
{ACAD_REACTORS
330
91B
102
}
330
91B
100
DictionaryVariables
280
     0
  1
ByLayer
  0
DICTIONARYVAR
  5
94D
102
{ACAD_REACTORS
330
93A
102
}
330
93A
100
DictionaryVariables
280
     0
  1
0.261799
  0
DICTIONARYVAR
  5
94B
102
{ACAD_REACTORS
330
93A
102
}
330
93A
100
DictionaryVariables
280
     0
  1
10.000000
  0
DICTIONARYVAR
  5
94C
102
{ACAD_REACTORS
330
93A
102
}
330
93A
100
DictionaryVariables
280
     0
  1
6.000000
  0
DICTIONARYVAR
  5
94E
102
{ACAD_REACTORS
330
93A
102
}
330
93A
100
DictionaryVariables
280
     0
  1
1
  0
ENDSEC
  0
EOF
