  0
SECTION
  2
HEADER
  9
$ACADVER
  1
AC1014
  9
$ACADMAINTVER
 70
     9
  9
$DWGCODEPAGE
  3
ANSI_1250
  9
$INSBASE
 10
0.0
 20
0.0
 30
0.0
  9
$EXTMIN
 10
0.0
 20
0.0
 30
0.0
  9
$EXTMAX
 10
201.630407
 20
297.0
 30
0.0
  9
$LIMMIN
 10
0.0
 20
0.0
  9
$LIMMAX
 10
210.0
 20
297.0
  9
$ORTHOMODE
 70
     0
  9
$REGENMODE
 70
     1
  9
$FILLMODE
 70
     1
  9
$QTEXTMODE
 70
     0
  9
$MIRRTEXT
 70
     1
  9
$DRAGMODE
 70
     2
  9
$LTSCALE
 40
1.0
  9
$OSMODE
 70
  9143
  9
$ATTMODE
 70
     1
  9
$TEXTSIZE
 40
2.5
  9
$TRACEWID
 40
1.0
  9
$TEXTSTYLE
  7
STANDARD
  9
$CLAYER
  8
WY
  9
$CELTYPE
  6
BYLAYER
  9
$CECOLOR
 62
   256
  9
$CELTSCALE
 40
1.0
  9
$DELOBJ
 70
     1
  9
$DISPSILH
 70
     0
  9
$DIMSCALE
 40
1.0
  9
$DIMASZ
 40
2.0
  9
$DIMEXO
 40
1.0
  9
$DIMDLI
 40
3.75
  9
$DIMRND
 40
0.0
  9
$DIMDLE
 40
0.0
  9
$DIMEXE
 40
1.0
  9
$DIMTP
 40
0.0
  9
$DIMTM
 40
0.0
  9
$DIMTXT
 40
2.0
  9
$DIMCEN
 40
2.5
  9
$DIMTSZ
 40
0.0
  9
$DIMTOL
 70
     0
  9
$DIMLIM
 70
     0
  9
$DIMTIH
 70
     0
  9
$DIMTOH
 70
     1
  9
$DIMSE1
 70
     0
  9
$DIMSE2
 70
     0
  9
$DIMTAD
 70
     3
  9
$DIMZIN
 70
     8
  9
$DIMBLK
  1

  9
$DIMASO
 70
     1
  9
$DIMSHO
 70
     1
  9
$DIMPOST
  1

  9
$DIMAPOST
  1

  9
$DIMALT
 70
     0
  9
$DIMALTD
 70
     3
  9
$DIMALTF
 40
0.0393700787401575
  9
$DIMLFAC
 40
1.0
  9
$DIMTOFL
 70
     1
  9
$DIMTVP
 40
0.0
  9
$DIMTIX
 70
     1
  9
$DIMSOXD
 70
     0
  9
$DIMSAH
 70
     0
  9
$DIMBLK1
  1

  9
$DIMBLK2
  1

  9
$DIMSTYLE
  2
ISO-25
  9
$DIMCLRD
 70
     0
  9
$DIMCLRE
 70
     0
  9
$DIMCLRT
 70
     0
  9
$DIMTFAC
 40
1.0
  9
$DIMGAP
 40
1.0
  9
$DIMJUST
 70
     0
  9
$DIMSD1
 70
     0
  9
$DIMSD2
 70
     0
  9
$DIMTOLJ
 70
     0
  9
$DIMTZIN
 70
     8
  9
$DIMALTZ
 70
     0
  9
$DIMALTTZ
 70
     0
  9
$DIMFIT
 70
     5
  9
$DIMUPT
 70
     0
  9
$DIMUNIT
 70
     2
  9
$DIMDEC
 70
     2
  9
$DIMTDEC
 70
     2
  9
$DIMALTU
 70
     2
  9
$DIMALTTD
 70
     3
  9
$DIMTXSTY
  7
STANDARD
  9
$DIMAUNIT
 70
     0
  9
$LUNITS
 70
     2
  9
$LUPREC
 70
     2
  9
$SKETCHINC
 40
1.0
  9
$FILLETRAD
 40
10.0
  9
$AUNITS
 70
     0
  9
$AUPREC
 70
     2
  9
$MENU
  1
.
  9
$ELEVATION
 40
0.0
  9
$PELEVATION
 40
0.0
  9
$THICKNESS
 40
0.0
  9
$LIMCHECK
 70
     0
  9
$CHAMFERA
 40
0.0
  9
$CHAMFERB
 40
0.0
  9
$CHAMFERC
 40
0.0
  9
$CHAMFERD
 40
0.0
  9
$SKPOLY
 70
     0
  9
$TDCREATE
 40
2457525.545951806
  9
$TDUPDATE
 40
2457525.574330729
  9
$TDINDWG
 40
0.0105936574
  9
$TDUSRTIMER
 40
2457525.49090559
  9
$USRTIMER
 70
     1
  9
$ANGBASE
 50
0.0
  9
$ANGDIR
 70
     0
  9
$PDMODE
 70
     0
  9
$PDSIZE
 40
-1.0
  9
$PLINEWID
 40
0.0
  9
$COORDS
 70
     1
  9
$SPLFRAME
 70
     0
  9
$SPLINETYPE
 70
     6
  9
$SPLINESEGS
 70
     8
  9
$ATTDIA
 70
     0
  9
$ATTREQ
 70
     1
  9
$HANDLING
 70
     1
  9
$HANDSEED
  5
758
  9
$SURFTAB1
 70
     6
  9
$SURFTAB2
 70
     6
  9
$SURFTYPE
 70
     6
  9
$SURFU
 70
     6
  9
$SURFV
 70
     6
  9
$UCSNAME
  2

  9
$UCSORG
 10
0.0
 20
0.0
 30
0.0
  9
$UCSXDIR
 10
1.0
 20
0.0
 30
0.0
  9
$UCSYDIR
 10
0.0
 20
1.0
 30
0.0
  9
$PUCSNAME
  2

  9
$PUCSORG
 10
0.0
 20
0.0
 30
0.0
  9
$PUCSXDIR
 10
1.0
 20
0.0
 30
0.0
  9
$PUCSYDIR
 10
0.0
 20
1.0
 30
0.0
  9
$USERI1
 70
     0
  9
$USERI2
 70
     0
  9
$USERI3
 70
     0
  9
$USERI4
 70
     0
  9
$USERI5
 70
     0
  9
$USERR1
 40
0.0
  9
$USERR2
 40
0.0
  9
$USERR3
 40
0.0
  9
$USERR4
 40
0.0
  9
$USERR5
 40
0.0
  9
$WORLDVIEW
 70
     1
  9
$SHADEDGE
 70
     3
  9
$SHADEDIF
 70
    70
  9
$TILEMODE
 70
     1
  9
$MAXACTVP
 70
    64
  9
$PINSBASE
 10
0.0
 20
0.0
 30
0.0
  9
$PLIMCHECK
 70
     0
  9
$PEXTMIN
 10
1.000000000000000E+20
 20
1.000000000000000E+20
 30
1.000000000000000E+20
  9
$PEXTMAX
 10
-1.000000000000000E+20
 20
-1.000000000000000E+20
 30
-1.000000000000000E+20
  9
$PLIMMIN
 10
0.0
 20
0.0
  9
$PLIMMAX
 10
0.0
 20
0.0
  9
$UNITMODE
 70
     0
  9
$VISRETAIN
 70
     1
  9
$PLINEGEN
 70
     0
  9
$PSLTSCALE
 70
     1
  9
$TREEDEPTH
 70
  3020
  9
$PICKSTYLE
 70
     1
  9
$CMLSTYLE
  2
STANDARD
  9
$CMLJUST
 70
     0
  9
$CMLSCALE
 40
20.0
  9
$PROXYGRAPHICS
 70
     1
  9
$MEASUREMENT
 70
     1
  0
ENDSEC
  0
SECTION
  2
CLASSES
  0
CLASS
  1
ACDBDICTIONARYWDFLT
  2
AcDbDictionaryWithDefault
  3
ObjectDBX Classes
 90
        0
280
     0
281
     0
  0
CLASS
  1
VISUALSTYLE
  2
AcDbVisualStyle
  3
ObjectDBX Classes
 90
     4095
280
     0
281
     0
  0
CLASS
  1
MATERIAL
  2
AcDbMaterial
  3
ObjectDBX Classes
 90
     1153
280
     0
281
     0
  0
CLASS
  1
SCALE
  2
AcDbScale
  3
ObjectDBX Classes
 90
     1153
280
     0
281
     0
  0
CLASS
  1
TABLESTYLE
  2
AcDbTableStyle
  3
ObjectDBX Classes
 90
     4095
280
     0
281
     0
  0
CLASS
  1
MLEADERSTYLE
  2
AcDbMLeaderStyle
  3
ACDB_MLEADERSTYLE_CLASS
 90
     4095
280
     0
281
     0
  0
CLASS
  1
SUN
  2
AcDbSun
  3
SCENEOE
 90
     1153
280
     0
281
     0
  0
CLASS
  1
ACDBPLACEHOLDER
  2
AcDbPlaceHolder
  3
ObjectDBX Classes
 90
        0
280
     0
281
     0
  0
CLASS
  1
LAYOUT
  2
AcDbLayout
  3
ObjectDBX Classes
 90
        0
280
     0
281
     0
  0
CLASS
  1
RASTERVARIABLES
  2
AcDbRasterVariables
  3
ISM
 90
        0
280
     0
281
     0
  0
CLASS
  1
DICTIONARYVAR
  2
AcDbDictionaryVar
  3
ObjectDBX Classes
 90
        0
280
     0
281
     0
  0
CLASS
  1
XRECORD
  2
AcDbXrecord
  3
ObjectDBX Classes
 90
        0
280
     0
281
     0
  0
CLASS
  1
LWPOLYLINE
  2
AcDbPolyline
  3
ObjectDBX Classes
 90
        0
280
     0
281
     1
  0
CLASS
  1
HATCH
  2
AcDbHatch
  3
ObjectDBX Classes
 90
        0
280
     0
281
     1
  0
CLASS
  1
DIMASSOC
  2
AcDbDimAssoc
  3
"AcDbDimAssoc|Product Desc:     AcDim ARX App For Dimension|Company:          Autodesk, Inc.|WEB Address:      www.autodesk.com"
 90
        0
280
     0
281
     0
  0
ENDSEC
  0
SECTION
  2
TABLES
  0
TABLE
  2
VPORT
  5
8
330
0
100
AcDbSymbolTable
 70
     1
  0
VPORT
  5
29
330
8
100
AcDbSymbolTableRecord
100
AcDbViewportTableRecord
  2
*ACTIVE
 70
     0
 10
0.0
 20
0.0
 11
1.0
 21
1.0
 12
100.8152035
 22
148.5
 13
0.0
 23
0.0
 14
10.0
 24
10.0
 15
10.0
 25
10.0
 16
0.0
 26
0.0
 36
1.0
 17
0.0
 27
0.0
 37
0.0
 40
302.94
 41
2.811127379209371
 42
50.0
 43
0.0
 44
0.0
 50
0.0
 51
0.0
 71
    16
 72
  2000
 73
     1
 74
     3
 75
     0
 76
     0
 77
     0
 78
     0
  0
ENDTAB
  0
TABLE
  2
LTYPE
  5
5
330
0
100
AcDbSymbolTable
 70
     6
  0
LTYPE
  5
14
330
5
100
AcDbSymbolTableRecord
100
AcDbLinetypeTableRecord
  2
BYBLOCK
 70
     0
  3

 72
    65
 73
     0
 40
0.0
  0
LTYPE
  5
15
330
5
100
AcDbSymbolTableRecord
100
AcDbLinetypeTableRecord
  2
BYLAYER
 70
     0
  3

 72
    65
 73
     0
 40
0.0
  0
LTYPE
  5
16
330
5
100
AcDbSymbolTableRecord
100
AcDbLinetypeTableRecord
  2
CONTINUOUS
 70
     0
  3
Solid line
 72
    65
 73
     0
 40
0.0
  0
LTYPE
  5
6E
330
5
100
AcDbSymbolTableRecord
100
AcDbLinetypeTableRecord
  2
HIDDEN
 70
     0
  3
Hidden __ __ __ __ __ __ __ __ __ __ __ __ __ __
 72
    65
 73
     2
 40
1.905
 49
1.27
 74
     0
 49
-0.635
 74
     0
  0
LTYPE
  5
6F
330
5
100
AcDbSymbolTableRecord
100
AcDbLinetypeTableRecord
  2
PHANTOM
 70
     0
  3
Phantom ______  __  __  ______  __  __  ______
 72
    65
 73
     6
 40
12.7
 49
6.35
 74
     0
 49
-1.27
 74
     0
 49
1.27
 74
     0
 49
-1.27
 74
     0
 49
1.27
 74
     0
 49
-1.27
 74
     0
  0
LTYPE
  5
70
330
5
100
AcDbSymbolTableRecord
100
AcDbLinetypeTableRecord
  2
CENTER
 70
     0
  3
Center ____ _ ____ _ ____ _ ____ _ ____ _ ____
 72
    65
 73
     4
 40
10.16
 49
6.35
 74
     0
 49
-1.27
 74
     0
 49
1.27
 74
     0
 49
-1.27
 74
     0
  0
LTYPE
  5
71
330
5
100
AcDbSymbolTableRecord
100
AcDbLinetypeTableRecord
  2
CENTERX2
 70
     0
  3
Center (2x) ________  __  ________  __  _____
 72
    65
 73
     4
 40
20.32
 49
12.7
 74
     0
 49
-2.54
 74
     0
 49
2.54
 74
     0
 49
-2.54
 74
     0
  0
LTYPE
  5
72
330
5
100
AcDbSymbolTableRecord
100
AcDbLinetypeTableRecord
  2
DOT2
 70
     0
  3
Dot (.5x) ........................................
 72
    65
 73
     2
 40
0.635
 49
0.0
 74
     0
 49
-0.635
 74
     0
  0
ENDTAB
  0
TABLE
  2
LAYER
  5
2
102
{ACAD_XDICTIONARY
360
5D0
102
}
330
0
100
AcDbSymbolTable
 70
     9
  0
LAYER
  5
10
330
2
100
AcDbSymbolTableRecord
100
AcDbLayerTableRecord
  2
0
 70
     0
 62
     7
  6
CONTINUOUS
  0
LAYER
  5
73
330
2
100
AcDbSymbolTableRecord
100
AcDbLayerTableRecord
  2
FORMAT
 70
     0
 62
     7
  6
CONTINUOUS
  0
LAYER
  5
319
330
2
100
AcDbSymbolTableRecord
100
AcDbLayerTableRecord
  2
DEFPOINTS
 70
     0
 62
     7
  6
CONTINUOUS
  0
LAYER
  5
31A
330
2
100
AcDbSymbolTableRecord
100
AcDbLayerTableRecord
  2
1
 70
     0
 62
     3
  6
CONTINUOUS
  0
LAYER
  5
31C
330
2
100
AcDbSymbolTableRecord
100
AcDbLayerTableRecord
  2
2
 70
     0
 62
     6
  6
CONTINUOUS
  0
LAYER
  5
31D
330
2
100
AcDbSymbolTableRecord
100
AcDbLayerTableRecord
  2
3
 70
     0
 62
     4
  6
HIDDEN
  0
LAYER
  5
31F
330
2
100
AcDbSymbolTableRecord
100
AcDbLayerTableRecord
  2
OSIE
 70
     0
 62
     2
  6
CENTER
  0
LAYER
  5
321
330
2
100
AcDbSymbolTableRecord
100
AcDbLayerTableRecord
  2
WY
 70
     0
 62
     1
  6
CONTINUOUS
  0
LAYER
  5
322
330
2
100
AcDbSymbolTableRecord
100
AcDbLayerTableRecord
  2
WYMIARY
 70
     0
 62
     1
  6
CONTINUOUS
  0
ENDTAB
  0
TABLE
  2
STYLE
  5
3
330
0
100
AcDbSymbolTable
 70
     5
  0
STYLE
  5
11
330
3
100
AcDbSymbolTableRecord
100
AcDbTextStyleTableRecord
  2
STANDARD
 70
     0
 40
0.0
 41
1.0
 50
0.0
 71
     0
 42
2.5
  3
txt
  4

  0
STYLE
  5
125
330
3
100
AcDbSymbolTableRecord
100
AcDbTextStyleTableRecord
  2
SLDTEXTSTYLE0
 70
     0
 40
0.0
 41
0.75
 50
0.0
 71
     0
 42
2.5
  3
TXT
  4

  0
STYLE
  5
127
330
3
100
AcDbSymbolTableRecord
100
AcDbTextStyleTableRecord
  2
SLDTEXTSTYLE1
 70
     0
 40
0.0
 41
0.75
 50
0.0
 71
     0
 42
2.5
  3
TXT
  4
bigfont
  0
STYLE
  5
146
330
3
100
AcDbSymbolTableRecord
100
AcDbTextStyleTableRecord
  2
SLDTEXTSTYLE2
 70
     0
 40
0.0
 41
0.605
 50
0.0
 71
     0
 42
2.5
  3
TXT
  4

  0
STYLE
  5
325
330
3
100
AcDbSymbolTableRecord
100
AcDbTextStyleTableRecord
  2
ITALIC
 70
     0
 40
0.0
 41
1.0
 50
15.0
 71
     0
 42
2.5
  3
simplex
  4

  0
ENDTAB
  0
TABLE
  2
VIEW
  5
6
330
0
100
AcDbSymbolTable
 70
     0
  0
ENDTAB
  0
TABLE
  2
UCS
  5
7
330
0
100
AcDbSymbolTable
 70
     0
  0
ENDTAB
  0
TABLE
  2
APPID
  5
9
330
0
100
AcDbSymbolTable
 70
     1
  0
APPID
  5
12
330
9
100
AcDbSymbolTableRecord
100
AcDbRegAppTableRecord
  2
ACAD
 70
     0
  0
ENDTAB
  0
TABLE
  2
DIMSTYLE
  5
A
330
0
100
AcDbSymbolTable
 70
     2
  0
DIMSTYLE
105
27
102
{ACAD_REACTORS
330
653
330
662
330
671
330
682
330
693
330
6A4
330
6B5
330
6C6
330
6D5
330
6E4
330
6F6
102
}
330
A
100
AcDbSymbolTableRecord
100
AcDbDimStyleTableRecord
  2
ISO-25
 70
     0
  3

  4

  5

  6

  7

 40
1.0
 41
2.5
 42
0.625
 43
3.75
 44
1.25
 45
0.0
 46
0.0
 47
0.0
 48
0.0
140
2.5
141
2.5
142
0.0
143
0.03937007874016
144
1.0
145
0.0
146
1.0
147
0.625
 71
     0
 72
     0
 73
     0
 74
     0
 75
     0
 76
     0
 77
     1
 78
     8
170
     0
171
     3
172
     1
173
     0
174
     0
175
     0
176
     0
177
     0
178
     0
270
     2
271
     2
272
     2
273
     2
274
     3
340
11
275
     0
280
     0
281
     0
282
     0
283
     0
284
     8
285
     0
286
     0
287
     3
288
     0
  0
DIMSTYLE
105
323
330
A
100
AcDbSymbolTableRecord
100
AcDbDimStyleTableRecord
  2
STANDARD
 70
     0
  3

  4

  5

  6

  7

 40
1.0
 41
3.5
 42
1.5
 43
7.0
 44
1.5
 45
0.0
 46
0.0
 47
0.1
 48
0.0
140
3.6
141
-1.0
142
0.0
143
25.4
144
1.0
145
0.0
146
1.0
147
1.5
 71
     0
 72
     0
 73
     0
 74
     0
 75
     0
 76
     0
 77
     1
 78
     0
170
     0
171
     2
172
     0
173
     0
174
     0
175
     0
176
     0
177
     0
178
     0
270
     2
271
     2
272
     4
273
     2
274
     2
340
11
275
     0
280
     0
281
     0
282
     0
283
     1
284
     0
285
     0
286
     0
287
     3
288
     0
  0
ENDTAB
  0
TABLE
  2
BLOCK_RECORD
  5
1
330
0
100
AcDbSymbolTable
 70
    26
  0
BLOCK_RECORD
  5
1F
330
1
100
AcDbSymbolTableRecord
100
AcDbBlockTableRecord
  2
*MODEL_SPACE
  0
BLOCK_RECORD
  5
1B
330
1
100
AcDbSymbolTableRecord
100
AcDbBlockTableRecord
  2
*PAPER_SPACE
  0
BLOCK_RECORD
  5
23
330
1
100
AcDbSymbolTableRecord
100
AcDbBlockTableRecord
  2
*PAPER_SPACE0
  0
BLOCK_RECORD
  5
14E
330
1
100
AcDbSymbolTableRecord
100
AcDbBlockTableRecord
  2
SW_NOTE_0
  0
BLOCK_RECORD
  5
591
330
1
100
AcDbSymbolTableRecord
100
AcDbBlockTableRecord
  2
SW_CENTERMARKSYMBOL_0
  0
BLOCK_RECORD
  5
656
330
1
100
AcDbSymbolTableRecord
100
AcDbBlockTableRecord
  2
*D14
  0
BLOCK_RECORD
  5
665
330
1
100
AcDbSymbolTableRecord
100
AcDbBlockTableRecord
  2
*D15
  0
BLOCK_RECORD
  5
674
330
1
100
AcDbSymbolTableRecord
100
AcDbBlockTableRecord
  2
*D16
  0
BLOCK_RECORD
  5
685
330
1
100
AcDbSymbolTableRecord
100
AcDbBlockTableRecord
  2
*D17
  0
BLOCK_RECORD
  5
696
330
1
100
AcDbSymbolTableRecord
100
AcDbBlockTableRecord
  2
*D18
  0
BLOCK_RECORD
  5
6A7
330
1
100
AcDbSymbolTableRecord
100
AcDbBlockTableRecord
  2
*D19
  0
BLOCK_RECORD
  5
6B8
330
1
100
AcDbSymbolTableRecord
100
AcDbBlockTableRecord
  2
*D20
  0
BLOCK_RECORD
  5
6C9
330
1
100
AcDbSymbolTableRecord
100
AcDbBlockTableRecord
  2
*D21
  0
BLOCK_RECORD
  5
6D8
330
1
100
AcDbSymbolTableRecord
100
AcDbBlockTableRecord
  2
*D22
  0
BLOCK_RECORD
  5
6E7
330
1
100
AcDbSymbolTableRecord
100
AcDbBlockTableRecord
  2
*D23
  0
BLOCK_RECORD
  5
6F9
330
1
100
AcDbSymbolTableRecord
100
AcDbBlockTableRecord
  2
*D24
  0
BLOCK_RECORD
  5
707
330
1
100
AcDbSymbolTableRecord
100
AcDbBlockTableRecord
  2
_NONE
  0
ENDTAB
  0
ENDSEC
  0
SECTION
  2
BLOCKS
  0
BLOCK
  5
20
330
1F
100
AcDbEntity
  8
0
100
AcDbBlockBegin
  2
*MODEL_SPACE
 70
     0
 10
0.0
 20
0.0
 30
0.0
  3
*MODEL_SPACE
  1

  0
ENDBLK
  5
21
330
1F
100
AcDbEntity
  8
0
100
AcDbBlockEnd
  0
BLOCK
  5
1C
330
1B
100
AcDbEntity
 67
     1
  8
0
100
AcDbBlockBegin
  2
*PAPER_SPACE
 70
     0
 10
0.0
 20
0.0
 30
0.0
  3
*PAPER_SPACE
  1

  0
ENDBLK
  5
1D
330
1B
100
AcDbEntity
 67
     1
  8
0
100
AcDbBlockEnd
  0
BLOCK
  5
24
330
23
100
AcDbEntity
  8
0
100
AcDbBlockBegin
  2
*PAPER_SPACE0
 70
     0
 10
0.0
 20
0.0
 30
0.0
  3
*PAPER_SPACE0
  1
*PAPER_SPACE0
  0
ENDBLK
  5
25
330
23
100
AcDbEntity
  8
0
100
AcDbBlockEnd
  0
BLOCK
  5
14F
330
14E
100
AcDbEntity
  8
0
100
AcDbBlockBegin
  2
SW_NOTE_0
 70
     0
 10
0.0
 20
0.0
 30
0.0
  3
SW_NOTE_0
  1
SW_NOTE_0
  0
MTEXT
  5
151
330
14E
100
AcDbEntity
  8
0
  6
CONTINUOUS
 62
     0
100
AcDbMText
 10
0.0
 20
3.867203219315898
 30
0.0
 40
3.0
 41
0.0
 71
     1
 72
     1
  1
%%p
  7
SLDTEXTSTYLE2
  0
MTEXT
  5
152
330
14E
100
AcDbEntity
  8
0
  6
CONTINUOUS
 62
     0
100
AcDbMText
 10
2.762499963864684
 20
3.867203219315898
 30
0.0
 40
3.0
 41
0.0
 71
     1
 72
     1
  1
0,03
  7
SLDTEXTSTYLE2
  0
ENDBLK
  5
150
330
14E
100
AcDbEntity
  8
0
100
AcDbBlockEnd
  0
BLOCK
  5
592
330
591
100
AcDbEntity
  8
0
100
AcDbBlockBegin
  2
SW_CENTERMARKSYMBOL_0
 70
     0
 10
0.0
 20
0.0
 30
0.0
  3
SW_CENTERMARKSYMBOL_0
  1
SW_CENTERMARKSYMBOL_0
  0
LINE
  5
593
330
591
100
AcDbEntity
  8
0
  6
CONTINUOUS
 62
     0
100
AcDbLine
 10
0.0
 20
0.0
 30
0.0
 11
0.0
 21
2.500000000000002
 31
0.0
  0
LINE
  5
594
330
591
100
AcDbEntity
  8
0
  6
CONTINUOUS
 62
     0
100
AcDbLine
 10
0.0
 20
0.0
 30
0.0
 11
-2.500000000000002
 21
0.0
 31
0.0
  0
LINE
  5
595
330
591
100
AcDbEntity
  8
0
  6
CONTINUOUS
 62
     0
100
AcDbLine
 10
0.0
 20
0.0
 30
0.0
 11
0.0
 21
-2.500000000000002
 31
0.0
  0
LINE
  5
596
330
591
100
AcDbEntity
  8
0
  6
CONTINUOUS
 62
     0
100
AcDbLine
 10
0.0
 20
0.0
 30
0.0
 11
2.500000000000002
 21
0.0
 31
0.0
  0
LINE
  5
597
330
591
100
AcDbEntity
  8
0
  6
CONTINUOUS
 62
     0
100
AcDbLine
 10
0.0
 20
2.500000000000002
 30
0.0
 11
0.0
 21
3.500000000000003
 31
0.0
  0
LINE
  5
598
330
591
100
AcDbEntity
  8
0
  6
CONTINUOUS
 62
     0
100
AcDbLine
 10
-2.500000000000002
 20
0.0
 30
0.0
 11
-3.500000000000003
 21
0.0
 31
0.0
  0
LINE
  5
599
330
591
100
AcDbEntity
  8
0
  6
CONTINUOUS
 62
     0
100
AcDbLine
 10
0.0
 20
-2.500000000000002
 30
0.0
 11
0.0
 21
-3.500000000000003
 31
0.0
  0
LINE
  5
59A
330
591
100
AcDbEntity
  8
0
  6
CONTINUOUS
 62
     0
100
AcDbLine
 10
2.500000000000002
 20
0.0
 30
0.0
 11
3.500000000000003
 21
0.0
 31
0.0
  0
ENDBLK
  5
59B
330
591
100
AcDbEntity
  8
0
100
AcDbBlockEnd
  0
BLOCK
  5
657
330
656
100
AcDbEntity
  8
0
100
AcDbBlockBegin
  2
*D14
 70
     1
 10
0.0
 20
0.0
 30
0.0
  3
*D14
  1
*D14
  0
LINE
  5
659
330
656
100
AcDbEntity
  8
WY
 62
     0
100
AcDbLine
 10
89.93794586625478
 20
222.0019270423327
 30
0.0
 11
103.5792284253973
 21
222.0019270423327
 31
0.0
  0
LINE
  5
65A
330
656
100
AcDbEntity
  8
WY
 62
     0
100
AcDbLine
 10
89.93794586625478
 20
208.8019271138583
 30
0.0
 11
103.5792284253973
 21
208.8019271138583
 31
0.0
  0
LINE
  5
65B
330
656
100
AcDbEntity
  8
WY
 62
     0
100
AcDbLine
 10
102.5792284253973
 20
220.0019270423327
 30
0.0
 11
102.5792284253973
 21
210.8019271138583
 31
0.0
  0
SOLID
  5
65C
330
656
100
AcDbEntity
  8
WY
 62
     0
100
AcDbTrace
 10
102.9125617587307
 20
220.0019270423327
 30
0.0
 11
102.245895092064
 21
220.0019270423327
 31
0.0
 12
102.5792284253973
 22
222.0019270423327
 32
0.0
 13
102.5792284253973
 23
222.0019270423327
 33
0.0
  0
SOLID
  5
65D
330
656
100
AcDbEntity
  8
WY
 62
     0
100
AcDbTrace
 10
102.245895092064
 20
210.8019271138583
 30
0.0
 11
102.9125617587307
 21
210.8019271138583
 31
0.0
 12
102.5792284253973
 22
208.8019271138583
 32
0.0
 13
102.5792284253973
 23
208.8019271138583
 33
0.0
  0
MTEXT
  5
65E
330
656
100
AcDbEntity
  8
WY
 62
     0
100
AcDbMText
 10
100.4125617587307
 20
215.4019270780955
 30
0.0
 40
2.0
 41
0.0
 71
     5
 72
     1
  1
13,2
 11
0.0
 21
1.0
 31
0.0
  0
POINT
  5
65F
330
656
100
AcDbEntity
  8
DEFPOINTS
 62
     0
100
AcDbPoint
 10
88.93794586625478
 20
222.0019270423327
 30
0.0
  0
POINT
  5
660
330
656
100
AcDbEntity
  8
DEFPOINTS
 62
     0
100
AcDbPoint
 10
88.93794586625478
 20
208.8019271138583
 30
0.0
  0
POINT
  5
661
330
656
100
AcDbEntity
  8
DEFPOINTS
 62
     0
100
AcDbPoint
 10
102.5792284253973
 20
208.8019271138583
 30
0.0
  0
ENDBLK
  5
658
330
656
100
AcDbEntity
  8
0
100
AcDbBlockEnd
  0
BLOCK
  5
666
330
665
100
AcDbEntity
  8
0
100
AcDbBlockBegin
  2
*D15
 70
     1
 10
0.0
 20
0.0
 30
0.0
  3
*D15
  1
*D15
  0
LINE
  5
668
330
665
100
AcDbEntity
  8
WY
 62
     0
100
AcDbLine
 10
93.13458886398513
 20
226.0019270780955
 30
0.0
 11
109.9082506628353
 21
226.0019270780955
 31
0.0
  0
LINE
  5
669
330
665
100
AcDbEntity
  8
WY
 62
     0
100
AcDbLine
 10
93.13458886398513
 20
204.8019270780952
 30
0.0
 11
109.9082506628353
 21
204.8019270780952
 31
0.0
  0
LINE
  5
66A
330
665
100
AcDbEntity
  8
WY
 62
     0
100
AcDbLine
 10
108.9082506628353
 20
224.0019270780955
 30
0.0
 11
108.9082506628353
 21
206.8019270780952
 31
0.0
  0
SOLID
  5
66B
330
665
100
AcDbEntity
  8
WY
 62
     0
100
AcDbTrace
 10
109.2415839961686
 20
224.0019270780955
 30
0.0
 11
108.5749173295019
 21
224.0019270780955
 31
0.0
 12
108.9082506628353
 22
226.0019270780955
 32
0.0
 13
108.9082506628353
 23
226.0019270780955
 33
0.0
  0
SOLID
  5
66C
330
665
100
AcDbEntity
  8
WY
 62
     0
100
AcDbTrace
 10
108.5749173295019
 20
206.8019270780952
 30
0.0
 11
109.2415839961686
 21
206.8019270780952
 31
0.0
 12
108.9082506628353
 22
204.8019270780952
 32
0.0
 13
108.9082506628353
 23
204.8019270780952
 33
0.0
  0
MTEXT
  5
66D
330
665
100
AcDbEntity
  8
WY
 62
     0
100
AcDbMText
 10
106.7415839961686
 20
215.4019270780954
 30
0.0
 40
2.0
 41
0.0
 71
     5
 72
     1
  1
21,2
 11
0.0
 21
1.0
 31
0.0
  0
POINT
  5
66E
330
665
100
AcDbEntity
  8
DEFPOINTS
 62
     0
100
AcDbPoint
 10
92.13458886398513
 20
226.0019270780955
 30
0.0
  0
POINT
  5
66F
330
665
100
AcDbEntity
  8
DEFPOINTS
 62
     0
100
AcDbPoint
 10
92.13458886398513
 20
204.8019270780952
 30
0.0
  0
POINT
  5
670
330
665
100
AcDbEntity
  8
DEFPOINTS
 62
     0
100
AcDbPoint
 10
108.9082506628353
 20
204.8019270780952
 30
0.0
  0
ENDBLK
  5
667
330
665
100
AcDbEntity
  8
0
100
AcDbBlockEnd
  0
BLOCK
  5
675
330
674
100
AcDbEntity
  8
0
100
AcDbBlockBegin
  2
*D16
 70
     1
 10
0.0
 20
0.0
 30
0.0
  3
*D16
  1
*D16
  0
LINE
  5
677
330
674
100
AcDbEntity
  8
WY
 62
     0
100
AcDbLine
 10
71.33458888372928
 20
128.3421645258205
 30
0.0
 11
71.33458888372928
 21
121.5762067540788
 31
0.0
  0
LINE
  5
678
330
674
100
AcDbEntity
  8
WY
 62
     0
100
AcDbLine
 10
77.63458883371726
 20
128.3421645258205
 30
0.0
 11
77.63458883371726
 21
121.5762067540788
 31
0.0
  0
LINE
  5
679
330
674
100
AcDbEntity
  8
WY
 62
     0
100
AcDbLine
 10
73.33458888372928
 20
122.5762067540788
 30
0.0
 11
75.63458883371726
 21
122.5762067540788
 31
0.0
  0
SOLID
  5
67A
330
674
100
AcDbEntity
  8
WY
 62
     0
100
AcDbTrace
 10
73.33458888372928
 20
122.9095400874121
 30
0.0
 11
73.33458888372928
 21
122.2428734207455
 31
0.0
 12
71.33458888372928
 22
122.5762067540788
 32
0.0
 13
71.33458888372928
 23
122.5762067540788
 33
0.0
  0
SOLID
  5
67B
330
674
100
AcDbEntity
  8
WY
 62
     0
100
AcDbTrace
 10
75.63458883371726
 20
122.2428734207455
 30
0.0
 11
75.63458883371726
 21
122.9095400874121
 31
0.0
 12
77.63458883371726
 22
122.5762067540788
 32
0.0
 13
77.63458883371726
 23
122.5762067540788
 33
0.0
  0
MTEXT
  5
67C
330
674
100
AcDbEntity
  8
WY
 62
     0
100
AcDbMText
 10
74.48458885872327
 20
124.7428734207455
 30
0.0
 40
2.0
 41
0.0
 71
     5
 72
     1
  1
6,3
  0
POINT
  5
67D
330
674
100
AcDbEntity
  8
DEFPOINTS
 62
     0
100
AcDbPoint
 10
71.33458888372928
 20
129.3421645258205
 30
0.0
  0
POINT
  5
67E
330
674
100
AcDbEntity
  8
DEFPOINTS
 62
     0
100
AcDbPoint
 10
77.63458883371726
 20
129.3421645258205
 30
0.0
  0
POINT
  5
67F
330
674
100
AcDbEntity
  8
DEFPOINTS
 62
     0
100
AcDbPoint
 10
77.63458883371726
 20
122.5762067540788
 30
0.0
  0
ENDBLK
  5
676
330
674
100
AcDbEntity
  8
0
100
AcDbBlockEnd
  0
BLOCK
  5
686
330
685
100
AcDbEntity
  8
0
100
AcDbBlockBegin
  2
*D17
 70
     1
 10
0.0
 20
0.0
 30
0.0
  3
*D17
  1
*D17
  0
LINE
  5
688
330
685
100
AcDbEntity
  8
WY
 62
     0
100
AcDbLine
 10
77.63458883371726
 20
128.3421645258205
 30
0.0
 11
77.63458883371726
 21
121.5762067540788
 31
0.0
  0
LINE
  5
689
330
685
100
AcDbEntity
  8
WY
 62
     0
100
AcDbLine
 10
83.93458890012056
 20
128.3421645258205
 30
0.0
 11
83.93458890012056
 21
121.5762067540788
 31
0.0
  0
LINE
  5
68A
330
685
100
AcDbEntity
  8
WY
 62
     0
100
AcDbLine
 10
79.63458883371726
 20
122.5762067540788
 30
0.0
 11
81.93458890012056
 21
122.5762067540788
 31
0.0
  0
SOLID
  5
68B
330
685
100
AcDbEntity
  8
WY
 62
     0
100
AcDbTrace
 10
79.63458883371726
 20
122.9095400874121
 30
0.0
 11
79.63458883371726
 21
122.2428734207455
 31
0.0
 12
77.63458883371726
 22
122.5762067540788
 32
0.0
 13
77.63458883371726
 23
122.5762067540788
 33
0.0
  0
SOLID
  5
68C
330
685
100
AcDbEntity
  8
WY
 62
     0
100
AcDbTrace
 10
81.93458890012056
 20
122.2428734207455
 30
0.0
 11
81.93458890012056
 21
122.9095400874121
 31
0.0
 12
83.93458890012056
 22
122.5762067540788
 32
0.0
 13
83.93458890012056
 23
122.5762067540788
 33
0.0
  0
MTEXT
  5
68D
330
685
100
AcDbEntity
  8
WY
 62
     0
100
AcDbMText
 10
80.78458886691891
 20
124.7428734207455
 30
0.0
 40
2.0
 41
0.0
 71
     5
 72
     1
  1
6,3
  0
POINT
  5
68E
330
685
100
AcDbEntity
  8
DEFPOINTS
 62
     0
100
AcDbPoint
 10
77.63458883371726
 20
129.3421645258205
 30
0.0
  0
POINT
  5
68F
330
685
100
AcDbEntity
  8
DEFPOINTS
 62
     0
100
AcDbPoint
 10
83.93458890012056
 20
129.3421645258205
 30
0.0
  0
POINT
  5
690
330
685
100
AcDbEntity
  8
DEFPOINTS
 62
     0
100
AcDbPoint
 10
83.93458890012056
 20
122.5762067540788
 30
0.0
  0
ENDBLK
  5
687
330
685
100
AcDbEntity
  8
0
100
AcDbBlockEnd
  0
BLOCK
  5
697
330
696
100
AcDbEntity
  8
0
100
AcDbBlockBegin
  2
*D18
 70
     1
 10
0.0
 20
0.0
 30
0.0
  3
*D18
  1
*D18
  0
LINE
  5
699
330
696
100
AcDbEntity
  8
WY
 62
     0
100
AcDbLine
 10
83.93458890012056
 20
128.3421645258205
 30
0.0
 11
83.93458890012056
 21
121.5762067540788
 31
0.0
  0
LINE
  5
69A
330
696
100
AcDbEntity
  8
WY
 62
     0
100
AcDbLine
 10
88.03458868740648
 20
128.3421645258205
 30
0.0
 11
88.03458868740648
 21
121.5762067540788
 31
0.0
  0
LINE
  5
69B
330
696
100
AcDbEntity
  8
WY
 62
     0
100
AcDbLine
 10
83.93458890012056
 20
122.5762067540788
 30
0.0
 11
88.03458868740648
 21
122.5762067540788
 31
0.0
  0
LINE
  5
69C
330
696
100
AcDbEntity
  8
WY
 62
     0
100
AcDbLine
 10
81.93458890012056
 20
122.5762067540788
 30
0.0
 11
79.93458890012056
 21
122.5762067540788
 31
0.0
  0
LINE
  5
69D
330
696
100
AcDbEntity
  8
WY
 62
     0
100
AcDbLine
 10
90.03458868740648
 20
122.5762067540788
 30
0.0
 11
92.03458868740648
 21
122.5762067540788
 31
0.0
  0
SOLID
  5
69E
330
696
100
AcDbEntity
  8
WY
 62
     0
100
AcDbTrace
 10
81.93458890012056
 20
122.2428734207455
 30
0.0
 11
81.93458890012056
 21
122.9095400874121
 31
0.0
 12
83.93458890012056
 22
122.5762067540788
 32
0.0
 13
83.93458890012056
 23
122.5762067540788
 33
0.0
  0
SOLID
  5
69F
330
696
100
AcDbEntity
  8
WY
 62
     0
100
AcDbTrace
 10
90.03458868740648
 20
122.9095400874121
 30
0.0
 11
90.03458868740648
 21
122.2428734207455
 31
0.0
 12
88.03458868740648
 22
122.5762067540788
 32
0.0
 13
88.03458868740648
 23
122.5762067540788
 33
0.0
  0
MTEXT
  5
6A0
330
696
100
AcDbEntity
  8
WY
 62
     0
100
AcDbMText
 10
85.98458879376352
 20
124.7428734207455
 30
0.0
 40
2.0
 41
0.0
 71
     5
 72
     1
  1
4,1
  0
POINT
  5
6A1
330
696
100
AcDbEntity
  8
DEFPOINTS
 62
     0
100
AcDbPoint
 10
83.93458890012056
 20
129.3421645258205
 30
0.0
  0
POINT
  5
6C4
330
696
100
AcDbEntity
  8
DEFPOINTS
 62
     0
100
AcDbPoint
 10
88.03458868740648
 20
129.3421645258205
 30
0.0
  0
POINT
  5
6C5
330
696
100
AcDbEntity
  8
DEFPOINTS
 62
     0
100
AcDbPoint
 10
88.03458868740648
 20
122.5762067540788
 30
0.0
  0
ENDBLK
  5
698
330
696
100
AcDbEntity
  8
0
100
AcDbBlockEnd
  0
BLOCK
  5
6A8
330
6A7
100
AcDbEntity
  8
0
100
AcDbBlockBegin
  2
*D19
 70
     1
 10
0.0
 20
0.0
 30
0.0
  3
*D19
  1
*D19
  0
LINE
  5
6AA
330
6A7
100
AcDbEntity
  8
WY
 62
     0
100
AcDbLine
 10
71.33458888372928
 20
128.3421645258205
 30
0.0
 11
71.33458888372928
 21
121.5762067540788
 31
0.0
  0
LINE
  5
6AB
330
6A7
100
AcDbEntity
  8
WY
 62
     0
100
AcDbLine
 10
65.13458893849105
 20
138.2901764951618
 30
0.0
 11
65.13458893849105
 21
121.5762067540788
 31
0.0
  0
LINE
  5
6AC
330
6A7
100
AcDbEntity
  8
WY
 62
     0
100
AcDbLine
 10
69.33458888372928
 20
122.5762067540788
 30
0.0
 11
67.13458893849105
 21
122.5762067540788
 31
0.0
  0
SOLID
  5
6AD
330
6A7
100
AcDbEntity
  8
WY
 62
     0
100
AcDbTrace
 10
69.33458888372928
 20
122.2428734207455
 30
0.0
 11
69.33458888372928
 21
122.9095400874121
 31
0.0
 12
71.33458888372928
 22
122.5762067540788
 32
0.0
 13
71.33458888372928
 23
122.5762067540788
 33
0.0
  0
SOLID
  5
6AE
330
6A7
100
AcDbEntity
  8
WY
 62
     0
100
AcDbTrace
 10
67.13458893849105
 20
122.9095400874121
 30
0.0
 11
67.13458893849105
 21
122.2428734207455
 31
0.0
 12
65.13458893849105
 22
122.5762067540788
 32
0.0
 13
65.13458893849105
 23
122.5762067540788
 33
0.0
  0
MTEXT
  5
6AF
330
6A7
100
AcDbEntity
  8
WY
 62
     0
100
AcDbMText
 10
68.23458891111017
 20
124.7428734207455
 30
0.0
 40
2.0
 41
0.0
 71
     5
 72
     1
  1
6,2
  0
POINT
  5
6B0
330
6A7
100
AcDbEntity
  8
DEFPOINTS
 62
     0
100
AcDbPoint
 10
71.33458888372928
 20
129.3421645258205
 30
0.0
  0
POINT
  5
6B1
330
6A7
100
AcDbEntity
  8
DEFPOINTS
 62
     0
100
AcDbPoint
 10
65.13458893849105
 20
139.2901764951618
 30
0.0
  0
POINT
  5
6B2
330
6A7
100
AcDbEntity
  8
DEFPOINTS
 62
     0
100
AcDbPoint
 10
65.13458893849105
 20
122.5762067540788
 30
0.0
  0
ENDBLK
  5
6A9
330
6A7
100
AcDbEntity
  8
0
100
AcDbBlockEnd
  0
BLOCK
  5
6B9
330
6B8
100
AcDbEntity
  8
0
100
AcDbBlockBegin
  2
*D20
 70
     1
 10
0.0
 20
0.0
 30
0.0
  3
*D20
  1
*D20
  0
LINE
  5
6BB
330
6B8
100
AcDbEntity
  8
WY
 62
     0
100
AcDbLine
 10
65.13458893849105
 20
138.2901764951618
 30
0.0
 11
65.13458893849105
 21
115.0674084239634
 31
0.0
  0
LINE
  5
6BC
330
6B8
100
AcDbEntity
  8
WY
 62
     0
100
AcDbLine
 10
92.63458878947944
 20
138.2901764951618
 30
0.0
 11
92.63458878947944
 21
115.0674084239634
 31
0.0
  0
LINE
  5
6BD
330
6B8
100
AcDbEntity
  8
WY
 62
     0
100
AcDbLine
 10
67.13458893849105
 20
116.0674084239634
 30
0.0
 11
90.63458878947944
 21
116.0674084239634
 31
0.0
  0
SOLID
  5
6BE
330
6B8
100
AcDbEntity
  8
WY
 62
     0
100
AcDbTrace
 10
67.13458893849105
 20
116.4007417572967
 30
0.0
 11
67.13458893849105
 21
115.73407509063
 31
0.0
 12
65.13458893849105
 22
116.0674084239634
 32
0.0
 13
65.13458893849105
 23
116.0674084239634
 33
0.0
  0
SOLID
  5
6BF
330
6B8
100
AcDbEntity
  8
WY
 62
     0
100
AcDbTrace
 10
90.63458878947944
 20
115.73407509063
 30
0.0
 11
90.63458878947944
 21
116.4007417572967
 31
0.0
 12
92.63458878947944
 22
116.0674084239634
 32
0.0
 13
92.63458878947944
 23
116.0674084239634
 33
0.0
  0
MTEXT
  5
6C0
330
6B8
100
AcDbEntity
  8
WY
 62
     0
100
AcDbMText
 10
78.88458886398524
 20
118.23407509063
 30
0.0
 40
2.0
 41
0.0
 71
     5
 72
     1
  1
27,5
  0
POINT
  5
6C1
330
6B8
100
AcDbEntity
  8
DEFPOINTS
 62
     0
100
AcDbPoint
 10
65.13458893849105
 20
139.2901764951618
 30
0.0
  0
POINT
  5
6C2
330
6B8
100
AcDbEntity
  8
DEFPOINTS
 62
     0
100
AcDbPoint
 10
92.63458878947944
 20
139.2901764951618
 30
0.0
  0
POINT
  5
6C3
330
6B8
100
AcDbEntity
  8
DEFPOINTS
 62
     0
100
AcDbPoint
 10
92.63458878947944
 20
116.0674084239634
 30
0.0
  0
ENDBLK
  5
6BA
330
6B8
100
AcDbEntity
  8
0
100
AcDbBlockEnd
  0
BLOCK
  5
6CA
330
6C9
100
AcDbEntity
  8
0
100
AcDbBlockBegin
  2
*D21
 70
     1
 10
0.0
 20
0.0
 30
0.0
  3
*D21
  1
*D21
  0
LINE
  5
6CC
330
6C9
100
AcDbEntity
  8
WY
 62
     0
100
AcDbLine
 10
157.7368558665972
 20
173.3901764821234
 30
0.0
 11
167.8327198266734
 21
173.3901764821234
 31
0.0
  0
LINE
  5
6CD
330
6C9
100
AcDbEntity
  8
WY
 62
     0
100
AcDbLine
 10
158.1368557252417
 20
137.7901764821234
 30
0.0
 11
167.8327198266734
 21
137.7901764821234
 31
0.0
  0
LINE
  5
6CE
330
6C9
100
AcDbEntity
  8
WY
 62
     0
100
AcDbLine
 10
166.8327198266734
 20
171.3901764821234
 30
0.0
 11
166.8327198266734
 21
139.7901764821234
 31
0.0
  0
SOLID
  5
6CF
330
6C9
100
AcDbEntity
  8
WY
 62
     0
100
AcDbTrace
 10
167.1660531600067
 20
171.3901764821234
 30
0.0
 11
166.49938649334
 21
171.3901764821234
 31
0.0
 12
166.8327198266734
 22
173.3901764821234
 32
0.0
 13
166.8327198266734
 23
173.3901764821234
 33
0.0
  0
SOLID
  5
6D0
330
6C9
100
AcDbEntity
  8
WY
 62
     0
100
AcDbTrace
 10
166.49938649334
 20
139.7901764821234
 30
0.0
 11
167.1660531600067
 21
139.7901764821234
 31
0.0
 12
166.8327198266734
 22
137.7901764821234
 32
0.0
 13
166.8327198266734
 23
137.7901764821234
 33
0.0
  0
MTEXT
  5
6D1
330
6C9
100
AcDbEntity
  8
WY
 62
     0
100
AcDbMText
 10
164.6660531600067
 20
155.5901764821234
 30
0.0
 40
2.0
 41
0.0
 71
     5
 72
     1
  1
35,6
 11
0.0
 21
1.0
 31
0.0
  0
POINT
  5
6D2
330
6C9
100
AcDbEntity
  8
DEFPOINTS
 62
     0
100
AcDbPoint
 10
156.7368558665972
 20
173.3901764821234
 30
0.0
  0
POINT
  5
6D3
330
6C9
100
AcDbEntity
  8
DEFPOINTS
 62
     0
100
AcDbPoint
 10
157.1368557252417
 20
137.7901764821234
 30
0.0
  0
POINT
  5
6D4
330
6C9
100
AcDbEntity
  8
DEFPOINTS
 62
     0
100
AcDbPoint
 10
166.8327198266734
 20
137.7901764821234
 30
0.0
  0
ENDBLK
  5
6CB
330
6C9
100
AcDbEntity
  8
0
100
AcDbBlockEnd
  0
BLOCK
  5
6D9
330
6D8
100
AcDbEntity
  8
0
100
AcDbBlockBegin
  2
*D22
 70
     1
 10
0.0
 20
0.0
 30
0.0
  3
*D22
  1
*D22
  0
LINE
  5
6DB
330
6D8
100
AcDbEntity
  8
WY
 62
     0
100
AcDbLine
 10
154.7368559129964
 20
131.2901763480129
 30
0.0
 11
167.8327198266734
 21
131.2901763480129
 31
0.0
  0
LINE
  5
6DC
330
6D8
100
AcDbEntity
  8
WY
 62
     0
100
AcDbLine
 10
158.1368557252417
 20
137.7901764821234
 30
0.0
 11
167.8327198266734
 21
137.7901764821234
 31
0.0
  0
LINE
  5
6DD
330
6D8
100
AcDbEntity
  8
WY
 62
     0
100
AcDbLine
 10
166.8327198266734
 20
133.2901763480129
 30
0.0
 11
166.8327198266734
 21
135.7901764821234
 31
0.0
  0
SOLID
  5
6DE
330
6D8
100
AcDbEntity
  8
WY
 62
     0
100
AcDbTrace
 10
166.49938649334
 20
133.2901763480129
 30
0.0
 11
167.1660531600067
 21
133.2901763480129
 31
0.0
 12
166.8327198266734
 22
131.2901763480129
 32
0.0
 13
166.8327198266734
 23
131.2901763480129
 33
0.0
  0
SOLID
  5
6DF
330
6D8
100
AcDbEntity
  8
WY
 62
     0
100
AcDbTrace
 10
167.1660531600067
 20
135.7901764821234
 30
0.0
 11
166.49938649334
 21
135.7901764821234
 31
0.0
 12
166.8327198266734
 22
137.7901764821234
 32
0.0
 13
166.8327198266734
 23
137.7901764821234
 33
0.0
  0
MTEXT
  5
6E0
330
6D8
100
AcDbEntity
  8
WY
 62
     0
100
AcDbMText
 10
164.6660531600067
 20
134.5401764150681
 30
0.0
 40
2.0
 41
0.0
 71
     5
 72
     1
  1
6,5
 11
0.0
 21
1.0
 31
0.0
  0
POINT
  5
6E1
330
6D8
100
AcDbEntity
  8
DEFPOINTS
 62
     0
100
AcDbPoint
 10
153.7368559129964
 20
131.2901763480129
 30
0.0
  0
POINT
  5
6E2
330
6D8
100
AcDbEntity
  8
DEFPOINTS
 62
     0
100
AcDbPoint
 10
157.1368557252417
 20
137.7901764821234
 30
0.0
  0
POINT
  5
6E3
330
6D8
100
AcDbEntity
  8
DEFPOINTS
 62
     0
100
AcDbPoint
 10
166.8327198266734
 20
137.7901764821234
 30
0.0
  0
ENDBLK
  5
6DA
330
6D8
100
AcDbEntity
  8
0
100
AcDbBlockEnd
  0
BLOCK
  5
6E8
330
6E7
100
AcDbEntity
  8
0
100
AcDbBlockBegin
  2
*D23
 70
     1
 10
0.0
 20
0.0
 30
0.0
  3
*D23
  1
*D23
  0
LINE
  5
6EA
330
6E7
100
AcDbEntity
  8
WY
 62
     0
100
AcDbLine
 10
152.1368558370004
 20
131.0901763860109
 30
0.0
 11
152.1368558370004
 21
123.2593735364392
 31
0.0
  0
LINE
  5
6EB
330
6E7
100
AcDbEntity
  8
WY
 62
     0
100
AcDbLine
 10
154.3368558250795
 20
131.0901763860109
 30
0.0
 11
154.3368558250795
 21
123.2593735364392
 31
0.0
  0
LINE
  5
6EC
330
6E7
100
AcDbEntity
  8
WY
 62
     0
100
AcDbLine
 10
154.3368558250795
 20
124.2593735364392
 30
0.0
 11
171.3368558250795
 21
124.2593735364392
 31
0.0
  0
LINE
  5
6ED
330
6E7
100
AcDbEntity
  8
WY
 62
     0
100
AcDbLine
 10
152.1368558370004
 20
124.2593735364392
 30
0.0
 11
154.3368558250795
 21
124.2593735364392
 31
0.0
  0
LINE
  5
6EE
330
6E7
100
AcDbEntity
  8
WY
 62
     0
100
AcDbLine
 10
150.1368558370004
 20
124.2593735364392
 30
0.0
 11
148.1368558370004
 21
124.2593735364392
 31
0.0
  0
LINE
  5
6EF
330
6E7
100
AcDbEntity
  8
WY
 62
     0
100
AcDbLine
 10
156.3368558250795
 20
124.2593735364392
 30
0.0
 11
158.3368558250795
 21
124.2593735364392
 31
0.0
  0
SOLID
  5
6F0
330
6E7
100
AcDbEntity
  8
WY
 62
     0
100
AcDbTrace
 10
150.1368558370004
 20
123.9260402031058
 30
0.0
 11
150.1368558370004
 21
124.5927068697725
 31
0.0
 12
152.1368558370004
 22
124.2593735364392
 32
0.0
 13
152.1368558370004
 23
124.2593735364392
 33
0.0
  0
SOLID
  5
6F1
330
6E7
100
AcDbEntity
  8
WY
 62
     0
100
AcDbTrace
 10
156.3368558250795
 20
124.5927068697725
 30
0.0
 11
156.3368558250795
 21
123.9260402031058
 31
0.0
 12
154.3368558250795
 22
124.2593735364392
 32
0.0
 13
154.3368558250795
 23
124.2593735364392
 33
0.0
  0
MTEXT
  5
6F2
330
6E7
100
AcDbEntity
  8
WY
 62
     0
100
AcDbMText
 10
164.8368558250795
 20
126.4260402031058
 30
0.0
 40
2.0
 41
0.0
 71
     5
 72
     1
  1
2,2x0,5
  0
POINT
  5
6F3
330
6E7
100
AcDbEntity
  8
DEFPOINTS
 62
     0
100
AcDbPoint
 10
152.1368558370004
 20
132.0901763860109
 30
0.0
  0
POINT
  5
6F4
330
6E7
100
AcDbEntity
  8
DEFPOINTS
 62
     0
100
AcDbPoint
 10
154.3368558250795
 20
132.0901763860109
 30
0.0
  0
POINT
  5
6F5
330
6E7
100
AcDbEntity
  8
DEFPOINTS
 62
     0
100
AcDbPoint
 10
154.3368558250795
 20
124.2593735364392
 30
0.0
  0
ENDBLK
  5
6E9
330
6E7
100
AcDbEntity
  8
0
100
AcDbBlockEnd
  0
BLOCK
  5
6FA
330
6F9
100
AcDbEntity
  8
0
100
AcDbBlockBegin
  2
*D24
 70
     1
 10
0.0
 20
0.0
 30
0.0
  3
*D24
  1
*D24
  0
LINE
  5
6FC
330
6F9
100
AcDbEntity
  8
WY
 62
     0
100
AcDbLine
 10
89.5345888641005
 20
74.21495768982754
 30
0.0
 11
89.5345888641005
 21
68.74848598309292
 31
0.0
  0
LINE
  5
6FD
330
6F9
100
AcDbEntity
  8
WY
 62
     0
100
AcDbLine
 10
101.6712252657765
 20
86.79371644602467
 30
0.0
 11
107.5798193270323
 21
86.79371644602467
 31
0.0
  0
ARC
  5
6FE
330
6F9
100
AcDbEntity
  8
WY
 62
     0
100
AcDbCircle
 10
89.5345888641005
 20
86.79371644602467
 30
0.0
 40
17.04523046293176
100
AcDbArc
 50
270.0
 51
353.273344344668
  0
SOLID
  5
6FF
330
6F9
100
AcDbEntity
  8
WY
 62
     0
100
AcDbTrace
 10
106.7952436453618
 20
84.77760546837901
 30
0.0
 11
106.1297252570265
 21
84.81671709365837
 31
0.0
 12
106.5798193270323
 22
86.79371644602467
 32
0.0
 13
106.5798193270323
 23
86.79371644602467
 33
0.0
  0
MTEXT
  5
700
330
6F9
100
AcDbEntity
  8
WY
 62
     0
100
AcDbMText
 10
100.173173348954
 20
76.15513196117121
 30
0.0
 40
2.0
 41
0.0
 71
     5
 72
     1
  1
 
 11
0.7071067811865475
 21
0.7071067811865475
 31
0.0
  0
POINT
  5
701
330
6F9
100
AcDbEntity
  8
DEFPOINTS
 62
     0
100
AcDbPoint
 10
98.05720409556638
 20
72.0321138517654
 30
0.0
  0
POINT
  5
702
330
6F9
100
AcDbEntity
  8
DEFPOINTS
 62
     0
100
AcDbPoint
 10
86.85406515824712
 20
86.79371644602467
 30
0.0
  0
POINT
  5
703
330
6F9
100
AcDbEntity
  8
DEFPOINTS
 62
     0
100
AcDbPoint
 10
89.5345888641005
 20
89.57869008004674
 30
0.0
  0
POINT
  5
704
330
6F9
100
AcDbEntity
  8
DEFPOINTS
 62
     0
100
AcDbPoint
 10
89.5345888641005
 20
75.21495768982754
 30
0.0
  0
POINT
  5
705
330
6F9
100
AcDbEntity
  8
DEFPOINTS
 62
     0
100
AcDbPoint
 10
100.6712252657765
 20
86.79371644602467
 30
0.0
  0
ENDBLK
  5
6FB
330
6F9
100
AcDbEntity
  8
0
100
AcDbBlockEnd
  0
BLOCK
  5
708
330
707
100
AcDbEntity
  8
0
100
AcDbBlockBegin
  2
_NONE
 70
     0
 10
0.0
 20
0.0
 30
0.0
  3
_NONE
  1
_NONE
  0
ENDBLK
  5
709
330
707
100
AcDbEntity
  8
0
100
AcDbBlockEnd
  0
ENDSEC
  0
SECTION
  2
ENTITIES
  0
LINE
  5
155
330
1F
100
AcDbEntity
  8
1
  6
CONTINUOUS
 62
     7
100
AcDbLine
 10
71.58458869187672
 20
209.3019271958146
 30
0.0
 11
71.08458907558162
 21
209.3019271958146
 31
0.0
  0
LINE
  5
156
330
1F
100
AcDbEntity
  8
1
  6
CONTINUOUS
 62
     7
100
AcDbLine
 10
71.08458907558162
 20
209.9019271078978
 30
0.0
 11
71.08458907558162
 21
209.3019271958146
 31
0.0
  0
LINE
  5
157
330
1F
100
AcDbEntity
  8
1
  6
CONTINUOUS
 62
     7
100
AcDbLine
 10
71.08458907558162
 20
209.9019271078978
 30
0.0
 11
71.58458869187672
 21
209.9019271078978
 31
0.0
  0
LINE
  5
158
330
1F
100
AcDbEntity
  8
1
  6
CONTINUOUS
 62
     7
100
AcDbLine
 10
71.58458869187672
 20
209.3019271958146
 30
0.0
 11
71.58458869187672
 21
209.9019271078978
 31
0.0
  0
LINE
  5
159
330
1F
100
AcDbEntity
  8
1
  6
CONTINUOUS
 62
     7
100
AcDbLine
 10
71.58458869187672
 20
221.5019269603763
 30
0.0
 11
71.58458869187672
 21
222.5019271242891
 31
0.0
  0
LINE
  5
15A
330
1F
100
AcDbEntity
  8
1
  6
CONTINUOUS
 62
     7
100
AcDbLine
 10
71.08458907558162
 20
221.5019269603763
 30
0.0
 11
71.58458869187672
 21
221.5019269603763
 31
0.0
  0
LINE
  5
15B
330
1F
100
AcDbEntity
  8
1
  6
CONTINUOUS
 62
     7
100
AcDbLine
 10
71.08458907558162
 20
222.5019271242891
 30
0.0
 11
71.08458907558162
 21
221.5019269603763
 31
0.0
  0
LINE
  5
15C
330
1F
100
AcDbEntity
  8
1
  6
CONTINUOUS
 62
     7
100
AcDbLine
 10
71.58458869187672
 20
222.5019271242891
 30
0.0
 11
71.08458907558162
 21
222.5019271242891
 31
0.0
  0
LINE
  5
15D
330
1F
100
AcDbEntity
  8
1
  6
CONTINUOUS
 62
     7
100
AcDbLine
 10
71.08458907558162
 20
220.9019270482931
 30
0.0
 11
71.58458869187672
 21
220.9019270482931
 31
0.0
  0
LINE
  5
15E
330
1F
100
AcDbEntity
  8
1
  6
CONTINUOUS
 62
     7
100
AcDbLine
 10
71.08458907558162
 20
221.5019269603763
 30
0.0
 11
71.08458907558162
 21
220.9019270482931
 31
0.0
  0
LINE
  5
15F
330
1F
100
AcDbEntity
  8
1
  6
CONTINUOUS
 62
     7
100
AcDbLine
 10
71.58458869187672
 20
220.9019270482931
 30
0.0
 11
71.58458869187672
 21
221.5019269603763
 31
0.0
  0
LINE
  5
160
330
1F
100
AcDbEntity
  8
1
  6
CONTINUOUS
 62
     7
100
AcDbLine
 10
77.88458881648768
 20
222.5019271242891
 30
0.0
 11
77.38458885094661
 21
222.5019271242891
 31
0.0
  0
LINE
  5
161
330
1F
100
AcDbEntity
  8
1
  6
CONTINUOUS
 62
     7
100
AcDbLine
 10
77.38458885094661
 20
223.1019270363722
 30
0.0
 11
77.38458885094661
 21
222.5019271242891
 31
0.0
  0
LINE
  5
162
330
1F
100
AcDbEntity
  8
1
  6
CONTINUOUS
 62
     7
100
AcDbLine
 10
77.88458881648768
 20
223.1019270363722
 30
0.0
 11
77.38458885094661
 21
223.1019270363722
 31
0.0
  0
LINE
  5
163
330
1F
100
AcDbEntity
  8
1
  6
CONTINUOUS
 62
     7
100
AcDbLine
 10
77.88458881648768
 20
222.5019271242891
 30
0.0
 11
77.88458881648768
 21
223.1019270363722
 31
0.0
  0
LINE
  5
164
330
1F
100
AcDbEntity
  8
1
  6
CONTINUOUS
 62
     7
100
AcDbLine
 10
83.6845890919729
 20
220.9019270482931
 30
0.0
 11
84.184588708268
 21
220.9019270482931
 31
0.0
  0
LINE
  5
165
330
1F
100
AcDbEntity
  8
1
  6
CONTINUOUS
 62
     7
100
AcDbLine
 10
83.6845890919729
 20
221.5019269603763
 30
0.0
 11
83.6845890919729
 21
220.9019270482931
 31
0.0
  0
LINE
  5
166
330
1F
100
AcDbEntity
  8
1
  6
CONTINUOUS
 62
     7
100
AcDbLine
 10
83.6845890919729
 20
221.5019269603763
 30
0.0
 11
84.184588708268
 21
221.5019269603763
 31
0.0
  0
LINE
  5
167
330
1F
100
AcDbEntity
  8
1
  6
CONTINUOUS
 62
     7
100
AcDbLine
 10
84.184588708268
 20
220.9019270482931
 30
0.0
 11
84.184588708268
 21
221.5019269603763
 31
0.0
  0
LINE
  5
168
330
1F
100
AcDbEntity
  8
1
  6
CONTINUOUS
 62
     7
100
AcDbLine
 10
71.08458907558162
 20
223.1019270363722
 30
0.0
 11
71.58458869187672
 21
223.1019270363722
 31
0.0
  0
LINE
  5
169
330
1F
100
AcDbEntity
  8
1
  6
CONTINUOUS
 62
     7
100
AcDbLine
 10
71.58458869187672
 20
222.5019271242891
 30
0.0
 11
71.58458869187672
 21
223.1019270363722
 31
0.0
  0
LINE
  5
16A
330
1F
100
AcDbEntity
  8
1
  6
CONTINUOUS
 62
     7
100
AcDbLine
 10
71.08458907558162
 20
223.1019270363722
 30
0.0
 11
71.08458907558162
 21
222.5019271242891
 31
0.0
  0
LINE
  5
16B
330
1F
100
AcDbEntity
  8
1
  6
CONTINUOUS
 62
     7
100
AcDbLine
 10
77.88458881648768
 20
221.5019269603763
 30
0.0
 11
77.88458881648768
 21
222.5019271242891
 31
0.0
  0
LINE
  5
16C
330
1F
100
AcDbEntity
  8
1
  6
CONTINUOUS
 62
     7
100
AcDbLine
 10
77.38458885094661
 20
221.5019269603763
 30
0.0
 11
77.88458881648768
 21
221.5019269603763
 31
0.0
  0
LINE
  5
16D
330
1F
100
AcDbEntity
  8
1
  6
CONTINUOUS
 62
     7
100
AcDbLine
 10
77.38458885094661
 20
222.5019271242891
 30
0.0
 11
77.38458885094661
 21
221.5019269603763
 31
0.0
  0
LINE
  5
16E
330
1F
100
AcDbEntity
  8
1
  6
CONTINUOUS
 62
     7
100
AcDbLine
 10
77.88458881648768
 20
220.9019270482931
 30
0.0
 11
77.38458885094661
 21
220.9019270482931
 31
0.0
  0
LINE
  5
16F
330
1F
100
AcDbEntity
  8
1
  6
CONTINUOUS
 62
     7
100
AcDbLine
 10
77.38458885094661
 20
221.5019269603763
 30
0.0
 11
77.38458885094661
 21
220.9019270482931
 31
0.0
  0
LINE
  5
170
330
1F
100
AcDbEntity
  8
1
  6
CONTINUOUS
 62
     7
100
AcDbLine
 10
77.88458881648768
 20
220.9019270482931
 30
0.0
 11
77.88458881648768
 21
221.5019269603763
 31
0.0
  0
LINE
  5
171
330
1F
100
AcDbEntity
  8
1
  6
CONTINUOUS
 62
     7
100
AcDbLine
 10
88.28458872838456
 20
209.3019271958146
 30
0.0
 11
87.78458864642818
 21
209.3019271958146
 31
0.0
  0
LINE
  5
172
330
1F
100
AcDbEntity
  8
1
  6
CONTINUOUS
 62
     7
100
AcDbLine
 10
87.78458864642818
 20
209.9019271078978
 30
0.0
 11
87.78458864642818
 21
209.3019271958146
 31
0.0
  0
LINE
  5
173
330
1F
100
AcDbEntity
  8
1
  6
CONTINUOUS
 62
     7
100
AcDbLine
 10
87.78458864642818
 20
209.9019271078978
 30
0.0
 11
88.28458872838456
 21
209.9019271078978
 31
0.0
  0
LINE
  5
174
330
1F
100
AcDbEntity
  8
1
  6
CONTINUOUS
 62
     7
100
AcDbLine
 10
88.28458872838456
 20
209.3019271958146
 30
0.0
 11
88.28458872838456
 21
209.9019271078978
 31
0.0
  0
LINE
  5
175
330
1F
100
AcDbEntity
  8
1
  6
CONTINUOUS
 62
     7
100
AcDbLine
 10
88.28458872838456
 20
221.5019269603763
 30
0.0
 11
88.28458872838456
 21
222.5019271242891
 31
0.0
  0
LINE
  5
176
330
1F
100
AcDbEntity
  8
1
  6
CONTINUOUS
 62
     7
100
AcDbLine
 10
87.78458864642818
 20
221.5019269603763
 30
0.0
 11
88.28458872838456
 21
221.5019269603763
 31
0.0
  0
LINE
  5
177
330
1F
100
AcDbEntity
  8
1
  6
CONTINUOUS
 62
     7
100
AcDbLine
 10
87.78458864642818
 20
222.5019271242891
 30
0.0
 11
87.78458864642818
 21
221.5019269603763
 31
0.0
  0
LINE
  5
178
330
1F
100
AcDbEntity
  8
1
  6
CONTINUOUS
 62
     7
100
AcDbLine
 10
88.28458872838456
 20
222.5019271242891
 30
0.0
 11
87.78458864642818
 21
222.5019271242891
 31
0.0
  0
LINE
  5
179
330
1F
100
AcDbEntity
  8
1
  6
CONTINUOUS
 62
     7
100
AcDbLine
 10
77.88458881648768
 20
209.3019271958146
 30
0.0
 11
77.38458885094661
 21
209.3019271958146
 31
0.0
  0
LINE
  5
17A
330
1F
100
AcDbEntity
  8
1
  6
CONTINUOUS
 62
     7
100
AcDbLine
 10
77.38458885094661
 20
209.9019271078978
 30
0.0
 11
77.38458885094661
 21
209.3019271958146
 31
0.0
  0
LINE
  5
17B
330
1F
100
AcDbEntity
  8
1
  6
CONTINUOUS
 62
     7
100
AcDbLine
 10
77.38458885094661
 20
209.9019271078978
 30
0.0
 11
77.88458881648768
 21
209.9019271078978
 31
0.0
  0
LINE
  5
17C
330
1F
100
AcDbEntity
  8
1
  6
CONTINUOUS
 62
     7
100
AcDbLine
 10
77.88458881648768
 20
209.3019271958146
 30
0.0
 11
77.88458881648768
 21
209.9019271078978
 31
0.0
  0
LINE
  5
17D
330
1F
100
AcDbEntity
  8
1
  6
CONTINUOUS
 62
     7
100
AcDbLine
 10
84.184588708268
 20
221.5019269603763
 30
0.0
 11
84.184588708268
 21
222.5019271242891
 31
0.0
  0
LINE
  5
17E
330
1F
100
AcDbEntity
  8
1
  6
CONTINUOUS
 62
     7
100
AcDbLine
 10
84.184588708268
 20
222.5019271242891
 30
0.0
 11
83.6845890919729
 21
222.5019271242891
 31
0.0
  0
LINE
  5
17F
330
1F
100
AcDbEntity
  8
1
  6
CONTINUOUS
 62
     7
100
AcDbLine
 10
83.6845890919729
 20
222.5019271242891
 30
0.0
 11
83.6845890919729
 21
221.5019269603763
 31
0.0
  0
LINE
  5
180
330
1F
100
AcDbEntity
  8
1
  6
CONTINUOUS
 62
     7
100
AcDbLine
 10
71.08458907558162
 20
207.7019271198187
 30
0.0
 11
71.58458869187672
 21
207.7019271198187
 31
0.0
  0
LINE
  5
181
330
1F
100
AcDbEntity
  8
1
  6
CONTINUOUS
 62
     7
100
AcDbLine
 10
71.08458907558162
 20
208.3019270319019
 30
0.0
 11
71.08458907558162
 21
207.7019271198187
 31
0.0
  0
LINE
  5
182
330
1F
100
AcDbEntity
  8
1
  6
CONTINUOUS
 62
     7
100
AcDbLine
 10
71.08458907558162
 20
208.3019270319019
 30
0.0
 11
71.58458869187672
 21
208.3019270319019
 31
0.0
  0
LINE
  5
183
330
1F
100
AcDbEntity
  8
1
  6
CONTINUOUS
 62
     7
100
AcDbLine
 10
71.58458869187672
 20
207.7019271198187
 30
0.0
 11
71.58458869187672
 21
208.3019270319019
 31
0.0
  0
LINE
  5
184
330
1F
100
AcDbEntity
  8
1
  6
CONTINUOUS
 62
     7
100
AcDbLine
 10
87.78458864642818
 20
223.1019270363722
 30
0.0
 11
88.28458872838456
 21
223.1019270363722
 31
0.0
  0
LINE
  5
185
330
1F
100
AcDbEntity
  8
1
  6
CONTINUOUS
 62
     7
100
AcDbLine
 10
88.28458872838456
 20
222.5019271242891
 30
0.0
 11
88.28458872838456
 21
223.1019270363722
 31
0.0
  0
LINE
  5
186
330
1F
100
AcDbEntity
  8
1
  6
CONTINUOUS
 62
     7
100
AcDbLine
 10
87.78458864642818
 20
223.1019270363722
 30
0.0
 11
87.78458864642818
 21
222.5019271242891
 31
0.0
  0
LINE
  5
187
330
1F
100
AcDbEntity
  8
1
  6
CONTINUOUS
 62
     7
100
AcDbLine
 10
83.6845890919729
 20
223.1019270363722
 30
0.0
 11
84.184588708268
 21
223.1019270363722
 31
0.0
  0
LINE
  5
188
330
1F
100
AcDbEntity
  8
1
  6
CONTINUOUS
 62
     7
100
AcDbLine
 10
84.184588708268
 20
222.5019271242891
 30
0.0
 11
84.184588708268
 21
223.1019270363722
 31
0.0
  0
LINE
  5
189
330
1F
100
AcDbEntity
  8
1
  6
CONTINUOUS
 62
     7
100
AcDbLine
 10
83.6845890919729
 20
223.1019270363722
 30
0.0
 11
83.6845890919729
 21
222.5019271242891
 31
0.0
  0
LINE
  5
18A
330
1F
100
AcDbEntity
  8
1
  6
CONTINUOUS
 62
     7
100
AcDbLine
 10
83.6845890919729
 20
207.7019271198187
 30
0.0
 11
84.184588708268
 21
207.7019271198187
 31
0.0
  0
LINE
  5
18B
330
1F
100
AcDbEntity
  8
1
  6
CONTINUOUS
 62
     7
100
AcDbLine
 10
83.6845890919729
 20
208.3019270319019
 30
0.0
 11
83.6845890919729
 21
207.7019271198187
 31
0.0
  0
LINE
  5
18C
330
1F
100
AcDbEntity
  8
1
  6
CONTINUOUS
 62
     7
100
AcDbLine
 10
83.6845890919729
 20
208.3019270319019
 30
0.0
 11
84.184588708268
 21
208.3019270319019
 31
0.0
  0
LINE
  5
18D
330
1F
100
AcDbEntity
  8
1
  6
CONTINUOUS
 62
     7
100
AcDbLine
 10
84.184588708268
 20
207.7019271198187
 30
0.0
 11
84.184588708268
 21
208.3019270319019
 31
0.0
  0
LINE
  5
18E
330
1F
100
AcDbEntity
  8
1
  6
CONTINUOUS
 62
     7
100
AcDbLine
 10
87.78458864642818
 20
220.9019270482931
 30
0.0
 11
88.28458872838456
 21
220.9019270482931
 31
0.0
  0
LINE
  5
18F
330
1F
100
AcDbEntity
  8
1
  6
CONTINUOUS
 62
     7
100
AcDbLine
 10
88.28458872838456
 20
220.9019270482931
 30
0.0
 11
88.28458872838456
 21
221.5019269603763
 31
0.0
  0
LINE
  5
190
330
1F
100
AcDbEntity
  8
1
  6
CONTINUOUS
 62
     7
100
AcDbLine
 10
87.78458864642818
 20
221.5019269603763
 30
0.0
 11
87.78458864642818
 21
220.9019270482931
 31
0.0
  0
LINE
  5
191
330
1F
100
AcDbEntity
  8
1
  6
CONTINUOUS
 62
     7
100
AcDbLine
 10
88.28458872838456
 20
208.3019270319019
 30
0.0
 11
88.28458872838456
 21
209.3019271958146
 31
0.0
  0
LINE
  5
192
330
1F
100
AcDbEntity
  8
1
  6
CONTINUOUS
 62
     7
100
AcDbLine
 10
87.78458864642818
 20
208.3019270319019
 30
0.0
 11
88.28458872838456
 21
208.3019270319019
 31
0.0
  0
LINE
  5
193
330
1F
100
AcDbEntity
  8
1
  6
CONTINUOUS
 62
     7
100
AcDbLine
 10
87.78458864642818
 20
209.3019271958146
 30
0.0
 11
87.78458864642818
 21
208.3019270319019
 31
0.0
  0
LINE
  5
194
330
1F
100
AcDbEntity
  8
1
  6
CONTINUOUS
 62
     7
100
AcDbLine
 10
87.78458864642818
 20
207.7019271198187
 30
0.0
 11
88.28458872838456
 21
207.7019271198187
 31
0.0
  0
LINE
  5
195
330
1F
100
AcDbEntity
  8
1
  6
CONTINUOUS
 62
     7
100
AcDbLine
 10
87.78458864642818
 20
208.3019270319019
 30
0.0
 11
87.78458864642818
 21
207.7019271198187
 31
0.0
  0
LINE
  5
196
330
1F
100
AcDbEntity
  8
1
  6
CONTINUOUS
 62
     7
100
AcDbLine
 10
88.28458872838456
 20
207.7019271198187
 30
0.0
 11
88.28458872838456
 21
208.3019270319019
 31
0.0
  0
LINE
  5
197
330
1F
100
AcDbEntity
  8
1
  6
CONTINUOUS
 62
     7
100
AcDbLine
 10
84.184588708268
 20
209.3019271958146
 30
0.0
 11
83.6845890919729
 21
209.3019271958146
 31
0.0
  0
LINE
  5
198
330
1F
100
AcDbEntity
  8
1
  6
CONTINUOUS
 62
     7
100
AcDbLine
 10
83.6845890919729
 20
209.9019271078978
 30
0.0
 11
83.6845890919729
 21
209.3019271958146
 31
0.0
  0
LINE
  5
199
330
1F
100
AcDbEntity
  8
1
  6
CONTINUOUS
 62
     7
100
AcDbLine
 10
83.6845890919729
 20
209.9019271078978
 30
0.0
 11
84.184588708268
 21
209.9019271078978
 31
0.0
  0
LINE
  5
19A
330
1F
100
AcDbEntity
  8
1
  6
CONTINUOUS
 62
     7
100
AcDbLine
 10
84.184588708268
 20
209.3019271958146
 30
0.0
 11
84.184588708268
 21
209.9019271078978
 31
0.0
  0
LINE
  5
19B
330
1F
100
AcDbEntity
  8
1
  6
CONTINUOUS
 62
     7
100
AcDbLine
 10
77.38458885094661
 20
208.3019270319019
 30
0.0
 11
77.88458881648768
 21
208.3019270319019
 31
0.0
  0
LINE
  5
19C
330
1F
100
AcDbEntity
  8
1
  6
CONTINUOUS
 62
     7
100
AcDbLine
 10
77.38458885094661
 20
209.3019271958146
 30
0.0
 11
77.38458885094661
 21
208.3019270319019
 31
0.0
  0
LINE
  5
19D
330
1F
100
AcDbEntity
  8
1
  6
CONTINUOUS
 62
     7
100
AcDbLine
 10
77.88458881648768
 20
208.3019270319019
 30
0.0
 11
77.88458881648768
 21
209.3019271958146
 31
0.0
  0
LINE
  5
19E
330
1F
100
AcDbEntity
  8
1
  6
CONTINUOUS
 62
     7
100
AcDbLine
 10
71.08458907558162
 20
209.3019271958146
 30
0.0
 11
71.08458907558162
 21
208.3019270319019
 31
0.0
  0
LINE
  5
19F
330
1F
100
AcDbEntity
  8
1
  6
CONTINUOUS
 62
     7
100
AcDbLine
 10
71.58458869187672
 20
208.3019270319019
 30
0.0
 11
71.58458869187672
 21
209.3019271958146
 31
0.0
  0
LINE
  5
1A0
330
1F
100
AcDbEntity
  8
1
  6
CONTINUOUS
 62
     7
100
AcDbLine
 10
77.38458885094661
 20
207.7019271198187
 30
0.0
 11
77.88458881648768
 21
207.7019271198187
 31
0.0
  0
LINE
  5
1A1
330
1F
100
AcDbEntity
  8
1
  6
CONTINUOUS
 62
     7
100
AcDbLine
 10
77.38458885094661
 20
208.3019270319019
 30
0.0
 11
77.38458885094661
 21
207.7019271198187
 31
0.0
  0
LINE
  5
1A2
330
1F
100
AcDbEntity
  8
1
  6
CONTINUOUS
 62
     7
100
AcDbLine
 10
77.88458881648768
 20
207.7019271198187
 30
0.0
 11
77.88458881648768
 21
208.3019270319019
 31
0.0
  0
LINE
  5
1A3
330
1F
100
AcDbEntity
  8
1
  6
CONTINUOUS
 62
     7
100
AcDbLine
 10
83.6845890919729
 20
209.3019271958146
 30
0.0
 11
83.6845890919729
 21
208.3019270319019
 31
0.0
  0
LINE
  5
1A4
330
1F
100
AcDbEntity
  8
1
  6
CONTINUOUS
 62
     7
100
AcDbLine
 10
84.184588708268
 20
208.3019270319019
 30
0.0
 11
84.184588708268
 21
209.3019271958146
 31
0.0
  0
SPLINE
  5
1A5
330
1F
100
AcDbEntity
  8
1
  6
CONTINUOUS
 62
     7
100
AcDbSpline
210
0.0
220
0.0
230
1.0
 70
     8
 71
     3
 72
    15
 73
    11
 74
     0
 42
0.000000001
 43
0.00000001
 40
0.0
 40
0.0
 40
0.0
 40
0.0
 40
0.1116684912021373
 40
0.2320907212567486
 40
0.3627375831783405
 40
0.5019406766958318
 40
0.641530910112877
 40
0.7711022031772823
 40
0.8901635365959866
 40
1.0
 40
1.0
 40
1.0
 40
1.0
 10
73.5934590594178
 20
222.4250040011724
 30
0.0
 10
73.58278141189146
 20
222.4360777297295
 30
0.0
 10
73.56058909166717
 20
222.4590932609697
 30
0.0
 10
73.52916168465913
 20
222.49798556342
 30
0.0
 10
73.49744708988135
 20
222.541384826506
 30
0.0
 10
73.46653588499856
 20
222.588571097076
 30
0.0
 10
73.43800632798354
 20
222.6370407883678
 30
0.0
 10
73.41197344762696
 20
222.6837386072581
 30
0.0
 10
73.3900566394488
 20
222.7280123149007
 30
0.0
 10
73.37806121170127
 20
222.7571676690368
 30
0.0
 10
73.37230521326399
 20
222.7711578473262
 30
0.0
  0
LINE
  5
1A6
330
1F
100
AcDbEntity
  8
1
  6
CONTINUOUS
 62
     7
100
AcDbLine
 10
73.37230521468956
 20
222.7711580451105
 30
0.0
 11
73.54958898602564
 21
222.7711580451105
 31
0.0
  0
SPLINE
  5
1A7
330
1F
100
AcDbEntity
  8
1
  6
CONTINUOUS
 62
     7
100
AcDbSpline
210
0.0
220
0.0
230
1.0
 70
     8
 71
     3
 72
    15
 73
    11
 74
     0
 42
0.000000001
 43
0.00000001
 40
0.0
 40
0.0
 40
0.0
 40
0.0
 40
0.1426572507006141
 40
0.281168993905443
 40
0.4169771923679744
 40
0.550852492747558
 40
0.6783641702618126
 40
0.7950324430070954
 40
0.9019981783473525
 40
1.0
 40
1.0
 40
1.0
 40
1.0
 10
73.54958886711012
 20
222.7711578473262
 30
0.0
 10
73.56196467489406
 20
222.7471272460183
 30
0.0
 10
73.58635665922213
 20
222.6997643537747
 30
0.0
 10
73.62848496932554
 20
222.6328508287413
 30
0.0
 10
73.67415379172115
 20
222.5703798551482
 30
0.0
 10
73.7233530153195
 20
222.5133855749326
 30
0.0
 10
73.77364345369199
 20
222.4622938344698
 30
0.0
 10
73.8243884813919
 20
222.4192380828397
 30
0.0
 10
73.8737280049084
 20
222.3832117696844
 30
0.0
 10
73.90813685084078
 20
222.3651366858888
 30
0.0
 10
73.92458886711012
 20
222.3564943857878
 30
0.0
  0
LINE
  5
1A8
330
1F
100
AcDbEntity
  8
1
  6
CONTINUOUS
 62
     7
100
AcDbLine
 10
73.92458881466229
 20
222.3564945850048
 30
0.0
 11
73.92458881466229
 21
222.2326962034676
 31
0.0
  0
LINE
  5
1A9
330
1F
100
AcDbEntity
  8
1
  6
CONTINUOUS
 62
     7
100
AcDbLine
 10
73.92458881466229
 20
222.2326962034676
 30
0.0
 11
72.42458903445441
 21
222.2326962034676
 31
0.0
  0
LINE
  5
1AA
330
1F
100
AcDbEntity
  8
1
  6
CONTINUOUS
 62
     7
100
AcDbLine
 10
72.42458903445441
 20
222.2326962034676
 30
0.0
 11
72.42458903445441
 21
222.4250040705774
 31
0.0
  0
LINE
  5
1AB
330
1F
100
AcDbEntity
  8
1
  6
CONTINUOUS
 62
     7
100
AcDbLine
 10
72.42458903445441
 20
222.4250040705774
 30
0.0
 11
73.5934589359029
 21
222.4250040705774
 31
0.0
  0
SPLINE
  5
1AC
330
1F
100
AcDbEntity
  8
1
  6
CONTINUOUS
 62
     7
100
AcDbSpline
210
0.0
220
0.0
230
1.0
 70
     8
 71
     3
 72
    11
 73
     7
 74
     0
 42
0.000000001
 43
0.00000001
 40
0.0
 40
0.0
 40
0.0
 40
0.0
 40
0.2526433275832372
 40
0.5044398525799881
 40
0.7504068042814565
 40
1.0
 40
1.0
 40
1.0
 40
1.0
 10
78.72458886648513
 20
208.8980809242493
 30
0.0
 10
78.7360182532762
 20
208.8981010031712
 30
0.0
 10
78.75883871817075
 20
208.8981410937149
 30
0.0
 10
78.79258873812728
 20
208.8942795034569
 30
0.0
 10
78.82589103569376
 20
208.8882314799816
 30
0.0
 10
78.84724647468806
 20
208.8813929819576
 30
0.0
 10
78.85800232802359
 20
208.8779487127108
 30
0.0
  0
SPLINE
  5
1AD
330
1F
100
AcDbEntity
  8
1
  6
CONTINUOUS
 62
     7
100
AcDbSpline
210
0.0
220
0.0
230
1.0
 70
     8
 71
     3
 72
    19
 73
    15
 74
     0
 42
0.000000001
 43
0.00000001
 40
0.0
 40
0.0
 40
0.0
 40
0.0
 40
0.100395805369235
 40
0.2044223945985648
 40
0.3109890257635821
 40
0.4224687447083739
 40
0.4810013788192111
 40
0.5432032916293411
 40
0.6094696992077583
 40
0.6795301504461717
 40
0.7538224337262094
 40
0.831627826288766
 40
0.9138061284747212
 40
1.0
 40
1.0
 40
1.0
 40
1.0
 10
78.85800232802359
 20
208.8779487127108
 30
0.0
 10
78.87557228488924
 20
208.8715786299137
 30
0.0
 10
78.91134761078314
 20
208.8586080922065
 30
0.0
 10
78.96308456035382
 20
208.8324301227202
 30
0.0
 10
79.01420326239037
 20
208.8011274220591
 30
0.0
 10
79.05612015859663
 20
208.7711700592633
 30
0.0
 10
79.08936485403837
 20
208.743579290119
 30
0.0
 10
79.1156886079591
 20
208.72082700424
 30
0.0
 10
79.14229647937236
 20
208.6951970123569
 30
0.0
 10
79.16966291431896
 20
208.6671565421475
 30
0.0
 10
79.19778949185638
 20
208.6368757601064
 30
0.0
 10
79.22680728383125
 20
208.6043558481077
 30
0.0
 10
79.25616474607739
 20
208.5692004513459
 30
0.0
 10
79.27562452268342
 20
208.5446588161339
 30
0.0
 10
79.285586462639
 20
208.5320953473262
 30
0.0
  0
SPLINE
  5
1AE
330
1F
100
AcDbEntity
  8
1
  6
CONTINUOUS
 62
     7
100
AcDbSpline
210
0.0
220
0.0
230
1.0
 70
     8
 71
     3
 72
    23
 73
    19
 74
     0
 42
0.000000001
 43
0.00000001
 40
0.0
 40
0.0
 40
0.0
 40
0.0
 40
0.1114096600426613
 40
0.2145263672558015
 40
0.3094172254458346
 40
0.396087190799031
 40
0.4742842164262468
 40
0.5443738816396976
 40
0.6064195628105367
 40
0.6605816023749738
 40
0.7097938180647574
 40
0.7564506485918283
 40
0.8007673253039319
 40
0.8431682879413346
 40
0.8842948685500489
 40
0.9238845020552847
 40
0.9623587101392159
 40
1.0
 40
1.0
 40
1.0
 40
1.0
 10
79.285586462639
 20
208.5320953473262
 30
0.0
 10
79.30183151383233
 20
208.5127946885189
 30
0.0
 10
79.33311239034742
 20
208.4756300457221
 30
0.0
 10
79.37953031196525
 20
208.4231477462249
 30
0.0
 10
79.4226319813854
 20
208.375213708373
 30
0.0
 10
79.4631728435021
 20
208.3325912273364
 30
0.0
 10
79.50075967816201
 20
208.2949316959402
 30
0.0
 10
79.53530732746219
 20
208.262146688945
 30
0.0
 10
79.56670797521429
 20
208.2339541140308
 30
0.0
 10
79.59609819180912
 20
208.2106981472763
 30
0.0
 10
79.62385073121902
 20
208.1910763745359
 30
0.0
 10
79.6509216195845
 20
208.1744486551793
 30
0.0
 10
79.67778372603868
 20
208.1605916572716
 30
0.0
 10
79.70435205150363
 20
208.1490506321163
 30
0.0
 10
79.73074021400498
 20
208.1399226618385
 30
0.0
 10
79.75702509430437
 20
208.1337006516187
 30
0.0
 10
79.78294588249969
 20
208.1294810995446
 30
0.0
 10
79.80019386259585
 20
208.1290589299519
 30
0.0
 10
79.80872348186972
 20
208.1288501550185
 30
0.0
  0
SPLINE
  5
1AF
330
1F
100
AcDbEntity
  8
1
  6
CONTINUOUS
 62
     7
100
AcDbSpline
210
0.0
220
0.0
230
1.0
 70
     8
 71
     3
 72
    23
 73
    19
 74
     0
 42
0.000000001
 43
0.00000001
 40
0.0
 40
0.0
 40
0.0
 40
0.0
 40
0.0617637590138062
 40
0.1211771361726236
 40
0.1794260614099177
 40
0.2368495788881536
 40
0.2943294307659536
 40
0.3532001253423289
 40
0.4127314132961734
 40
0.4745344608485059
 40
0.5370706765713603
 40
0.5996068922942164
 40
0.6623841626057249
 40
0.7259427899166649
 40
0.7903110064740463
 40
0.8577206100105782
 40
0.9272300646158234
 40
1.0
 40
1.0
 40
1.0
 40
1.0
 10
79.80872348186972
 20
208.1288501550185
 30
0.0
 10
79.81715357960024
 20
208.1290589550603
 30
0.0
 10
79.833692972878
 20
208.1294686093866
 30
0.0
 10
79.85789827112461
 20
208.1333553896747
 30
0.0
 10
79.88120855324217
 20
208.138766098838
 30
0.0
 10
79.90320417572104
 20
208.1475135713857
 30
0.0
 10
79.92453654242638
 20
208.1579256880757
 30
0.0
 10
79.94453147182094
 20
208.1712817758768
 30
0.0
 10
79.96368769892433
 20
208.1867318927637
 30
0.0
 10
79.98149858790742
 20
208.2044214765251
 30
0.0
 10
79.99821279511718
 20
208.2237407244166
 30
0.0
 10
80.01208892701766
 20
208.2453344839458
 30
0.0
 10
80.02469316131351
 20
208.2678320501865
 30
0.0
 10
80.03452909210654
 20
208.2919769784446
 30
0.0
 10
80.04210935186393
 20
208.3175542242967
 30
0.0
 10
80.04739015462638
 20
208.3445227669323
 30
0.0
 10
80.05080425622918
 20
208.3729546117079
 30
0.0
 10
80.0512724711374
 20
208.3923617291286
 30
0.0
 10
80.05151194340823
 20
208.4022876550185
 30
0.0
  0
SPLINE
  5
1B0
330
1F
100
AcDbEntity
  8
1
  6
CONTINUOUS
 62
     7
100
AcDbSpline
210
0.0
220
0.0
230
1.0
 70
     8
 71
     3
 72
    23
 73
    19
 74
     0
 42
0.000000001
 43
0.00000001
 40
0.0
 40
0.0
 40
0.0
 40
0.0
 40
0.0707096164140242
 40
0.1383839155874428
 40
0.2034076476609336
 40
0.2657495716605854
 40
0.3266874290115447
 40
0.3865554477126933
 40
0.4453459368424152
 40
0.5046718019059679
 40
0.5637637927408208
 40
0.621922786767644
 40
0.6807642871773586
 40
0.7397468193482799
 40
0.8007641584264067
 40
0.864214241754677
 40
0.9306182117235854
 40
1.0
 40
1.0
 40
1.0
 40
1.0
 10
80.05151194340823
 20
208.4022876550185
 30
0.0
 10
80.05127206161842
 20
208.412713973452
 30
0.0
 10
80.05080259532758
 20
208.4331190448293
 30
0.0
 10
80.04739739100057
 20
208.4629490224156
 30
0.0
 10
80.0421640321448
 20
208.4912552922606
 30
0.0
 10
80.03429794309454
 20
208.5179368968848
 30
0.0
 10
80.02399979924184
 20
208.5429404792444
 30
0.0
 10
80.01172546864893
 20
208.5664432916191
 30
0.0
 10
79.9971789841577
 20
208.5883554667001
 30
0.0
 10
79.98028387238435
 20
208.6083263518555
 30
0.0
 10
79.96188020871398
 20
208.6268256053805
 30
0.0
 10
79.9410716703062
 20
208.642453410083
 30
0.0
 10
79.91895329278844
 20
208.6561142489303
 30
0.0
 10
79.89482285069835
 20
208.6668909146588
 30
0.0
 10
79.86921040592244
 20
208.675679625313
 30
0.0
 10
79.84173574440433
 20
208.6820233545344
 30
0.0
 10
79.8125166956437
 20
208.6854904883807
 30
0.0
 10
79.79250596159807
 20
208.6861867151207
 30
0.0
 10
79.78228117417746
 20
208.6865424627108
 30
0.0
  0
LINE
  5
1B1
330
1F
100
AcDbEntity
  8
1
  6
CONTINUOUS
 62
     7
100
AcDbLine
 10
79.7822811476006
 20
208.6865423004601
 30
0.0
 11
79.80151196923617
 21
208.8788501675699
 31
0.0
  0
SPLINE
  5
1B2
330
1F
100
AcDbEntity
  8
1
  6
CONTINUOUS
 62
     7
100
AcDbSpline
210
0.0
220
0.0
230
1.0
 70
     8
 71
     3
 72
    23
 73
    19
 74
     0
 42
0.000000001
 43
0.00000001
 40
0.0
 40
0.0
 40
0.0
 40
0.0
 40
0.0706813874302072
 40
0.1375045554742066
 40
0.2014902066313324
 40
0.2628919997675173
 40
0.3225779132397238
 40
0.3810011130629203
 40
0.4382199268490179
 40
0.4957945977218516
 40
0.5534655231038843
 40
0.6116894700116139
 40
0.6706153249251989
 40
0.7315637921644572
 40
0.7941654377814076
 40
0.8594329861261574
 40
0.9282014418018251
 40
1.0
 40
1.0
 40
1.0
 40
1.0
 10
79.80151194340823
 20
208.8788501550185
 30
0.0
 10
79.81827217598385
 20
208.8768827808099
 30
0.0
 10
79.8508777658534
 20
208.8730554236252
 30
0.0
 10
79.89809902503026
 20
208.8635181481233
 30
0.0
 10
79.94203743628384
 20
208.8501428007705
 30
0.0
 10
79.98326358393251
 20
208.8340902476275
 30
0.0
 10
80.02127315107873
 20
208.8141134369181
 30
0.0
 10
80.05620479643846
 20
208.7909541493176
 30
0.0
 10
80.08821813705202
 20
208.7646304395521
 30
0.0
 10
80.11656866599492
 20
208.7346839065498
 30
0.0
 10
80.14244568189815
 20
208.7022607446185
 30
0.0
 10
80.16421730757531
 20
208.6665566460484
 30
0.0
 10
80.18308210808362
 20
208.6283998947386
 30
0.0
 10
80.19833603919062
 20
208.5875189223161
 30
0.0
 10
80.21002399015919
 20
208.5439297741471
 30
0.0
 10
80.21838094062377
 20
208.4977003385209
 30
0.0
 10
80.22353849172907
 20
208.4487782855292
 30
0.0
 10
80.22423374586782
 20
208.4152211669395
 30
0.0
 10
80.22458886648513
 20
208.3980809242493
 30
0.0
  0
SPLINE
  5
1B3
330
1F
100
AcDbEntity
  8
1
  6
CONTINUOUS
 62
     7
100
AcDbSpline
210
0.0
220
0.0
230
1.0
 70
     8
 71
     3
 72
    23
 73
    19
 74
     0
 42
0.000000001
 43
0.00000001
 40
0.0
 40
0.0
 40
0.0
 40
0.0
 40
0.0746977165666285
 40
0.1455115918500486
 40
0.2132985842839112
 40
0.2785622169315314
 40
0.3420292975867196
 40
0.4041935375329117
 40
0.4653552088380747
 40
0.5268569228324772
 40
0.5875969951741318
 40
0.6466379139557682
 40
0.7045917700031269
 40
0.7617171626766969
 40
0.8194521176356903
 40
0.8780625371641145
 40
0.9378073099419024
 40
1.0
 40
1.0
 40
1.0
 40
1.0
 10
80.22458886648513
 20
208.3980809242493
 30
0.0
 10
80.22429174552497
 20
208.3807356546775
 30
0.0
 10
80.22371295214458
 20
208.3469469673859
 30
0.0
 10
80.2177941761829
 20
208.297710509542
 30
0.0
 10
80.20856852245157
 20
208.2512579477109
 30
0.0
 10
80.19573553232215
 20
208.207403353929
 30
0.0
 10
80.17878718432758
 20
208.166379724441
 30
0.0
 10
80.15837445298257
 20
208.1280466024358
 30
0.0
 10
80.13414643626317
 20
208.0925253641335
 30
0.0
 10
80.10620913022035
 20
208.0602982321105
 30
0.0
 10
80.07569698251223
 20
208.0312361390737
 30
0.0
 10
80.04311862957627
 20
208.0058048734959
 30
0.0
 10
80.00873753231178
 20
207.9844245031652
 30
0.0
 10
79.97265299073968
 20
207.9667400060538
 30
0.0
 10
79.93463157010615
 20
207.953198823986
 30
0.0
 10
79.8948158230703
 20
207.9437750819418
 30
0.0
 10
79.85330259326122
 20
207.9373423348397
 30
0.0
 10
79.82497467151245
 20
207.9368126313856
 30
0.0
 10
79.81052636648513
 20
207.9365424627108
 30
0.0
  0
SPLINE
  5
1B4
330
1F
100
AcDbEntity
  8
1
  6
CONTINUOUS
 62
     7
100
AcDbSpline
210
0.0
220
0.0
230
1.0
 70
     8
 71
     3
 72
    23
 73
    19
 74
     0
 42
0.000000001
 43
0.00000001
 40
0.0
 40
0.0
 40
0.0
 40
0.0
 40
0.0579385022945324
 40
0.1160048650255975
 40
0.1747141667953221
 40
0.2345648890010954
 40
0.2968629730595206
 40
0.3640898838124849
 40
0.436213038435402
 40
0.5140337745724477
 40
0.5567448540274849
 40
0.6046196190772367
 40
0.6574330823476024
 40
0.7157818483276942
 40
0.7788641238553574
 40
0.8475179623204689
 40
0.9212368947961903
 40
1.0
 40
1.0
 40
1.0
 40
1.0
 10
79.81052636648513
 20
207.9365424627108
 30
0.0
 10
79.7956808540763
 20
207.9369480301644
 30
0.0
 10
79.76595706773355
 20
207.9377600600899
 30
0.0
 10
79.72158503162274
 20
207.9443364369959
 30
0.0
 10
79.67756065392575
 20
207.9549224139024
 30
0.0
 10
79.63353406664623
 20
207.9696112639302
 30
0.0
 10
79.58946691719984
 20
207.9900534899097
 30
0.0
 10
79.54430103905156
 20
208.0152297121708
 30
0.0
 10
79.49837087640401
 20
208.0466965686668
 30
0.0
 10
79.45903273929935
 20
208.0765378212044
 30
0.0
 10
79.42628680204848
 20
208.1046341411301
 30
0.0
 10
79.39927590808395
 20
208.1295381575956
 30
0.0
 10
79.37046491270752
 20
208.1583435493041
 30
0.0
 10
79.3392897598244
 20
208.1902843057978
 30
0.0
 10
79.30621137931769
 20
208.2260146318761
 30
0.0
 10
79.27073131758635
 20
208.2648834250543
 30
0.0
 10
79.233600979318
 20
208.307662690031
 30
0.0
 10
79.20824113213132
 20
208.3373655871168
 30
0.0
 10
79.19514175110055
 20
208.3527083280954
 30
0.0
  0
SPLINE
  5
1B5
330
1F
100
AcDbEntity
  8
1
  6
CONTINUOUS
 62
     7
100
AcDbSpline
210
0.0
220
0.0
230
1.0
 70
     8
 71
     3
 72
    17
 73
    13
 74
     0
 42
0.000000001
 43
0.00000001
 40
0.0
 40
0.0
 40
0.0
 40
0.0
 40
0.1242052320141308
 40
0.2368402589569474
 40
0.3395101816055899
 40
0.4312728135782561
 40
0.511477765598425
 40
0.5806942723881622
 40
0.6399692637468865
 40
0.687784233987756
 40
0.8503262740964928
 40
1.0
 40
1.0
 40
1.0
 40
1.0
 10
79.19514175110055
 20
208.3527083280954
 30
0.0
 10
79.18444598091435
 20
208.3658468154138
 30
0.0
 10
79.16405079353325
 20
208.3908998883667
 30
0.0
 10
79.13448004754821
 20
208.426539886432
 30
0.0
 10
79.1073758843641
 20
208.4584723372604
 30
0.0
 10
79.08357396545262
 20
208.4874015131305
 30
0.0
 10
79.06212539782217
 20
208.5123472058898
 30
0.0
 10
79.04346482331738
 20
208.5338444624191
 30
0.0
 10
79.02732976095353
 20
208.5516798200023
 30
0.0
 10
79.00257644807533
 20
208.5788689129045
 30
0.0
 10
78.96758781425024
 20
208.613567256425
 30
0.0
 10
78.93332288848387
 20
208.6389279969875
 30
0.0
 10
78.91689655879281
 20
208.6510857319416
 30
0.0
  0
LINE
  5
1B6
330
1F
100
AcDbEntity
  8
1
  6
CONTINUOUS
 62
     7
100
AcDbLine
 10
78.91689656051386
 20
208.6510859187219
 30
0.0
 11
78.91689656051386
 21
207.9173117633436
 31
0.0
  0
LINE
  5
1B7
330
1F
100
AcDbEntity
  8
1
  6
CONTINUOUS
 62
     7
100
AcDbLine
 10
78.91689656051386
 20
207.9173117633436
 30
0.0
 11
78.72458886802707
 21
207.9173117633436
 31
0.0
  0
LINE
  5
1B8
330
1F
100
AcDbEntity
  8
1
  6
CONTINUOUS
 62
     7
100
AcDbLine
 10
78.72458886802707
 20
207.9173117633436
 30
0.0
 11
78.72458886802707
 21
208.8980810474131
 31
0.0
  0
LINE
  5
1B9
330
1F
100
AcDbEntity
  8
1
  6
CONTINUOUS
 62
     7
100
AcDbLine
 10
72.82843518285591
 20
221.7519270013545
 30
0.0
 11
72.84766559703786
 21
221.559619599906
 31
0.0
  0
SPLINE
  5
1BA
330
1F
100
AcDbEntity
  8
1
  6
CONTINUOUS
 62
     7
100
AcDbSpline
210
0.0
220
0.0
230
1.0
 70
     8
 71
     3
 72
    23
 73
    19
 74
     0
 42
0.000000001
 43
0.00000001
 40
0.0
 40
0.0
 40
0.0
 40
0.0
 40
0.0825616377369334
 40
0.1597506443602596
 40
0.2331408211742049
 40
0.3010550757089941
 40
0.365768644660136
 40
0.426450242303652
 40
0.4841949359893614
 40
0.5395555880942946
 40
0.5931588785758533
 40
0.6470484673338786
 40
0.7014433102323316
 40
0.7563432062601234
 40
0.8138505455320588
 40
0.8730654000941077
 40
0.9349664097027546
 40
1.0
 40
1.0
 40
1.0
 40
1.0
 10
72.84766579018708
 20
221.5596193857878
 30
0.0
 10
72.83611239322192
 20
221.5570522428285
 30
0.0
 10
72.81375742715875
 20
221.5520850116403
 30
0.0
 10
72.78170566594054
 20
221.54258712506
 30
0.0
 10
72.75208798661049
 20
221.5323559172037
 30
0.0
 10
72.7250599150089
 20
221.5204127547056
 30
0.0
 10
72.70041699620788
 20
221.5076983772242
 30
0.0
 10
72.67831379342988
 20
221.4934707232966
 30
0.0
 10
72.6586545332674
 20
221.4781257445973
 30
0.0
 10
72.64137109203227
 20
221.4615560594624
 30
0.0
 10
72.62649693960515
 20
221.4435185070924
 30
0.0
 10
72.61346331963375
 20
221.4242743709409
 30
0.0
 10
72.60268465201136
 20
221.4034652377236
 30
0.0
 10
72.59386317535098
 20
221.3812073578654
 30
0.0
 10
72.58708737169047
 20
221.3575318059107
 30
0.0
 10
72.58189280366912
 20
221.3324424999018
 30
0.0
 10
72.57886066721028
 20
221.3058884687672
 30
0.0
 10
72.57857921830515
 20
221.287692101004
 30
0.0
 10
72.57843502095625
 20
221.2783693857878
 30
0.0
  0
SPLINE
  5
1BB
330
1F
100
AcDbEntity
  8
1
  6
CONTINUOUS
 62
     7
100
AcDbSpline
210
0.0
220
0.0
230
1.0
 70
     8
 71
     3
 72
    23
 73
    19
 74
     0
 42
0.000000001
 43
0.00000001
 40
0.0
 40
0.0
 40
0.0
 40
0.0
 40
0.065074058755507
 40
0.1272665019172549
 40
0.1880662671767751
 40
0.2470572731366266
 40
0.305986202886542
 40
0.3651197368273552
 40
0.4255269492126681
 40
0.4872467985721106
 40
0.5497035042850048
 40
0.6111737874279828
 40
0.6728343078788196
 40
0.7349619825614794
 40
0.7977401651830802
 40
0.8625154459828414
 40
0.9297962161034441
 40
1.0
 40
1.0
 40
1.0
 40
1.0
 10
73.53696867480244
 20
221.0596193857878
 30
0.0
 10
73.54459099090604
 20
221.0597616339001
 30
0.0
 10
73.55949809099428
 20
221.0600398310806
 30
0.0
 10
73.5813549673382
 20
221.0631339696131
 30
0.0
 10
73.6020593313101
 20
221.0682619055598
 30
0.0
 10
73.62185892673261
 20
221.0751565865436
 30
0.0
 10
73.64050468406407
 20
221.0843021324946
 30
0.0
 10
73.6583950369735
 20
221.0951452927404
 30
0.0
 10
73.67529526710359
 20
221.1080708309718
 30
0.0
 10
73.6907537568544
 20
221.1232104726034
 30
0.0
 10
73.705225896164
 20
221.1394738040053
 30
0.0
 10
73.71753920475567
 20
221.1574272287104
 30
0.0
 10
73.7282040592047
 20
221.1763587439798
 30
0.0
 10
73.73649501835848
 20
221.1966108332412
 30
0.0
 10
73.74321378823282
 20
221.2178050095906
 30
0.0
 10
73.74793929437112
 20
221.2401450671055
 30
0.0
 10
73.75110811999616
 20
221.263655254663
 30
0.0
 10
73.75137544154245
 20
221.2797607936383
 30
0.0
 10
73.75151194403321
 20
221.2879847704031
 30
0.0
  0
SPLINE
  5
1BC
330
1F
100
AcDbEntity
  8
1
  6
CONTINUOUS
 62
     7
100
AcDbSpline
210
0.0
220
0.0
230
1.0
 70
     8
 71
     3
 72
    19
 73
    15
 74
     0
 42
0.000000001
 43
0.00000001
 40
0.0
 40
0.0
 40
0.0
 40
0.0
 40
0.1277971582348373
 40
0.2467952527166543
 40
0.3622843155839152
 40
0.4776524647273058
 40
0.536236841728714
 40
0.5955904355162857
 40
0.6563437591396372
 40
0.719085140507874
 40
0.7843491651281197
 40
0.8528755346365562
 40
0.9245512555166987
 40
0.9999999999999999
 40
0.9999999999999999
 40
0.9999999999999999
 40
0.9999999999999999
 10
73.75151194403321
 20
221.2879847704031
 30
0.0
 10
73.75088440380762
 20
221.3040789916458
 30
0.0
 10
73.74967253062738
 20
221.3351593181079
 30
0.0
 10
73.73846018990832
 20
221.3796575116817
 30
0.0
 10
73.72031716364648
 20
221.419980909273
 30
0.0
 10
73.69904045888148
 20
221.4498344087824
 30
0.0
 10
73.67869872558282
 20
221.4710330185117
 30
0.0
 10
73.66145676086387
 20
221.4855127918372
 30
0.0
 10
73.64241660352332
 20
221.4984641285053
 30
0.0
 10
73.62158504036904
 20
221.5099237349927
 30
0.0
 10
73.59887829446558
 20
221.5197367888937
 30
0.0
 10
73.5745776685963
 20
221.5285829844328
 30
0.0
 10
73.54829410957097
 20
221.535430760539
 30
0.0
 10
73.53008219424441
 20
221.5387079829707
 30
0.0
 10
73.52074271326399
 20
221.540388616557
 30
0.0
  0
LINE
  5
1BD
330
1F
100
AcDbEntity
  8
1
  6
CONTINUOUS
 62
     7
100
AcDbLine
 10
73.52074266626079
 20
221.5403887200628
 30
0.0
 11
73.53997354610402
 21
221.7326961215113
 31
0.0
  0
SPLINE
  5
1BE
330
1F
100
AcDbEntity
  8
1
  6
CONTINUOUS
 62
     7
100
AcDbSpline
210
0.0
220
0.0
230
1.0
 70
     8
 71
     3
 72
    23
 73
    19
 74
     0
 42
0.000000001
 43
0.00000001
 40
0.0
 40
0.0
 40
0.0
 40
0.0
 40
0.0710422088543153
 40
0.1393548851463419
 40
0.2049754549053414
 40
0.2683538161727914
 40
0.3301566144204463
 40
0.3906963456467024
 40
0.4508988055510674
 40
0.5109694912014473
 40
0.570761033054037
 40
0.6294527297938347
 40
0.6884138447278011
 40
0.7475706368931999
 40
0.8082828334052702
 40
0.8700232702590234
 40
0.9338049721129097
 40
1.0
 40
1.0
 40
1.0
 40
1.0
 10
73.53997348249476
 20
221.7326963088647
 30
0.0
 10
73.55484292969652
 20
221.729688049591
 30
0.0
 10
73.58401052091324
 20
221.723787112214
 30
0.0
 10
73.62613634888316
 20
221.711764853286
 30
0.0
 10
73.66568096392228
 20
221.6971043356562
 30
0.0
 10
73.70246094323858
 20
221.6795002227057
 30
0.0
 10
73.73692406230606
 20
221.6597915842275
 30
0.0
 10
73.76863414206309
 20
221.6370344126837
 30
0.0
 10
73.79793547249938
 20
221.6118132251359
 30
0.0
 10
73.82429918812153
 20
221.5837519141043
 30
0.0
 10
73.84799666897459
 20
221.5538439949377
 30
0.0
 10
73.86874261451237
 20
221.5220608094367
 30
0.0
 10
73.88571474475805
 20
221.4882761609406
 30
0.0
 10
73.9000246005329
 20
221.4528380344983
 30
0.0
 10
73.91112519678177
 20
221.4156202450357
 30
0.0
 10
73.91882059496675
 20
221.3765769279196
 30
0.0
 10
73.92385445759419
 20
221.3358930404993
 30
0.0
 10
73.92434105234327
 20
221.3081324179418
 30
0.0
 10
73.92458886711012
 20
221.2939943857878
 30
0.0
  0
SPLINE
  5
1BF
330
1F
100
AcDbEntity
  8
1
  6
CONTINUOUS
 62
     7
100
AcDbSpline
210
0.0
220
0.0
230
1.0
 70
     8
 71
     3
 72
    19
 73
    15
 74
     0
 42
0.000000001
 43
0.00000001
 40
0.0
 40
0.0
 40
0.0
 40
0.0
 40
0.0920498018927417
 40
0.1809996710339095
 40
0.2695691541167829
 40
0.3575725475248517
 40
0.4435743256222472
 40
0.5264549873933163
 40
0.6074707920773867
 40
0.6883988133831614
 40
0.7678644098772632
 40
0.845537616318715
 40
0.9225329679632555
 40
0.9999999999999999
 40
0.9999999999999999
 40
0.9999999999999999
 40
0.9999999999999999
 10
73.92458886711012
 20
221.2939943857878
 30
0.0
 10
73.92395685174563
 20
221.2744221133653
 30
0.0
 10
73.92271410520294
 20
221.2359366978945
 30
0.0
 10
73.91274824982355
 20
221.1793276909817
 30
0.0
 10
73.89658144055375
 20
221.1251376137976
 30
0.0
 10
73.87406479612793
 20
221.0739286459082
 30
0.0
 10
73.8463394600418
 20
221.0267391475129
 30
0.0
 10
73.81342753121987
 20
220.9848341906516
 30
0.0
 10
73.7755008996009
 20
220.948915577036
 30
0.0
 10
73.73310988891365
 20
220.9196997700493
 30
0.0
 10
73.68797141569695
 20
220.8965671946971
 30
0.0
 10
73.64111693064353
 20
220.8794492264354
 30
0.0
 10
73.59259889424197
 20
220.8692211076397
 30
0.0
 10
73.55975224655572
 20
220.8679494592737
 30
0.0
 10
73.54327877095625
 20
220.8673116934801
 30
0.0
  0
SPLINE
  5
1C0
330
1F
100
AcDbEntity
  8
1
  6
CONTINUOUS
 62
     7
100
AcDbSpline
210
0.0
220
0.0
230
1.0
 70
     8
 71
     3
 72
    15
 73
    11
 74
     0
 42
0.000000001
 43
0.00000001
 40
0.0
 40
0.0
 40
0.0
 40
0.0
 40
0.121951202249343
 40
0.240786805327923
 40
0.3585498723707459
 40
0.4790658414002771
 40
0.6015185447735337
 40
0.7275505189308994
 40
0.8599320866628438
 40
1.0
 40
1.0
 40
1.0
 40
1.0
 10
73.54327877095625
 20
220.8673116934801
 30
0.0
 10
73.5277064410214
 20
220.8679582579387
 30
0.0
 10
73.49695962174144
 20
220.869234868481
 30
0.0
 10
73.45200232524371
 20
220.8790632616584
 30
0.0
 10
73.40941034222618
 20
220.8956712908255
 30
0.0
 10
73.36903423634544
 20
220.9181191103429
 30
0.0
 10
73.3317471741131
 20
220.9472284245214
 30
0.0
 10
73.29852100295386
 20
220.9829192789371
 30
0.0
 10
73.26903779844861
 20
221.0246207134132
 30
0.0
 10
73.25369211656965
 20
221.0558724116857
 30
0.0
 10
73.2458028094178
 20
221.0719390973262
 30
0.0
  0
SPLINE
  5
1C1
330
1F
100
AcDbEntity
  8
1
  6
CONTINUOUS
 62
     7
100
AcDbSpline
210
0.0
220
0.0
230
1.0
 70
     8
 71
     3
 72
    23
 73
    19
 74
     0
 42
0.000000001
 43
0.00000001
 40
0.0
 40
0.0
 40
0.0
 40
0.0
 40
0.0658168866489229
 40
0.128916069537422
 40
0.1908253929545577
 40
0.2511428912816271
 40
0.3109203622099976
 40
0.3699860299721334
 40
0.4300194453752558
 40
0.4898440687234436
 40
0.549959625272846
 40
0.610344287449317
 40
0.6711738478143199
 40
0.7329549383923969
 40
0.7967457844299872
 40
0.8618492243007161
 40
0.929904073515706
 40
1.0
 40
1.0
 40
1.0
 40
1.0
 10
73.2458028094178
 20
221.0719390973262
 30
0.0
 10
73.24308320885814
 20
221.0611674323048
 30
0.0
 10
73.23775630519077
 20
221.0400688846883
 30
0.0
 10
73.22671864470448
 20
221.0097669972139
 30
0.0
 10
73.21379807336689
 20
220.9812782387606
 30
0.0
 10
73.19915769505548
 20
220.954230881318
 30
0.0
 10
73.18186637855416
 20
220.929383197565
 30
0.0
 10
73.16283109733735
 20
220.9059237842648
 30
0.0
 10
73.14156473478505
 20
220.8844340986697
 30
0.0
 10
73.11835154408436
 20
220.8647968133515
 30
0.0
 10
73.09333700394546
 20
220.8474161962674
 30
0.0
 10
73.0668785568908
 20
220.8319842082873
 30
0.0
 10
73.03879494154074
 20
220.8190497406523
 30
0.0
 10
73.00914221719239
 20
220.8084579006291
 30
0.0
 10
72.97794716111912
 20
220.8004230016593
 30
0.0
 10
72.94518008360649
 20
220.7947883275301
 30
0.0
 10
72.91105368065001
 20
220.7910392682942
 30
0.0
 10
72.88774002929608
 20
220.7906076262021
 30
0.0
 10
72.87591098249476
 20
220.790388616557
 30
0.0
  0
SPLINE
  5
1C2
330
1F
100
AcDbEntity
  8
1
  6
CONTINUOUS
 62
     7
100
AcDbSpline
210
0.0
220
0.0
230
1.0
 70
     8
 71
     3
 72
    23
 73
    19
 74
     0
 42
0.000000001
 43
0.00000001
 40
0.0
 40
0.0
 40
0.0
 40
0.0
 40
0.0694611184111794
 40
0.1356576792112453
 40
0.1996202009683171
 40
0.2616514289943381
 40
0.3220529346075969
 40
0.3823401897046085
 40
0.4432232029819944
 40
0.5049299582480393
 40
0.566820462633717
 40
0.6276001402177057
 40
0.6874756430229476
 40
0.7473511458281903
 40
0.808174179109677
 40
0.8701334489244703
 40
0.933720783393158
 40
1.0
 40
1.0
 40
1.0
 40
1.0
 10
72.57843502095625
 20
221.2783693857878
 30
0.0
 10
72.57859093678644
 20
221.2674337357628
 30
0.0
 10
72.57889544066074
 20
221.246076393166
 30
0.0
 10
72.58346416357091
 20
221.2149552222194
 30
0.0
 10
72.58973745529147
 20
221.1853379395949
 30
0.0
 10
72.59957433533339
 20
221.1576471062121
 30
0.0
 10
72.61159682164123
 20
221.1314971420805
 30
0.0
 10
72.62645406410047
 20
221.1070370247262
 30
0.0
 10
72.6439001848363
 20
221.0840993263275
 30
0.0
 10
72.66405385388458
 20
221.0631364761661
 30
0.0
 10
72.68622353204199
 20
221.0443894514155
 30
0.0
 10
72.70964037030853
 20
221.0276925919233
 30
0.0
 10
72.73450417760426
 20
221.0138865323274
 30
0.0
 10
72.76046473992409
 20
221.0022501031011
 30
0.0
 10
72.78794156739747
 20
220.9936608964964
 30
0.0
 10
72.81659203799194
 20
220.987372903982
 30
0.0
 10
72.84654572112873
 20
220.9832636683259
 30
0.0
 10
72.86698295649825
 20
220.9828880241439
 30
0.0
 10
72.87741338634089
 20
220.9826963088647
 30
0.0
  0
SPLINE
  5
1C3
330
1F
100
AcDbEntity
  8
1
  6
CONTINUOUS
 62
     7
100
AcDbSpline
210
0.0
220
0.0
230
1.0
 70
     8
 71
     3
 72
    23
 73
    19
 74
     0
 42
0.000000001
 43
0.00000001
 40
0.0
 40
0.0
 40
0.0
 40
0.0
 40
0.0670590684916354
 40
0.1312849360638179
 40
0.1936839294531503
 40
0.2544690426430537
 40
0.3147395315700033
 40
0.3754454655322413
 40
0.4359548907264961
 40
0.4982363164308166
 40
0.560517742135137
 40
0.6215735474205266
 40
0.6819351712114161
 40
0.7428219349666545
 40
0.8042479941570492
 40
0.8674565928158589
 40
0.9322646656550102
 40
1.0
 40
1.0
 40
1.0
 40
1.0
 10
72.87741338634089
 20
220.9826963088647
 30
0.0
 10
72.88734657953171
 20
220.9828762121858
 30
0.0
 10
72.90679329512591
 20
220.9832284180326
 30
0.0
 10
72.93518898578577
 20
220.9874925028684
 30
0.0
 10
72.96237349678233
 20
220.9931818832994
 30
0.0
 10
72.98806634946902
 20
221.0021362006583
 30
0.0
 10
73.01264005261993
 20
221.0131917545613
 30
0.0
 10
73.03565378589195
 20
221.0271351043762
 30
0.0
 10
73.05764034595535
 20
221.0431507280102
 30
0.0
 10
73.07778522648493
 20
221.0617701376843
 30
0.0
 10
73.0964895969986
 20
221.0819531209455
 30
0.0
 10
73.11237375814267
 20
221.104085805832
 30
0.0
 10
73.12608929213633
 20
221.1273661322178
 30
0.0
 10
73.13716228875307
 20
221.1520856361629
 30
0.0
 10
73.14595145945509
 20
221.1781379433952
 30
0.0
 10
73.15226828930429
 20
221.2054992314117
 30
0.0
 10
73.15589380250617
 20
221.2343007693712
 30
0.0
 10
73.15633470233723
 20
221.2539200299192
 30
0.0
 10
73.15656002095625
 20
221.2639463088647
 30
0.0
  0
SPLINE
  5
1C4
330
1F
100
AcDbEntity
  8
1
  6
CONTINUOUS
 62
     7
100
AcDbSpline
210
0.0
220
0.0
230
1.0
 70
     8
 71
     3
 72
    11
 73
     7
 74
     0
 42
0.000000001
 43
0.00000001
 40
0.0
 40
0.0
 40
0.0
 40
0.0
 40
0.2093977625857049
 40
0.4467474999318002
 40
0.7082787400881883
 40
1.0
 40
1.0
 40
1.0
 40
1.0
 10
73.15656002095625
 20
221.2639463088647
 30
0.0
 10
73.15632037339287
 20
221.2727730336233
 30
0.0
 10
73.15580908832243
 20
221.2916047401792
 30
0.0
 10
73.15151309793202
 20
221.321187487751
 30
0.0
 10
73.14526207383312
 20
221.3539196091532
 30
0.0
 10
73.13928103530839
 20
221.3764601028502
 30
0.0
 10
73.13612732864863
 20
221.3883453473262
 30
0.0
  0
LINE
  5
1C5
330
1F
100
AcDbEntity
  8
1
  6
CONTINUOUS
 62
     7
100
AcDbLine
 10
73.13612739770252
 20
221.3883451874826
 30
0.0
 11
73.30920438496906
 21
221.3685136045788
 31
0.0
  0
SPLINE
  5
1C6
330
1F
100
AcDbEntity
  8
1
  6
CONTINUOUS
 62
     7
100
AcDbSpline
210
0.0
220
0.0
230
1.0
 70
     8
 71
     3
 72
     9
 73
     5
 74
     0
 42
0.000000001
 43
0.00000001
 40
0.0
 40
0.0
 40
0.0
 40
0.0
 40
0.5660412240200282
 40
0.9999999999999999
 40
0.9999999999999999
 40
0.9999999999999999
 40
0.9999999999999999
 10
73.30920425172553
 20
221.368513616557
 30
0.0
 10
73.30863566419191
 20
221.3633102342117
 30
0.0
 10
73.30763116573934
 20
221.3541176487171
 30
0.0
 10
73.307261364733
 20
221.3448787060423
 30
0.0
 10
73.30710088634089
 20
221.3408693857878
 30
0.0
  0
SPLINE
  5
1C7
330
1F
100
AcDbEntity
  8
1
  6
CONTINUOUS
 62
     7
100
AcDbSpline
210
0.0
220
0.0
230
1.0
 70
     8
 71
     3
 72
    19
 73
    15
 74
     0
 42
0.000000001
 43
0.00000001
 40
0.0
 40
0.0
 40
0.0
 40
0.0
 40
0.129104352329968
 40
0.2546885893097039
 40
0.3778753408852559
 40
0.503051285166087
 40
0.5645819648811858
 40
0.6249617724433568
 40
0.6831252565583417
 40
0.742832928481647
 40
0.8025632779369792
 40
0.8652453047924856
 40
0.9307171793035707
 40
1.0
 40
1.0
 40
1.0
 40
1.0
 10
73.30710088634089
 20
221.3408693857878
 30
0.0
 10
73.3077971906464
 20
221.3232890035057
 30
0.0
 10
73.30917081406113
 20
221.2886075796642
 30
0.0
 10
73.31996714426674
 20
221.2380581719198
 30
0.0
 10
73.3376576711529
 20
221.190202018569
 30
0.0
 10
73.35783519057571
 20
221.1529416449928
 30
0.0
 10
73.37778483281329
 20
221.1257904439234
 30
0.0
 10
73.39485825839665
 20
221.1080999643672
 30
0.0
 10
73.41392558253528
 20
221.0929941199713
 30
0.0
 10
73.4348518633737
 20
221.0807200797034
 30
0.0
 10
73.45787561491028
 20
221.0713819481629
 30
0.0
 10
73.48252601791324
 20
221.0643642788626
 30
0.0
 10
73.50921011247976
 20
221.0605932617694
 30
0.0
 10
73.52754299890319
 20
221.059950074361
 30
0.0
 10
73.53696867480244
 20
221.0596193857878
 30
0.0
  0
SPLINE
  5
1C8
330
1F
100
AcDbEntity
  8
1
  6
CONTINUOUS
 62
     7
100
AcDbSpline
210
0.0
220
0.0
230
1.0
 70
     8
 71
     3
 72
    23
 73
    19
 74
     0
 42
0.000000001
 43
0.00000001
 40
0.0
 40
0.0
 40
0.0
 40
0.0
 40
0.0634979044821472
 40
0.1247937586504739
 40
0.1849041566019816
 40
0.2443548939941682
 40
0.3037481506564401
 40
0.3638934068190779
 40
0.4251309768869163
 40
0.488137974086691
 40
0.5517824123894315
 40
0.613893500495829
 40
0.6756687285961085
 40
0.7377598163516071
 40
0.8004345160458985
 40
0.8646702064988466
 40
0.9309905406417215
 40
0.9999999999999999
 40
0.9999999999999999
 40
0.9999999999999999
 40
0.9999999999999999
 10
72.87591098249476
 20
220.790388616557
 30
0.0
 10
72.85976187155376
 20
220.790754763743
 30
0.0
 10
72.82802368633924
 20
220.7914743604592
 30
0.0
 10
72.781398118899
 20
220.7982917104517
 30
0.0
 10
72.73673016324574
 20
220.8094430559102
 30
0.0
 10
72.69384162856983
 20
220.8248389873749
 30
0.0
 10
72.65270373926097
 20
220.844456502723
 30
0.0
 10
72.61347175635035
 20
220.8685704951793
 30
0.0
 10
72.57644653290345
 20
220.897434361374
 30
0.0
 10
72.54140333381986
 20
220.9299763768572
 30
0.0
 10
72.509537223893
 20
220.9659618588419
 30
0.0
 10
72.48164615305018
 20
221.0047205164814
 30
0.0
 10
72.45807701052996
 20
221.0458005052288
 30
0.0
 10
72.43883606066413
 20
221.0892271873543
 30
0.0
 10
72.42372469162126
 20
221.1349127308551
 30
0.0
 10
72.41289100832307
 20
221.1828951953013
 30
0.0
 10
72.40652427097854
 20
221.2333250849788
 30
0.0
 10
72.40575193789766
 20
221.2677340780571
 30
0.0
 10
72.40535809787934
 20
221.2852804434801
 30
0.0
  0
SPLINE
  5
1C9
330
1F
100
AcDbEntity
  8
1
  6
CONTINUOUS
 62
     7
100
AcDbSpline
210
0.0
220
0.0
230
1.0
 70
     8
 71
     3
 72
    23
 73
    19
 74
     0
 42
0.000000001
 43
0.00000001
 40
0.0
 40
0.0
 40
0.0
 40
0.0
 40
0.0677934547875263
 40
0.1334622773055631
 40
0.1969309895796046
 40
0.2588885727011158
 40
0.3197960154401382
 40
0.3804400005476345
 40
0.4409979614169323
 40
0.5028743556980011
 40
0.5648124030841618
 40
0.6255315594242769
 40
0.6856079875028621
 40
0.7460443845425332
 40
0.807349446405304
 40
0.8697188516575376
 40
0.9337904634495212
 40
1.0
 40
1.0
 40
1.0
 40
1.0
 10
72.40535809787934
 20
221.2852804434801
 30
0.0
 10
72.40565587086354
 20
221.301026459142
 30
0.0
 10
72.40624208469069
 20
221.3320250137268
 30
0.0
 10
72.41230860582391
 20
221.3774073024244
 30
0.0
 10
72.42102074232486
 20
221.4209537840202
 30
0.0
 10
72.43412766074772
 20
221.4622526505681
 30
0.0
 10
72.45058162372055
 20
221.5016227855306
 30
0.0
 10
72.47124453404626
 20
221.5385851731857
 30
0.0
 10
72.49509480406482
 20
221.5738292937946
 30
0.0
 10
72.52267936994855
 20
221.606648230629
 30
0.0
 10
72.55313107928652
 20
221.6368501365192
 30
0.0
 10
72.5859930269711
 20
221.6637943521475
 30
0.0
 10
72.62119398563948
 20
221.6869314052808
 30
0.0
 10
72.6582068258657
 20
221.7073312874776
 30
0.0
 10
72.69772938049414
 20
221.7238196595456
 30
0.0
 10
72.73942228929957
 20
221.7366584699402
 30
0.0
 10
72.78313082705608
 20
221.7464482347178
 30
0.0
 10
72.81316931162479
 20
221.7500809260447
 30
0.0
 10
72.82843502095625
 20
221.7519270780955
 30
0.0
  0
LINE
  5
1CA
330
1F
100
AcDbEntity
  8
1
  6
CONTINUOUS
 62
     7
100
AcDbLine
 10
72.98228129027922
 20
208.2826961520586
 30
0.0
 11
73.52254570676524
 21
208.2826961520586
 31
0.0
  0
LINE
  5
1CB
330
1F
100
AcDbEntity
  8
1
  6
CONTINUOUS
 62
     7
100
AcDbLine
 10
73.52254570676524
 20
208.2826961520586
 30
0.0
 11
72.98228129027922
 21
208.6991626526687
 31
0.0
  0
LINE
  5
1CC
330
1F
100
AcDbEntity
  8
1
  6
CONTINUOUS
 62
     7
100
AcDbLine
 10
72.98228129027922
 20
208.6991626526687
 30
0.0
 11
72.98228129027922
 21
208.2826961520586
 31
0.0
  0
LINE
  5
1CD
330
1F
100
AcDbEntity
  8
1
  6
CONTINUOUS
 62
     7
100
AcDbLine
 10
72.42458903445441
 20
208.2826961520586
 30
0.0
 11
72.78997342316944
 21
208.2826961520586
 31
0.0
  0
LINE
  5
1CE
330
1F
100
AcDbEntity
  8
1
  6
CONTINUOUS
 62
     7
100
AcDbLine
 10
72.78997342316944
 20
208.2826961520586
 30
0.0
 11
72.78997342316944
 21
208.9365423414383
 31
0.0
  0
LINE
  5
1CF
330
1F
100
AcDbEntity
  8
1
  6
CONTINUOUS
 62
     7
100
AcDbLine
 10
72.78997342316944
 20
208.9365423414383
 30
0.0
 11
72.98228129027922
 21
208.9365423414383
 31
0.0
  0
LINE
  5
1D0
330
1F
100
AcDbEntity
  8
1
  6
CONTINUOUS
 62
     7
100
AcDbLine
 10
72.98228129027922
 20
208.9365423414383
 30
0.0
 11
73.90535793481905
 21
208.2250039781902
 31
0.0
  0
LINE
  5
1D1
330
1F
100
AcDbEntity
  8
1
  6
CONTINUOUS
 62
     7
100
AcDbLine
 10
73.90535793481905
 20
208.2250039781902
 30
0.0
 11
73.90535793481905
 21
208.0903887506101
 31
0.0
  0
LINE
  5
1D2
330
1F
100
AcDbEntity
  8
1
  6
CONTINUOUS
 62
     7
100
AcDbLine
 10
73.90535793481905
 20
208.0903887506101
 30
0.0
 11
72.98228129027922
 21
208.0903887506101
 31
0.0
  0
LINE
  5
1D3
330
1F
100
AcDbEntity
  8
1
  6
CONTINUOUS
 62
     7
100
AcDbLine
 10
72.98228129027922
 20
208.0903887506101
 30
0.0
 11
72.98228129027922
 21
207.8980808835004
 31
0.0
  0
LINE
  5
1D4
330
1F
100
AcDbEntity
  8
1
  6
CONTINUOUS
 62
     7
100
AcDbLine
 10
72.98228129027922
 20
207.8980808835004
 30
0.0
 11
72.78997342316944
 21
207.8980808835004
 31
0.0
  0
LINE
  5
1D5
330
1F
100
AcDbEntity
  8
1
  6
CONTINUOUS
 62
     7
100
AcDbLine
 10
72.78997342316944
 20
207.8980808835004
 30
0.0
 11
72.78997342316944
 21
208.0903887506101
 31
0.0
  0
LINE
  5
1D6
330
1F
100
AcDbEntity
  8
1
  6
CONTINUOUS
 62
     7
100
AcDbLine
 10
72.78997342316944
 20
208.0903887506101
 30
0.0
 11
72.42458903445441
 21
208.0903887506101
 31
0.0
  0
LINE
  5
1D7
330
1F
100
AcDbEntity
  8
1
  6
CONTINUOUS
 62
     7
100
AcDbLine
 10
72.42458903445441
 20
208.0903887506101
 30
0.0
 11
72.42458903445441
 21
208.2826961520586
 31
0.0
  0
LINE
  5
1D8
330
1F
100
AcDbEntity
  8
1
  6
CONTINUOUS
 62
     7
100
AcDbLine
 10
72.42458903445441
 20
209.3403884898398
 30
0.0
 11
72.42458903445441
 21
209.5326963569496
 31
0.0
  0
LINE
  5
1D9
330
1F
100
AcDbEntity
  8
1
  6
CONTINUOUS
 62
     7
100
AcDbLine
 10
72.42458903445441
 20
209.5326963569496
 30
0.0
 11
73.5934589359029
 21
209.5326963569496
 31
0.0
  0
SPLINE
  5
1DA
330
1F
100
AcDbEntity
  8
1
  6
CONTINUOUS
 62
     7
100
AcDbSpline
210
0.0
220
0.0
230
1.0
 70
     8
 71
     3
 72
    15
 73
    11
 74
     0
 42
0.000000001
 43
0.00000001
 40
0.0
 40
0.0
 40
0.0
 40
0.0
 40
0.1116684912021373
 40
0.2320907212567486
 40
0.3627375831783388
 40
0.5019406766958318
 40
0.6415309101128772
 40
0.7711022031772824
 40
0.8901635365959867
 40
1.0
 40
1.0
 40
1.0
 40
1.0
 10
73.5934590594178
 20
209.5326963088647
 30
0.0
 10
73.58278141189146
 20
209.5437700374218
 30
0.0
 10
73.56058909166717
 20
209.5667855686621
 30
0.0
 10
73.52916168465913
 20
209.6056778711124
 30
0.0
 10
73.49744708988135
 20
209.6490771341983
 30
0.0
 10
73.46653588499856
 20
209.6962634047683
 30
0.0
 10
73.43800632798354
 20
209.7447330960601
 30
0.0
 10
73.41197344762696
 20
209.7914309149504
 30
0.0
 10
73.39005663944886
 20
209.8357046225929
 30
0.0
 10
73.37806121170127
 20
209.8648599767291
 30
0.0
 10
73.37230521326399
 20
209.8788501550185
 30
0.0
  0
LINE
  5
1DB
330
1F
100
AcDbEntity
  8
1
  6
CONTINUOUS
 62
     7
100
AcDbLine
 10
73.37230521468956
 20
209.8788503314827
 30
0.0
 11
73.54958898602564
 21
209.8788503314827
 31
0.0
  0
SPLINE
  5
1DC
330
1F
100
AcDbEntity
  8
1
  6
CONTINUOUS
 62
     7
100
AcDbSpline
210
0.0
220
0.0
230
1.0
 70
     8
 71
     3
 72
    15
 73
    11
 74
     0
 42
0.000000001
 43
0.00000001
 40
0.0
 40
0.0
 40
0.0
 40
0.0
 40
0.1426572507006141
 40
0.281168993905443
 40
0.4169771923679744
 40
0.550852492747558
 40
0.6783641702618126
 40
0.7950324430070954
 40
0.9019981783473525
 40
1.0
 40
1.0
 40
1.0
 40
1.0
 10
73.54958886711012
 20
209.8788501550185
 30
0.0
 10
73.56196467489406
 20
209.8548195537106
 30
0.0
 10
73.58635665922213
 20
209.807456661467
 30
0.0
 10
73.62848496932554
 20
209.7405431364336
 30
0.0
 10
73.67415379172115
 20
209.6780721628405
 30
0.0
 10
73.7233530153195
 20
209.6210778826249
 30
0.0
 10
73.77364345369199
 20
209.5699861421621
 30
0.0
 10
73.8243884813919
 20
209.526930390532
 30
0.0
 10
73.8737280049084
 20
209.4909040773768
 30
0.0
 10
73.90813685084078
 20
209.4728289935811
 30
0.0
 10
73.92458886711012
 20
209.4641866934801
 30
0.0
  0
LINE
  5
1DD
330
1F
100
AcDbEntity
  8
1
  6
CONTINUOUS
 62
     7
100
AcDbLine
 10
73.92458881466229
 20
209.464186871377
 30
0.0
 11
73.92458881466229
 21
209.3403884898398
 31
0.0
  0
LINE
  5
1DE
330
1F
100
AcDbEntity
  8
1
  6
CONTINUOUS
 62
     7
100
AcDbLine
 10
73.92458881466229
 20
209.3403884898398
 30
0.0
 11
72.42458903445441
 21
209.3403884898398
 31
0.0
  0
LINE
  5
1DF
330
1F
100
AcDbEntity
  8
1
  6
CONTINUOUS
 62
     7
100
AcDbLine
 10
90.5845885465904
 20
219.0019270162556
 30
0.0
 11
67.18458918137986
 21
219.0019270162556
 31
0.0
  0
LINE
  5
1E0
330
1F
100
AcDbEntity
  8
1
  6
CONTINUOUS
 62
     7
100
AcDbLine
 10
90.5845885465904
 20
218.4019271041725
 30
0.0
 11
90.5845885465904
 21
219.0019270162556
 31
0.0
  0
LINE
  5
1E1
330
1F
100
AcDbEntity
  8
1
  6
CONTINUOUS
 62
     7
100
AcDbLine
 10
67.18458918137986
 20
218.4019271041725
 30
0.0
 11
90.5845885465904
 21
218.4019271041725
 31
0.0
  0
LINE
  5
1E2
330
1F
100
AcDbEntity
  8
1
  6
CONTINUOUS
 62
     7
100
AcDbLine
 10
67.18458918137986
 20
219.0019270162556
 30
0.0
 11
67.18458918137986
 21
218.4019271041725
 31
0.0
  0
LINE
  5
1E3
330
1F
100
AcDbEntity
  8
1
  6
CONTINUOUS
 62
     7
100
AcDbLine
 10
90.5845885465904
 20
212.4019270520184
 30
0.0
 11
67.18458918137986
 21
212.4019270520184
 31
0.0
  0
LINE
  5
1E4
330
1F
100
AcDbEntity
  8
1
  6
CONTINUOUS
 62
     7
100
AcDbLine
 10
90.5845885465904
 20
211.8019271399353
 30
0.0
 11
90.5845885465904
 21
212.4019270520184
 31
0.0
  0
LINE
  5
1E5
330
1F
100
AcDbEntity
  8
1
  6
CONTINUOUS
 62
     7
100
AcDbLine
 10
67.18458918137986
 20
211.8019271399353
 30
0.0
 11
90.5845885465904
 21
211.8019271399353
 31
0.0
  0
LINE
  5
1E6
330
1F
100
AcDbEntity
  8
1
  6
CONTINUOUS
 62
     7
100
AcDbLine
 10
67.18458918137986
 20
212.4019270520184
 30
0.0
 11
67.18458918137986
 21
211.8019271399353
 31
0.0
  0
LINE
  5
1E7
330
1F
100
AcDbEntity
  8
1
  6
CONTINUOUS
 62
     7
100
AcDbLine
 10
78.72458886802707
 20
209.3403884898398
 30
0.0
 11
78.72458886802707
 21
209.5326963569496
 31
0.0
  0
LINE
  5
1E8
330
1F
100
AcDbEntity
  8
1
  6
CONTINUOUS
 62
     7
100
AcDbLine
 10
78.72458886802707
 20
209.5326963569496
 30
0.0
 11
79.89345906051386
 21
209.5326963569496
 31
0.0
  0
SPLINE
  5
1E9
330
1F
100
AcDbEntity
  8
1
  6
CONTINUOUS
 62
     7
100
AcDbSpline
210
0.0
220
0.0
230
1.0
 70
     8
 71
     3
 72
    15
 73
    11
 74
     0
 42
0.000000001
 43
0.00000001
 40
0.0
 40
0.0
 40
0.0
 40
0.0
 40
0.1116684912021372
 40
0.2320907212567485
 40
0.3627375831783395
 40
0.5019406766958312
 40
0.6415309101128768
 40
0.7711022031772825
 40
0.890163536595986
 40
1.0
 40
1.0
 40
1.0
 40
1.0
 10
79.89345905879281
 20
209.5326963088647
 30
0.0
 10
79.88278141126648
 20
209.5437700374218
 30
0.0
 10
79.86058909104213
 20
209.5667855686621
 30
0.0
 10
79.82916168403409
 20
209.6056778711124
 30
0.0
 10
79.79744708925637
 20
209.6490771341983
 30
0.0
 10
79.76653588437358
 20
209.6962634047683
 30
0.0
 10
79.73800632735856
 20
209.7447330960601
 30
0.0
 10
79.71197344700198
 20
209.7914309149504
 30
0.0
 10
79.69005663882382
 20
209.8357046225929
 30
0.0
 10
79.67806121107628
 20
209.8648599767291
 30
0.0
 10
79.672305212639
 20
209.8788501550185
 30
0.0
  0
LINE
  5
1EA
330
1F
100
AcDbEntity
  8
1
  6
CONTINUOUS
 62
     7
100
AcDbLine
 10
79.6723052228852
 20
209.8788503314827
 30
0.0
 11
79.84958887780596
 21
209.8788503314827
 31
0.0
  0
SPLINE
  5
1EB
330
1F
100
AcDbEntity
  8
1
  6
CONTINUOUS
 62
     7
100
AcDbSpline
210
0.0
220
0.0
230
1.0
 70
     8
 71
     3
 72
    15
 73
    11
 74
     0
 42
0.000000001
 43
0.00000001
 40
0.0
 40
0.0
 40
0.0
 40
0.0
 40
0.1426572507006141
 40
0.2811689939054432
 40
0.4169771923679739
 40
0.550852492747558
 40
0.6783641702618118
 40
0.7950324430070952
 40
0.9019981783473516
 40
1.0
 40
1.0
 40
1.0
 40
1.0
 10
79.84958886648513
 20
209.8788501550185
 30
0.0
 10
79.86196467426907
 20
209.8548195537106
 30
0.0
 10
79.8863566585971
 20
209.807456661467
 30
0.0
 10
79.92848496870056
 20
209.7405431364336
 30
0.0
 10
79.97415379109611
 20
209.6780721628405
 30
0.0
 10
80.02335301469452
 20
209.6210778826249
 30
0.0
 10
80.073643453067
 20
209.5699861421621
 30
0.0
 10
80.12438848076687
 20
209.526930390532
 30
0.0
 10
80.17372800428342
 20
209.4909040773768
 30
0.0
 10
80.2081368502158
 20
209.4728289935811
 30
0.0
 10
80.22458886648513
 20
209.4641866934801
 30
0.0
  0
LINE
  5
1EC
330
1F
100
AcDbEntity
  8
1
  6
CONTINUOUS
 62
     7
100
AcDbLine
 10
80.22458882285792
 20
209.464186871377
 30
0.0
 11
80.22458882285792
 21
209.3403884898398
 31
0.0
  0
LINE
  5
1ED
330
1F
100
AcDbEntity
  8
1
  6
CONTINUOUS
 62
     7
100
AcDbLine
 10
80.22458882285792
 20
209.3403884898398
 30
0.0
 11
78.72458886802707
 21
209.3403884898398
 31
0.0
  0
SPLINE
  5
1EE
330
1F
100
AcDbEntity
  8
1
  6
CONTINUOUS
 62
     7
100
AcDbSpline
210
0.0
220
0.0
230
1.0
 70
     8
 71
     3
 72
    23
 73
    19
 74
     0
 42
0.000000001
 43
0.00000001
 40
0.0
 40
0.0
 40
0.0
 40
0.0
 40
0.0709771404342527
 40
0.1391372978624737
 40
0.2036306155745486
 40
0.2665164348770168
 40
0.3270271324642383
 40
0.3873924238636818
 40
0.4474512163969935
 40
0.508392446035322
 40
0.569077171152896
 40
0.6290297847399078
 40
0.6880703077301897
 40
0.7480412414440124
 40
0.8084247277654704
 40
0.8701860161121395
 40
0.933659517375441
 40
1.0
 40
1.0
 40
1.0
 40
1.0
 10
85.75535809662938
 20
208.9599799627108
 30
0.0
 10
85.75516386961834
 20
208.9707104228533
 30
0.0
 10
85.75478312419358
 20
208.9917454662476
 30
0.0
 10
85.7507432425814
 20
209.0223061188125
 30
0.0
 10
85.74451570633528
 20
209.0512281568098
 30
0.0
 10
85.73551274636196
 20
209.0782143344902
 30
0.0
 10
85.72399236516918
 20
209.1035406321242
 30
0.0
 10
85.70980535061176
 20
209.126975778886
 30
0.0
 10
85.69320641359081
 20
209.1488562627902
 30
0.0
 10
85.67396314034471
 20
209.1685300185832
 30
0.0
 10
85.65289572555446
 20
209.1861427324429
 30
0.0
 10
85.63077093791759
 20
209.2019686612331
 30
0.0
 10
85.60695347100648
 20
209.2148730386756
 30
0.0
 10
85.58211890106816
 20
209.2258560138116
 30
0.0
 10
85.55571733139777
 20
209.2337982566455
 30
0.0
 10
85.52832168623524
 20
209.239899056675
 30
0.0
 10
85.49954820243238
 20
209.2435809930421
 30
0.0
 10
85.4799280834846
 20
209.2440136594265
 30
0.0
 10
85.4699013658601
 20
209.2442347704032
 30
0.0
  0
SPLINE
  5
1EF
330
1F
100
AcDbEntity
  8
1
  6
CONTINUOUS
 62
     7
100
AcDbSpline
210
0.0
220
0.0
230
1.0
 70
     8
 71
     3
 72
    19
 73
    15
 74
     0
 42
0.000000001
 43
0.00000001
 40
0.0
 40
0.0
 40
0.0
 40
0.0
 40
0.0798497551494733
 40
0.1599098491688426
 40
0.2398122409457503
 40
0.3217000234022083
 40
0.4029460644032855
 40
0.4836547253447577
 40
0.5659420127390311
 40
0.6535763099367169
 40
0.7423900937642915
 40
0.828534034739513
 40
0.9142523051540213
 40
1.0
 40
1.0
 40
1.0
 40
1.0
 10
85.4699013658601
 20
209.2442347704032
 30
0.0
 10
85.45756105466091
 20
209.2439042912387
 30
0.0
 10
85.43284792562417
 20
209.2432424623671
 30
0.0
 10
85.3961580405603
 20
209.237369489403
 30
0.0
 10
85.36005968849543
 20
209.227566354379
 30
0.0
 10
85.32483342956596
 20
209.214392643591
 30
0.0
 10
85.29144331060229
 20
209.1965948284713
 30
0.0
 10
85.26187579636314
 20
209.1727830054054
 30
0.0
 10
85.23657226906704
 20
209.1432212871237
 30
0.0
 10
85.2157623666584
 20
209.1089459203184
 30
0.0
 10
85.1990999047502
 20
209.0718415229364
 30
0.0
 10
85.18740810920912
 20
209.03323612891
 30
0.0
 10
85.17979976248353
 20
208.9940329916933
 30
0.0
 10
85.17888998600614
 20
208.9675263988501
 30
0.0
 10
85.17843501970628
 20
208.9542708280955
 30
0.0
  0
SPLINE
  5
1F0
330
1F
100
AcDbEntity
  8
1
  6
CONTINUOUS
 62
     7
100
AcDbSpline
210
0.0
220
0.0
230
1.0
 70
     8
 71
     3
 72
    19
 73
    15
 74
     0
 42
0.000000001
 43
0.00000001
 40
0.0
 40
0.0
 40
0.0
 40
0.0
 40
0.0741852340541942
 40
0.1454173858591928
 40
0.2136375995418768
 40
0.278851025070237
 40
0.3420826006031903
 40
0.4032455508014579
 40
0.4632207578341268
 40
0.5214259517044328
 40
0.6372692592507936
 40
0.7537224230871509
 40
0.8732221765207345
 40
1.0
 40
1.0
 40
1.0
 40
1.0
 10
85.84730521201396
 20
209.1516866934801
 30
0.0
 10
85.85078340593066
 20
209.1610542751633
 30
0.0
 10
85.85760133773783
 20
209.1794165443879
 30
0.0
 10
85.86977825567294
 20
209.2055010859376
 30
0.0
 10
85.88252277898476
 20
209.2299524324483
 30
0.0
 10
85.89675619702098
 20
209.2523231878195
 30
0.0
 10
85.91211317081104
 20
209.2727408496127
 30
0.0
 10
85.92835845617441
 20
209.291543784516
 30
0.0
 10
85.94574275539765
 20
209.3083551351823
 30
0.0
 10
85.97034235183423
 20
209.3281094270229
 30
0.0
 10
86.00399843729332
 20
209.3484019117839
 30
0.0
 10
86.04797644897144
 20
209.3665232081547
 30
0.0
 10
86.09604003368526
 20
209.3767619664121
 30
0.0
 10
86.12920898979269
 20
209.3781405124125
 30
0.0
 10
86.1462835773986
 20
209.3788501550185
 30
0.0
  0
SPLINE
  5
1F1
330
1F
100
AcDbEntity
  8
1
  6
CONTINUOUS
 62
     7
100
AcDbSpline
210
0.0
220
0.0
230
1.0
 70
     8
 71
     3
 72
    23
 73
    19
 74
     0
 42
0.000000001
 43
0.00000001
 40
0.0
 40
0.0
 40
0.0
 40
0.0
 40
0.0621400158155809
 40
0.1219827933825575
 40
0.1805953586337006
 40
0.2386091626699268
 40
0.2962502083328779
 40
0.3543645562990218
 40
0.4140871448987484
 40
0.4754124129406528
 40
0.5372427093320985
 40
0.5992796571480988
 40
0.6611879820309755
 40
0.724283626639119
 40
0.7891878571731571
 40
0.8563766831538453
 40
0.9264975440680688
 40
1.0
 40
1.0
 40
1.0
 40
1.0
 10
86.1462835773986
 20
209.3788501550185
 30
0.0
 10
86.15942402535825
 20
209.3785194264641
 30
0.0
 10
86.18521913543964
 20
209.3778701959739
 30
0.0
 10
86.22307579385858
 20
209.3722839012759
 30
0.0
 10
86.25932608586709
 20
209.3632807503036
 30
0.0
 10
86.29403118704442
 20
209.3506864299652
 30
0.0
 10
86.32693053369917
 20
209.3342139456306
 30
0.0
 10
86.35850953078545
 20
209.3146402029807
 30
0.0
 10
86.38826311896065
 20
209.2910748028439
 30
0.0
 10
86.41598165053125
 20
209.264064423074
 30
0.0
 10
86.44168119669109
 20
209.2344501848711
 30
0.0
 10
86.46386631297094
 20
209.2019449237567
 30
0.0
 10
86.48264320777537
 20
209.1670743126495
 30
0.0
 10
86.49797039720829
 20
209.1299072345509
 30
0.0
 10
86.51008814387518
 20
209.0903943452357
 30
0.0
 10
86.51831782138277
 20
209.048395776501
 30
0.0
 10
86.52355872170011
 20
209.0040825918524
 30
0.0
 10
86.52424013652802
 20
208.9737172323516
 30
0.0
 10
86.5245888658601
 20
208.9581770780955
 30
0.0
  0
SPLINE
  5
1F2
330
1F
100
AcDbEntity
  8
1
  6
CONTINUOUS
 62
     7
100
AcDbSpline
210
0.0
220
0.0
230
1.0
 70
     8
 71
     3
 72
    23
 73
    19
 74
     0
 42
0.000000001
 43
0.00000001
 40
0.0
 40
0.0
 40
0.0
 40
0.0
 40
0.0732007449685412
 40
0.142586791322412
 40
0.2096247814680876
 40
0.2748829267682083
 40
0.3379306095315753
 40
0.4004618221881995
 40
0.4625006206857339
 40
0.5250054581372535
 40
0.5866888527108456
 40
0.6468127657705337
 40
0.7052153157505654
 40
0.7628810210075594
 40
0.8207275416930113
 40
0.8792954957245834
 40
0.9385111654136069
 40
1.0
 40
1.0
 40
1.0
 40
1.0
 10
86.5245888658601
 20
208.9581770780955
 30
0.0
 10
86.52423645820494
 20
208.9425379802778
 30
0.0
 10
86.52355000785786
 20
208.9120747824244
 30
0.0
 10
86.51838139947012
 20
208.8675250586227
 30
0.0
 10
86.50971848981993
 20
208.8252654257775
 30
0.0
 10
86.49742800190916
 20
208.7853207641408
 30
0.0
 10
86.48171387307764
 20
208.7476280996086
 30
0.0
 10
86.46239914596327
 20
208.7124351103738
 30
0.0
 10
86.43980238187771
 20
208.6793795059774
 30
0.0
 10
86.41365410637286
 20
208.6493061762826
 30
0.0
 10
86.3852655824897
 20
208.6219430308906
 30
0.0
 10
86.35485186454218
 20
208.5982354500251
 30
0.0
 10
86.32312263606804
 20
208.5779022124865
 30
0.0
 10
86.2898851346988
 20
208.5610998466741
 30
0.0
 10
86.25476087429098
 20
208.5486693929157
 30
0.0
 10
86.21841161217253
 20
208.5391945968737
 30
0.0
 10
86.18040544826283
 20
208.5336987759606
 30
0.0
 10
86.1546143098289
 20
208.5330346337114
 30
0.0
 10
86.14147588509093
 20
208.5326963088647
 30
0.0
  0
SPLINE
  5
1F3
330
1F
100
AcDbEntity
  8
1
  6
CONTINUOUS
 62
     7
100
AcDbSpline
210
0.0
220
0.0
230
1.0
 70
     8
 71
     3
 72
    15
 73
    11
 74
     0
 42
0.000000001
 43
0.00000001
 40
0.0
 40
0.0
 40
0.0
 40
0.0
 40
0.1248222132208272
 40
0.2447528800927348
 40
0.360951735447968
 40
0.4775172746697034
 40
0.596963702165769
 40
0.7216194795306518
 40
0.8551128149735315
 40
1.0
 40
1.0
 40
1.0
 40
1.0
 10
86.14147588509093
 20
208.5326963088647
 30
0.0
 10
86.12498789469794
 20
208.5332481697729
 30
0.0
 10
86.09265804705706
 20
208.5343302652045
 30
0.0
 10
86.04602896722895
 20
208.5452801458504
 30
0.0
 10
86.00264431728738
 20
208.5624938633369
 30
0.0
 10
85.96275165850909
 20
208.5867870789612
 30
0.0
 10
85.92699931090044
 20
208.6185291918504
 30
0.0
 10
85.89550798742425
 20
208.6573400168983
 30
0.0
 10
85.8681886737179
 20
208.7032095624595
 30
0.0
 10
85.85445375167478
 20
208.7373060604861
 30
0.0
 10
85.84730521201396
 20
208.7550520780955
 30
0.0
  0
SPLINE
  5
1F4
330
1F
100
AcDbEntity
  8
1
  6
CONTINUOUS
 62
     7
100
AcDbSpline
210
0.0
220
0.0
230
1.0
 70
     8
 71
     3
 72
    23
 73
    19
 74
     0
 42
0.000000001
 43
0.00000001
 40
0.0
 40
0.0
 40
0.0
 40
0.0
 40
0.069018240759411
 40
0.1352458079664818
 40
0.1996263349148276
 40
0.261943468160209
 40
0.3237173721531797
 40
0.3837637975174367
 40
0.4437760213835529
 40
0.5038024982421206
 40
0.5638346753501536
 40
0.6235009386363155
 40
0.6834903506708114
 40
0.7434255498079037
 40
0.805712475341224
 40
0.8686062391597417
 40
0.9332731388933961
 40
1.0
 40
1.0
 40
1.0
 40
1.0
 10
85.84730521201396
 20
208.7550520780955
 30
0.0
 10
85.84350565683866
 20
208.7438527288947
 30
0.0
 10
85.83606017715181
 20
208.7219068633568
 30
0.0
 10
85.82155322072919
 20
208.6909010020894
 30
0.0
 10
85.80606478573452
 20
208.6617119311578
 30
0.0
 10
85.78885559982075
 20
208.6343651172079
 30
0.0
 10
85.76971790554751
 20
208.6092534489439
 30
0.0
 10
85.74874078038039
 20
208.5862035661468
 30
0.0
 10
85.72622749027312
 20
208.5650730161026
 30
0.0
 10
85.70180564656414
 20
208.5461889760973
 30
0.0
 10
85.67602714079294
 20
208.529310528345
 30
0.0
 10
85.6487979408746
 20
208.5149143495763
 30
0.0
 10
85.6206207553272
 20
208.5025069121323
 30
0.0
 10
85.59100003839808
 20
208.4926237957067
 30
0.0
 10
85.56036083779122
 20
208.4843561100259
 30
0.0
 10
85.528232804764
 20
208.4791644225753
 30
0.0
 10
85.49511683160966
 20
208.47572028246
 30
0.0
 10
85.47261482003756
 20
208.4752452441158
 30
0.0
 10
85.46118742355242
 20
208.4750040011724
 30
0.0
  0
SPLINE
  5
1F5
330
1F
100
AcDbEntity
  8
1
  6
CONTINUOUS
 62
     7
100
AcDbSpline
210
0.0
220
0.0
230
1.0
 70
     8
 71
     3
 72
    23
 73
    19
 74
     0
 42
0.000000001
 43
0.00000001
 40
0.0
 40
0.0
 40
0.0
 40
0.0
 40
0.0635961526493758
 40
0.1252892675432768
 40
0.185557785342811
 40
0.2446837918751508
 40
0.3036989093253959
 40
0.3628982654873496
 40
0.4230321352594457
 40
0.4849054847620025
 40
0.547110101858837
 40
0.6085478677638663
 40
0.6699843009480225
 40
0.7323151525475247
 40
0.7956623350332664
 40
0.861063658414028
 40
0.9291262917346793
 40
1.0
 40
1.0
 40
1.0
 40
1.0
 10
85.46118742355242
 20
208.4750040011724
 30
0.0
 10
85.44543857752046
 20
208.4753861414579
 30
0.0
 10
85.4144121505779
 20
208.4761389869442
 30
0.0
 10
85.36886937884276
 20
208.4827546795597
 30
0.0
 10
85.32511786111746
 20
208.4927622736029
 30
0.0
 10
85.2833493181954
 20
208.507362606722
 30
0.0
 10
85.24350874279605
 20
208.5259819454881
 30
0.0
 10
85.20580079550422
 20
208.5490904572706
 30
0.0
 10
85.1698415706719
 20
208.5759867473895
 30
0.0
 10
85.13599437393185
 20
208.60666961339
 30
0.0
 10
85.1055930805444
 20
208.6411839016241
 30
0.0
 10
85.07852636488599
 20
208.6782442280642
 30
0.0
 10
85.05596409215127
 20
208.7182566996172
 30
0.0
 10
85.03726325819025
 20
208.7607062025656
 30
0.0
 10
85.02277521477316
 20
208.8058203922231
 30
0.0
 10
85.01262921993083
 20
208.8535346060357
 30
0.0
 10
85.0065880490443
 20
208.9038348139038
 30
0.0
 10
85.00577357381314
 20
208.9382284656619
 30
0.0
 10
85.00535809662938
 20
208.9557732319416
 30
0.0
  0
SPLINE
  5
1F6
330
1F
100
AcDbEntity
  8
1
  6
CONTINUOUS
 62
     7
100
AcDbSpline
210
0.0
220
0.0
230
1.0
 70
     8
 71
     3
 72
    23
 73
    19
 74
     0
 42
0.000000001
 43
0.00000001
 40
0.0
 40
0.0
 40
0.0
 40
0.0
 40
0.0704457562836288
 40
0.138097411548782
 40
0.2031896320793459
 40
0.2661543095016026
 40
0.3279479856318281
 40
0.3892131526447856
 40
0.4502799429890127
 40
0.512077546225795
 40
0.5735772900121887
 40
0.6339111190548881
 40
0.6934418558981992
 40
0.752464940109226
 40
0.8123749437311285
 40
0.8730630319462338
 40
0.935180510827551
 40
0.9999999999999999
 40
0.9999999999999999
 40
0.9999999999999999
 40
0.9999999999999999
 10
85.00535809662938
 20
208.9557732319416
 30
0.0
 10
85.00578251306126
 20
208.973316255871
 30
0.0
 10
85.00661451222999
 20
209.0077064920357
 30
0.0
 10
85.0125323841147
 20
209.0580524799944
 30
0.0
 10
85.02313756940111
 20
209.1056990604293
 30
0.0
 10
85.03764297654914
 20
209.1507523269026
 30
0.0
 10
85.05582804074913
 20
209.1934634041597
 30
0.0
 10
85.07893428595645
 20
209.2331770063047
 30
0.0
 10
85.10574774518619
 20
209.2704712270999
 30
0.0
 10
85.13671560289936
 20
209.3044868855172
 30
0.0
 10
85.17054554324869
 20
209.3353354042009
 30
0.0
 10
85.20666361919723
 20
209.3625823022929
 30
0.0
 10
85.24498407817458
 20
209.3854532517631
 30
0.0
 10
85.28529974475055
 20
209.4043393744516
 30
0.0
 10
85.32775814318461
 20
209.4187124158556
 30
0.0
 10
85.37217424921971
 20
209.4288053515771
 30
0.0
 10
85.4185211040949
 20
209.4354321443144
 30
0.0
 10
85.45014637148017
 20
209.436167141471
 30
0.0
 10
85.46629559662938
 20
209.4365424627108
 30
0.0
  0
SPLINE
  5
1F7
330
1F
100
AcDbEntity
  8
1
  6
CONTINUOUS
 62
     7
100
AcDbSpline
210
0.0
220
0.0
230
1.0
 70
     8
 71
     3
 72
    23
 73
    19
 74
     0
 42
0.000000001
 43
0.00000001
 40
0.0
 40
0.0
 40
0.0
 40
0.0
 40
0.0698459044286713
 40
0.1370497490141451
 40
0.2015164467349474
 40
0.2645847869539993
 40
0.3260278434112644
 40
0.3866893542793988
 40
0.4460738751052043
 40
0.5059351597472033
 40
0.5654477596806543
 40
0.6246867894242686
 40
0.6841254217590683
 40
0.7441757885526893
 40
0.8051461246656069
 40
0.8683725546525042
 40
0.9331926119373523
 40
1.0
 40
1.0
 40
1.0
 40
1.0
 10
85.46629559662938
 20
209.4365424627108
 30
0.0
 10
85.47831999306675
 20
209.436281786221
 30
0.0
 10
85.50191393930118
 20
209.4357702938465
 30
0.0
 10
85.53651848757607
 20
209.4326411083999
 30
0.0
 10
85.56950536102067
 20
209.4264187523138
 30
0.0
 10
85.6010452376787
 20
209.4183598083833
 30
0.0
 10
85.63134123287091
 20
209.4082729775652
 30
0.0
 10
85.65980439597843
 20
209.3952516796634
 30
0.0
 10
85.68684886459346
 20
209.3800876550557
 30
0.0
 10
85.71233524690211
 20
209.3627462537957
 30
0.0
 10
85.73603906982737
 20
209.3431060418544
 30
0.0
 10
85.75820195254579
 20
209.3218185328984
 30
0.0
 10
85.77792222817698
 20
209.2981454654136
 30
0.0
 10
85.7962401982989
 20
209.2729878414786
 30
0.0
 10
85.8117007204936
 20
209.2452266995878
 30
0.0
 10
85.825895024565
 20
209.2159263242359
 30
0.0
 10
85.83799844910538
 20
209.1845740721398
 30
0.0
 10
85.84417188854172
 20
209.1627589423929
 30
0.0
 10
85.84730521201396
 20
209.1516866934801
 30
0.0
  0
SPLINE
  5
1F8
330
1F
100
AcDbEntity
  8
1
  6
CONTINUOUS
 62
     7
100
AcDbSpline
210
0.0
220
0.0
230
1.0
 70
     8
 71
     3
 72
    19
 73
    15
 74
     0
 42
0.000000001
 43
0.00000001
 40
0.0
 40
0.0
 40
0.0
 40
0.0
 40
0.0768267979661158
 40
0.1498080492286547
 40
0.2183342103140051
 40
0.2849380503349793
 40
0.3483826235951657
 40
0.4098065090275241
 40
0.4705908938245314
 40
0.5310622239146815
 40
0.6488244148161241
 40
0.7638237717667811
 40
0.8787745764162952
 40
0.9999999999999999
 40
0.9999999999999999
 40
0.9999999999999999
 40
0.9999999999999999
 10
85.92843501970628
 20
208.9539703473262
 30
0.0
 10
85.92856187791847
 20
208.9450444776118
 30
0.0
 10
85.92880924448582
 20
208.9276395204227
 30
0.0
 10
85.93205617874287
 20
208.9024660364535
 30
0.0
 10
85.93636105168275
 20
208.8786636528739
 30
0.0
 10
85.94302674673963
 20
208.8565570618472
 30
0.0
 10
85.95128541703713
 20
208.8358515531368
 30
0.0
 10
85.96217238718197
 20
208.8172057502092
 30
0.0
 10
85.97394689104004
 20
208.7995098938967
 30
0.0
 10
85.99281592787895
 20
208.7790561766484
 30
0.0
 10
86.01936673235582
 20
208.7573922001684
 30
0.0
 10
86.05531638158914
 20
208.7385273016324
 30
0.0
 10
86.09478380509722
 20
208.7268195387258
 30
0.0
 10
86.12226305775562
 20
208.7256198050105
 30
0.0
 10
86.13636771201396
 20
208.7250040011724
 30
0.0
  0
SPLINE
  5
1F9
330
1F
100
AcDbEntity
  8
1
  6
CONTINUOUS
 62
     7
100
AcDbSpline
210
0.0
220
0.0
230
1.0
 70
     8
 71
     3
 72
    19
 73
    15
 74
     0
 42
0.000000001
 43
0.00000001
 40
0.0
 40
0.0
 40
0.0
 40
0.0
 40
0.1233861213626104
 40
0.2414346864233557
 40
0.3574485461509684
 40
0.476713920452834
 40
0.5378895868739927
 40
0.599270393830124
 40
0.6603520522565639
 40
0.7230069362990833
 40
0.7878755372012038
 40
0.8553601058610522
 40
0.9253732137563355
 40
0.9999999999999999
 40
0.9999999999999999
 40
0.9999999999999999
 40
0.9999999999999999
 10
86.13636771201396
 20
208.7250040011724
 30
0.0
 10
86.15096649409736
 20
208.7257442621032
 30
0.0
 10
86.17953253001411
 20
208.7271927610408
 30
0.0
 10
86.22054036216497
 20
208.7388916348513
 30
0.0
 10
86.25768121114481
 20
208.7585877133597
 30
0.0
 10
86.28480464713323
 20
208.7810877525466
 30
0.0
 10
86.30445397952423
 20
208.8019122490465
 30
0.0
 10
86.3169620955482
 20
208.8197286674285
 30
0.0
 10
86.32760760885475
 20
208.8388813838428
 30
0.0
 10
86.3363011036289
 20
208.8594432932293
 30
0.0
 10
86.34331249765626
 20
208.8814441294077
 30
0.0
 10
86.3479123098735
 20
208.9049434899173
 30
0.0
 10
86.35113831984938
 20
208.9298426302032
 30
0.0
 10
86.35138478128852
 20
208.9469478259578
 30
0.0
 10
86.35151194278319
 20
208.9557732319416
 30
0.0
  0
SPLINE
  5
1FA
330
1F
100
AcDbEntity
  8
1
  6
CONTINUOUS
 62
     7
100
AcDbSpline
210
0.0
220
0.0
230
1.0
 70
     8
 71
     3
 72
    19
 73
    15
 74
     0
 42
0.000000001
 43
0.00000001
 40
0.0
 40
0.0
 40
0.0
 40
0.0
 40
0.0762476184556936
 40
0.1486410080488207
 40
0.2182730677145273
 40
0.2842955050164179
 40
0.348311201434876
 40
0.4107195030751657
 40
0.4722261393510666
 40
0.5335679681874512
 40
0.653422687994294
 40
0.7677309929380496
 40
0.8816943765690345
 40
1.0
 40
1.0
 40
1.0
 40
1.0
 10
86.35151194278319
 20
208.9557732319416
 30
0.0
 10
86.35138886344663
 20
208.96459959928
 30
0.0
 10
86.35114892629156
 20
208.9818061713037
 30
0.0
 10
86.34782653289699
 20
209.0068679616036
 30
0.0
 10
86.34365163839573
 20
209.030588993927
 30
0.0
 10
86.33695936758352
 20
209.0527563662427
 30
0.0
 10
86.32818862397096
 20
209.073256947301
 30
0.0
 10
86.31764433161499
 20
209.0923084726168
 30
0.0
 10
86.30526609127895
 20
209.1098607454351
 30
0.0
 10
86.28654591197494
 20
209.1308305080311
 30
0.0
 10
86.26027667327281
 20
209.1530884030737
 30
0.0
 10
86.22467770938596
 20
209.1723951090077
 30
0.0
 10
86.18600184673141
 20
209.1843726331599
 30
0.0
 10
86.1590897450867
 20
209.1858102276447
 30
0.0
 10
86.14538213509093
 20
209.1865424627108
 30
0.0
  0
SPLINE
  5
1FB
330
1F
100
AcDbEntity
  8
1
  6
CONTINUOUS
 62
     7
100
AcDbSpline
210
0.0
220
0.0
230
1.0
 70
     8
 71
     3
 72
    23
 73
    19
 74
     0
 42
0.000000001
 43
0.00000001
 40
0.0
 40
0.0
 40
0.0
 40
0.0
 40
0.0651905689346565
 40
0.1274477397010007
 40
0.1874165780905562
 40
0.2463115761500188
 40
0.3038891139797896
 40
0.3614848198471906
 40
0.4194487074108029
 40
0.4779873387572062
 40
0.5365259701036095
 40
0.5958457823103344
 40
0.6567666123129463
 40
0.7189565264833873
 40
0.783674615952017
 40
0.8516516361999193
 40
0.9239592402388399
 40
1.0
 40
1.0
 40
1.0
 40
1.0
 10
86.14538213509093
 20
209.1865424627108
 30
0.0
 10
86.13756325307122
 20
209.1863694371251
 30
0.0
 10
86.12227731744161
 20
209.1860311716339
 30
0.0
 10
86.0999063975068
 20
209.1833846757805
 30
0.0
 10
86.07871991998275
 20
209.178452966947
 30
0.0
 10
86.05855376965593
 20
209.1719299083252
 30
0.0
 10
86.03947716053335
 20
209.1633741422393
 30
0.0
 10
86.021307116851
 20
209.1532396556752
 30
0.0
 10
86.00448147721414
 20
209.1407892065744
 30
0.0
 10
85.98890070223297
 20
209.1266847075574
 30
0.0
 10
85.97459400754843
 20
209.1110341957101
 30
0.0
 10
85.96225956181365
 20
209.0934371531465
 30
0.0
 10
85.95166680262167
 20
209.0742257699594
 30
0.0
 10
85.94345536466255
 20
209.0532199845319
 30
0.0
 10
85.93617379074766
 20
209.0309567138507
 30
0.0
 10
85.9321053049415
 20
209.0066601604304
 30
0.0
 10
85.9287973500227
 20
208.9809036485733
 30
0.0
 10
85.9285578058383
 20
208.9630974772744
 30
0.0
 10
85.92843501970628
 20
208.9539703473262
 30
0.0
  0
SPLINE
  5
1FC
330
1F
100
AcDbEntity
  8
1
  6
CONTINUOUS
 62
     7
100
AcDbSpline
210
0.0
220
0.0
230
1.0
 70
     8
 71
     3
 72
    23
 73
    19
 74
     0
 42
0.000000001
 43
0.00000001
 40
0.0
 40
0.0
 40
0.0
 40
0.0
 40
0.071841210882873
 40
0.1395669929948263
 40
0.2049361716485496
 40
0.2678433125132426
 40
0.3285678723945167
 40
0.3887794649346639
 40
0.4480579945261292
 40
0.5086323432394121
 40
0.5693569031206862
 40
0.6285512120080019
 40
0.6875362817297254
 40
0.746866017563496
 40
0.8076905121354357
 40
0.8697016623087732
 40
0.9334241669096445
 40
0.9999999999999999
 40
0.9999999999999999
 40
0.9999999999999999
 40
0.9999999999999999
 10
85.17843501970628
 20
208.9542708280955
 30
0.0
 10
85.17862018476347
 20
208.9433397126579
 30
0.0
 10
85.17897990768466
 20
208.9221036714922
 30
0.0
 10
85.18309051511187
 20
208.8911481740381
 30
0.0
 10
85.18932764860244
 20
208.8619810910216
 30
0.0
 10
85.19787979011215
 20
208.8344688218276
 30
0.0
 10
85.20957965322418
 20
208.8090162208863
 30
0.0
 10
85.22325436543662
 20
208.7852091506942
 30
0.0
 10
85.2397808794384
 20
208.7632898538381
 30
0.0
 10
85.25864337759572
 20
208.7432693311887
 30
0.0
 10
85.27950298447172
 20
208.7253335355913
 30
0.0
 10
85.30202722538525
 20
208.7100195596131
 30
0.0
 10
85.32545067195952
 20
208.6964940955393
 30
0.0
 10
85.35070602976327
 20
208.6861274847427
 30
0.0
 10
85.3771043652053
 20
208.6776282766353
 30
0.0
 10
85.40488508820505
 20
208.6716827386435
 30
0.0
 10
85.43394224026446
 20
208.6679565967895
 30
0.0
 10
85.45376389274264
 20
208.6675297768118
 30
0.0
 10
85.46389175047551
 20
208.6673116934801
 30
0.0
  0
SPLINE
  5
1FD
330
1F
100
AcDbEntity
  8
1
  6
CONTINUOUS
 62
     7
100
AcDbSpline
210
0.0
220
0.0
230
1.0
 70
     8
 71
     3
 72
    23
 73
    19
 74
     0
 42
0.000000001
 43
0.00000001
 40
0.0
 40
0.0
 40
0.0
 40
0.0
 40
0.06662003816584
 40
0.1304314227461921
 40
0.1926821151094525
 40
0.2531802564514252
 40
0.3128405918361333
 40
0.3721639001512905
 40
0.431894210149991
 40
0.4923923514919635
 40
0.5527453219718896
 40
0.6132400109132932
 40
0.6735375862732575
 40
0.7343044105419437
 40
0.7968463162294052
 40
0.8617609998193955
 40
0.9288589877907583
 40
0.9999999999999999
 40
0.9999999999999999
 40
0.9999999999999999
 40
0.9999999999999999
 10
85.46389175047551
 20
208.6673116934801
 30
0.0
 10
85.4742184060874
 20
208.6675368207772
 30
0.0
 10
85.49443635283063
 20
208.6679775841643
 30
0.0
 10
85.52413125872135
 20
208.6716102880061
 30
0.0
 10
85.55240101738758
 20
208.6778980399877
 30
0.0
 10
85.57927325140452
 20
208.6867752557106
 30
0.0
 10
85.60500531668276
 20
208.6974391442585
 30
0.0
 10
85.62921498846532
 20
208.7110538140968
 30
0.0
 10
85.6516906532309
 20
208.7275237102236
 30
0.0
 10
85.67306115491488
 20
208.7456401384915
 30
0.0
 10
85.69241168367364
 20
208.7661263307769
 30
0.0
 10
85.70909700862614
 20
208.7887535897435
 30
0.0
 10
85.72383334954208
 20
208.8128000388125
 30
0.0
 10
85.73513727700652
 20
208.8389943963824
 30
0.0
 10
85.7441920060715
 20
208.8667592204305
 30
0.0
 10
85.75077130321654
 20
208.8962265118537
 30
0.0
 10
85.7547930542172
 20
208.9275163909674
 30
0.0
 10
85.75516611226237
 20
208.9489498203043
 30
0.0
 10
85.75535809662938
 20
208.9599799627108
 30
0.0
  0
LINE
  5
1FE
330
1F
100
AcDbEntity
  8
1
  6
CONTINUOUS
 62
     7
100
AcDbLine
 10
85.42843519924719
 20
222.3288501370225
 30
0.0
 11
85.44766561342914
 21
222.1365422699128
 31
0.0
  0
SPLINE
  5
1FF
330
1F
100
AcDbEntity
  8
1
  6
CONTINUOUS
 62
     7
100
AcDbSpline
210
0.0
220
0.0
230
1.0
 70
     8
 71
     3
 72
    23
 73
    19
 74
     0
 42
0.000000001
 43
0.00000001
 40
0.0
 40
0.0
 40
0.0
 40
0.0
 40
0.0658010376094736
 40
0.1286767959489737
 40
0.188675874952434
 40
0.2475984367338947
 40
0.304849420118828
 40
0.3617858992828999
 40
0.419522706368591
 40
0.4786818154207414
 40
0.5387695030440196
 40
0.5987990560131538
 40
0.6601842815006784
 40
0.7229515306109655
 40
0.7879926891048737
 40
0.855403768434474
 40
0.9261530612840038
 40
1.0
 40
1.0
 40
1.0
 40
1.0
 10
85.17843501970628
 20
221.8616025588647
 30
0.0
 10
85.17871128650626
 20
221.8501690485021
 30
0.0
 10
85.17925153827042
 20
221.8278103208382
 30
0.0
 10
85.18382077063518
 20
221.7952826074898
 30
0.0
 10
85.19135490544858
 20
221.7645575478546
 30
0.0
 10
85.20189836743577
 20
221.7357821566698
 30
0.0
 10
85.21501040997225
 20
221.7086190982628
 30
0.0
 10
85.23198811655351
 20
221.6839694905394
 30
0.0
 10
85.25107273633654
 20
221.6604893010353
 30
0.0
 10
85.27382526587235
 20
221.6396894852644
 30
0.0
 10
85.29859519480345
 20
221.62075580904
 30
0.0
 10
85.32563262589468
 20
221.6044146230302
 30
0.0
 10
85.35455806740396
 20
221.5906576531929
 30
0.0
 10
85.38536597379073
 20
221.5790757882303
 30
0.0
 10
85.41823233993335
 20
221.5705234261464
 30
0.0
 10
85.45298232303122
 20
221.5642324730185
 30
0.0
 10
85.48963805885671
 20
221.5601939322389
 30
0.0
 10
85.51476239139907
 20
221.5598136170678
 30
0.0
 10
85.52759367355247
 20
221.5596193857878
 30
0.0
  0
LINE
  5
200
330
1F
100
AcDbEntity
  8
1
  6
CONTINUOUS
 62
     7
100
AcDbLine
 10
86.50535795121033
 20
221.4442347865079
 30
0.0
 11
86.31305054976184
 21
221.4442347865079
 31
0.0
  0
LINE
  5
201
330
1F
100
AcDbEntity
  8
1
  6
CONTINUOUS
 62
     7
100
AcDbLine
 10
86.31305054976184
 20
221.4442347865079
 30
0.0
 11
86.31305054976184
 21
221.9986217785154
 31
0.0
  0
LINE
  5
202
330
1F
100
AcDbEntity
  8
1
  6
CONTINUOUS
 62
     7
100
AcDbLine
 10
86.31305054976184
 20
221.9986217785154
 30
0.0
 11
85.92452884866435
 21
222.0749441291664
 31
0.0
  0
SPLINE
  5
203
330
1F
100
AcDbEntity
  8
1
  6
CONTINUOUS
 62
     7
100
AcDbSpline
210
0.0
220
0.0
230
1.0
 70
     8
 71
     3
 72
    15
 73
    11
 74
     0
 42
0.000000001
 43
0.00000001
 40
0.0
 40
0.0
 40
0.0
 40
0.0
 40
0.1367249672973541
 40
0.268506208012107
 40
0.3955165764289174
 40
0.5190328991683872
 40
0.6405081366651273
 40
0.7612438456226545
 40
0.8801106056901667
 40
1.0
 40
1.0
 40
1.0
 40
1.0
 10
85.92452876970628
 20
222.0749439050186
 30
0.0
 10
85.93249025298513
 20
222.0643324045016
 30
0.0
 10
85.9481253467622
 20
222.0434930960604
 30
0.0
 10
85.96861712985384
 20
222.0109957221837
 30
0.0
 10
85.98577342402677
 20
221.9780842183841
 30
0.0
 10
86.00013405757574
 20
221.9449316661228
 30
0.0
 10
86.01094074862152
 20
221.911078462072
 30
0.0
 10
86.01866840737046
 20
221.8768934368805
 30
0.0
 10
86.02382343569656
 20
221.8423273571102
 30
0.0
 10
86.02433299496187
 20
221.8191528860723
 30
0.0
 10
86.0245888658601
 20
221.8075160204031
 30
0.0
  0
SPLINE
  5
204
330
1F
100
AcDbEntity
  8
1
  6
CONTINUOUS
 62
     7
100
AcDbSpline
210
0.0
220
0.0
230
1.0
 70
     8
 71
     3
 72
    23
 73
    19
 74
     0
 42
0.000000001
 43
0.00000001
 40
0.0
 40
0.0
 40
0.0
 40
0.0
 40
0.0620020082441836
 40
0.1220969912679827
 40
0.1813887365371139
 40
0.2395257372398059
 40
0.2978577442691962
 40
0.3569063875964428
 40
0.4173127131204465
 40
0.4796759129874166
 40
0.542540224379036
 40
0.6047737989556513
 40
0.6670033183911642
 40
0.7302332083749706
 40
0.7941945628083723
 40
0.8603996747248489
 40
0.9285728932039979
 40
1.0
 40
1.0
 40
1.0
 40
1.0
 10
86.0245888658601
 20
221.8075160204031
 30
0.0
 10
86.02419205434535
 20
221.7923709802101
 30
0.0
 10
86.02341063623612
 20
221.7625467230197
 30
0.0
 10
86.01699028634056
 20
221.7185996613505
 30
0.0
 10
86.00609135796003
 20
221.6765788234875
 30
0.0
 10
85.99141194896174
 20
221.6361548573977
 30
0.0
 10
85.97195240899697
 20
221.5978598529744
 30
0.0
 10
85.94838909438454
 20
221.5613095047755
 30
0.0
 10
85.92053683087278
 20
221.5266375972737
 30
0.0
 10
85.88888625102624
 20
221.4940934738874
 30
0.0
 10
85.85390239015794
 20
221.4644535615428
 30
0.0
 10
85.81615731125908
 20
221.4384763550146
 30
0.0
 10
85.77591526082409
 20
221.4163739057262
 30
0.0
 10
85.73322268893037
 20
221.3983624470876
 30
0.0
 10
85.68800344626953
 20
221.3844684103977
 30
0.0
 10
85.6405101993081
 20
221.374705673418
 30
0.0
 10
85.59055697725836
 20
221.3685008325514
 30
0.0
 10
85.55645854982441
 20
221.3677141850548
 30
0.0
 10
85.53901194278319
 20
221.3673116934801
 30
0.0
  0
SPLINE
  5
205
330
1F
100
AcDbEntity
  8
1
  6
CONTINUOUS
 62
     7
100
AcDbSpline
210
0.0
220
0.0
230
1.0
 70
     8
 71
     3
 72
    15
 73
    11
 74
     0
 42
0.000000001
 43
0.00000001
 40
0.0
 40
0.0
 40
0.0
 40
0.0
 40
0.1324702944791584
 40
0.2616666311771861
 40
0.3875720710229683
 40
0.51102904495718
 40
0.6326513119273607
 40
0.7546442917994731
 40
0.8765146957733916
 40
1.0
 40
1.0
 40
1.0
 40
1.0
 10
85.53901194278319
 20
221.3673116934801
 30
0.0
 10
85.52237021376254
 20
221.3676490401744
 30
0.0
 10
85.48949805033209
 20
221.3683153961554
 30
0.0
 10
85.44107112918397
 20
221.3738727884422
 30
0.0
 10
85.3943188774316
 20
221.3827911166997
 30
0.0
 10
85.34945747007032
 20
221.3955510124739
 30
0.0
 10
85.30609010976644
 20
221.4113856429744
 30
0.0
 10
85.2647516293456
 20
221.4314476932678
 30
0.0
 10
85.22462130456995
 20
221.4543847822296
 30
0.0
 10
85.19989431335546
 20
221.4728180504803
 30
0.0
 10
85.18744944278319
 20
221.4820953473262
 30
0.0
  0
SPLINE
  5
206
330
1F
100
AcDbEntity
  8
1
  6
CONTINUOUS
 62
     7
100
AcDbSpline
210
0.0
220
0.0
230
1.0
 70
     8
 71
     3
 72
    15
 73
    11
 74
     0
 42
0.000000001
 43
0.00000001
 40
0.0
 40
0.0
 40
0.0
 40
0.0
 40
0.1278926194654201
 40
0.2515785135038574
 40
0.372792819702303
 40
0.492777698607852
 40
0.6135900692425713
 40
0.7378086492801449
 40
0.866179901539167
 40
1.0
 40
1.0
 40
1.0
 40
1.0
 10
85.18744944278319
 20
221.4820953473262
 30
0.0
 10
85.17292119977196
 20
221.4938783159983
 30
0.0
 10
85.14434258596407
 20
221.5170566804385
 30
0.0
 10
85.10724925574425
 20
221.5571897654542
 30
0.0
 10
85.07572503000381
 20
221.6003334008512
 30
0.0
 10
85.05011388119112
 20
221.6467443396439
 30
0.0
 10
85.02953315438663
 20
221.6961110101801
 30
0.0
 10
85.01583745349632
 20
221.7490398684747
 30
0.0
 10
85.00664024785488
 20
221.8048913603311
 30
0.0
 10
85.00579136087867
 20
221.843234493114
 30
0.0
 10
85.00535809662938
 20
221.8628044819416
 30
0.0
  0
SPLINE
  5
207
330
1F
100
AcDbEntity
  8
1
  6
CONTINUOUS
 62
     7
100
AcDbSpline
210
0.0
220
0.0
230
1.0
 70
     8
 71
     3
 72
    23
 73
    19
 74
     0
 42
0.000000001
 43
0.00000001
 40
0.0
 40
0.0
 40
0.0
 40
0.0
 40
0.0693090282251997
 40
0.1355823716314865
 40
0.1997026640843807
 40
0.2617577999381232
 40
0.3227131697758966
 40
0.3829677307200957
 40
0.4427458782340106
 40
0.503224235158293
 40
0.5637591760962208
 40
0.6237551854227408
 40
0.6834140228899437
 40
0.7438433995616675
 40
0.8050351253690199
 40
0.8676277251230722
 40
0.932767409158885
 40
1.0
 40
1.0
 40
1.0
 40
1.0
 10
85.00535809662938
 20
221.8628044819416
 30
0.0
 10
85.00568556264534
 20
221.8789466016651
 30
0.0
 10
85.00632615190489
 20
221.9105238280569
 30
0.0
 10
85.01189434258947
 20
221.9567587787033
 30
0.0
 10
85.02077549837679
 20
222.0007326510539
 30
0.0
 10
85.03350738034595
 20
222.0424640064039
 30
0.0
 10
85.04961781448378
 20
222.0820612861351
 30
0.0
 10
85.06996093575799
 20
222.1190543786618
 30
0.0
 10
85.09352049976746
 20
222.1539348536801
 30
0.0
 10
85.12058957822484
 20
222.1862523076938
 30
0.0
 10
85.15045858371934
 20
222.2160881483345
 30
0.0
 10
85.18341505603519
 20
222.2421849957606
 30
0.0
 10
85.21854890292656
 20
222.2651351228048
 30
0.0
 10
85.25575628858826
 20
222.2852426808755
 30
0.0
 10
85.29576986536915
 20
222.3008955295999
 30
0.0
 10
85.33778676365495
 20
222.3140006550362
 30
0.0
 10
85.38222175146655
 20
222.3237185057024
 30
0.0
 10
85.4128690777448
 20
222.3271216697055
 30
0.0
 10
85.42843501970628
 20
222.3288501550185
 30
0.0
  0
SPLINE
  5
208
330
1F
100
AcDbEntity
  8
1
  6
CONTINUOUS
 62
     7
100
AcDbSpline
210
0.0
220
0.0
230
1.0
 70
     8
 71
     3
 72
    23
 73
    19
 74
     0
 42
0.000000001
 43
0.00000001
 40
0.0
 40
0.0
 40
0.0
 40
0.0
 40
0.0728659334565346
 40
0.1418868719641259
 40
0.2074526264147117
 40
0.2704376800000975
 40
0.3316408722476695
 40
0.3901075774931581
 40
0.4480692869488366
 40
0.5055029519245366
 40
0.5624881528337236
 40
0.6190843288847291
 40
0.6764155306922391
 40
0.735452360450793
 40
0.7962407694486785
 40
0.8604056780892034
 40
0.9283049272851049
 40
1.0
 40
1.0
 40
1.0
 40
1.0
 10
85.52759367355247
 20
221.5596193857878
 30
0.0
 10
85.53982171824504
 20
221.5598401459137
 30
0.0
 10
85.56363255726632
 20
221.5602700170788
 30
0.0
 10
85.59830509784223
 20
221.5638902336129
 30
0.0
 10
85.63090777887271
 20
221.5699979651098
 30
0.0
 10
85.66179993880849
 20
221.5779007977827
 30
0.0
 10
85.6904988496043
 20
221.5887938558394
 30
0.0
 10
85.71742061740724
 20
221.6017136360607
 30
0.0
 10
85.74199388304498
 20
221.6175409098306
 30
0.0
 10
85.7649837690181
 20
221.6351497963021
 30
0.0
 10
85.785593275432
 20
221.6552613677684
 30
0.0
 10
85.80299539321248
 20
221.6781473281803
 30
0.0
 10
85.81822576066224
 20
221.7029098748237
 30
0.0
 10
85.83057663853913
 20
221.7300477507555
 30
0.0
 10
85.83975287669125
 20
221.7595769360738
 30
0.0
 10
85.84681316626035
 20
221.791203992045
 30
0.0
 10
85.85052658947086
 20
221.8252570962225
 30
0.0
 10
85.85117759104014
 20
221.84867419197
 30
0.0
 10
85.85151194278319
 20
221.860701116557
 30
0.0
  0
SPLINE
  5
209
330
1F
100
AcDbEntity
  8
1
  6
CONTINUOUS
 62
     7
100
AcDbSpline
210
0.0
220
0.0
230
1.0
 70
     8
 71
     3
 72
    15
 73
    11
 74
     0
 42
0.000000001
 43
0.00000001
 40
0.0
 40
0.0
 40
0.0
 40
0.0
 40
0.1478549020862192
 40
0.2845291557420112
 40
0.4123882127837033
 40
0.5342512702051511
 40
0.6527027505475577
 40
0.7686704671877418
 40
0.8836561274517124
 40
1.0
 40
1.0
 40
1.0
 40
1.0
 10
85.85151194278319
 20
221.860701116557
 30
0.0
 10
85.85106302662922
 20
221.8756536330065
 30
0.0
 10
85.85019914093789
 20
221.9044279706953
 30
0.0
 10
85.84327321554906
 20
221.9456715155688
 30
0.0
 10
85.83170516827448
 20
221.98313911254
 30
0.0
 10
85.81479225637304
 20
222.0164593148818
 30
0.0
 10
85.79448384287815
 20
222.0462939007099
 30
0.0
 10
85.77151648890049
 20
222.0731933586673
 30
0.0
 10
85.7458914292867
 20
222.0973753565542
 30
0.0
 10
85.72659927208844
 20
222.1106402869053
 30
0.0
 10
85.71689655816783
 20
222.1173116934801
 30
0.0
  0
LINE
  5
20A
330
1F
100
AcDbEntity
  8
1
  6
CONTINUOUS
 62
     7
100
AcDbLine
 10
85.71689653425057
 20
222.1173118557308
 30
0.0
 11
85.7361274140938
 21
222.3096192571793
 31
0.0
  0
LINE
  5
20B
330
1F
100
AcDbEntity
  8
1
  6
CONTINUOUS
 62
     7
100
AcDbLine
 10
85.7361274140938
 20
222.3096192571793
 30
0.0
 11
86.50535795121033
 21
222.155773149756
 31
0.0
  0
LINE
  5
20C
330
1F
100
AcDbEntity
  8
1
  6
CONTINUOUS
 62
     7
100
AcDbLine
 10
86.50535795121033
 20
222.155773149756
 30
0.0
 11
86.50535795121033
 21
221.4442347865079
 31
0.0
  0
SPLINE
  5
20D
330
1F
100
AcDbEntity
  8
1
  6
CONTINUOUS
 62
     7
100
AcDbSpline
210
0.0
220
0.0
230
1.0
 70
     8
 71
     3
 72
    23
 73
    19
 74
     0
 42
0.000000001
 43
0.00000001
 40
0.0
 40
0.0
 40
0.0
 40
0.0
 40
0.0773613371189745
 40
0.150479832280679
 40
0.2199772368520742
 40
0.2866809968624404
 40
0.3496784941856618
 40
0.4106796250174836
 40
0.4694271135192905
 40
0.5267557014271297
 40
0.5831419808348378
 40
0.638824427778626
 40
0.6952634704038126
 40
0.7526958048985355
 40
0.8108491833348958
 40
0.8713563036360837
 40
0.9344364309841284
 40
1.0
 40
1.0
 40
1.0
 40
1.0
 10
85.44766578893706
 20
222.1365424627108
 30
0.0
 10
85.43683030590233
 20
222.134638314645
 30
0.0
 10
85.41575360621658
 20
222.1309344505152
 30
0.0
 10
85.38524445826954
 20
222.1238763280594
 30
0.0
 10
85.35690060705787
 20
222.1147098361311
 30
0.0
 10
85.33047657864108
 20
222.1044102732776
 30
0.0
 10
85.30625177403363
 20
222.0921675052508
 30
0.0
 10
85.28384369624297
 20
222.0789023646632
 30
0.0
 10
85.2640477621768
 20
222.0632588423351
 30
0.0
 10
85.24582862581298
 20
222.0468117790052
 30
0.0
 10
85.22977434458409
 20
222.0287598702762
 30
0.0
 10
85.21624003166488
 20
222.0089289287446
 30
0.0
 10
85.20443216319916
 20
221.9878722506797
 30
0.0
 10
85.19476440508816
 20
221.9653333736803
 30
0.0
 10
85.18768811530214
 20
221.9412777542921
 30
0.0
 10
85.18209198488114
 20
221.9160115562621
 30
0.0
 10
85.17927212115524
 20
221.8892094315785
 30
0.0
 10
85.17871762169091
 20
221.8709225248348
 30
0.0
 10
85.17843501970628
 20
221.8616025588647
 30
0.0
  0
SPLINE
  5
20E
330
1F
100
AcDbEntity
  8
1
  6
CONTINUOUS
 62
     7
100
AcDbSpline
210
0.0
220
0.0
230
1.0
 70
     8
 71
     3
 72
    23
 73
    19
 74
     0
 42
0.000000001
 43
0.00000001
 40
0.0
 40
0.0
 40
0.0
 40
0.0
 40
0.0629478333704642
 40
0.1240073932421854
 40
0.1828325785834107
 40
0.2410049308077469
 40
0.2991186928244082
 40
0.3574142003728433
 40
0.4169904790409256
 40
0.478389716813705
 40
0.5401151457933966
 40
0.6018986419815814
 40
0.6640380584985052
 40
0.7271991544788905
 40
0.7916110866596686
 40
0.8581991996602671
 40
0.9275026400889442
 40
1.0
 40
1.0
 40
1.0
 40
1.0
 10
80.05151194340823
 20
221.8396674627108
 30
0.0
 10
80.0511929375532
 20
221.8501947637123
 30
0.0
 10
80.05056449520043
 20
221.8709335736945
 30
0.0
 10
80.0465172987511
 20
221.9013304246128
 30
0.0
 10
80.0387681638407
 20
221.930158092414
 30
0.0
 10
80.02848911206274
 20
221.9576111968568
 30
0.0
 10
80.01577410617602
 20
221.9839946444266
 30
0.0
 10
79.99911356205638
 20
222.0083492919833
 30
0.0
 10
79.98023303649086
 20
222.0316951977513
 30
0.0
 10
79.95832911247476
 20
222.0530959934054
 30
0.0
 10
79.93431382586039
 20
222.0726449146147
 30
0.0
 10
79.90841258796121
 20
222.0898696687926
 30
0.0
 10
79.88061270751808
 20
222.1043750941339
 30
0.0
 10
79.8510300908132
 20
222.1159703723017
 30
0.0
 10
79.8199225821777
 20
222.1254463946669
 30
0.0
 10
79.78701203151331
 20
222.131955748284
 30
0.0
 10
79.75233347548397
 20
222.1359610462625
 30
0.0
 10
79.72860655724344
 20
222.1363457687333
 30
0.0
 10
79.71647588571591
 20
222.1365424627108
 30
0.0
  0
SPLINE
  5
20F
330
1F
100
AcDbEntity
  8
1
  6
CONTINUOUS
 62
     7
100
AcDbSpline
210
0.0
220
0.0
230
1.0
 70
     8
 71
     3
 72
    23
 73
    19
 74
     0
 42
0.000000001
 43
0.00000001
 40
0.0
 40
0.0
 40
0.0
 40
0.0
 40
0.0635627947613131
 40
0.1251058005963743
 40
0.1845903635750658
 40
0.2424608794724145
 40
0.3001294631552405
 40
0.357722568856944
 40
0.4160796145988845
 40
0.4756903520644885
 40
0.5363271219571445
 40
0.5965023707652277
 40
0.6578329700478633
 40
0.7207737037544805
 40
0.7856450506124822
 40
0.8535977835001854
 40
0.9251255824150456
 40
1.0
 40
1.0
 40
1.0
 40
1.0
 10
79.41689655879281
 20
221.8444751550185
 30
0.0
 10
79.41710020240572
 20
221.8343466701897
 30
0.0
 10
79.41750101859577
 20
221.8144115460641
 30
0.0
 10
79.4214704329836
 20
221.785208683913
 30
0.0
 10
79.42811873768642
 20
221.7574604750367
 30
0.0
 10
79.43715738774159
 20
221.7310423338065
 30
0.0
 10
79.44885737928223
 20
221.7059970792
 30
0.0
 10
79.4635146779799
 20
221.6824931254894
 30
0.0
 10
79.48030822155869
 20
221.6600761246646
 30
0.0
 10
79.49993065755194
 20
221.6394032041506
 30
0.0
 10
79.52165653119454
 20
221.6205089116546
 30
0.0
 10
79.54570047546383
 20
221.6041688620592
 30
0.0
 10
79.57162584509643
 20
221.5902153361622
 30
0.0
 10
79.5997399422871
 20
221.5792324912688
 30
0.0
 10
79.62969663262186
 20
221.5704357532499
 30
0.0
 10
79.661685576183
 20
221.5642422652586
 30
0.0
 10
79.69563848604622
 20
221.560186258759
 30
0.0
 10
79.71896770898638
 20
221.5598112012668
 30
0.0
 10
79.730898962639
 20
221.5596193857878
 30
0.0
  0
SPLINE
  5
210
330
1F
100
AcDbEntity
  8
1
  6
CONTINUOUS
 62
     7
100
AcDbSpline
210
0.0
220
0.0
230
1.0
 70
     8
 71
     3
 72
    23
 73
    19
 74
     0
 42
0.000000001
 43
0.00000001
 40
0.0
 40
0.0
 40
0.0
 40
0.0
 40
0.0752104785466918
 40
0.1463923727458639
 40
0.2145786240747798
 40
0.2796284149600675
 40
0.3426810957044836
 40
0.4045939776199027
 40
0.4654166855982103
 40
0.5255810250060776
 40
0.5853790238320946
 40
0.6432936452740146
 40
0.7008037279719465
 40
0.757954486769916
 40
0.8160213506665663
 40
0.8746664768944873
 40
0.9360574687109076
 40
1.0
 40
1.0
 40
1.0
 40
1.0
 10
79.730898962639
 20
221.5596193857878
 30
0.0
 10
79.74292814246286
 20
221.559834712008
 30
0.0
 10
79.76634216947923
 20
221.5602538306854
 30
0.0
 10
79.80049617079857
 20
221.5639554706227
 30
0.0
 10
79.83268431904702
 20
221.5698429659401
 30
0.0
 10
79.8629412160742
 20
221.5783279240839
 30
0.0
 10
79.8914340476042
 20
221.5890492171205
 30
0.0
 10
79.91783734485296
 20
221.6027668966789
 30
0.0
 10
79.94269244324983
 20
221.6182724519536
 30
0.0
 10
79.96522336275393
 20
221.6364711853055
 30
0.0
 10
79.9856496503906
 20
221.6563513078741
 30
0.0
 10
80.00311920173215
 20
221.6783190927356
 30
0.0
 10
80.01839188211409
 20
221.7013800768644
 30
0.0
 10
80.03029125836161
 20
221.7263697941916
 30
0.0
 10
80.04011721396813
 20
221.7524373022477
 30
0.0
 10
80.04653426202856
 20
221.7802344469609
 30
0.0
 10
80.05103092503464
 20
221.8093717795656
 30
0.0
 10
80.05134944249124
 20
221.829432767817
 30
0.0
 10
80.05151194340823
 20
221.8396674627108
 30
0.0
  0
SPLINE
  5
211
330
1F
100
AcDbEntity
  8
1
  6
CONTINUOUS
 62
     7
100
AcDbSpline
210
0.0
220
0.0
230
1.0
 70
     8
 71
     3
 72
    19
 73
    15
 74
     0
 42
0.000000001
 43
0.00000001
 40
0.0
 40
0.0
 40
0.0
 40
0.0
 40
0.0828763755690716
 40
0.1602070628437207
 40
0.2334593866928975
 40
0.3019209094411988
 40
0.366895738384487
 40
0.4284103477595106
 40
0.4875367863716146
 40
0.5439060758922873
 40
0.6534979848025907
 40
0.7634383984641284
 40
0.8776167558156643
 40
1.0
 40
1.0
 40
1.0
 40
1.0
 10
79.1092042511005
 20
222.1173116934801
 30
0.0
 10
79.0993511618372
 20
222.1155731171953
 30
0.0
 10
79.08030430463612
 20
222.1122123017857
 30
0.0
 10
79.05315926915421
 20
222.1046280006233
 30
0.0
 10
79.02784915227807
 20
222.09693565881
 30
0.0
 10
79.00493780283358
 20
222.0870058818453
 30
0.0
 10
78.98380288541773
 20
222.07666474301
 30
0.0
 10
78.96465618808713
 20
222.0649536870375
 30
0.0
 10
78.94788226627895
 20
222.0516640622598
 30
0.0
 10
78.92822621947698
 20
222.0328973669278
 30
0.0
 10
78.90771480109674
 20
222.0062701586612
 30
0.0
 10
78.89109975266751
 20
221.969361239281
 30
0.0
 10
78.87992828294352
 20
221.92875796102
 30
0.0
 10
78.87894415237508
 20
221.9001438302974
 30
0.0
 10
78.87843502033127
 20
221.8853405396339
 30
0.0
  0
SPLINE
  5
212
330
1F
100
AcDbEntity
  8
1
  6
CONTINUOUS
 62
     7
100
AcDbSpline
210
0.0
220
0.0
230
1.0
 70
     8
 71
     3
 72
    31
 73
    27
 74
     0
 42
0.000000001
 43
0.00000001
 40
0.0
 40
0.0
 40
0.0
 40
0.0
 40
0.0354437174475231
 40
0.070450259033312
 40
0.1052480083103995
 40
0.1396137011376695
 40
0.1738912595386366
 40
0.2083594910375001
 40
0.2431611913865615
 40
0.2786255923094443
 40
0.313996822347185
 40
0.3496609734696469
 40
0.3849855259107559
 40
0.4208150716793523
 40
0.4572093967106727
 40
0.4942465932721455
 40
0.5321824216625902
 40
0.5711963054329402
 40
0.6123015992989331
 40
0.6564683817108198
 40
0.7042825578422276
 40
0.7558986248455073
 40
0.8111016546424841
 40
0.8700366848056648
 40
0.9330836830013399
 40
1.0
 40
1.0
 40
1.0
 40
1.0
 10
80.22458886648513
 20
221.8691145780955
 30
0.0
 10
80.22435163564296
 20
221.8573883212287
 30
0.0
 10
80.2238801000513
 20
221.834080443465
 30
0.0
 10
80.22028219160717
 20
221.79939294431
 30
0.0
 10
80.2137905957697
 20
221.7655289610967
 30
0.0
 10
80.20561568241078
 20
221.7322576785432
 30
0.0
 10
80.19416398530609
 20
221.7000902274439
 30
0.0
 10
80.18117750770284
 20
221.668360342604
 30
0.0
 10
80.16498490274677
 20
221.6376796973003
 30
0.0
 10
80.14684985123318
 20
221.6077827630664
 30
0.0
 10
80.12634749652022
 20
221.579083662645
 30
0.0
 10
80.10362131672315
 20
221.5521645625754
 30
0.0
 10
80.07868605745136
 20
221.5270922708659
 30
0.0
 10
80.05205497502612
 20
221.5034255579603
 30
0.0
 10
80.02264918644494
 20
221.4823362315337
 30
0.0
 10
79.9917108065705
 20
221.4622973895999
 30
0.0
 10
79.95852347156608
 20
221.4443133982525
 30
0.0
 10
79.92305359560544
 20
221.4279110811896
 30
0.0
 10
79.88456786309291
 20
221.4133129831441
 30
0.0
 10
79.84221668413812
 20
221.4011343457425
 30
0.0
 10
79.79585310811427
 20
221.3906945868682
 30
0.0
 10
79.74541575849128
 20
221.3820024434358
 30
0.0
 10
79.69094056975098
 20
221.3755570811344
 30
0.0
 10
79.63250850918246
 20
221.3708136697262
 30
0.0
 10
79.57007512967431
 20
221.3677083623141
 30
0.0
 10
79.52707671457046
 20
221.3674465150314
 30
0.0
 10
79.50493742417746
 20
221.3673116934801
 30
0.0
  0
SPLINE
  5
213
330
1F
100
AcDbEntity
  8
1
  6
CONTINUOUS
 62
     7
100
AcDbSpline
210
0.0
220
0.0
230
1.0
 70
     8
 71
     3
 72
    31
 73
    27
 74
     0
 42
0.000000001
 43
0.00000001
 40
0.0
 40
0.0
 40
0.0
 40
0.0
 40
0.0640950525012421
 40
0.124918678586167
 40
0.1825209661485422
 40
0.2369658438659207
 40
0.2883717250295551
 40
0.3367982856118771
 40
0.3820863509555737
 40
0.4249898722389816
 40
0.4655878614261872
 40
0.5048087218294843
 40
0.542939914511154
 40
0.5797993144778057
 40
0.6158136875256696
 40
0.6509747667935617
 40
0.6857129727251439
 40
0.7204633638088168
 40
0.7548597518643894
 40
0.7891373264801153
 40
0.8229138276382155
 40
0.8573102156937878
 40
0.8918395015374787
 40
0.9271022326447407
 40
0.9630738332629665
 40
1.0
 40
1.0
 40
1.0
 40
1.0
 10
79.50493742417746
 20
221.3673116934801
 30
0.0
 10
79.48179668835212
 20
221.3674474173417
 30
0.0
 10
79.43669632525064
 20
221.3677119376873
 30
0.0
 10
79.37086124083504
 20
221.3708416239799
 30
0.0
 10
79.30862743313645
 20
221.3755826502778
 30
0.0
 10
79.24995403256025
 20
221.3820325686831
 30
0.0
 10
79.1949305865802
 20
221.3907853021209
 30
0.0
 10
79.14356671893484
 20
221.4011886258073
 30
0.0
 10
79.09576758674905
 20
221.4134575598503
 30
0.0
 10
79.05152905096281
 20
221.4278753878834
 30
0.0
 10
79.01034252074874
 20
221.4442655242651
 30
0.0
 10
78.97170154686256
 20
221.4622247908409
 30
0.0
 10
78.93566078162013
 20
221.4823363173699
 30
0.0
 10
78.90215998918848
 20
221.5043823750678
 30
0.0
 10
78.87110878589408
 20
221.5280503434522
 30
0.0
 10
78.8427592958069
 20
221.5537678243522
 30
0.0
 10
78.81671358572834
 20
221.5811914450866
 30
0.0
 10
78.79337260947045
 20
221.6106054910067
 30
0.0
 10
78.77254169998014
 20
221.6416413059048
 30
0.0
 10
78.75457406997009
 20
221.6740152184602
 30
0.0
 10
78.73928405180254
 20
221.7077508906901
 30
0.0
 10
78.7272509772555
 20
221.7428559984049
 30
0.0
 10
78.71702935985667
 20
221.7790887453237
 30
0.0
 10
78.71022231953464
 20
221.8167154035048
 30
0.0
 10
78.7063517336436
 20
221.8556113435162
 30
0.0
 10
78.70569218820901
 20
221.8819265223893
 30
0.0
 10
78.70535809725436
 20
221.8952564050186
 30
0.0
  0
SPLINE
  5
214
330
1F
100
AcDbEntity
  8
1
  6
CONTINUOUS
 62
     7
100
AcDbSpline
210
0.0
220
0.0
230
1.0
 70
     8
 71
     3
 72
    23
 73
    19
 74
     0
 42
0.000000001
 43
0.00000001
 40
0.0
 40
0.0
 40
0.0
 40
0.0
 40
0.0676309140234769
 40
0.1323201583402377
 40
0.1944603395573178
 40
0.2551128697920794
 40
0.3142208976417898
 40
0.3729838828544944
 40
0.4313486299583535
 40
0.4902073379211459
 40
0.5495249143209555
 40
0.6088908919041364
 40
0.6691176250109667
 40
0.7306483918904932
 40
0.7940333306929453
 40
0.8598319463824375
 40
0.9282045478040603
 40
0.9999999999999999
 40
0.9999999999999999
 40
0.9999999999999999
 40
0.9999999999999999
 10
78.70535809725436
 20
221.8952564050186
 30
0.0
 10
78.7056029368614
 20
221.9093947737316
 30
0.0
 10
78.70608196654837
 20
221.9370565496191
 30
0.0
 10
78.7111057491228
 20
221.9774426573753
 30
0.0
 10
78.71877096799562
 20
222.0159053638342
 30
0.0
 10
78.72996154277945
 20
222.0522924154093
 30
0.0
 10
78.7440938937126
 20
222.0868791562715
 30
0.0
 10
78.76161182684189
 20
222.1193379391531
 30
0.0
 10
78.78207506045248
 20
222.1499796327406
 30
0.0
 10
78.80602936847083
 20
222.178102576305
 30
0.0
 10
78.8322545718948
 20
222.2044400168339
 30
0.0
 10
78.86178685349591
 20
222.2274640596097
 30
0.0
 10
78.89330586435784
 20
222.24852271961
 30
0.0
 10
78.92788661089725
 20
222.2660043689209
 30
0.0
 10
78.96460027843648
 20
222.2816173704896
 30
0.0
 10
79.00413581465358
 20
222.2936835152672
 30
0.0
 10
79.04608725492278
 20
222.3034972231602
 30
0.0
 10
79.0751085102005
 20
222.3075457107342
 30
0.0
 10
79.08997348186972
 20
222.3096193857878
 30
0.0
  0
LINE
  5
215
330
1F
100
AcDbEntity
  8
1
  6
CONTINUOUS
 62
     7
100
AcDbLine
 10
79.08997347502083
 20
222.3096192571793
 30
0.0
 11
79.10920425300066
 21
222.1173118557308
 31
0.0
  0
SPLINE
  5
216
330
1F
100
AcDbEntity
  8
1
  6
CONTINUOUS
 62
     7
100
AcDbSpline
210
0.0
220
0.0
230
1.0
 70
     8
 71
     3
 72
    23
 73
    19
 74
     0
 42
0.000000001
 43
0.00000001
 40
0.0
 40
0.0
 40
0.0
 40
0.0
 40
0.0560986376320163
 40
0.1104108156094002
 40
0.1633920666052486
 40
0.2169691179551451
 40
0.2695756862665457
 40
0.3202914674721452
 40
0.3704319331943441
 40
0.4207655252216156
 40
0.4751245098533518
 40
0.5361406206413977
 40
0.603953621653037
 40
0.6794427803656996
 40
0.7587782345355506
 40
0.8382086159953195
 40
0.9188056390111249
 40
1.0
 40
1.0
 40
1.0
 40
1.0
 10
78.87843502033127
 20
221.8853405396339
 30
0.0
 10
78.87890246362758
 20
221.8723879360204
 30
0.0
 10
78.87982246450053
 20
221.8468952041182
 30
0.0
 10
78.88692504420686
 20
221.8097187590805
 30
0.0
 10
78.89840613378743
 20
221.774306510085
 30
0.0
 10
78.91462687995488
 20
221.7412391691237
 30
0.0
 10
78.93449592129116
 20
221.7108056404404
 30
0.0
 10
78.95846183606398
 20
221.6846070742479
 30
0.0
 10
78.98451639142456
 20
221.6612331701875
 30
0.0
 10
79.0150512429284
 20
221.6423719379528
 30
0.0
 10
79.04975384285757
 20
221.626234394192
 30
0.0
 10
79.08917143772936
 20
221.6108612811214
 30
0.0
 10
79.13427546887186
 20
221.5970475736643
 30
0.0
 10
79.18384554619854
 20
221.583479285384
 30
0.0
 10
79.23685091154243
 20
221.5726723566367
 30
0.0
 10
79.2914899114682
 20
221.5644330456346
 30
0.0
 10
79.34699372475444
 20
221.5595244540725
 30
0.0
 10
79.38433491564285
 20
221.5589874412327
 30
0.0
 10
79.40307444340823
 20
221.5587179434801
 30
0.0
  0
SPLINE
  5
217
330
1F
100
AcDbEntity
  8
1
  6
CONTINUOUS
 62
     7
100
AcDbSpline
210
0.0
220
0.0
230
1.0
 70
     8
 71
     3
 72
     9
 73
     5
 74
     0
 42
0.000000001
 43
0.00000001
 40
0.0
 40
0.0
 40
0.0
 40
0.0
 40
0.4179830628199444
 40
0.9999999999999999
 40
0.9999999999999999
 40
0.9999999999999999
 40
0.9999999999999999
 10
79.40307444340823
 20
221.5587179434801
 30
0.0
 10
79.40818283466513
 20
221.5588089702767
 30
0.0
 10
79.4204043615913
 20
221.5590267465569
 30
0.0
 10
79.43262214207698
 20
221.5594013564722
 30
0.0
 10
79.43973309725436
 20
221.5596193857878
 30
0.0
  0
SPLINE
  5
218
330
1F
100
AcDbEntity
  8
1
  6
CONTINUOUS
 62
     7
100
AcDbSpline
210
0.0
220
0.0
230
1.0
 70
     8
 71
     3
 72
    15
 73
    11
 74
     0
 42
0.000000001
 43
0.00000001
 40
0.0
 40
0.0
 40
0.0
 40
0.0
 40
0.1223449770400029
 40
0.2444928137752094
 40
0.3683480407778701
 40
0.4947074856074877
 40
0.6219691215153035
 40
0.747641351143129
 40
0.8723871592559844
 40
1.0
 40
1.0
 40
1.0
 40
1.0
 10
79.43973309725436
 20
221.5596193857878
 30
0.0
 10
79.42565561200632
 20
221.5688908997266
 30
0.0
 10
79.39752332523466
 20
221.5874189879711
 30
0.0
 10
79.35974916398106
 20
221.6215398512515
 30
0.0
 10
79.32636687042196
 20
221.6605616737102
 30
0.0
 10
79.29721729203789
 20
221.7037038043166
 30
0.0
 10
79.27346840259361
 20
221.750366921969
 30
0.0
 10
79.25630756986146
 20
221.7995635182803
 30
0.0
 10
79.24557905609691
 20
221.8507227754501
 30
0.0
 10
79.24441053434651
 20
221.885488537862
 30
0.0
 10
79.24381963571591
 20
221.9030689050185
 30
0.0
  0
SPLINE
  5
219
330
1F
100
AcDbEntity
  8
1
  6
CONTINUOUS
 62
     7
100
AcDbSpline
210
0.0
220
0.0
230
1.0
 70
     8
 71
     3
 72
    23
 73
    19
 74
     0
 42
0.000000001
 43
0.00000001
 40
0.0
 40
0.0
 40
0.0
 40
0.0
 40
0.0609753707416263
 40
0.1200311895024042
 40
0.1777020019136865
 40
0.2348773214864141
 40
0.2923380336586185
 40
0.3505390012738346
 40
0.4098902295696114
 40
0.4718381872386221
 40
0.5345982915562483
 40
0.5968447075410368
 40
0.6593700692027111
 40
0.7229716304100651
 40
0.7883008558381371
 40
0.8559593229503921
 40
0.926537130409339
 40
0.9999999999999999
 40
0.9999999999999999
 40
0.9999999999999999
 40
0.9999999999999999
 10
79.24381963571591
 20
221.9030689050185
 30
0.0
 10
79.2441990993878
 20
221.9177185709215
 30
0.0
 10
79.24494608092084
 20
221.9465567198782
 30
0.0
 10
79.25158792576565
 20
221.9887984975805
 30
0.0
 10
79.26154156320706
 20
222.0294308106301
 30
0.0
 10
79.27663692036634
 20
222.0680497234823
 30
0.0
 10
79.29517942020868
 20
222.1052516617503
 30
0.0
 10
79.31826412271545
 20
222.1404645634817
 30
0.0
 10
79.34522318708326
 20
222.1741796951114
 30
0.0
 10
79.37634626663748
 20
222.205640184737
 30
0.0
 10
79.4105300022427
 20
222.2348659118989
 30
0.0
 10
79.44817307097799
 20
222.2597330018688
 30
0.0
 10
79.48798660973875
 20
222.2813304664992
 30
0.0
 10
79.53062194390935
 20
222.2987455833456
 30
0.0
 10
79.57591093545824
 20
222.3123179743234
 30
0.0
 10
79.6239238691399
 20
222.3217105007664
 30
0.0
 10
79.67444036532072
 20
222.3280380016971
 30
0.0
 10
79.70904391248621
 20
222.3285758463258
 30
0.0
 10
79.72669223186972
 20
222.3288501550185
 30
0.0
  0
SPLINE
  5
21A
330
1F
100
AcDbEntity
  8
1
  6
CONTINUOUS
 62
     7
100
AcDbSpline
210
0.0
220
0.0
230
1.0
 70
     8
 71
     3
 72
    23
 73
    19
 74
     0
 42
0.000000001
 43
0.00000001
 40
0.0
 40
0.0
 40
0.0
 40
0.0
 40
0.0719908334539412
 40
0.1408265555703651
 40
0.2070278897882308
 40
0.2707864458835811
 40
0.3334824908940914
 40
0.3948703491262079
 40
0.4564919022058552
 40
0.5181426048551393
 40
0.5793673666586296
 40
0.6393756041323848
 40
0.6979490797775452
 40
0.7562887015661571
 40
0.8150485901988535
 40
0.8748690814557827
 40
0.9363027325433422
 40
1.0
 40
1.0
 40
1.0
 40
1.0
 10
79.72669223186972
 20
222.3288501550185
 30
0.0
 10
79.74493796546494
 20
222.3284383064274
 30
0.0
 10
79.78062978472559
 20
222.3276326591564
 30
0.0
 10
79.83282042619106
 20
222.3215663887399
 30
0.0
 10
79.88224663176481
 20
222.3114808161571
 30
0.0
 10
79.92893391931511
 20
222.2969303983543
 30
0.0
 10
79.97284426581433
 20
222.2783470859706
 30
0.0
 10
80.01412071206346
 20
222.2555801690037
 30
0.0
 10
80.05264886393104
 20
222.2288611042394
 30
0.0
 10
80.08796929624981
 20
222.1981154016116
 30
0.0
 10
80.12013580363532
 20
222.1646565633604
 30
0.0
 10
80.1481050296668
 20
222.1285751708574
 30
0.0
 10
80.1717661576742
 20
222.0904000803918
 30
0.0
 10
80.19110491036747
 20
222.0502094767251
 30
0.0
 10
80.20617036307868
 20
222.0078975850109
 30
0.0
 10
80.2170358919094
 20
221.9635193363028
 30
0.0
 10
80.22341703873099
 20
221.916977570067
 30
0.0
 10
80.22419357472575
 20
221.8852601645434
 30
0.0
 10
80.22458886648513
 20
221.8691145780955
 30
0.0
  0
SPLINE
  5
21B
330
1F
100
AcDbEntity
  8
1
  6
CONTINUOUS
 62
     7
100
AcDbSpline
210
0.0
220
0.0
230
1.0
 70
     8
 71
     3
 72
    23
 73
    19
 74
     0
 42
0.000000001
 43
0.00000001
 40
0.0
 40
0.0
 40
0.0
 40
0.0
 40
0.0688803008915999
 40
0.1349707095257914
 40
0.1988483086756987
 40
0.2603280176381554
 40
0.3211701321764471
 40
0.3807847580075794
 40
0.4407255577127459
 40
0.5012832601161873
 40
0.5616999352419215
 40
0.620845968721593
 40
0.680307084632255
 40
0.7404913546828804
 40
0.8015600452401205
 40
0.8649525072052501
 40
0.9311196991083996
 40
0.9999999999999999
 40
0.9999999999999999
 40
0.9999999999999999
 40
0.9999999999999999
 10
79.71647588571591
 20
222.1365424627108
 30
0.0
 10
79.70564927517933
 20
222.1363151742469
 30
0.0
 10
79.68443456956732
 20
222.1358698032938
 30
0.0
 10
79.65333745161382
 20
222.1322717856428
 30
0.0
 10
79.62387074849812
 20
222.1259766414675
 30
0.0
 10
79.59593061943724
 20
222.1171476057609
 30
0.0
 10
79.56950247345151
 20
222.10612644869
 30
0.0
 10
79.54456948212822
 20
222.0925032240088
 30
0.0
 10
79.52141357396266
 20
222.0761352074277
 30
0.0
 10
79.49980165644547
 20
222.0575954134806
 30
0.0
 10
79.48033413829722
 20
222.0369658053359
 30
0.0
 10
79.46334055797576
 20
222.0144802966566
 30
0.0
 10
79.44880040451551
 20
221.9903685944126
 30
0.0
 10
79.43709593455196
 20
221.9644211231558
 30
0.0
 10
79.42808222220901
 20
221.9367896033326
 30
0.0
 10
79.42144619093858
 20
221.9075367748681
 30
0.0
 10
79.41749363543579
 20
221.8765351878268
 30
0.0
 10
79.41709823222868
 20
221.8553040109901
 30
0.0
 10
79.41689655879281
 20
221.8444751550185
 30
0.0
  0
LINE
  5
21C
330
1F
100
AcDbEntity
  8
1
  6
CONTINUOUS
 62
     7
100
AcDbLine
 10
89.12458860530097
 20
221.6557730677996
 30
0.0
 11
89.12458860530097
 21
221.8480809349094
 31
0.0
  0
LINE
  5
21D
330
1F
100
AcDbEntity
  8
1
  6
CONTINUOUS
 62
     7
100
AcDbLine
 10
89.12458860530097
 20
221.8480809349094
 30
0.0
 11
90.29345897241075
 21
221.8480809349094
 31
0.0
  0
SPLINE
  5
21E
330
1F
100
AcDbEntity
  8
1
  6
CONTINUOUS
 62
     7
100
AcDbSpline
210
0.0
220
0.0
230
1.0
 70
     8
 71
     3
 72
    15
 73
    11
 74
     0
 42
0.000000001
 43
0.00000001
 40
0.0
 40
0.0
 40
0.0
 40
0.0
 40
0.1116684912021386
 40
0.2320907212567484
 40
0.3627375831783396
 40
0.5019406766958324
 40
0.6415309101128777
 40
0.7711022031772827
 40
0.8901635365959868
 40
1.0
 40
1.0
 40
1.0
 40
1.0
 10
90.2934590575428
 20
221.8480809242493
 30
0.0
 10
90.28278141001647
 20
221.8591546528064
 30
0.0
 10
90.26058908979218
 20
221.8821701840467
 30
0.0
 10
90.22916168278414
 20
221.921062486497
 30
0.0
 10
90.19744708800636
 20
221.9644617495829
 30
0.0
 10
90.16653588312357
 20
222.0116480201529
 30
0.0
 10
90.13800632610855
 20
222.0601177114447
 30
0.0
 10
90.11197344575197
 20
222.106815530335
 30
0.0
 10
90.09005663757381
 20
222.1510892379776
 30
0.0
 10
90.07806120982627
 20
222.1802445921138
 30
0.0
 10
90.072305211389
 20
222.1942347704031
 30
0.0
  0
LINE
  5
21F
330
1F
100
AcDbEntity
  8
1
  6
CONTINUOUS
 62
     7
100
AcDbLine
 10
90.0723052511974
 20
222.1942349094425
 30
0.0
 11
90.24958902253348
 21
222.1942349094425
 31
0.0
  0
SPLINE
  5
220
330
1F
100
AcDbEntity
  8
1
  6
CONTINUOUS
 62
     7
100
AcDbSpline
210
0.0
220
0.0
230
1.0
 70
     8
 71
     3
 72
    15
 73
    11
 74
     0
 42
0.000000001
 43
0.00000001
 40
0.0
 40
0.0
 40
0.0
 40
0.0
 40
0.142657250700614
 40
0.2811689939054435
 40
0.4169771923679739
 40
0.5508524927475593
 40
0.6783641702618116
 40
0.7950324430070955
 40
0.9019981783473513
 40
1.0
 40
1.0
 40
1.0
 40
1.0
 10
90.24958886523513
 20
222.1942347704031
 30
0.0
 10
90.26196467301907
 20
222.1702041690952
 30
0.0
 10
90.28635665734708
 20
222.1228412768516
 30
0.0
 10
90.32848496745055
 20
222.0559277518182
 30
0.0
 10
90.37415378984616
 20
221.9934567782251
 30
0.0
 10
90.42335301344451
 20
221.9364624980095
 30
0.0
 10
90.473643451817
 20
221.8853707575468
 30
0.0
 10
90.52438847951692
 20
221.8423150059166
 30
0.0
 10
90.57372800303341
 20
221.8062886927614
 30
0.0
 10
90.60813684896578
 20
221.7882136089657
 30
0.0
 10
90.62458886523513
 20
221.7795713088647
 30
0.0
  0
LINE
  5
221
330
1F
100
AcDbEntity
  8
1
  6
CONTINUOUS
 62
     7
100
AcDbLine
 10
90.62458885117013
 20
221.7795714493368
 30
0.0
 11
90.62458885117013
 21
221.6557730677996
 31
0.0
  0
LINE
  5
222
330
1F
100
AcDbEntity
  8
1
  6
CONTINUOUS
 62
     7
100
AcDbLine
 10
90.62458885117013
 20
221.6557730677996
 30
0.0
 11
89.12458860530097
 21
221.6557730677996
 31
0.0
  0
LINE
  5
223
330
1F
100
AcDbEntity
  8
1
  6
CONTINUOUS
 62
     7
100
AcDbLine
 10
89.12458860530097
 20
208.8596192877267
 30
0.0
 11
89.48997345967729
 21
208.8596192877267
 31
0.0
  0
LINE
  5
224
330
1F
100
AcDbEntity
  8
1
  6
CONTINUOUS
 62
     7
100
AcDbLine
 10
89.48997345967729
 20
208.8596192877267
 30
0.0
 11
89.48997345967729
 21
209.5134654771064
 31
0.0
  0
LINE
  5
225
330
1F
100
AcDbEntity
  8
1
  6
CONTINUOUS
 62
     7
100
AcDbLine
 10
89.48997345967729
 20
209.5134654771064
 30
0.0
 11
89.68228132678706
 21
209.5134654771064
 31
0.0
  0
LINE
  5
226
330
1F
100
AcDbEntity
  8
1
  6
CONTINUOUS
 62
     7
100
AcDbLine
 10
90.6053579713269
 20
208.8019271138583
 30
0.0
 11
90.6053579713269
 21
208.6673118862782
 31
0.0
  0
LINE
  5
227
330
1F
100
AcDbEntity
  8
1
  6
CONTINUOUS
 62
     7
100
AcDbLine
 10
89.12458860530097
 20
208.6673118862782
 30
0.0
 11
89.12458860530097
 21
208.8596192877267
 31
0.0
  0
LINE
  5
228
330
1F
100
AcDbEntity
  8
1
  6
CONTINUOUS
 62
     7
100
AcDbLine
 10
89.68228132678706
 20
208.8596192877267
 30
0.0
 11
90.2225452776118
 21
208.8596192877267
 31
0.0
  0
LINE
  5
229
330
1F
100
AcDbEntity
  8
1
  6
CONTINUOUS
 62
     7
100
AcDbLine
 10
89.68228132678706
 20
209.2760857883368
 30
0.0
 11
89.68228132678706
 21
208.8596192877267
 31
0.0
  0
LINE
  5
22A
330
1F
100
AcDbEntity
  8
1
  6
CONTINUOUS
 62
     7
100
AcDbLine
 10
89.68228132678706
 20
209.5134654771064
 30
0.0
 11
90.6053579713269
 21
208.8019271138583
 31
0.0
  0
LINE
  5
22B
330
1F
100
AcDbEntity
  8
1
  6
CONTINUOUS
 62
     7
100
AcDbLine
 10
90.6053579713269
 20
208.6673118862782
 30
0.0
 11
89.68228132678706
 21
208.6673118862782
 31
0.0
  0
LINE
  5
22C
330
1F
100
AcDbEntity
  8
1
  6
CONTINUOUS
 62
     7
100
AcDbLine
 10
89.68228132678706
 20
208.6673118862782
 30
0.0
 11
89.68228132678706
 21
208.4750040191684
 31
0.0
  0
LINE
  5
22D
330
1F
100
AcDbEntity
  8
1
  6
CONTINUOUS
 62
     7
100
AcDbLine
 10
89.68228132678706
 20
208.4750040191684
 30
0.0
 11
89.48997345967729
 21
208.4750040191684
 31
0.0
  0
LINE
  5
22E
330
1F
100
AcDbEntity
  8
1
  6
CONTINUOUS
 62
     7
100
AcDbLine
 10
89.48997345967729
 20
208.4750040191684
 30
0.0
 11
89.48997345967729
 21
208.6673118862782
 31
0.0
  0
LINE
  5
22F
330
1F
100
AcDbEntity
  8
1
  6
CONTINUOUS
 62
     7
100
AcDbLine
 10
89.48997345967729
 20
208.6673118862782
 30
0.0
 11
89.12458860530097
 21
208.6673118862782
 31
0.0
  0
LINE
  5
230
330
1F
100
AcDbEntity
  8
1
  6
CONTINUOUS
 62
     7
100
AcDbLine
 10
90.2225452776118
 20
208.8596192877267
 30
0.0
 11
89.68228132678706
 21
209.2760857883368
 31
0.0
  0
ARC
  5
231
330
1F
100
AcDbEntity
  8
1
  6
CONTINUOUS
 62
     7
100
AcDbCircle
 10
66.18458886398514
 20
205.9019270780954
 30
0.0
 40
1.0
100
AcDbArc
 50
179.9999999999984
 51
270.0
  0
ARC
  5
232
330
1F
100
AcDbEntity
  8
1
  6
CONTINUOUS
 62
     7
100
AcDbCircle
 10
66.18458886398514
 20
224.9019270780955
 30
0.0
 40
1.0
100
AcDbArc
 50
90.0
 51
180.0
  0
LINE
  5
233
330
1F
100
AcDbEntity
  8
1
  6
CONTINUOUS
 62
     7
100
AcDbLine
 10
75.8845888379081
 20
225.9019269365344
 30
0.0
 11
66.18458901746709
 21
225.9019269365344
 31
0.0
  0
LINE
  5
234
330
1F
100
AcDbEntity
  8
1
  6
CONTINUOUS
 62
     7
100
AcDbLine
 10
91.58458871050317
 20
225.9019269365344
 30
0.0
 11
81.88458889006216
 21
225.9019269365344
 31
0.0
  0
ARC
  5
235
330
1F
100
AcDbEntity
  8
1
  6
CONTINUOUS
 62
     7
100
AcDbCircle
 10
91.58458886398512
 20
224.9019270780955
 30
0.0
 40
1.0
100
AcDbArc
 50
0.0
 51
90.0
  0
LINE
  5
236
330
1F
100
AcDbEntity
  8
1
  6
CONTINUOUS
 62
     7
100
AcDbLine
 10
92.58458887441594
 20
205.9019273835693
 30
0.0
 11
92.58458887441594
 21
224.9019267726217
 31
0.0
  0
ARC
  5
237
330
1F
100
AcDbEntity
  8
1
  6
CONTINUOUS
 62
     7
100
AcDbCircle
 10
91.58458886398512
 20
205.9019270780954
 30
0.0
 40
1.0
100
AcDbArc
 50
270.0
 51
0.0000000000016284
  0
LINE
  5
238
330
1F
100
AcDbEntity
  8
1
  6
CONTINUOUS
 62
     7
100
AcDbLine
 10
81.88458889006216
 20
204.9019272196565
 30
0.0
 11
91.58458871050317
 21
204.9019272196565
 31
0.0
  0
LINE
  5
239
330
1F
100
AcDbEntity
  8
1
  6
CONTINUOUS
 62
     7
100
AcDbLine
 10
66.18458901746709
 20
204.9019272196565
 30
0.0
 11
75.8845888379081
 21
204.9019272196565
 31
0.0
  0
LINE
  5
23A
330
1F
100
AcDbEntity
  8
1
  6
CONTINUOUS
 62
     7
100
AcDbLine
 10
81.88458889006216
 20
204.9019272196565
 30
0.0
 11
81.88458889006216
 21
205.8019266221199
 31
0.0
  0
LINE
  5
23B
330
1F
100
AcDbEntity
  8
1
  6
CONTINUOUS
 62
     7
100
AcDbLine
 10
75.8845888379081
 20
205.8019266221199
 30
0.0
 11
75.8845888379081
 21
204.9019272196565
 31
0.0
  0
LINE
  5
23C
330
1F
100
AcDbEntity
  8
1
  6
CONTINUOUS
 62
     7
100
AcDbLine
 10
81.88458889006216
 20
225.001927534071
 30
0.0
 11
81.88458889006216
 21
225.9019269365344
 31
0.0
  0
LINE
  5
23D
330
1F
100
AcDbEntity
  8
1
  6
CONTINUOUS
 62
     7
100
AcDbLine
 10
75.8845888379081
 20
225.9019269365344
 30
0.0
 11
75.8845888379081
 21
225.001927534071
 31
0.0
  0
LINE
  5
23E
330
1F
100
AcDbEntity
  8
1
  6
CONTINUOUS
 62
     7
100
AcDbLine
 10
75.8845888379081
 20
225.001927534071
 30
0.0
 11
81.88458889006216
 21
225.001927534071
 31
0.0
  0
LINE
  5
23F
330
1F
100
AcDbEntity
  8
1
  6
CONTINUOUS
 62
     7
100
AcDbLine
 10
81.88458889006216
 20
205.8019266221199
 30
0.0
 11
75.8845888379081
 21
205.8019266221199
 31
0.0
  0
LINE
  5
240
330
1F
100
AcDbEntity
  8
1
  6
CONTINUOUS
 62
     7
100
AcDbLine
 10
65.18458885355432
 20
224.9019267726217
 30
0.0
 11
65.18458885355432
 21
205.9019273835693
 31
0.0
  0
ARC
  5
241
330
1F
100
AcDbEntity
  8
1
  6
CONTINUOUS
 62
     7
100
AcDbCircle
 10
92.13458886398513
 20
225.5019270780955
 30
0.0
 40
0.5
100
AcDbArc
 50
0.0
 51
90.0
  0
LINE
  5
242
330
1F
100
AcDbEntity
  8
1
  6
CONTINUOUS
 62
     7
100
AcDbLine
 10
81.88458889006216
 20
225.1519272792611
 30
0.0
 11
75.8845888379081
 21
225.1519272792611
 31
0.0
  0
LINE
  5
243
330
1F
100
AcDbEntity
  8
1
  6
CONTINUOUS
 62
     7
100
AcDbLine
 10
75.8845888379081
 20
205.6519268769298
 30
0.0
 11
81.88458889006216
 21
205.6519268769298
 31
0.0
  0
LINE
  5
244
330
1F
100
AcDbEntity
  8
1
  6
CONTINUOUS
 62
     7
100
AcDbLine
 10
92.13458870752294
 20
226.0019267666612
 30
0.0
 11
65.63458902044732
 21
226.0019267666612
 31
0.0
  0
ARC
  5
245
330
1F
100
AcDbEntity
  8
1
  6
CONTINUOUS
 62
     7
100
AcDbCircle
 10
65.63458886398513
 20
205.3019270780952
 30
0.0
 40
0.5
100
AcDbArc
 50
179.9999999999739
 51
270.0
  0
LINE
  5
246
330
1F
100
AcDbEntity
  8
1
  6
CONTINUOUS
 62
     7
100
AcDbLine
 10
65.13458893849094
 20
225.5019266847048
 30
0.0
 11
65.13458893849094
 21
205.3019274714861
 31
0.0
  0
ARC
  5
247
330
1F
100
AcDbEntity
  8
1
  6
CONTINUOUS
 62
     7
100
AcDbCircle
 10
92.13458886398513
 20
205.3019270780952
 30
0.0
 40
0.5
100
AcDbArc
 50
270.0
 51
0.0000000000260551
  0
LINE
  5
248
330
1F
100
AcDbEntity
  8
1
  6
CONTINUOUS
 62
     7
100
AcDbLine
 10
92.63458878947932
 20
205.3019274714861
 30
0.0
 11
92.63458878947932
 21
225.5019266847048
 31
0.0
  0
ARC
  5
249
330
1F
100
AcDbEntity
  8
1
  6
CONTINUOUS
 62
     7
100
AcDbCircle
 10
65.63458886398513
 20
225.5019270780952
 30
0.0
 40
0.5000000000002274
100
AcDbArc
 50
90.0
 51
179.9999999999739
  0
LINE
  5
24A
330
1F
100
AcDbEntity
  8
1
  6
CONTINUOUS
 62
     7
100
AcDbLine
 10
65.63458902044732
 20
204.8019273895297
 30
0.0
 11
92.13458870752294
 21
204.8019273895297
 31
0.0
  0
LINE
  5
24B
330
1F
100
AcDbEntity
  8
1
  6
CONTINUOUS
 62
     7
100
AcDbLine
 10
77.08458889490504
 20
225.001927534071
 30
0.0
 11
77.08458889490504
 21
225.1519272792611
 31
0.0
  0
LINE
  5
24C
330
1F
100
AcDbEntity
  8
1
  6
CONTINUOUS
 62
     7
100
AcDbLine
 10
80.68458883306522
 20
225.001927534071
 30
0.0
 11
80.68458883306522
 21
225.1519272792611
 31
0.0
  0
LINE
  5
24D
330
1F
100
AcDbEntity
  8
1
  6
CONTINUOUS
 62
     7
100
AcDbLine
 10
77.08458889490504
 20
205.8019266221199
 30
0.0
 11
77.08458889490504
 21
205.6519268769298
 31
0.0
  0
LINE
  5
24E
330
1F
100
AcDbEntity
  8
1
  6
CONTINUOUS
 62
     7
100
AcDbLine
 10
80.68458883306522
 20
205.8019266221199
 30
0.0
 11
80.68458883306522
 21
205.6519268769298
 31
0.0
  0
LINE
  5
24F
330
1F
100
AcDbEntity
  8
1
  6
CONTINUOUS
 62
     7
100
AcDbLine
 10
91.03458871348352
 20
170.8901779960812
 30
0.0
 11
91.03458871348352
 21
171.1054401706876
 31
0.0
  0
LINE
  5
250
330
1F
100
AcDbEntity
  8
1
  6
CONTINUOUS
 62
     7
100
AcDbLine
 10
88.03458915306777
 20
171.1054401706876
 30
0.0
 11
88.03458915306777
 21
170.8901779960812
 31
0.0
  0
LINE
  5
251
330
1F
100
AcDbEntity
  8
1
  6
CONTINUOUS
 62
     7
100
AcDbLine
 10
80.88458895898015
 20
140.7401765931369
 30
0.0
 11
76.88458876899034
 21
140.7401765931369
 31
0.0
  0
LINE
  5
252
330
1F
100
AcDbEntity
  8
1
  6
CONTINUOUS
 62
     7
100
AcDbLine
 10
80.88458895898015
 20
142.7401764553012
 30
0.0
 11
80.88458895898015
 21
140.7401765931369
 31
0.0
  0
LINE
  5
253
330
1F
100
AcDbEntity
  8
1
  6
CONTINUOUS
 62
     7
100
AcDbLine
 10
76.88458876899034
 20
142.7401764553012
 30
0.0
 11
80.88458895898015
 21
142.7401764553012
 31
0.0
  0
LINE
  5
254
330
1F
100
AcDbEntity
  8
1
  6
CONTINUOUS
 62
     7
100
AcDbLine
 10
76.88458876899034
 20
140.7401765931369
 30
0.0
 11
76.88458876899034
 21
142.7401764553012
 31
0.0
  0
LINE
  5
255
330
1F
100
AcDbEntity
  8
1
  6
CONTINUOUS
 62
     7
100
AcDbLine
 10
92.13458870752305
 20
139.2901764951618
 30
0.0
 11
65.63458902044744
 21
139.2901764951618
 31
0.0
  0
LINE
  5
256
330
1F
100
AcDbEntity
  8
1
  6
CONTINUOUS
 62
     7
100
AcDbLine
 10
86.53458890719861
 20
170.8901779960812
 30
0.0
 11
92.13458870752305
 21
170.8901779960812
 31
0.0
  0
LINE
  5
257
330
1F
100
AcDbEntity
  8
1
  6
CONTINUOUS
 62
     7
100
AcDbLine
 10
86.53458890719861
 20
172.8901783239068
 30
0.0
 11
86.53458890719861
 21
170.8901779960812
 31
0.0
  0
LINE
  5
258
330
1F
100
AcDbEntity
  8
1
  6
CONTINUOUS
 62
     7
100
AcDbLine
 10
65.13458893849105
 20
172.8901783239068
 30
0.0
 11
65.13458893849105
 21
139.2901764951618
 31
0.0
  0
LINE
  5
259
330
1F
100
AcDbEntity
  8
1
  6
CONTINUOUS
 62
     7
100
AcDbLine
 10
65.63458902044744
 20
139.2901764951618
 30
0.0
 11
65.13458893849105
 21
139.2901764951618
 31
0.0
  0
LINE
  5
25A
330
1F
100
AcDbEntity
  8
1
  6
CONTINUOUS
 62
     7
100
AcDbLine
 10
65.63458902044744
 20
173.3901756118954
 30
0.0
 11
86.03458882524222
 21
173.3901756118954
 31
0.0
  0
ARC
  5
25B
330
1F
100
AcDbEntity
  8
1
  6
CONTINUOUS
 62
     7
100
AcDbCircle
 10
86.03458886398522
 20
172.8901764821233
 30
0.0
 40
0.5
100
AcDbArc
 50
0.0
 51
89.99999963932571
  0
ARC
  5
25C
330
1F
100
AcDbEntity
  8
1
  6
CONTINUOUS
 62
     7
100
AcDbCircle
 10
65.63458886398524
 20
172.8901764821233
 30
0.0
 40
0.5
100
AcDbArc
 50
89.99999998824914
 51
180.0
  0
LINE
  5
25D
330
1F
100
AcDbEntity
  8
1
  6
CONTINUOUS
 62
     7
100
AcDbLine
 10
92.63458878947944
 20
139.2901764951618
 30
0.0
 11
92.63458878947944
 21
170.8901779960812
 31
0.0
  0
LINE
  5
25E
330
1F
100
AcDbEntity
  8
1
  6
CONTINUOUS
 62
     7
100
AcDbLine
 10
92.63458878947944
 20
139.2901764951618
 30
0.0
 11
92.13458870752305
 21
139.2901764951618
 31
0.0
  0
LINE
  5
25F
330
1F
100
AcDbEntity
  8
1
  6
CONTINUOUS
 62
     7
100
AcDbLine
 10
92.63458878947944
 20
170.8901779960812
 30
0.0
 11
92.13458870752305
 21
170.8901779960812
 31
0.0
  0
LINE
  5
260
330
1F
100
AcDbEntity
  8
1
  6
CONTINUOUS
 62
     7
100
AcDbLine
 10
65.18458885355443
 20
139.2901764951618
 30
0.0
 11
65.18458885355443
 21
137.7901764821233
 31
0.0
  0
LINE
  5
261
330
1F
100
AcDbEntity
  8
1
  6
CONTINUOUS
 62
     7
100
AcDbLine
 10
66.1845890174672
 20
137.7901764821233
 30
0.0
 11
65.18458885355443
 21
137.7901764821233
 31
0.0
  0
LINE
  5
262
330
1F
100
AcDbEntity
  8
1
  6
CONTINUOUS
 62
     7
100
AcDbLine
 10
81.88458889006228
 20
139.2901764951618
 30
0.0
 11
81.88458889006228
 21
137.7901764821233
 31
0.0
  0
LINE
  5
263
330
1F
100
AcDbEntity
  8
1
  6
CONTINUOUS
 62
     7
100
AcDbLine
 10
91.58458871050328
 20
137.7901764821233
 30
0.0
 11
81.88458889006228
 21
137.7901764821233
 31
0.0
  0
LINE
  5
264
330
1F
100
AcDbEntity
  8
1
  6
CONTINUOUS
 62
     7
100
AcDbLine
 10
92.58458887441606
 20
139.2901764951618
 30
0.0
 11
92.58458887441606
 21
137.7901764821233
 31
0.0
  0
LINE
  5
265
330
1F
100
AcDbEntity
  8
1
  6
CONTINUOUS
 62
     7
100
AcDbLine
 10
92.58458887441606
 20
137.7901764821233
 30
0.0
 11
91.58458871050328
 21
137.7901764821233
 31
0.0
  0
LINE
  5
266
330
1F
100
AcDbEntity
  8
1
  6
CONTINUOUS
 62
     7
100
AcDbLine
 10
75.88458883790821
 20
139.2901764951618
 30
0.0
 11
75.88458883790821
 21
137.7901764821233
 31
0.0
  0
LINE
  5
267
330
1F
100
AcDbEntity
  8
1
  6
CONTINUOUS
 62
     7
100
AcDbLine
 10
75.88458883790821
 20
137.7901764821233
 30
0.0
 11
66.1845890174672
 21
137.7901764821233
 31
0.0
  0
LINE
  5
268
330
1F
100
AcDbEntity
  8
1
  6
CONTINUOUS
 62
     7
100
AcDbLine
 10
77.08458889490515
 20
141.9027498226584
 30
0.0
 11
80.68458883306533
 21
141.9027498226584
 31
0.0
  0
LINE
  5
269
330
1F
100
AcDbEntity
  8
1
  6
CONTINUOUS
 62
     7
100
AcDbLine
 10
80.68458883306533
 20
140.8901765711577
 30
0.0
 11
80.68458883306533
 21
141.9027498226584
 31
0.0
  0
LINE
  5
26A
330
1F
100
AcDbEntity
  8
1
  6
CONTINUOUS
 62
     7
100
AcDbLine
 10
77.08458889490515
 20
140.8901765711577
 30
0.0
 11
80.68458883306533
 21
140.8901765711577
 31
0.0
  0
LINE
  5
26B
330
1F
100
AcDbEntity
  8
1
  6
CONTINUOUS
 62
     7
100
AcDbLine
 10
77.08458889490515
 20
140.8901765711577
 30
0.0
 11
77.08458889490515
 21
141.9027498226584
 31
0.0
  0
LINE
  5
26C
330
1F
100
AcDbEntity
  8
1
  6
CONTINUOUS
 62
     7
100
AcDbLine
 10
77.08458889490515
 20
142.6901765402378
 30
0.0
 11
80.68458883306533
 21
142.6901765402378
 31
0.0
  0
LINE
  5
26D
330
1F
100
AcDbEntity
  8
1
  6
CONTINUOUS
 62
     7
100
AcDbLine
 10
80.68458883306533
 20
141.9027498226584
 30
0.0
 11
80.68458883306533
 21
142.6901765402378
 31
0.0
  0
LINE
  5
26E
330
1F
100
AcDbEntity
  8
1
  6
CONTINUOUS
 62
     7
100
AcDbLine
 10
77.08458889490515
 20
141.9027498226584
 30
0.0
 11
77.08458889490515
 21
142.6901765402378
 31
0.0
  0
LINE
  5
26F
330
1F
100
AcDbEntity
  8
1
  6
CONTINUOUS
 62
     7
100
AcDbLine
 10
89.03458931698054
 20
172.7411071073235
 30
0.0
 11
90.03458854957074
 21
172.7411071073235
 31
0.0
  0
LINE
  5
270
330
1F
100
AcDbEntity
  8
1
  6
CONTINUOUS
 62
     7
100
AcDbLine
 10
90.03458854957074
 20
172.1514756094636
 30
0.0
 11
90.03458854957074
 21
172.7411071073235
 31
0.0
  0
LINE
  5
271
330
1F
100
AcDbEntity
  8
1
  6
CONTINUOUS
 62
     7
100
AcDbLine
 10
89.03458931698054
 20
172.1514756094636
 30
0.0
 11
89.03458931698054
 21
172.7411071073235
 31
0.0
  0
LINE
  5
272
330
1F
100
AcDbEntity
  8
1
  6
CONTINUOUS
 62
     7
100
AcDbLine
 10
88.03458915306777
 20
171.1054401706876
 30
0.0
 11
91.03458871348352
 21
171.1054401706876
 31
0.0
  0
LINE
  5
273
330
1F
100
AcDbEntity
  8
1
  6
CONTINUOUS
 62
     7
100
AcDbLine
 10
89.03458931698054
 20
172.0733041178406
 30
0.0
 11
88.03458915306777
 21
172.0733041178406
 31
0.0
  0
LINE
  5
274
330
1F
100
AcDbEntity
  8
1
  6
CONTINUOUS
 62
     7
100
AcDbLine
 10
91.03458871348352
 20
172.0733041178406
 30
0.0
 11
90.03458854957074
 21
172.0733041178406
 31
0.0
  0
LINE
  5
275
330
1F
100
AcDbEntity
  8
1
  6
CONTINUOUS
 62
     7
100
AcDbLine
 10
90.03458854957074
 20
172.1514756094636
 30
0.0
 11
90.03458854957074
 21
172.0733041178406
 31
0.0
  0
LINE
  5
276
330
1F
100
AcDbEntity
  8
1
  6
CONTINUOUS
 62
     7
100
AcDbLine
 10
89.03458931698054
 20
172.0733041178406
 30
0.0
 11
89.03458931698054
 21
172.1514756094636
 31
0.0
  0
ARC
  5
277
330
1F
100
AcDbEntity
  8
1
  6
CONTINUOUS
 62
     7
100
AcDbCircle
 10
87.91361290192043
 20
172.8378453725445
 30
0.0
 40
0.7740533466666565
100
AcDbArc
 50
240.6816894073056
 51
278.9915787349316
  0
LINE
  5
278
330
1F
100
AcDbEntity
  8
1
  6
CONTINUOUS
 62
     7
100
AcDbLine
 10
87.53458907111138
 20
173.3901756118954
 30
0.0
 11
87.53458907111138
 21
172.1629383277119
 31
0.0
  0
LINE
  5
279
330
1F
100
AcDbEntity
  8
1
  6
CONTINUOUS
 62
     7
100
AcDbLine
 10
87.53458907111138
 20
173.3901756118954
 30
0.0
 11
91.5345887954399
 21
173.3901756118954
 31
0.0
  0
LINE
  5
27A
330
1F
100
AcDbEntity
  8
1
  6
CONTINUOUS
 62
     7
100
AcDbLine
 10
91.5345887954399
 20
172.1629383277119
 30
0.0
 11
91.5345887954399
 21
173.3901756118954
 31
0.0
  0
ARC
  5
27B
330
1F
100
AcDbEntity
  8
1
  6
CONTINUOUS
 62
     7
100
AcDbCircle
 10
91.1555649646308
 20
172.8378453725445
 30
0.0
 40
0.7740533466666565
100
AcDbArc
 50
261.0084212650726
 51
299.318310592698
  0
ARC
  5
27C
330
1F
100
AcDbEntity
  8
1
  6
CONTINUOUS
 62
     7
100
AcDbCircle
 10
91.15556939118613
 20
171.8699567330554
 30
0.0
 40
0.774029649633747
100
AcDbArc
 50
261.0078119613747
 51
299.3189198963959
  0
LINE
  5
27D
330
1F
100
AcDbEntity
  8
1
  6
CONTINUOUS
 62
     7
100
AcDbLine
 10
91.5345887954399
 20
171.1950743805589
 30
0.0
 11
91.5345887954399
 21
172.1629383277119
 31
0.0
  0
ARC
  5
27E
330
1F
100
AcDbEntity
  8
1
  6
CONTINUOUS
 62
     7
100
AcDbCircle
 10
87.9136084753651
 20
171.8699567330554
 30
0.0
 40
0.7740296496337479
100
AcDbArc
 50
240.6810801036078
 51
278.9921880386294
  0
LINE
  5
27F
330
1F
100
AcDbEntity
  8
1
  6
CONTINUOUS
 62
     7
100
AcDbLine
 10
87.53458907111138
 20
172.1629383277119
 30
0.0
 11
87.53458907111138
 21
171.1950743805589
 31
0.0
  0
LINE
  5
280
330
1F
100
AcDbEntity
  8
1
  6
CONTINUOUS
 62
     7
100
AcDbLine
 10
75.88458883790821
 20
137.7901764821233
 30
0.0
 11
81.88458889006228
 21
137.7901764821233
 31
0.0
  0
LINE
  5
281
330
1F
100
AcDbEntity
  8
1
  6
CONTINUOUS
 62
     7
100
AcDbLine
 10
71.58458869187683
 20
131.2901763480128
 30
0.0
 11
71.08458907558173
 21
131.2901763480128
 31
0.0
  0
LINE
  5
282
330
1F
100
AcDbEntity
  8
1
  6
CONTINUOUS
 62
     7
100
AcDbLine
 10
71.08458907558173
 20
132.0901763860108
 30
0.0
 11
71.08458907558173
 21
131.2901763480128
 31
0.0
  0
LINE
  5
283
330
1F
100
AcDbEntity
  8
1
  6
CONTINUOUS
 62
     7
100
AcDbLine
 10
71.08458907558173
 20
132.0901763860108
 30
0.0
 11
71.58458869187683
 21
132.0901763860108
 31
0.0
  0
LINE
  5
284
330
1F
100
AcDbEntity
  8
1
  6
CONTINUOUS
 62
     7
100
AcDbLine
 10
71.58458869187683
 20
131.2901763480128
 30
0.0
 11
71.58458869187683
 21
132.0901763860108
 31
0.0
  0
LINE
  5
285
330
1F
100
AcDbEntity
  8
1
  6
CONTINUOUS
 62
     7
100
AcDbLine
 10
71.08458907558173
 20
137.7901764821233
 30
0.0
 11
71.08458907558173
 21
132.0901763860108
 31
0.0
  0
LINE
  5
286
330
1F
100
AcDbEntity
  8
1
  6
CONTINUOUS
 62
     7
100
AcDbLine
 10
71.58458869187683
 20
132.0901763860108
 30
0.0
 11
71.58458869187683
 21
137.7901764821233
 31
0.0
  0
LINE
  5
287
330
1F
100
AcDbEntity
  8
1
  6
CONTINUOUS
 62
     7
100
AcDbLine
 10
77.38458885094673
 20
137.7901764821233
 30
0.0
 11
77.38458885094673
 21
132.0901763860108
 31
0.0
  0
LINE
  5
288
330
1F
100
AcDbEntity
  8
1
  6
CONTINUOUS
 62
     7
100
AcDbLine
 10
77.88458881648779
 20
132.0901763860108
 30
0.0
 11
77.88458881648779
 21
137.7901764821233
 31
0.0
  0
LINE
  5
289
330
1F
100
AcDbEntity
  8
1
  6
CONTINUOUS
 62
     7
100
AcDbLine
 10
77.88458881648779
 20
132.0901763860108
 30
0.0
 11
77.38458885094673
 21
132.0901763860108
 31
0.0
  0
LINE
  5
28A
330
1F
100
AcDbEntity
  8
1
  6
CONTINUOUS
 62
     7
100
AcDbLine
 10
88.28458872838468
 20
131.2901763480128
 30
0.0
 11
87.78458864642829
 21
131.2901763480128
 31
0.0
  0
LINE
  5
28B
330
1F
100
AcDbEntity
  8
1
  6
CONTINUOUS
 62
     7
100
AcDbLine
 10
87.78458864642829
 20
132.0901763860108
 30
0.0
 11
88.28458872838468
 21
132.0901763860108
 31
0.0
  0
LINE
  5
28C
330
1F
100
AcDbEntity
  8
1
  6
CONTINUOUS
 62
     7
100
AcDbLine
 10
88.28458872838468
 20
131.2901763480128
 30
0.0
 11
88.28458872838468
 21
132.0901763860108
 31
0.0
  0
LINE
  5
28D
330
1F
100
AcDbEntity
  8
1
  6
CONTINUOUS
 62
     7
100
AcDbLine
 10
87.78458864642829
 20
132.0901763860108
 30
0.0
 11
87.78458864642829
 21
131.2901763480128
 31
0.0
  0
LINE
  5
28E
330
1F
100
AcDbEntity
  8
1
  6
CONTINUOUS
 62
     7
100
AcDbLine
 10
84.18458870826811
 20
131.2901763480128
 30
0.0
 11
83.68458909197301
 21
131.2901763480128
 31
0.0
  0
LINE
  5
28F
330
1F
100
AcDbEntity
  8
1
  6
CONTINUOUS
 62
     7
100
AcDbLine
 10
83.68458909197301
 20
132.0901763860108
 30
0.0
 11
83.68458909197301
 21
131.2901763480128
 31
0.0
  0
LINE
  5
290
330
1F
100
AcDbEntity
  8
1
  6
CONTINUOUS
 62
     7
100
AcDbLine
 10
83.68458909197301
 20
132.0901763860108
 30
0.0
 11
84.18458870826811
 21
132.0901763860108
 31
0.0
  0
LINE
  5
291
330
1F
100
AcDbEntity
  8
1
  6
CONTINUOUS
 62
     7
100
AcDbLine
 10
84.18458870826811
 20
131.2901763480128
 30
0.0
 11
84.18458870826811
 21
132.0901763860108
 31
0.0
  0
LINE
  5
292
330
1F
100
AcDbEntity
  8
1
  6
CONTINUOUS
 62
     7
100
AcDbLine
 10
77.88458881648779
 20
131.2901763480128
 30
0.0
 11
77.38458885094673
 21
131.2901763480128
 31
0.0
  0
LINE
  5
293
330
1F
100
AcDbEntity
  8
1
  6
CONTINUOUS
 62
     7
100
AcDbLine
 10
77.38458885094673
 20
132.0901763860108
 30
0.0
 11
77.38458885094673
 21
131.2901763480128
 31
0.0
  0
LINE
  5
294
330
1F
100
AcDbEntity
  8
1
  6
CONTINUOUS
 62
     7
100
AcDbLine
 10
77.88458881648779
 20
131.2901763480128
 30
0.0
 11
77.88458881648779
 21
132.0901763860108
 31
0.0
  0
LINE
  5
295
330
1F
100
AcDbEntity
  8
1
  6
CONTINUOUS
 62
     7
100
AcDbLine
 10
83.68458909197301
 20
137.7901764821233
 30
0.0
 11
83.68458909197301
 21
132.0901763860108
 31
0.0
  0
LINE
  5
296
330
1F
100
AcDbEntity
  8
1
  6
CONTINUOUS
 62
     7
100
AcDbLine
 10
84.18458870826811
 20
132.0901763860108
 30
0.0
 11
84.18458870826811
 21
137.7901764821233
 31
0.0
  0
LINE
  5
297
330
1F
100
AcDbEntity
  8
1
  6
CONTINUOUS
 62
     7
100
AcDbLine
 10
88.28458872838468
 20
132.0901763860108
 30
0.0
 11
88.28458872838468
 21
137.7901764821233
 31
0.0
  0
LINE
  5
298
330
1F
100
AcDbEntity
  8
1
  6
CONTINUOUS
 62
     7
100
AcDbLine
 10
87.78458864642829
 20
137.7901764821233
 30
0.0
 11
87.78458864642829
 21
132.0901763860108
 31
0.0
  0
LINE
  5
299
330
1F
100
AcDbEntity
  8
1
  6
CONTINUOUS
 62
     7
100
AcDbLine
 10
73.54958898602575
 20
137.490176467874
 30
0.0
 11
73.54958898602575
 21
137.7901764821233
 31
0.0
  0
LINE
  5
29A
330
1F
100
AcDbEntity
  8
1
  6
CONTINUOUS
 62
     7
100
AcDbLine
 10
73.37230521468967
 20
137.490176467874
 30
0.0
 11
73.54958898602575
 21
137.490176467874
 31
0.0
  0
LINE
  5
29B
330
1F
100
AcDbEntity
  8
1
  6
CONTINUOUS
 62
     7
100
AcDbLine
 10
73.37230521468967
 20
137.490176467874
 30
0.0
 11
73.37230521468967
 21
137.7901764821233
 31
0.0
  0
LINE
  5
29C
330
1F
100
AcDbEntity
  8
1
  6
CONTINUOUS
 62
     7
100
AcDbLine
 10
73.9245888146624
 20
137.490176467874
 30
0.0
 11
73.9245888146624
 21
137.7901764821233
 31
0.0
  0
SPLINE
  5
29D
330
1F
100
AcDbEntity
  8
1
  6
CONTINUOUS
 62
     7
100
AcDbSpline
210
0.0
220
0.0
230
1.0
 70
    24
 71
     3
 72
    15
 73
    11
 74
     0
 42
0.000000001
 43
0.00000001
 40
0.0
 40
0.0
 40
0.0
 40
0.0
 40
0.1426572507006141
 40
0.281168993905443
 40
0.4169771923679744
 40
0.550852492747558
 40
0.6783641702618126
 40
0.7950324430070954
 40
0.9019981783473525
 40
1.0
 40
1.0
 40
1.0
 40
1.0
 10
73.54958886711023
 20
137.4901764821233
 30
0.0
 10
73.56196467489417
 20
137.4901764821233
 30
0.0
 10
73.58635665922219
 20
137.4901764821233
 30
0.0
 10
73.62848496932565
 20
137.4901764821233
 30
0.0
 10
73.67415379172127
 20
137.4901764821233
 30
0.0
 10
73.72335301531962
 20
137.4901764821233
 30
0.0
 10
73.7736434536921
 20
137.4901764821233
 30
0.0
 10
73.82438848139196
 20
137.4901764821233
 30
0.0
 10
73.87372800490851
 20
137.4901764821233
 30
0.0
 10
73.90813685084089
 20
137.4901764821233
 30
0.0
 10
73.92458886711023
 20
137.4901764821233
 30
0.0
  0
LINE
  5
29E
330
1F
100
AcDbEntity
  8
1
  6
CONTINUOUS
 62
     7
100
AcDbLine
 10
72.42458903445453
 20
137.490176467874
 30
0.0
 11
72.42458903445453
 21
137.7901764821233
 31
0.0
  0
LINE
  5
29F
330
1F
100
AcDbEntity
  8
1
  6
CONTINUOUS
 62
     7
100
AcDbLine
 10
72.42458903445453
 20
137.490176467874
 30
0.0
 11
73.37230521468967
 21
137.490176467874
 31
0.0
  0
LINE
  5
2A0
330
1F
100
AcDbEntity
  8
1
  6
CONTINUOUS
 62
     7
100
AcDbLine
 10
79.72669224935174
 20
137.490176467874
 30
0.0
 11
79.72669224935174
 21
137.7901764821233
 31
0.0
  0
SPLINE
  5
2A1
330
1F
100
AcDbEntity
  8
1
  6
CONTINUOUS
 62
     7
100
AcDbSpline
210
0.0
220
0.0
230
1.0
 70
    24
 71
     3
 72
    23
 73
    19
 74
     0
 42
0.000000001
 43
0.00000001
 40
0.0
 40
0.0
 40
0.0
 40
0.0
 40
0.0609753707416263
 40
0.1200311895024042
 40
0.1777020019136865
 40
0.2348773214864141
 40
0.2923380336586185
 40
0.3505390012738346
 40
0.4098902295696114
 40
0.4718381872386221
 40
0.5345982915562483
 40
0.5968447075410368
 40
0.6593700692027111
 40
0.7229716304100651
 40
0.7883008558381371
 40
0.8559593229503921
 40
0.926537130409339
 40
0.9999999999999999
 40
0.9999999999999999
 40
0.9999999999999999
 40
0.9999999999999999
 10
79.24381963571602
 20
137.4901764821233
 30
0.0
 10
79.24419909938791
 20
137.4901764821233
 30
0.0
 10
79.24494608092095
 20
137.4901764821233
 30
0.0
 10
79.25158792576576
 20
137.4901764821233
 30
0.0
 10
79.26154156320717
 20
137.4901764821233
 30
0.0
 10
79.27663692036646
 20
137.4901764821233
 30
0.0
 10
79.29517942020874
 20
137.4901764821233
 30
0.0
 10
79.31826412271556
 20
137.4901764821233
 30
0.0
 10
79.34522318708338
 20
137.4901764821233
 30
0.0
 10
79.3763462666376
 20
137.4901764821233
 30
0.0
 10
79.41053000224275
 20
137.4901764821233
 30
0.0
 10
79.4481730709781
 20
137.4901764821233
 30
0.0
 10
79.48798660973887
 20
137.4901764821233
 30
0.0
 10
79.53062194390947
 20
137.4901764821233
 30
0.0
 10
79.5759109354583
 20
137.4901764821233
 30
0.0
 10
79.62392386913996
 20
137.4901764821233
 30
0.0
 10
79.67444036532083
 20
137.4901764821233
 30
0.0
 10
79.70904391248632
 20
137.4901764821233
 30
0.0
 10
79.72669223186983
 20
137.4901764821233
 30
0.0
  0
LINE
  5
2A2
330
1F
100
AcDbEntity
  8
1
  6
CONTINUOUS
 62
     7
100
AcDbLine
 10
79.24381962609999
 20
137.490176467874
 30
0.0
 11
79.24381962609999
 21
137.7901764821233
 31
0.0
  0
LINE
  5
2A3
330
1F
100
AcDbEntity
  8
1
  6
CONTINUOUS
 62
     7
100
AcDbLine
 10
85.4284351992473
 20
137.490176467874
 30
0.0
 11
85.4284351992473
 21
137.7901764821233
 31
0.0
  0
LINE
  5
2A4
330
1F
100
AcDbEntity
  8
1
  6
CONTINUOUS
 62
     7
100
AcDbLine
 10
85.00535817100257
 20
137.490176467874
 30
0.0
 11
85.00535817100257
 21
137.7901764821233
 31
0.0
  0
SPLINE
  5
2A5
330
1F
100
AcDbEntity
  8
1
  6
CONTINUOUS
 62
     7
100
AcDbSpline
210
0.0
220
0.0
230
1.0
 70
    24
 71
     3
 72
    23
 73
    19
 74
     0
 42
0.000000001
 43
0.00000001
 40
0.0
 40
0.0
 40
0.0
 40
0.0
 40
0.0693090282251997
 40
0.1355823716314865
 40
0.1997026640843807
 40
0.2617577999381232
 40
0.3227131697758966
 40
0.3829677307200957
 40
0.4427458782340106
 40
0.503224235158293
 40
0.5637591760962208
 40
0.6237551854227408
 40
0.6834140228899437
 40
0.7438433995616675
 40
0.8050351253690199
 40
0.8676277251230722
 40
0.932767409158885
 40
1.0
 40
1.0
 40
1.0
 40
1.0
 10
85.0053580966295
 20
137.4901764821233
 30
0.0
 10
85.00568556264545
 20
137.4901764821233
 30
0.0
 10
85.006326151905
 20
137.4901764821233
 30
0.0
 10
85.01189434258958
 20
137.4901764821233
 30
0.0
 10
85.0207754983769
 20
137.4901764821233
 30
0.0
 10
85.03350738034607
 20
137.4901764821233
 30
0.0
 10
85.0496178144839
 20
137.4901764821233
 30
0.0
 10
85.0699609357581
 20
137.4901764821233
 30
0.0
 10
85.09352049976752
 20
137.4901764821233
 30
0.0
 10
85.12058957822495
 20
137.4901764821233
 30
0.0
 10
85.15045858371946
 20
137.4901764821233
 30
0.0
 10
85.1834150560353
 20
137.4901764821233
 30
0.0
 10
85.21854890292667
 20
137.4901764821233
 30
0.0
 10
85.25575628858832
 20
137.4901764821233
 30
0.0
 10
85.29576986536921
 20
137.4901764821233
 30
0.0
 10
85.337786763655
 20
137.4901764821233
 30
0.0
 10
85.38222175146666
 20
137.4901764821233
 30
0.0
 10
85.41286907774492
 20
137.4901764821233
 30
0.0
 10
85.4284350197064
 20
137.4901764821233
 30
0.0
  0
LINE
  5
2A6
330
1F
100
AcDbEntity
  8
1
  6
CONTINUOUS
 62
     7
100
AcDbLine
 10
80.22458882285804
 20
137.490176467874
 30
0.0
 11
80.22458882285804
 21
137.7901764821233
 31
0.0
  0
SPLINE
  5
2A7
330
1F
100
AcDbEntity
  8
1
  6
CONTINUOUS
 62
     7
100
AcDbSpline
210
0.0
220
0.0
230
1.0
 70
    24
 71
     3
 72
    23
 73
    19
 74
     0
 42
0.000000001
 43
0.00000001
 40
0.0
 40
0.0
 40
0.0
 40
0.0
 40
0.0719908334539412
 40
0.1408265555703651
 40
0.2070278897882308
 40
0.2707864458835811
 40
0.3334824908940914
 40
0.3948703491262079
 40
0.4564919022058552
 40
0.5181426048551393
 40
0.5793673666586296
 40
0.6393756041323848
 40
0.6979490797775452
 40
0.7562887015661571
 40
0.8150485901988535
 40
0.8748690814557827
 40
0.9363027325433422
 40
1.0
 40
1.0
 40
1.0
 40
1.0
 10
79.72669223186983
 20
137.4901764821233
 30
0.0
 10
79.74493796546506
 20
137.4901764821233
 30
0.0
 10
79.7806297847257
 20
137.4901764821233
 30
0.0
 10
79.83282042619118
 20
137.4901764821233
 30
0.0
 10
79.88224663176493
 20
137.4901764821233
 30
0.0
 10
79.92893391931523
 20
137.4901764821233
 30
0.0
 10
79.97284426581444
 20
137.4901764821233
 30
0.0
 10
80.01412071206357
 20
137.4901764821233
 30
0.0
 10
80.05264886393115
 20
137.4901764821233
 30
0.0
 10
80.08796929624992
 20
137.4901764821233
 30
0.0
 10
80.12013580363538
 20
137.4901764821233
 30
0.0
 10
80.14810502966685
 20
137.4901764821233
 30
0.0
 10
80.17176615767426
 20
137.4901764821233
 30
0.0
 10
80.19110491036759
 20
137.4901764821233
 30
0.0
 10
80.20617036307874
 20
137.4901764821233
 30
0.0
 10
80.21703589190952
 20
137.4901764821233
 30
0.0
 10
80.2234170387311
 20
137.4901764821233
 30
0.0
 10
80.22419357472586
 20
137.4901764821233
 30
0.0
 10
80.22458886648519
 20
137.4901764821233
 30
0.0
  0
LINE
  5
2A8
330
1F
100
AcDbEntity
  8
1
  6
CONTINUOUS
 62
     7
100
AcDbLine
 10
85.44766561342925
 20
137.490176467874
 30
0.0
 11
85.44766561342925
 21
137.7901764821233
 31
0.0
  0
LINE
  5
2A9
330
1F
100
AcDbEntity
  8
1
  6
CONTINUOUS
 62
     7
100
AcDbLine
 10
85.4284351992473
 20
137.490176467874
 30
0.0
 11
85.44766561342925
 21
137.490176467874
 31
0.0
  0
LINE
  5
2AA
330
1F
100
AcDbEntity
  8
1
  6
CONTINUOUS
 62
     7
100
AcDbLine
 10
79.10920425300077
 20
137.490176467874
 30
0.0
 11
79.10920425300077
 21
137.7901764821233
 31
0.0
  0
LINE
  5
2AB
330
1F
100
AcDbEntity
  8
1
  6
CONTINUOUS
 62
     7
100
AcDbLine
 10
79.08997347502094
 20
137.490176467874
 30
0.0
 11
79.08997347502094
 21
137.7901764821233
 31
0.0
  0
LINE
  5
2AC
330
1F
100
AcDbEntity
  8
1
  6
CONTINUOUS
 62
     7
100
AcDbLine
 10
79.08997347502094
 20
137.490176467874
 30
0.0
 11
79.10920425300077
 21
137.490176467874
 31
0.0
  0
LINE
  5
2AD
330
1F
100
AcDbEntity
  8
1
  6
CONTINUOUS
 62
     7
100
AcDbLine
 10
86.50535795121044
 20
137.490176467874
 30
0.0
 11
86.50535795121044
 21
137.7901764821233
 31
0.0
  0
LINE
  5
2AE
330
1F
100
AcDbEntity
  8
1
  6
CONTINUOUS
 62
     7
100
AcDbLine
 10
85.73612741409391
 20
137.490176467874
 30
0.0
 11
85.73612741409391
 21
137.7901764821233
 31
0.0
  0
LINE
  5
2AF
330
1F
100
AcDbEntity
  8
1
  6
CONTINUOUS
 62
     7
100
AcDbLine
 10
85.73612741409391
 20
137.490176467874
 30
0.0
 11
86.50535795121044
 21
137.490176467874
 31
0.0
  0
LINE
  5
2B0
330
1F
100
AcDbEntity
  8
1
  6
CONTINUOUS
 62
     7
100
AcDbLine
 10
78.70535809004735
 20
137.490176467874
 30
0.0
 11
78.70535809004735
 21
137.7901764821233
 31
0.0
  0
SPLINE
  5
2B1
330
1F
100
AcDbEntity
  8
1
  6
CONTINUOUS
 62
     7
100
AcDbSpline
210
0.0
220
0.0
230
1.0
 70
    24
 71
     3
 72
    23
 73
    19
 74
     0
 42
0.000000001
 43
0.00000001
 40
0.0
 40
0.0
 40
0.0
 40
0.0
 40
0.0676309140234769
 40
0.1323201583402377
 40
0.1944603395573178
 40
0.2551128697920794
 40
0.3142208976417898
 40
0.3729838828544944
 40
0.4313486299583535
 40
0.4902073379211459
 40
0.5495249143209555
 40
0.6088908919041364
 40
0.6691176250109667
 40
0.7306483918904932
 40
0.7940333306929453
 40
0.8598319463824375
 40
0.9282045478040603
 40
0.9999999999999999
 40
0.9999999999999999
 40
0.9999999999999999
 40
0.9999999999999999
 10
78.70535809725448
 20
137.4901764821233
 30
0.0
 10
78.70560293686151
 20
137.4901764821233
 30
0.0
 10
78.70608196654848
 20
137.4901764821233
 30
0.0
 10
78.71110574912291
 20
137.4901764821233
 30
0.0
 10
78.71877096799574
 20
137.4901764821233
 30
0.0
 10
78.72996154277956
 20
137.4901764821233
 30
0.0
 10
78.74409389371266
 20
137.4901764821233
 30
0.0
 10
78.76161182684194
 20
137.4901764821233
 30
0.0
 10
78.7820750604526
 20
137.4901764821233
 30
0.0
 10
78.80602936847094
 20
137.4901764821233
 30
0.0
 10
78.83225457189491
 20
137.4901764821233
 30
0.0
 10
78.86178685349603
 20
137.4901764821233
 30
0.0
 10
78.89330586435796
 20
137.4901764821233
 30
0.0
 10
78.9278866108973
 20
137.4901764821233
 30
0.0
 10
78.96460027843654
 20
137.4901764821233
 30
0.0
 10
79.0041358146537
 20
137.4901764821233
 30
0.0
 10
79.0460872549229
 20
137.4901764821233
 30
0.0
 10
79.07510851020061
 20
137.4901764821233
 30
0.0
 10
79.08997348186983
 20
137.4901764821233
 30
0.0
  0
LINE
  5
2B2
330
1F
100
AcDbEntity
  8
1
  6
CONTINUOUS
 62
     7
100
AcDbLine
 10
85.71689653425068
 20
137.490176467874
 30
0.0
 11
85.71689653425068
 21
137.7901764821233
 31
0.0
  0
LINE
  5
2B3
330
1F
100
AcDbEntity
  8
1
  6
CONTINUOUS
 62
     7
100
AcDbLine
 10
85.71689653425068
 20
137.490176467874
 30
0.0
 11
85.73612741409391
 21
137.490176467874
 31
0.0
  0
LINE
  5
2B4
330
1F
100
AcDbEntity
  8
1
  6
CONTINUOUS
 62
     7
100
AcDbLine
 10
90.2495890225336
 20
137.490176467874
 30
0.0
 11
90.2495890225336
 21
137.7901764821233
 31
0.0
  0
LINE
  5
2B5
330
1F
100
AcDbEntity
  8
1
  6
CONTINUOUS
 62
     7
100
AcDbLine
 10
90.07230525119752
 20
137.490176467874
 30
0.0
 11
90.07230525119752
 21
137.7901764821233
 31
0.0
  0
LINE
  5
2B6
330
1F
100
AcDbEntity
  8
1
  6
CONTINUOUS
 62
     7
100
AcDbLine
 10
90.07230525119752
 20
137.490176467874
 30
0.0
 11
90.2495890225336
 21
137.490176467874
 31
0.0
  0
LINE
  5
2B7
330
1F
100
AcDbEntity
  8
1
  6
CONTINUOUS
 62
     7
100
AcDbLine
 10
90.62458885117024
 20
137.490176467874
 30
0.0
 11
90.62458885117024
 21
137.7901764821233
 31
0.0
  0
SPLINE
  5
2B8
330
1F
100
AcDbEntity
  8
1
  6
CONTINUOUS
 62
     7
100
AcDbSpline
210
0.0
220
0.0
230
1.0
 70
    24
 71
     3
 72
    15
 73
    11
 74
     0
 42
0.000000001
 43
0.00000001
 40
0.0
 40
0.0
 40
0.0
 40
0.0
 40
0.142657250700614
 40
0.2811689939054435
 40
0.4169771923679739
 40
0.5508524927475593
 40
0.6783641702618116
 40
0.7950324430070955
 40
0.9019981783473513
 40
1.0
 40
1.0
 40
1.0
 40
1.0
 10
90.24958886523524
 20
137.4901764821233
 30
0.0
 10
90.26196467301918
 20
137.4901764821233
 30
0.0
 10
90.2863566573472
 20
137.4901764821233
 30
0.0
 10
90.32848496745066
 20
137.4901764821233
 30
0.0
 10
90.37415378984622
 20
137.4901764821233
 30
0.0
 10
90.42335301344463
 20
137.4901764821233
 30
0.0
 10
90.47364345181711
 20
137.4901764821233
 30
0.0
 10
90.52438847951697
 20
137.4901764821233
 30
0.0
 10
90.57372800303352
 20
137.4901764821233
 30
0.0
 10
90.6081368489659
 20
137.4901764821233
 30
0.0
 10
90.62458886523524
 20
137.4901764821233
 30
0.0
  0
LINE
  5
2B9
330
1F
100
AcDbEntity
  8
1
  6
CONTINUOUS
 62
     7
100
AcDbLine
 10
79.13650035723634
 20
137.490176467874
 30
0.0
 11
79.24381962609999
 21
137.490176467874
 31
0.0
  0
LINE
  5
2BA
330
1F
100
AcDbEntity
  8
1
  6
CONTINUOUS
 62
     7
100
AcDbLine
 10
85.5275935794279
 20
137.490176467874
 30
0.0
 11
85.5275935794279
 21
137.7901764821233
 31
0.0
  0
LINE
  5
2BB
330
1F
100
AcDbEntity
  8
1
  6
CONTINUOUS
 62
     7
100
AcDbLine
 10
85.46389158098549
 20
137.490176467874
 30
0.0
 11
85.5275935794279
 21
137.490176467874
 31
0.0
  0
SPLINE
  5
2BC
330
1F
100
AcDbEntity
  8
1
  6
CONTINUOUS
 62
     7
100
AcDbSpline
210
0.0
220
0.0
230
1.0
 70
    24
 71
     3
 72
     9
 73
     5
 74
     0
 42
0.000000001
 43
0.00000001
 40
0.0
 40
0.0
 40
0.0
 40
0.0
 40
0.83677897681831
 40
0.9999999999999999
 40
0.9999999999999999
 40
0.9999999999999999
 40
0.9999999999999999
 10
85.5275935794279
 20
137.490176467874
 30
0.0
 10
85.57673220691538
 20
137.490176467874
 30
0.0
 10
85.63545575142217
 20
137.490176467874
 30
0.0
 10
85.68200292380823
 20
137.490176467874
 30
0.0
 10
85.68960040091127
 20
137.490176467874
 30
0.0
  0
LINE
  5
2BD
330
1F
100
AcDbEntity
  8
1
  6
CONTINUOUS
 62
     7
100
AcDbLine
 10
89.12458860530108
 20
137.490176467874
 30
0.0
 11
89.12458860530108
 21
137.7901764821233
 31
0.0
  0
LINE
  5
2BE
330
1F
100
AcDbEntity
  8
1
  6
CONTINUOUS
 62
     7
100
AcDbLine
 10
89.12458860530108
 20
137.490176467874
 30
0.0
 11
90.07230525119752
 21
137.490176467874
 31
0.0
  0
LINE
  5
2BF
330
1F
100
AcDbEntity
  8
1
  6
CONTINUOUS
 62
     7
100
AcDbLine
 10
72.40535815461129
 20
137.490176467874
 30
0.0
 11
72.40535815461129
 21
137.7901764821233
 31
0.0
  0
LINE
  5
2C0
330
1F
100
AcDbEntity
  8
1
  6
CONTINUOUS
 62
     7
100
AcDbLine
 10
89.12458860530108
 20
137.490176467874
 30
0.0
 11
88.28458872838468
 21
137.490176467874
 31
0.0
  0
LINE
  5
2C1
330
1F
100
AcDbEntity
  8
1
  6
CONTINUOUS
 62
     7
100
AcDbLine
 10
87.78458864642829
 20
137.490176467874
 30
0.0
 11
86.50535795121044
 21
137.490176467874
 31
0.0
  0
LINE
  5
2C2
330
1F
100
AcDbEntity
  8
1
  6
CONTINUOUS
 62
     7
100
AcDbLine
 10
84.97806203766316
 20
137.490176467874
 30
0.0
 11
84.18458870826811
 21
137.490176467874
 31
0.0
  0
LINE
  5
2C3
330
1F
100
AcDbEntity
  8
1
  6
CONTINUOUS
 62
     7
100
AcDbLine
 10
83.68458909197301
 20
137.490176467874
 30
0.0
 11
80.25188495619744
 21
137.490176467874
 31
0.0
  0
LINE
  5
2C4
330
1F
100
AcDbEntity
  8
1
  6
CONTINUOUS
 62
     7
100
AcDbLine
 10
78.67806198581178
 20
137.490176467874
 30
0.0
 11
77.88458881648779
 21
137.490176467874
 31
0.0
  0
LINE
  5
2C5
330
1F
100
AcDbEntity
  8
1
  6
CONTINUOUS
 62
     7
100
AcDbLine
 10
77.38458885094673
 20
137.490176467874
 30
0.0
 11
73.9518849480018
 21
137.490176467874
 31
0.0
  0
LINE
  5
2C6
330
1F
100
AcDbEntity
  8
1
  6
CONTINUOUS
 62
     7
100
AcDbLine
 10
72.37806202127189
 20
137.490176467874
 30
0.0
 11
71.58458869187683
 21
137.490176467874
 31
0.0
  0
LINE
  5
2C7
330
1F
100
AcDbEntity
  8
1
  6
CONTINUOUS
 62
     7
100
AcDbLine
 10
71.08458907558173
 20
137.490176467874
 30
0.0
 11
67.18458918137998
 21
137.490176467874
 31
0.0
  0
LINE
  5
2C8
330
1F
100
AcDbEntity
  8
1
  6
CONTINUOUS
 62
     7
100
AcDbLine
 10
67.18458918137998
 20
137.490176467874
 30
0.0
 11
67.18458918137998
 21
137.7901764821233
 31
0.0
  0
LINE
  5
2C9
330
1F
100
AcDbEntity
  8
1
  6
CONTINUOUS
 62
     7
100
AcDbLine
 10
86.03458882524222
 20
173.3901756118954
 30
0.0
 11
87.53458907111138
 21
173.3901756118954
 31
0.0
  0
LINE
  5
2CA
330
1F
100
AcDbEntity
  8
1
  6
CONTINUOUS
 62
     7
100
AcDbLine
 10
92.63458878947944
 20
170.8901779960812
 30
0.0
 11
92.63458878947944
 21
172.8901783239068
 31
0.0
  0
ARC
  5
2CB
330
1F
100
AcDbEntity
  8
1
  6
CONTINUOUS
 62
     7
100
AcDbCircle
 10
92.13458886398524
 20
172.8901764821233
 30
0.0
 40
0.5000000000000284
100
AcDbArc
 50
0.0000000000032569
 51
89.99999961626695
  0
LINE
  5
2CC
330
1F
100
AcDbEntity
  8
1
  6
CONTINUOUS
 62
     7
100
AcDbLine
 10
91.5345887954399
 20
173.3901756118954
 30
0.0
 11
92.13458870752305
 21
173.3901756118954
 31
0.0
  0
LINE
  5
2CD
330
1F
100
AcDbEntity
  8
1
  6
CONTINUOUS
 62
     7
100
AcDbLine
 10
136.0368561782366
 20
172.8901783239067
 30
0.0
 11
136.0368561782369
 21
139.2901764951617
 31
0.0
  0
LINE
  5
2CE
330
1F
100
AcDbEntity
  8
1
  6
CONTINUOUS
 62
     7
100
AcDbLine
 10
136.5368562601933
 20
139.2901764951617
 30
0.0
 11
136.0368561782369
 21
139.2901764951617
 31
0.0
  0
LINE
  5
2CF
330
1F
100
AcDbEntity
  8
1
  6
CONTINUOUS
 62
     7
100
AcDbLine
 10
156.736855473412
 20
139.2901764951619
 30
0.0
 11
136.5368562601933
 21
139.2901764951617
 31
0.0
  0
LINE
  5
2D0
330
1F
100
AcDbEntity
  8
1
  6
CONTINUOUS
 62
     7
100
AcDbLine
 10
157.2368555553684
 20
139.2901764951619
 30
0.0
 11
157.236855555368
 21
172.8901783239069
 31
0.0
  0
LINE
  5
2D1
330
1F
100
AcDbEntity
  8
1
  6
CONTINUOUS
 62
     7
100
AcDbLine
 10
157.2368555553684
 20
139.2901764951619
 30
0.0
 11
156.736855473412
 21
139.2901764951619
 31
0.0
  0
LINE
  5
2D2
330
1F
100
AcDbEntity
  8
1
  6
CONTINUOUS
 62
     7
100
AcDbLine
 10
136.536856260193
 20
173.3901756118954
 30
0.0
 11
156.7368554734117
 21
173.3901756118956
 31
0.0
  0
ARC
  5
2D3
330
1F
100
AcDbEntity
  8
1
  6
CONTINUOUS
 62
     7
100
AcDbCircle
 10
136.5368558668023
 20
172.8901764821232
 30
0.0
 40
0.5
100
AcDbArc
 50
90.00000001029177
 51
180.0
  0
ARC
  5
2D4
330
1F
100
AcDbEntity
  8
1
  6
CONTINUOUS
 62
     7
100
AcDbCircle
 10
156.7368558668023
 20
172.8901764821234
 30
0.0
 40
0.5
100
AcDbArc
 50
0.0000000000032569
 51
90.0000000235017
  0
LINE
  5
2D5
330
1F
100
AcDbEntity
  8
1
  6
CONTINUOUS
 62
     7
100
AcDbLine
 10
157.1368557252416
 20
139.2901764951619
 30
0.0
 11
157.1368557252417
 21
137.7901764821234
 31
0.0
  0
LINE
  5
2D6
330
1F
100
AcDbEntity
  8
1
  6
CONTINUOUS
 62
     7
100
AcDbLine
 10
157.1368557252417
 20
137.7901764821234
 30
0.0
 11
156.1368555613289
 21
137.7901764821234
 31
0.0
  0
LINE
  5
2D7
330
1F
100
AcDbEntity
  8
1
  6
CONTINUOUS
 62
     7
100
AcDbLine
 10
156.1368555613289
 20
137.7901764821234
 30
0.0
 11
137.1368561722765
 21
137.7901764821232
 31
0.0
  0
LINE
  5
2D8
330
1F
100
AcDbEntity
  8
1
  6
CONTINUOUS
 62
     7
100
AcDbLine
 10
136.1368560083637
 20
139.2901764951617
 30
0.0
 11
136.1368560083637
 21
137.7901764821231
 31
0.0
  0
LINE
  5
2D9
330
1F
100
AcDbEntity
  8
1
  6
CONTINUOUS
 62
     7
100
AcDbLine
 10
137.1368561722765
 20
137.7901764821232
 30
0.0
 11
136.1368560083637
 21
137.7901764821231
 31
0.0
  0
LINE
  5
2DA
330
1F
100
AcDbEntity
  8
1
  6
CONTINUOUS
 62
     7
100
AcDbLine
 10
149.6368558928797
 20
137.4901764678741
 30
0.0
 11
149.6368558928797
 21
137.7901764821233
 31
0.0
  0
LINE
  5
2DB
330
1F
100
AcDbEntity
  8
1
  6
CONTINUOUS
 62
     7
100
AcDbLine
 10
150.2368558049629
 20
137.4901764678741
 30
0.0
 11
149.6368558928797
 21
137.4901764678741
 31
0.0
  0
LINE
  5
2DC
330
1F
100
AcDbEntity
  8
1
  6
CONTINUOUS
 62
     7
100
AcDbLine
 10
150.2368558049629
 20
137.4901764678741
 30
0.0
 11
150.2368558049629
 21
137.7901764821233
 31
0.0
  0
LINE
  5
2DD
330
1F
100
AcDbEntity
  8
1
  6
CONTINUOUS
 62
     7
100
AcDbLine
 10
143.0368559286425
 20
137.490176467874
 30
0.0
 11
143.0368559286425
 21
137.7901764821232
 31
0.0
  0
LINE
  5
2DE
330
1F
100
AcDbEntity
  8
1
  6
CONTINUOUS
 62
     7
100
AcDbLine
 10
143.6368558407257
 20
137.490176467874
 30
0.0
 11
143.6368558407257
 21
137.7901764821232
 31
0.0
  0
LINE
  5
2DF
330
1F
100
AcDbEntity
  8
1
  6
CONTINUOUS
 62
     7
100
AcDbLine
 10
143.6368558407257
 20
137.490176467874
 30
0.0
 11
143.0368559286425
 21
137.490176467874
 31
0.0
  0
LINE
  5
2E0
330
1F
100
AcDbEntity
  8
1
  6
CONTINUOUS
 62
     7
100
AcDbLine
 10
154.3368558250795
 20
132.0901763860109
 30
0.0
 11
153.7368559129964
 21
131.2901763480129
 31
0.0
  0
LINE
  5
2E1
330
1F
100
AcDbEntity
  8
1
  6
CONTINUOUS
 62
     7
100
AcDbLine
 10
153.7368559129964
 20
131.2901763480129
 30
0.0
 11
152.7368557490836
 21
131.2901763480129
 31
0.0
  0
LINE
  5
2E2
330
1F
100
AcDbEntity
  8
1
  6
CONTINUOUS
 62
     7
100
AcDbLine
 10
152.7368557490836
 20
131.2901763480129
 30
0.0
 11
152.1368558370004
 21
132.0901763860109
 31
0.0
  0
LINE
  5
2E3
330
1F
100
AcDbEntity
  8
1
  6
CONTINUOUS
 62
     7
100
AcDbLine
 10
153.6368560828696
 20
132.7901765938821
 30
0.0
 11
153.6368560828696
 21
133.7901762921335
 31
0.0
  0
ARC
  5
2E4
330
1F
100
AcDbEntity
  8
1
  6
CONTINUOUS
 62
     7
100
AcDbCircle
 10
153.2368558668027
 20
133.7901764821233
 30
0.0
 40
0.4000000002000377
100
AcDbArc
 50
0.0
 51
180.0
  0
LINE
  5
2E5
330
1F
100
AcDbEntity
  8
1
  6
CONTINUOUS
 62
     7
100
AcDbLine
 10
152.8368560448716
 20
133.7901762921335
 30
0.0
 11
152.8368560448716
 21
132.7901765938821
 31
0.0
  0
ARC
  5
2E6
330
1F
100
AcDbEntity
  8
1
  6
CONTINUOUS
 62
     7
100
AcDbCircle
 10
153.2368558668028
 20
132.7901764821233
 30
0.0
 40
0.4000000002000093
100
AcDbArc
 50
180.0000000110205
 51
0.0
  0
LINE
  5
2E7
330
1F
100
AcDbEntity
  8
1
  6
CONTINUOUS
 62
     7
100
AcDbLine
 10
152.1368558370004
 20
132.0901763860109
 30
0.0
 11
152.1368558370004
 21
137.7901764821233
 31
0.0
  0
LINE
  5
2E8
330
1F
100
AcDbEntity
  8
1
  6
CONTINUOUS
 62
     7
100
AcDbLine
 10
154.3368558250795
 20
137.7901764821233
 30
0.0
 11
154.3368558250795
 21
132.0901763860109
 31
0.0
  0
LINE
  5
2E9
330
1F
100
AcDbEntity
  8
1
  6
CONTINUOUS
 62
     7
100
AcDbLine
 10
138.936855908526
 20
132.0901763860107
 30
0.0
 11
138.936855908526
 21
137.7901764821232
 31
0.0
  0
LINE
  5
2EA
330
1F
100
AcDbEntity
  8
1
  6
CONTINUOUS
 62
     7
100
AcDbLine
 10
141.1368558966051
 20
132.0901763860107
 30
0.0
 11
140.5368559845219
 21
131.2901763480127
 31
0.0
  0
LINE
  5
2EB
330
1F
100
AcDbEntity
  8
1
  6
CONTINUOUS
 62
     7
100
AcDbLine
 10
140.5368559845219
 20
131.2901763480127
 30
0.0
 11
139.5368558206092
 21
131.2901763480127
 31
0.0
  0
LINE
  5
2EC
330
1F
100
AcDbEntity
  8
1
  6
CONTINUOUS
 62
     7
100
AcDbLine
 10
139.5368558206092
 20
131.2901763480127
 30
0.0
 11
138.936855908526
 21
132.0901763860107
 31
0.0
  0
LINE
  5
2ED
330
1F
100
AcDbEntity
  8
1
  6
CONTINUOUS
 62
     7
100
AcDbLine
 10
140.4368556887339
 20
132.7901765938819
 30
0.0
 11
140.4368556887339
 21
133.7901762921334
 31
0.0
  0
ARC
  5
2EE
330
1F
100
AcDbEntity
  8
1
  6
CONTINUOUS
 62
     7
100
AcDbCircle
 10
140.0368558668027
 20
133.7901764821232
 30
0.0
 40
0.4000000002000093
100
AcDbArc
 50
0.0
 51
180.0
  0
LINE
  5
2EF
330
1F
100
AcDbEntity
  8
1
  6
CONTINUOUS
 62
     7
100
AcDbLine
 10
139.6368556507359
 20
133.7901762921334
 30
0.0
 11
139.6368556507359
 21
132.7901765938819
 31
0.0
  0
ARC
  5
2F0
330
1F
100
AcDbEntity
  8
1
  6
CONTINUOUS
 62
     7
100
AcDbCircle
 10
140.0368558668027
 20
132.7901764821232
 30
0.0
 40
0.4000000002000377
100
AcDbArc
 50
180.0000000110205
 51
0.0
  0
LINE
  5
2F1
330
1F
100
AcDbEntity
  8
1
  6
CONTINUOUS
 62
     7
100
AcDbLine
 10
141.136855896605
 20
137.7901764821232
 30
0.0
 11
141.1368558966051
 21
132.0901763860107
 31
0.0
  0
LINE
  5
2F2
330
1F
100
AcDbEntity
  8
1
  6
CONTINUOUS
 62
     7
100
AcDbLine
 10
152.0253173858354
 20
137.4901764678741
 30
0.0
 11
152.0253173858354
 21
137.7901764821233
 31
0.0
  0
SPLINE
  5
2F3
330
1F
100
AcDbEntity
  8
1
  6
CONTINUOUS
 62
     7
100
AcDbSpline
210
0.0
220
0.0
230
1.0
 70
    24
 71
     3
 72
     9
 73
     5
 74
     0
 42
0.000000001
 43
0.00000001
 40
0.0
 40
0.0
 40
0.0
 40
0.0
 40
0.6741946183758334
 40
1.0
 40
1.0
 40
1.0
 40
1.0
 10
152.0253173858354
 20
137.4901764678741
 30
0.0
 10
152.0308337276111
 20
137.4901764678741
 30
0.0
 10
152.0390158483597
 20
137.4901764678741
 30
0.0
 10
152.1128124930232
 20
137.4901764678741
 30
0.0
 10
152.1368558370004
 20
137.4901764678741
 30
0.0
  0
LINE
  5
43F
330
1F
100
AcDbEntity
  8
WYMIARY
 62
     6
100
AcDbLine
 10
0.0
 20
0.0
 30
0.0
 11
0.0
 21
297.0
 31
0.0
  0
LINE
  5
440
330
1F
100
AcDbEntity
  8
WYMIARY
 62
     6
100
AcDbLine
 10
11.63040699999999
 20
292.0
 30
0.0
 11
11.63040699999999
 21
4.999999999999999
 31
0.0
  0
LINE
  5
441
330
1F
100
AcDbEntity
  8
2
100
AcDbLine
 10
196.630407
 20
4.999999999999999
 30
0.0
 11
196.630407
 21
292.0
 31
0.0
  0
LINE
  5
442
330
1F
100
AcDbEntity
  8
2
100
AcDbLine
 10
201.630407
 20
0.0
 30
0.0
 11
201.630407
 21
297.0
 31
0.0
  0
LINE
  5
443
330
1F
100
AcDbEntity
  8
WY
  6
CONTINUOUS
 62
     3
100
AcDbLine
 10
196.630407
 20
19.689837
 30
0.0
 11
11.63040699999999
 21
19.689837
 31
0.0
  0
LINE
  5
444
330
1F
100
AcDbEntity
  8
2
100
AcDbLine
 10
11.63040699999999
 20
4.999999999999999
 30
0.0
 11
196.630407
 21
4.999999999999999
 31
0.0
  0
LINE
  5
445
330
1F
100
AcDbEntity
  8
2
 62
     6
100
AcDbLine
 10
11.63040699999999
 20
0.0
 30
0.0
 11
201.630407
 21
0.0
 31
0.0
  0
LINE
  5
446
330
1F
100
AcDbEntity
  8
0
100
AcDbLine
 10
43.65642300000002
 20
11.742481
 30
0.0
 11
42.75401199999999
 21
11.742481
 31
0.0
  0
ELLIPSE
  5
447
330
1F
100
AcDbEntity
  8
0
100
AcDbEllipse
 10
43.65642300000002
 20
11.742481
 30
0.0
 11
-1.203215696869327
 21
1.967000000000000E-13
 31
0.0
210
0.0
220
0.0
230
1.0
 40
0.958812
 41
-1.570796326794739
 42
0.0000000000001705
  0
TEXT
  5
448
330
1F
100
AcDbEntity
  8
1
100
AcDbText
 10
29.56633399999998
 20
8.797457000000001
 30
0.0
 40
5.0
  1
A4
 51
15.0
  7
ITALIC
100
AcDbText
  0
LINE
  5
449
330
1F
100
AcDbEntity
  8
WYMIARY
 62
     6
100
AcDbLine
 10
11.63040699999999
 20
0.0
 30
0.0
 11
0.0
 21
0.0
 31
0.0
  0
TEXT
  5
44A
330
1F
100
AcDbEntity
  8
WY
100
AcDbText
 10
16.89552099999997
 20
16.373844
 30
0.0
 40
1.999999999999999
  1
Skala
 41
1.0
 51
15.0
  7
ITALIC
100
AcDbText
  0
TEXT
  5
44B
330
1F
100
AcDbEntity
  8
WY
100
AcDbText
 10
29.00097500000004
 20
16.329369
 30
0.0
 40
1.999999999999999
  1
Format
 41
1.0
 51
15.0
  7
ITALIC
100
AcDbText
  0
LINE
  5
44C
330
1F
100
AcDbEntity
  8
0
100
AcDbLine
 10
42.45320800000002
 20
11.742481
 30
0.0
 11
42.75401199999999
 21
11.742481
 31
0.0
  0
LINE
  5
44D
330
1F
100
AcDbEntity
  8
0
100
AcDbLine
 10
73.84597599999995
 20
17.211264
 30
0.0
 11
73.84597599999995
 21
9.015264000000002
 31
0.0
  0
LINE
  5
44E
330
1F
100
AcDbEntity
  8
0
100
AcDbLine
 10
64.85197600000004
 20
9.438264
 30
0.0
 11
64.85197600000004
 21
7.416264000000001
 31
0.0
  0
ARC
  5
44F
330
1F
100
AcDbEntity
  8
0
100
AcDbCircle
 10
65.50155600000005
 20
9.724764
 30
0.0
 40
0.709955
100
AcDbArc
 50
203.8000800000025
 51
272.0519180000003
  0
LINE
  5
450
330
1F
100
AcDbEntity
  8
0
100
AcDbLine
 10
63.30697599999996
 20
7.416264000000001
 30
0.0
 11
63.30697599999996
 21
15.612264
 31
0.0
  0
ARC
  5
451
330
1F
100
AcDbEntity
  8
0
100
AcDbCircle
 10
65.94088199999999
 20
10.136416
 30
0.0
 40
1.128907
100
AcDbArc
 50
276.7195760000022
 51
2.175193999999967
  0
ARC
  5
452
330
1F
100
AcDbEntity
  8
0
100
AcDbCircle
 10
69.20181500000001
 20
10.503572
 30
0.0
 40
1.488419
100
AcDbArc
 50
191.6342680000001
 51
270.699112999999
  0
ARC
  5
453
330
1F
100
AcDbEntity
  8
0
100
AcDbCircle
 10
70.168137
 20
10.503572
 30
0.0
 40
1.488419
100
AcDbArc
 50
269.300887000001
 51
348.3657319999999
  0
LINE
  5
454
330
1F
100
AcDbEntity
  8
0
100
AcDbLine
 10
72.30097599999999
 20
9.015264000000002
 30
0.0
 11
72.30097599999999
 21
17.211264
 31
0.0
  0
ARC
  5
455
330
1F
100
AcDbEntity
  8
0
100
AcDbCircle
 10
59.01534700000002
 20
10.472364
 30
0.0
 40
1.425319
100
AcDbArc
 50
269.7036710000015
 51
350.4651709999993
  0
ARC
  5
456
330
1F
100
AcDbEntity
  8
0
100
AcDbCircle
 10
58.16060400000003
 20
10.472364
 30
0.0
 40
1.425319
100
AcDbArc
 50
189.5348290000005
 51
270.2963289999985
  0
LINE
  5
457
330
1F
100
AcDbEntity
  8
0
100
AcDbLine
 10
61.10797600000001
 20
9.015264000000002
 30
0.0
 11
61.10797600000001
 21
17.211264
 31
0.0
  0
LINE
  5
458
330
1F
100
AcDbEntity
  8
0
100
AcDbLine
 10
62.65297599999997
 20
17.211264
 30
0.0
 11
62.65297599999997
 21
9.015264000000002
 31
0.0
  0
LINE
  5
459
330
1F
100
AcDbEntity
  8
0
100
AcDbLine
 10
53.85099200000002
 20
14.361264
 30
0.0
 11
53.86256500000002
 21
9.015264000000002
 31
0.0
  0
LINE
  5
45A
330
1F
100
AcDbEntity
  8
0
100
AcDbLine
 10
52.32045000000005
 20
9.015264000000002
 30
0.0
 11
52.32045000000005
 21
15.60367
 31
0.0
  0
LINE
  5
45B
330
1F
100
AcDbEntity
  8
0
100
AcDbLine
 10
43.65642300000002
 20
9.895061000000002
 30
0.0
 11
43.65642300000002
 21
8.185369000000001
 31
0.0
  0
LINE
  5
45C
330
1F
100
AcDbEntity
  8
0
100
AcDbLine
 10
49.57223399999998
 20
8.185369000000001
 30
0.0
 11
49.57223399999998
 21
11.742481
 31
0.0
  0
LINE
  5
45D
330
1F
100
AcDbEntity
  8
1
100
AcDbLine
 10
77.42861900000003
 20
4.999999999999999
 30
0.0
 11
77.42861900000003
 21
19.689837
 31
0.0
  0
LINE
  5
45E
330
1F
100
AcDbEntity
  8
0
100
AcDbLine
 10
44.45856700000002
 20
7.416263
 30
0.0
 11
48.77008999999998
 21
7.416263
 31
0.0
  0
ELLIPSE
  5
45F
330
1F
100
AcDbEntity
  8
0
100
AcDbEllipse
 10
44.45856700000002
 20
8.185369000000001
 30
0.0
 11
-0.8021437979128705
 21
1.540000000000000E-14
 31
0.0
210
0.0
220
0.0
230
1.0
 40
0.958812
 41
0.00000000000002
 42
1.570796326794914
  0
ELLIPSE
  5
460
330
1F
100
AcDbEntity
  8
0
100
AcDbEllipse
 10
48.77008999999998
 20
8.185369000000001
 30
0.0
 11
0.8021437979128704
 21
1.602000000000000E-13
 31
0.0
210
0.0
220
0.0
230
1.0
 40
0.958812
 41
4.712388980384497
 42
6.283185307179378
  0
LINE
  5
461
330
1F
100
AcDbEntity
  8
0
100
AcDbLine
 10
53.85099200000002
 20
9.015264000000002
 30
0.0
 11
53.86256500000002
 21
9.022759
 31
0.0
  0
LINE
  5
462
330
1F
100
AcDbEntity
  8
0
100
AcDbLine
 10
52.32045000000005
 20
9.015264000000002
 30
0.0
 11
53.86256500000002
 21
9.015264000000002
 31
0.0
  0
LINE
  5
463
330
1F
100
AcDbEntity
  8
0
100
AcDbLine
 10
58.153233
 20
9.047064000000002
 30
0.0
 11
59.00797599999999
 21
9.047064000000002
 31
0.0
  0
LINE
  5
464
330
1F
100
AcDbEntity
  8
0
100
AcDbLine
 10
64.85197600000004
 20
7.416264000000001
 30
0.0
 11
63.30697599999996
 21
7.416264000000001
 31
0.0
  0
LINE
  5
465
330
1F
100
AcDbEntity
  8
0
100
AcDbLine
 10
62.65297599999997
 20
9.015264000000002
 30
0.0
 11
61.10797600000001
 21
9.015264000000002
 31
0.0
  0
LINE
  5
466
330
1F
100
AcDbEntity
  8
0
100
AcDbLine
 10
65.53502200000003
 20
9.015264000000002
 30
0.0
 11
66.07297600000004
 21
9.015264000000002
 31
0.0
  0
LINE
  5
467
330
1F
100
AcDbEntity
  8
0
100
AcDbLine
 10
69.21997599999997
 20
9.015264000000002
 30
0.0
 11
70.14997600000004
 21
9.015264000000002
 31
0.0
  0
LINE
  5
468
330
1F
100
AcDbEntity
  8
0
100
AcDbLine
 10
73.84597599999995
 20
9.015264000000002
 30
0.0
 11
72.30097599999999
 21
9.015264000000002
 31
0.0
  0
ARC
  5
469
330
1F
100
AcDbEntity
  8
0
100
AcDbCircle
 10
59.01534700000002
 20
14.17837
 30
0.0
 40
1.425319
100
AcDbArc
 50
9.53482900000048
 51
90.29632899999848
  0
LINE
  5
46A
330
1F
100
AcDbEntity
  8
0
100
AcDbLine
 10
60.420976
 20
11.81167
 30
0.0
 11
58.29697599999997
 21
11.81167
 31
0.0
  0
LINE
  5
46B
330
1F
100
AcDbEntity
  8
0
100
AcDbLine
 10
58.97197600000004
 20
11.13667
 30
0.0
 11
60.420976
 21
11.13667
 31
0.0
  0
LINE
  5
46C
330
1F
100
AcDbEntity
  8
0
100
AcDbLine
 10
43.65642300000002
 20
13.461283
 30
0.0
 11
43.65642300000002
 21
16.260974
 31
0.0
  0
ELLIPSE
  5
46D
330
1F
100
AcDbEntity
  8
0
100
AcDbEllipse
 10
46.58926199999996
 20
15.17942
 30
0.0
 11
2.983077570132104
 21
2.996000000000000E-13
 31
0.0
210
0.0
220
0.0
230
1.0
 40
0.9588119999999999
 41
-1.562393163247347
 42
0.0084031635475457
  0
ELLIPSE
  5
46E
330
1F
100
AcDbEntity
  8
0
100
AcDbEllipse
 10
46.54608599999995
 20
15.509539
 30
0.0
 11
-4.072692107280919
 21
9.250000000000000E-14
 31
0.0
210
0.0
220
0.0
230
1.0
 40
0.958812
 41
1.587553347046634
 42
2.408388587343224
  0
LINE
  5
46F
330
1F
100
AcDbEntity
  8
0
100
AcDbLine
 10
43.65642300000002
 20
11.742481
 30
0.0
 11
43.65642300000002
 21
11.034514
 31
0.0
  0
LINE
  5
470
330
1F
100
AcDbEntity
  8
0
100
AcDbLine
 10
43.65642300000002
 20
13.461283
 30
0.0
 11
43.65642300000002
 21
12.896138
 31
0.0
  0
ELLIPSE
  5
471
330
1F
100
AcDbEntity
  8
0
100
AcDbEllipse
 10
46.20835399999999
 20
9.872487
 30
0.0
 11
2.960559210508897
 21
0.3570763225581005
 31
0.0
210
0.0
220
0.0
230
1.0
 40
0.820999
 41
1.335209029023201
 42
2.503032872947537
  0
ELLIPSE
  5
472
330
1F
100
AcDbEntity
  8
0
100
AcDbEllipse
 10
46.43885999999998
 20
8.937306
 30
0.0
 11
3.015746449176215
 21
0.7746519372140022
 31
0.0
210
0.0
220
0.0
230
1.0
 40
0.8467749999999999
 41
1.29973646820557
 42
2.479974117225238
  0
LINE
  5
473
330
1F
100
AcDbEntity
  8
0
100
AcDbLine
 10
50.77544999999998
 20
12.896138
 30
0.0
 11
50.47464600000001
 21
12.896138
 31
0.0
  0
LINE
  5
474
330
1F
100
AcDbEntity
  8
0
100
AcDbLine
 10
49.57223399999998
 20
12.896138
 30
0.0
 11
50.47464600000001
 21
12.896138
 31
0.0
  0
ELLIPSE
  5
475
330
1F
100
AcDbEntity
  8
0
100
AcDbEllipse
 10
49.57223399999998
 20
12.896138
 30
0.0
 11
1.203215696869352
 21
8.930000000000000E-14
 31
0.0
210
0.0
220
0.0
230
1.0
 40
0.9588119999999999
 41
4.712388980384611
 42
6.283185307179508
  0
LINE
  5
476
330
1F
100
AcDbEntity
  8
0
100
AcDbLine
 10
44.45856700000002
 20
17.030079
 30
0.0
 11
48.77008999999998
 21
17.030079
 31
0.0
  0
ELLIPSE
  5
477
330
1F
100
AcDbEntity
  8
0
100
AcDbEllipse
 10
44.45856700000002
 20
16.260974
 30
0.0
 11
0.8021437979128704
 21
3.800000000000000E-14
 31
0.0
210
0.0
220
0.0
230
1.0
 40
0.958812
 41
1.570796326794851
 42
3.141592653589743
  0
LINE
  5
478
330
1F
100
AcDbEntity
  8
0
100
AcDbLine
 10
49.57223399999998
 20
15.155385
 30
0.0
 11
49.57223399999998
 21
16.260974
 31
0.0
  0
ELLIPSE
  5
479
330
1F
100
AcDbEntity
  8
0
100
AcDbEllipse
 10
48.77008999999998
 20
16.260974
 30
0.0
 11
-0.8021437979128705
 21
3.800000000000000E-14
 31
0.0
210
0.0
220
0.0
230
1.0
 40
0.958812
 41
3.141592653589842
 42
4.712388980384734
  0
ARC
  5
47A
330
1F
100
AcDbEntity
  8
0
100
AcDbCircle
 10
54.75765000000001
 20
14.34127
 30
0.0
 40
1.377457
100
AcDbArc
 50
16.26506099999976
 51
130.5272989999999
  0
ARC
  5
47B
330
1F
100
AcDbEntity
  8
0
100
AcDbCircle
 10
58.16060400000003
 20
14.17837
 30
0.0
 40
1.425319
100
AcDbArc
 50
89.70367100000153
 51
170.4651709999995
  0
LINE
  5
47C
330
1F
100
AcDbEntity
  8
0
100
AcDbLine
 10
54.86990300000002
 20
12.93607
 30
0.0
 11
56.07997599999999
 21
12.93607
 31
0.0
  0
LINE
  5
47D
330
1F
100
AcDbEntity
  8
0
100
AcDbLine
 10
54.53756499999997
 20
12.93607
 30
0.0
 11
56.07997599999999
 21
12.93607
 31
0.0
  0
ARC
  5
47E
330
1F
100
AcDbEntity
  8
0
100
AcDbCircle
 10
54.188492
 20
14.361264
 30
0.0
 40
0.3375
100
AcDbArc
 50
0.0
 51
180.0
  0
LINE
  5
47F
330
1F
100
AcDbEntity
  8
0
100
AcDbLine
 10
54.52599199999997
 20
14.361264
 30
0.0
 11
54.53756499999997
 21
12.93607
 31
0.0
  0
ARC
  5
480
330
1F
100
AcDbEntity
  8
0
100
AcDbCircle
 10
58.63447599999995
 20
14.361264
 30
0.0
 40
0.3375
100
AcDbArc
 50
0.0
 51
180.0
  0
LINE
  5
481
330
1F
100
AcDbEntity
  8
0
100
AcDbLine
 10
58.29697599999997
 20
11.81167
 30
0.0
 11
58.29697599999997
 21
10.236264
 31
0.0
  0
LINE
  5
482
330
1F
100
AcDbEntity
  8
0
100
AcDbLine
 10
58.29697599999997
 20
12.71167
 30
0.0
 11
58.97197600000004
 21
12.71167
 31
0.0
  0
LINE
  5
483
330
1F
100
AcDbEntity
  8
0
100
AcDbLine
 10
58.97197600000004
 20
11.13667
 30
0.0
 11
58.97197600000004
 21
10.252764
 31
0.0
  0
LINE
  5
484
330
1F
100
AcDbEntity
  8
0
100
AcDbLine
 10
58.29697599999997
 20
11.81167
 30
0.0
 11
58.29697599999997
 21
10.252764
 31
0.0
  0
ARC
  5
485
330
1F
100
AcDbEntity
  8
0
100
AcDbCircle
 10
58.63447599999995
 20
10.252764
 30
0.0
 40
0.3375
100
AcDbArc
 50
180.0
 51
0.0
  0
LINE
  5
486
330
1F
100
AcDbEntity
  8
0
100
AcDbLine
 10
58.97197600000004
 20
14.361264
 30
0.0
 11
58.97197600000004
 21
12.71167
 31
0.0
  0
LINE
  5
487
330
1F
100
AcDbEntity
  8
0
100
AcDbLine
 10
58.29697599999997
 20
14.361264
 30
0.0
 11
58.29697599999997
 21
12.71167
 31
0.0
  0
LINE
  5
488
330
1F
100
AcDbEntity
  8
0
100
AcDbLine
 10
56.07997599999999
 20
12.93607
 30
0.0
 11
56.07997599999999
 21
14.72707
 31
0.0
  0
LINE
  5
489
330
1F
100
AcDbEntity
  8
0
100
AcDbLine
 10
56.75497599999994
 20
10.236264
 30
0.0
 11
56.75497599999994
 21
14.41447
 31
0.0
  0
LINE
  5
48A
330
1F
100
AcDbEntity
  8
0
100
AcDbLine
 10
53.86256500000002
 20
15.60367
 30
0.0
 11
53.86256500000002
 21
15.38827
 31
0.0
  0
LINE
  5
48B
330
1F
100
AcDbEntity
  8
0
100
AcDbLine
 10
52.32045000000005
 20
15.60367
 30
0.0
 11
53.86256500000002
 21
15.60367
 31
0.0
  0
LINE
  5
48C
330
1F
100
AcDbEntity
  8
0
100
AcDbLine
 10
58.153233
 20
15.60367
 30
0.0
 11
59.00797599999999
 21
15.60367
 31
0.0
  0
ARC
  5
48D
330
1F
100
AcDbEntity
  8
0
100
AcDbCircle
 10
69.20181500000001
 20
14.124104
 30
0.0
 40
1.488419
100
AcDbArc
 50
89.30088700000103
 51
168.3657319999999
  0
ARC
  5
48E
330
1F
100
AcDbEntity
  8
0
100
AcDbCircle
 10
65.711003
 20
14.207365
 30
0.0
 40
1.409039
100
AcDbArc
 50
15.47254999999916
 51
127.5645399999993
  0
LINE
  5
48F
330
1F
100
AcDbEntity
  8
0
100
AcDbLine
 10
60.420976
 20
11.13667
 30
0.0
 11
60.420976
 21
10.236264
 31
0.0
  0
LINE
  5
490
330
1F
100
AcDbEntity
  8
0
100
AcDbLine
 10
60.420976
 20
11.81167
 30
0.0
 11
60.420976
 21
14.41447
 31
0.0
  0
LINE
  5
491
330
1F
100
AcDbEntity
  8
0
100
AcDbLine
 10
67.06897600000002
 20
14.583264
 30
0.0
 11
67.06897600000002
 21
10.179264
 31
0.0
  0
LINE
  5
492
330
1F
100
AcDbEntity
  8
0
100
AcDbLine
 10
65.52697599999999
 20
14.361264
 30
0.0
 11
65.52697599999999
 21
10.252764
 31
0.0
  0
LINE
  5
493
330
1F
100
AcDbEntity
  8
0
100
AcDbLine
 10
64.85197600000004
 20
14.361264
 30
0.0
 11
64.85197600000004
 21
10.252764
 31
0.0
  0
ARC
  5
494
330
1F
100
AcDbEntity
  8
0
100
AcDbCircle
 10
65.18947600000001
 20
10.252764
 30
0.0
 40
0.3375
100
AcDbArc
 50
180.0
 51
0.0
  0
ARC
  5
495
330
1F
100
AcDbEntity
  8
0
100
AcDbCircle
 10
65.18947600000001
 20
14.361264
 30
0.0
 40
0.3375
100
AcDbArc
 50
0.0
 51
180.0
  0
LINE
  5
496
330
1F
100
AcDbEntity
  8
0
100
AcDbLine
 10
63.30697599999996
 20
15.612264
 30
0.0
 11
64.85197600000004
 21
15.612264
 31
0.0
  0
LINE
  5
497
330
1F
100
AcDbEntity
  8
0
100
AcDbLine
 10
61.10797600000001
 20
17.211264
 30
0.0
 11
62.65297599999997
 21
17.211264
 31
0.0
  0
LINE
  5
498
330
1F
100
AcDbEntity
  8
0
100
AcDbLine
 10
64.85197600000004
 20
15.612264
 30
0.0
 11
64.85197600000004
 21
15.324264
 31
0.0
  0
ARC
  5
499
330
1F
100
AcDbEntity
  8
0
100
AcDbCircle
 10
70.168137
 20
14.124104
 30
0.0
 40
1.488419
100
AcDbArc
 50
11.63426800000011
 51
90.69911299999899
  0
LINE
  5
49A
330
1F
100
AcDbEntity
  8
0
100
AcDbLine
 10
71.62597600000004
 20
14.424264
 30
0.0
 11
71.62597600000004
 21
10.203412
 31
0.0
  0
ARC
  5
49B
330
1F
100
AcDbEntity
  8
0
100
AcDbCircle
 10
69.684976
 20
14.361264
 30
0.0
 40
0.3375
100
AcDbArc
 50
0.0
 51
180.0
  0
ARC
  5
49C
330
1F
100
AcDbEntity
  8
0
100
AcDbCircle
 10
69.684976
 20
10.252764
 30
0.0
 40
0.3375
100
AcDbArc
 50
180.0
 51
0.0
  0
LINE
  5
49D
330
1F
100
AcDbEntity
  8
0
100
AcDbLine
 10
69.34747600000003
 20
14.361264
 30
0.0
 11
69.34747600000003
 21
10.252764
 31
0.0
  0
LINE
  5
49E
330
1F
100
AcDbEntity
  8
0
100
AcDbLine
 10
70.02247599999998
 20
14.361264
 30
0.0
 11
70.02247599999998
 21
10.252764
 31
0.0
  0
LINE
  5
49F
330
1F
100
AcDbEntity
  8
0
100
AcDbLine
 10
67.74397599999998
 20
10.203412
 30
0.0
 11
67.74397599999998
 21
14.424264
 31
0.0
  0
LINE
  5
4A0
330
1F
100
AcDbEntity
  8
0
100
AcDbLine
 10
69.21997599999997
 20
15.612412
 30
0.0
 11
70.14997600000004
 21
15.612412
 31
0.0
  0
LINE
  5
4A1
330
1F
100
AcDbEntity
  8
0
100
AcDbLine
 10
72.30097599999999
 20
17.211264
 30
0.0
 11
73.84597599999995
 21
17.211264
 31
0.0
  0
TEXT
  5
4A2
330
1F
100
AcDbEntity
  8
WY
100
AcDbText
 10
78.37616300000002
 20
11.60401
 30
0.0
 40
1.999999999999999
  1
16-05-2016
 41
1.0
 51
15.0
  7
ITALIC
100
AcDbText
  0
TEXT
  5
4A3
330
1F
100
AcDbEntity
  8
WY
100
AcDbText
 10
82.80753200000004
 20
16.149239
 30
0.0
 40
1.999999999999999
  1
Data
 41
1.0
 51
15.0
  7
ITALIC
100
AcDbText
  0
TEXT
  5
4A4
330
1F
100
AcDbEntity
  8
1
100
AcDbText
 10
151.38151
 20
9.064009000000002
 30
0.0
 40
5.0
  1
R2N
 41
0.8
 51
15.0
  7
ITALIC
100
AcDbText
  0
LINE
  5
4A5
330
1F
100
AcDbEntity
  8
1
100
AcDbLine
 10
141.35299
 20
4.999999999999999
 30
0.0
 11
141.35299
 21
19.689837
 31
0.0
  0
TEXT
  5
4A6
330
1F
100
AcDbEntity
  8
WY
100
AcDbText
 10
143.544188
 20
16.599248
 30
0.0
 40
1.999999999999999
  1
Product type
 41
1.0
 51
15.0
  7
ITALIC
100
AcDbText
  0
LINE
  5
4A7
330
1F
100
AcDbEntity
  8
2
100
AcDbLine
 10
196.630407
 20
292.0
 30
0.0
 11
11.63040699999999
 21
292.0
 31
0.0
  0
LINE
  5
4A8
330
1F
100
AcDbEntity
  8
2
100
AcDbLine
 10
201.630407
 20
297.0
 30
0.0
 11
11.63040699999999
 21
297.0
 31
0.0
  0
LINE
  5
4A9
330
1F
100
AcDbEntity
  8
WYMIARY
 62
     6
100
AcDbLine
 10
11.63040699999999
 20
297.0
 30
0.0
 11
0.0
 21
297.0
 31
0.0
  0
TEXT
  5
4AA
330
1F
100
AcDbEntity
  8
1
100
AcDbText
 10
14.260741
 20
8.797457000000001
 30
0.0
 40
5.0
  1
1:1
 51
15.0
  7
ITALIC
100
AcDbText
  0
LINE
  5
4AB
330
1F
100
AcDbEntity
  8
WYMIARY
 62
     6
100
AcDbLine
 10
201.630407
 20
0.0
 30
0.0
 11
201.630407
 21
297.0
 31
0.0
  0
LINE
  5
4AC
330
1F
100
AcDbEntity
  8
WYMIARY
 62
     3
100
AcDbLine
 10
26.63040699999999
 20
19.689837
 30
0.0
 11
26.63040699999999
 21
4.999999999999999
 31
0.0
  0
LINE
  5
4AD
330
1F
100
AcDbEntity
  8
WYMIARY
 62
     3
100
AcDbLine
 10
41.63040699999999
 20
19.689837
 30
0.0
 11
41.63040699999999
 21
4.999999999999999
 31
0.0
  0
LINE
  5
4AE
330
1F
100
AcDbEntity
  8
WYMIARY
 62
     3
100
AcDbLine
 10
100.331943
 20
19.689837
 30
0.0
 11
100.331943
 21
4.999999999999999
 31
0.0
  0
TEXT
  5
4AF
330
1F
100
AcDbEntity
  8
WY
100
AcDbText
 10
101.520952
 20
16.599248
 30
0.0
 40
1.999999999999999
  1
Draw. No.
 41
1.0
 51
15.0
  7
ITALIC
100
AcDbText
  0
TEXT
  5
4B0
330
1F
100
AcDbEntity
  8
1
100
AcDbText
 10
105.893897
 20
9.064009000000002
 30
0.0
 40
3.999999999999998
  1
R2N-01A
 41
0.7000000000000003
 51
15.0
  7
ITALIC
100
AcDbText
  0
LINE
  5
4B1
330
1F
100
AcDbEntity
  8
WYMIARY
 62
     6
100
AcDbLine
 10
201.630407
 20
0.0
 30
0.0
 11
201.630407
 21
297.0
 31
0.0
  0
LINE
  5
4B2
330
1F
100
AcDbEntity
  8
WYMIARY
 62
     6
100
AcDbLine
 10
201.630407
 20
0.0
 30
0.0
 11
201.630407
 21
297.0
 31
0.0
  0
LINE
  5
4B3
330
1F
100
AcDbEntity
  8
2
100
AcDbLine
 10
201.630407
 20
0.0
 30
0.0
 11
201.630407
 21
297.0
 31
0.0
  0
LINE
  5
4B4
330
1F
100
AcDbEntity
  8
WYMIARY
 62
     6
100
AcDbLine
 10
201.630407
 20
0.0
 30
0.0
 11
201.630407
 21
297.0
 31
0.0
  0
LINE
  5
4B5
330
1F
100
AcDbEntity
  8
2
100
AcDbLine
 10
201.630407
 20
0.0
 30
0.0
 11
201.630407
 21
297.0
 31
0.0
  0
TEXT
  5
4B6
330
1F
100
AcDbEntity
  8
1
100
AcDbText
 10
98.36702256954607
 20
274.4436562884334
 30
0.0
 40
5.0
  1
R2N 
 41
0.8
 51
15.0
  7
ITALIC
100
AcDbText
  0
LINE
  5
4B7
330
1F
100
AcDbEntity
  8
2
100
AcDbLine
 10
201.630407
 20
0.0
 30
0.0
 11
11.63040699999999
 21
0.0
 31
0.0
  0
LINE
  5
4B8
330
1F
100
AcDbEntity
  8
WYMIARY
 62
     6
100
AcDbLine
 10
11.63040699999999
 20
0.0
 30
0.0
 11
0.0
 21
0.0
 31
0.0
  0
LINE
  5
4B9
330
1F
100
AcDbEntity
  8
WYMIARY
 62
     6
100
AcDbLine
 10
201.630407
 20
0.0
 30
0.0
 11
201.630407
 21
297.0
 31
0.0
  0
LINE
  5
4BA
330
1F
100
AcDbEntity
  8
2
100
AcDbLine
 10
201.630407
 20
0.0
 30
0.0
 11
11.63040699999999
 21
0.0
 31
0.0
  0
TEXT
  5
505
330
1F
100
AcDbEntity
  8
1
100
AcDbText
 10
63.92236656954606
 20
250.6819662884334
 30
0.0
 40
5.0
  1
R2N - plug-in version
 41
0.8
 51
15.0
  7
ITALIC
100
AcDbText
  0
TEXT
  5
506
330
1F
100
AcDbEntity
  8
1
100
AcDbText
 10
63.92236656954606
 20
259.7611412884334
 30
0.0
 40
5.0
  1
R2N- do gniazd wtykowych
 41
0.8
 51
15.0
  7
ITALIC
100
AcDbText
  0
LINE
  5
59F
330
1F
100
AcDbEntity
  8
1
  6
CONTINUOUS
 62
     7
100
AcDbLine
 10
89.03458931698054
 20
77.54435191647458
 30
0.0
 11
90.03458854957074
 21
77.54435191647458
 31
0.0
  0
LINE
  5
5A3
330
1F
100
AcDbEntity
  8
1
  6
CONTINUOUS
 62
     7
100
AcDbLine
 10
65.13458893849105
 20
97.693716052634
 30
0.0
 11
65.13458893849105
 21
77.49371683941531
 31
0.0
  0
LINE
  5
5AC
330
1F
100
AcDbEntity
  8
1
  6
CONTINUOUS
 62
     7
100
AcDbLine
 10
65.63458902044744
 20
76.99371675745893
 30
0.0
 11
86.53458890719861
 21
76.99371675745893
 31
0.0
  0
LINE
  5
5AE
330
1F
100
AcDbEntity
  8
1
  6
CONTINUOUS
 62
     7
100
AcDbLine
 10
92.63458878947944
 20
89.79371643410373
 30
0.0
 11
92.63458878947944
 21
97.693716052634
 31
0.0
  0
LINE
  5
5B2
330
1F
100
AcDbEntity
  8
1
  6
CONTINUOUS
 62
     7
100
AcDbLine
 10
92.13458870752305
 20
98.19371613459039
 30
0.0
 11
65.63458902044744
 21
98.19371613459039
 31
0.0
  0
LINE
  5
5B4
330
1F
100
AcDbEntity
  8
1
  6
CONTINUOUS
 62
     7
100
AcDbLine
 10
86.53458890719861
 20
76.99371675745893
 30
0.0
 11
86.53458890719861
 21
86.79371646623436
 31
0.0
  0
LINE
  5
5B5
330
1F
100
AcDbEntity
  8
1
  6
CONTINUOUS
 62
     7
100
AcDbLine
 10
89.53458846761436
 20
89.79371643410373
 30
0.0
 11
92.63458878947944
 21
89.79371643410373
 31
0.0
  0
ARC
  5
5B7
330
1F
100
AcDbEntity
  8
1
  6
CONTINUOUS
 62
     7
100
AcDbCircle
 10
89.53458886398522
 20
86.79371644602467
 30
0.0
 40
3.0
100
AcDbArc
 50
89.99999997795956
 51
179.9999999897115
  0
ARC
  5
5B8
330
1F
100
AcDbEntity
  8
1
  6
CONTINUOUS
 62
     7
100
AcDbCircle
 10
65.63458886398524
 20
97.69371644602465
 30
0.0
 40
0.5
100
AcDbArc
 50
90.00000002204263
 51
180.0
  0
ARC
  5
5B9
330
1F
100
AcDbEntity
  8
1
  6
CONTINUOUS
 62
     7
100
AcDbCircle
 10
65.63458886398524
 20
77.49371644602466
 30
0.0
 40
0.5
100
AcDbArc
 50
180.0
 51
269.9999999882426
  0
ARC
  5
5BA
330
1F
100
AcDbEntity
  8
1
  6
CONTINUOUS
 62
     7
100
AcDbCircle
 10
92.13458886398524
 20
97.69371644602465
 30
0.0
 40
0.5
100
AcDbArc
 50
0.0000000102885092
 51
90.0
  0
LINE
  5
5BB
330
1F
100
AcDbEntity
  8
1
  6
CONTINUOUS
 62
     7
100
AcDbLine
 10
91.03458871348352
 20
77.56669527636218
 30
0.0
 11
90.03458854957074
 21
77.56669527636218
 31
0.0
  0
LINE
  5
5BC
330
1F
100
AcDbEntity
  8
1
  6
CONTINUOUS
 62
     7
100
AcDbLine
 10
89.03458931698054
 20
81.23161119194079
 30
0.0
 11
90.03458854957074
 21
81.23161119194079
 31
0.0
  0
LINE
  5
5BD
330
1F
100
AcDbEntity
  8
1
  6
CONTINUOUS
 62
     7
100
AcDbLine
 10
89.03458931698054
 20
77.56669527636218
 30
0.0
 11
88.03458915306777
 21
77.56669527636218
 31
0.0
  0
ARC
  5
5BE
330
1F
100
AcDbEntity
  8
1
  6
CONTINUOUS
 62
     7
100
AcDbCircle
 10
88.0305726715618
 20
78.06267942636605
 30
0.0
 40
0.4960004124784145
100
AcDbArc
 50
180.4717456350552
 51
270.4639712954012
  0
LINE
  5
5BF
330
1F
100
AcDbEntity
  8
1
  6
CONTINUOUS
 62
     7
100
AcDbLine
 10
87.53458907111138
 20
84.79371654586244
 30
0.0
 11
87.53458907111138
 21
78.05859564588714
 31
0.0
  0
LINE
  5
5C0
330
1F
100
AcDbEntity
  8
1
  6
CONTINUOUS
 62
     7
100
AcDbLine
 10
87.53458907111138
 20
84.79371654586244
 30
0.0
 11
91.5345887954399
 21
84.79371654586244
 31
0.0
  0
ARC
  5
5C1
330
1F
100
AcDbEntity
  8
1
  6
CONTINUOUS
 62
     7
100
AcDbCircle
 10
91.03860519498949
 20
78.06267942636605
 30
0.0
 40
0.4960004124784287
100
AcDbArc
 50
269.5360287045988
 51
359.5282543649448
  0
LINE
  5
5C2
330
1F
100
AcDbEntity
  8
1
  6
CONTINUOUS
 62
     7
100
AcDbLine
 10
91.5345887954399
 20
78.05859564588714
 30
0.0
 11
91.5345887954399
 21
84.79371654586244
 31
0.0
  0
CIRCLE
  5
5C3
330
1F
100
AcDbEntity
  8
1
  6
CONTINUOUS
 62
     7
100
AcDbCircle
 10
89.53458886398522
 20
86.79371644602467
 30
0.0
 40
1.0
  0
ARC
  5
5C4
330
1F
100
AcDbEntity
  8
1
  6
CONTINUOUS
 62
     7
100
AcDbCircle
 10
89.53458886398522
 20
86.79371644602467
 30
0.0
 40
2.0
100
AcDbArc
 50
0.0000000051450688
 51
179.99999998825
  0
LINE
  5
5C5
330
1F
100
AcDbEntity
  8
1
  6
CONTINUOUS
 62
     7
100
AcDbLine
 10
87.53458907111138
 20
86.79371646623436
 30
0.0
 11
87.53458907111138
 21
84.79371654586244
 31
0.0
  0
LINE
  5
5C6
330
1F
100
AcDbEntity
  8
1
  6
CONTINUOUS
 62
     7
100
AcDbLine
 10
91.5345887954399
 20
84.79371654586244
 30
0.0
 11
91.5345887954399
 21
86.79371646623436
 31
0.0
  0
LINE
  5
5C7
330
1F
100
AcDbEntity
  8
1
  6
CONTINUOUS
 62
     7
100
AcDbLine
 10
89.03458931698054
 20
78.04435199843097
 30
0.0
 11
89.03458931698054
 21
81.23161119194079
 31
0.0
  0
LINE
  5
5C8
330
1F
100
AcDbEntity
  8
1
  6
CONTINUOUS
 62
     7
100
AcDbLine
 10
89.03458931698054
 20
78.04435199843097
 30
0.0
 11
90.03458854957074
 21
78.04435199843097
 31
0.0
  0
LINE
  5
5C9
330
1F
100
AcDbEntity
  8
1
  6
CONTINUOUS
 62
     7
100
AcDbLine
 10
90.03458854957074
 20
78.04435199843097
 30
0.0
 11
90.03458854957074
 21
81.23161119194079
 31
0.0
  0
LINE
  5
5CA
330
1F
100
AcDbEntity
  8
1
  6
CONTINUOUS
 62
     7
100
AcDbLine
 10
89.03458931698054
 20
77.54435191647458
 30
0.0
 11
89.03458931698054
 21
78.04435199843097
 31
0.0
  0
LINE
  5
5CB
330
1F
100
AcDbEntity
  8
1
  6
CONTINUOUS
 62
     7
100
AcDbLine
 10
90.03458854957074
 20
77.54435191647458
 30
0.0
 11
90.03458854957074
 21
78.04435199843097
 31
0.0
  0
ARC
  5
5CC
330
1F
100
AcDbEntity
  8
1
  6
CONTINUOUS
 62
     7
100
AcDbCircle
 10
92.13458886398524
 20
77.49371644602466
 30
0.0
 40
0.5
100
AcDbArc
 50
270.0
 51
359.9999999598947
  0
LINE
  5
5CD
330
1F
100
AcDbEntity
  8
1
  6
CONTINUOUS
 62
     7
100
AcDbLine
 10
92.63458878947944
 20
77.49371683941531
 30
0.0
 11
92.63458878947944
 21
89.79371643410373
 31
0.0
  0
LINE
  5
5CE
330
1F
100
AcDbEntity
  8
1
  6
CONTINUOUS
 62
     7
100
AcDbLine
 10
86.53458890719861
 20
76.99371675745893
 30
0.0
 11
92.13458870752305
 21
76.99371675745893
 31
0.0
  0
LINE
  5
5D3
330
1F
100
AcDbEntity
  8
OSIE
100
AcDbLine
 10
89.5345888641005
 20
89.57869008004674
 30
0.0
 11
89.5345888641005
 21
75.21495768982754
 31
0.0
  0
LINE
  5
5D6
330
1F
100
AcDbEntity
  8
OSIE
100
AcDbLine
 10
89.53458893327564
 20
174.5875645215166
 30
0.0
 11
89.53458893327564
 21
169.251761768228
 31
0.0
  0
LINE
  5
5D7
330
1F
100
AcDbEntity
  8
OSIE
100
AcDbLine
 10
146.6368558668023
 20
176.5902006214827
 30
0.0
 11
146.6368558668023
 21
127.0719282654066
 31
0.0
  0
LINE
  5
5D8
330
1F
100
AcDbEntity
  8
OSIE
100
AcDbLine
 10
140.0368559025655
 20
129.5348923534231
 30
0.0
 11
140.0368559025655
 21
138.7797622951718
 31
0.0
  0
LINE
  5
5D9
330
1F
100
AcDbEntity
  8
OSIE
100
AcDbLine
 10
153.23685583104
 20
129.5348923534233
 30
0.0
 11
153.23685583104
 21
138.779762295172
 31
0.0
  0
LINE
  5
5DA
330
1F
100
AcDbEntity
  8
OSIE
100
AcDbLine
 10
63.10703643341674
 20
215.4019270780955
 30
0.0
 11
95.08121287841442
 21
215.4019270780955
 31
0.0
  0
LINE
  5
5DB
330
1F
100
AcDbEntity
  8
OSIE
100
AcDbLine
 10
71.33458888372928
 20
129.3421645258205
 30
0.0
 11
71.33458888372928
 21
138.9284409777413
 31
0.0
  0
LINE
  5
5DC
330
1F
100
AcDbEntity
  8
OSIE
100
AcDbLine
 10
77.63458883371726
 20
129.3421645258205
 30
0.0
 11
77.63458883371726
 21
138.9284409777413
 31
0.0
  0
LINE
  5
5DD
330
1F
100
AcDbEntity
  8
OSIE
100
AcDbLine
 10
83.93458890012056
 20
129.3421645258205
 30
0.0
 11
83.93458890012056
 21
138.9284409777413
 31
0.0
  0
LINE
  5
5DE
330
1F
100
AcDbEntity
  8
OSIE
100
AcDbLine
 10
88.03458868740648
 20
129.3421645258205
 30
0.0
 11
88.03458868740648
 21
138.9284409777413
 31
0.0
  0
LINE
  5
5DF
330
1F
100
AcDbEntity
  8
OSIE
100
AcDbLine
 10
78.88458886398513
 20
228.7581004351613
 30
0.0
 11
78.88458886398513
 21
201.4911327842096
 31
0.0
  0
LINE
  5
5E0
330
1F
100
AcDbEntity
  8
OSIE
100
AcDbLine
 10
78.88458886398524
 20
135.8621891204582
 30
0.0
 11
78.88458886398524
 21
176.141427942577
 31
0.0
  0
LINE
  5
5E1
330
1F
100
AcDbEntity
  8
OSIE
100
AcDbLine
 10
61.86878213870614
 20
87.59371644602466
 30
0.0
 11
95.38253000400618
 21
87.59371644602466
 31
0.0
  0
LINE
  5
5E2
330
1F
100
AcDbEntity
  8
OSIE
100
AcDbLine
 10
78.88458886398524
 20
101.5188363548758
 30
0.0
 11
78.88458886398524
 21
74.17565251367682
 31
0.0
  0
LINE
  5
5E3
330
1F
100
AcDbEntity
  8
OSIE
100
AcDbLine
 10
86.85406515824712
 20
86.79371644602467
 30
0.0
 11
100.6712252657765
 21
86.79371644602467
 31
0.0
  0
LINE
  5
61E
330
1F
100
AcDbEntity
  8
3
100
AcDbLine
 10
91.51619365371755
 20
84.79371665315084
 30
0.0
 11
91.51619365371755
 21
88.79371637747936
 31
0.0
  0
LINE
  5
61F
330
1F
100
AcDbEntity
  8
3
100
AcDbLine
 10
98.25131455369285
 20
88.79371637747936
 30
0.0
 11
91.51619365371755
 21
88.79371637747936
 31
0.0
  0
LINE
  5
620
330
1F
100
AcDbEntity
  8
3
100
AcDbLine
 10
91.51619365371755
 20
88.79371637747936
 30
0.0
 11
89.51619373334563
 21
88.79371637747936
 31
0.0
  0
CIRCLE
  5
621
330
1F
100
AcDbEntity
  8
3
100
AcDbCircle
 10
89.51619375355529
 20
86.79371644602467
 30
0.0
 40
1.0
  0
LINE
  5
622
330
1F
100
AcDbEntity
  8
3
100
AcDbLine
 10
91.51619365371755
 20
84.79371665315084
 30
0.0
 11
98.25131455369285
 21
84.79371665315084
 31
0.0
  0
LINE
  5
623
330
1F
100
AcDbEntity
  8
3
100
AcDbLine
 10
89.51619373334563
 20
84.79371665315084
 30
0.0
 11
91.51619365371755
 21
84.79371665315084
 31
0.0
  0
ARC
  5
625
330
1F
100
AcDbEntity
  8
3
100
AcDbCircle
 10
89.51619375355529
 20
86.79371644602467
 30
0.0
 40
2.0
100
AcDbArc
 50
90.00000000514588
 51
269.9999999882492
  0
LINE
  5
626
330
1F
100
AcDbEntity
  8
3
100
AcDbLine
 10
98.7655582831054
 20
86.29371689902
 30
0.0
 11
98.7655582831054
 21
87.2937161316102
 31
0.0
  0
LINE
  5
627
330
1F
100
AcDbEntity
  8
3
100
AcDbLine
 10
98.7432149232178
 20
86.29371689902
 30
0.0
 11
98.7432149232178
 21
85.29371673510722
 31
0.0
  0
LINE
  5
628
330
1F
100
AcDbEntity
  8
3
100
AcDbLine
 10
98.26555820114902
 20
86.29371689902
 30
0.0
 11
95.0782990076392
 21
86.29371689902
 31
0.0
  0
LINE
  5
629
330
1F
100
AcDbEntity
  8
3
100
AcDbLine
 10
98.26555820114902
 20
86.29371689902
 30
0.0
 11
98.26555820114902
 21
87.2937161316102
 31
0.0
  0
LINE
  5
62A
330
1F
100
AcDbEntity
  8
3
100
AcDbLine
 10
98.7655582831054
 20
86.29371689902
 30
0.0
 11
98.26555820114902
 21
86.29371689902
 31
0.0
  0
ARC
  5
62B
330
1F
100
AcDbEntity
  8
3
100
AcDbCircle
 10
98.24723077321391
 20
85.28970025360125
 30
0.0
 40
0.4960004124784145
100
AcDbArc
 50
270.4717456350584
 51
0.4639712954011419
  0
LINE
  5
62C
330
1F
100
AcDbEntity
  8
3
100
AcDbLine
 10
95.0782990076392
 20
86.29371689902
 30
0.0
 11
95.0782990076392
 21
87.2937161316102
 31
0.0
  0
LINE
  5
62D
330
1F
100
AcDbEntity
  8
3
100
AcDbLine
 10
98.26555820114902
 20
87.2937161316102
 30
0.0
 11
95.0782990076392
 21
87.2937161316102
 31
0.0
  0
LINE
  5
62E
330
1F
100
AcDbEntity
  8
3
100
AcDbLine
 10
98.7432149232178
 20
88.29371629552297
 30
0.0
 11
98.7432149232178
 21
87.2937161316102
 31
0.0
  0
ARC
  5
62F
330
1F
100
AcDbEntity
  8
3
100
AcDbCircle
 10
98.24723077321391
 20
88.29773277702894
 30
0.0
 40
0.4960004124784287
100
AcDbArc
 50
359.5360287045988
 51
89.52825436494159
  0
LINE
  5
630
330
1F
100
AcDbEntity
  8
3
100
AcDbLine
 10
98.7655582831054
 20
87.2937161316102
 30
0.0
 11
98.26555820114902
 21
87.2937161316102
 31
0.0
  0
LINE
  5
635
330
1F
100
AcDbEntity
  8
OSIE
100
AcDbLine
 10
71.33458888372917
 20
224.1068687925228
 30
0.0
 11
71.33458888372917
 21
219.9711435401978
 31
0.0
  0
LINE
  5
636
330
1F
100
AcDbEntity
  8
OSIE
100
AcDbLine
 10
66.05938312796678
 20
218.7019270602141
 30
0.0
 11
91.6686066918574
 21
218.7019270602141
 31
0.0
  0
LINE
  5
637
330
1F
100
AcDbEntity
  8
OSIE
100
AcDbLine
 10
66.05938312796678
 20
212.1019270959769
 30
0.0
 11
91.6686066918574
 21
212.1019270959769
 31
0.0
  0
LINE
  5
638
330
1F
100
AcDbEntity
  8
OSIE
100
AcDbLine
 10
77.63458883371715
 20
224.1068687925228
 30
0.0
 11
77.63458883371715
 21
219.9711435401978
 31
0.0
  0
LINE
  5
639
330
1F
100
AcDbEntity
  8
OSIE
100
AcDbLine
 10
83.93458890012045
 20
224.1068687925228
 30
0.0
 11
83.93458890012045
 21
219.9711435401978
 31
0.0
  0
LINE
  5
63A
330
1F
100
AcDbEntity
  8
OSIE
100
AcDbLine
 10
88.03458868740637
 20
224.1068687925228
 30
0.0
 11
88.03458868740637
 21
219.9711435401978
 31
0.0
  0
LINE
  5
63B
330
1F
100
AcDbEntity
  8
OSIE
100
AcDbLine
 10
88.03458868740637
 20
210.9068688640483
 30
0.0
 11
88.03458868740637
 21
206.7711436117234
 31
0.0
  0
LINE
  5
63C
330
1F
100
AcDbEntity
  8
OSIE
100
AcDbLine
 10
83.93458890012045
 20
210.9068688640483
 30
0.0
 11
83.93458890012045
 21
206.7711436117234
 31
0.0
  0
LINE
  5
63D
330
1F
100
AcDbEntity
  8
OSIE
100
AcDbLine
 10
77.63458883371715
 20
210.9068688640483
 30
0.0
 11
77.63458883371715
 21
206.7711436117234
 31
0.0
  0
LINE
  5
63E
330
1F
100
AcDbEntity
  8
OSIE
100
AcDbLine
 10
71.33458888372917
 20
210.9068688640483
 30
0.0
 11
71.33458888372917
 21
206.7711436117234
 31
0.0
  0
LINE
  5
641
330
1F
100
AcDbEntity
  8
OSIE
100
AcDbLine
 10
69.79151879304476
 20
222.0019270423327
 30
0.0
 11
88.93794586625478
 21
222.0019270423327
 31
0.0
  0
LINE
  5
642
330
1F
100
AcDbEntity
  8
OSIE
100
AcDbLine
 10
69.79151879304476
 20
208.8019271138583
 30
0.0
 11
88.93794586625478
 21
208.8019271138583
 31
0.0
  0
DIMENSION
  5
653
330
1F
100
AcDbEntity
  8
WY
100
AcDbDimension
  2
*D14
 10
102.5792284253973
 20
208.8019271138583
 30
0.0
 11
100.4125617587307
 21
215.4019270780955
 31
0.0
 70
    32
  3
ISO-25
100
AcDbAlignedDimension
 13
88.93794586625478
 23
222.0019270423327
 33
0.0
 14
88.93794586625478
 24
208.8019271138583
 34
0.0
 50
90.0
100
AcDbRotatedDimension
1001
ACAD
1000
DSTYLE
1002
{
1070
   287
1070
     5
1070
   179
1070
     2
1070
   143
1040
0.0393700787401575
1070
    41
1040
2.0
1070
    44
1040
1.0
1070
    42
1040
1.0
1070
   147
1040
1.0
1070
    77
1070
     3
1070
   174
1070
     1
1070
   279
1070
     2
1070
    74
1070
     1
1070
   140
1040
2.0
1002
}
  0
DIMENSION
  5
662
330
1F
100
AcDbEntity
  8
WY
100
AcDbDimension
  2
*D15
 10
108.9082506628353
 20
204.8019270780952
 30
0.0
 11
106.7415839961686
 21
215.4019270780954
 31
0.0
 70
    32
  3
ISO-25
100
AcDbAlignedDimension
 13
92.13458886398513
 23
226.0019270780955
 33
0.0
 14
92.13458886398513
 24
204.8019270780952
 34
0.0
 50
90.0
100
AcDbRotatedDimension
1001
ACAD
1000
DSTYLE
1002
{
1070
   287
1070
     5
1070
   179
1070
     2
1070
   143
1040
0.0393700787401575
1070
    41
1040
2.0
1070
    44
1040
1.0
1070
    42
1040
1.0
1070
   147
1040
1.0
1070
    77
1070
     3
1070
   174
1070
     1
1070
   279
1070
     2
1070
    74
1070
     1
1070
   140
1040
2.0
1002
}
  0
DIMENSION
  5
671
330
1F
100
AcDbEntity
  8
WY
100
AcDbDimension
  2
*D16
 10
77.63458883371726
 20
122.5762067540788
 30
0.0
 11
74.48458885872327
 21
124.7428734207455
 31
0.0
 70
    32
  3
ISO-25
100
AcDbAlignedDimension
 13
71.33458888372928
 23
129.3421645258205
 33
0.0
 14
77.63458883371726
 24
129.3421645258205
 34
0.0
100
AcDbRotatedDimension
1001
ACAD
1000
DSTYLE
1002
{
1070
   287
1070
     5
1070
   179
1070
     2
1070
   143
1040
0.0393700787401575
1070
    41
1040
2.0
1070
    44
1040
1.0
1070
    42
1040
1.0
1070
   147
1040
1.0
1070
    77
1070
     3
1070
   174
1070
     1
1070
   279
1070
     2
1070
    74
1070
     1
1070
   140
1040
2.0
1002
}
  0
DIMENSION
  5
682
330
1F
100
AcDbEntity
  8
WY
100
AcDbDimension
  2
*D17
 10
83.93458890012056
 20
122.5762067540788
 30
0.0
 11
80.78458886691891
 21
124.7428734207455
 31
0.0
 70
    32
  3
ISO-25
100
AcDbAlignedDimension
 13
77.63458883371726
 23
129.3421645258205
 33
0.0
 14
83.93458890012056
 24
129.3421645258205
 34
0.0
100
AcDbRotatedDimension
1001
ACAD
1000
DSTYLE
1002
{
1070
   287
1070
     5
1070
   179
1070
     2
1070
   143
1040
0.0393700787401575
1070
    41
1040
2.0
1070
    44
1040
1.0
1070
    42
1040
1.0
1070
   147
1040
1.0
1070
    77
1070
     3
1070
   174
1070
     1
1070
   279
1070
     2
1070
    74
1070
     1
1070
   140
1040
2.0
1002
}
  0
DIMENSION
  5
693
330
1F
100
AcDbEntity
  8
WY
100
AcDbDimension
  2
*D18
 10
88.03458868740648
 20
122.5762067540788
 30
0.0
 11
85.98458879376352
 21
124.7428734207455
 31
0.0
 70
    32
  3
ISO-25
100
AcDbAlignedDimension
 13
83.93458890012056
 23
129.3421645258205
 33
0.0
 14
88.03458868740648
 24
129.3421645258205
 34
0.0
100
AcDbRotatedDimension
1001
ACAD
1000
DSTYLE
1002
{
1070
   287
1070
     5
1070
   179
1070
     2
1070
   143
1040
0.0393700787401575
1070
    41
1040
2.0
1070
    44
1040
1.0
1070
    42
1040
1.0
1070
   147
1040
1.0
1070
    77
1070
     3
1070
   174
1070
     1
1070
   279
1070
     2
1070
    74
1070
     1
1070
   140
1040
2.0
1002
}
  0
DIMENSION
  5
6A4
330
1F
100
AcDbEntity
  8
WY
100
AcDbDimension
  2
*D19
 10
65.13458893849105
 20
122.5762067540788
 30
0.0
 11
68.23458891111017
 21
124.7428734207455
 31
0.0
 70
    32
  3
ISO-25
100
AcDbAlignedDimension
 13
71.33458888372928
 23
129.3421645258205
 33
0.0
 14
65.13458893849105
 24
139.2901764951618
 34
0.0
100
AcDbRotatedDimension
1001
ACAD
1000
DSTYLE
1002
{
1070
   287
1070
     5
1070
   179
1070
     2
1070
   143
1040
0.0393700787401575
1070
    41
1040
2.0
1070
    44
1040
1.0
1070
    42
1040
1.0
1070
   147
1040
1.0
1070
    77
1070
     3
1070
   174
1070
     1
1070
   279
1070
     2
1070
    74
1070
     1
1070
   140
1040
2.0
1002
}
  0
DIMENSION
  5
6B5
330
1F
100
AcDbEntity
  8
WY
100
AcDbDimension
  2
*D20
 10
92.63458878947944
 20
116.0674084239634
 30
0.0
 11
78.88458886398524
 21
118.23407509063
 31
0.0
 70
    32
  3
ISO-25
100
AcDbAlignedDimension
 13
65.13458893849105
 23
139.2901764951618
 33
0.0
 14
92.63458878947944
 24
139.2901764951618
 34
0.0
100
AcDbRotatedDimension
1001
ACAD
1000
DSTYLE
1002
{
1070
   287
1070
     5
1070
   179
1070
     2
1070
   143
1040
0.0393700787401575
1070
    41
1040
2.0
1070
    44
1040
1.0
1070
    42
1040
1.0
1070
   147
1040
1.0
1070
    77
1070
     3
1070
   174
1070
     1
1070
   279
1070
     2
1070
    74
1070
     1
1070
   140
1040
2.0
1002
}
  0
DIMENSION
  5
6C6
330
1F
100
AcDbEntity
  8
WY
100
AcDbDimension
  2
*D21
 10
166.8327198266734
 20
137.7901764821234
 30
0.0
 11
164.6660531600067
 21
155.5901764821234
 31
0.0
 70
    32
  3
ISO-25
100
AcDbAlignedDimension
 13
156.7368558665972
 23
173.3901764821234
 33
0.0
 14
157.1368557252417
 24
137.7901764821234
 34
0.0
 50
90.0
100
AcDbRotatedDimension
1001
ACAD
1000
DSTYLE
1002
{
1070
   287
1070
     5
1070
   179
1070
     2
1070
   143
1040
0.0393700787401575
1070
    41
1040
2.0
1070
    44
1040
1.0
1070
    42
1040
1.0
1070
   147
1040
1.0
1070
    77
1070
     3
1070
   174
1070
     1
1070
   279
1070
     2
1070
    74
1070
     1
1070
   140
1040
2.0
1002
}
  0
DIMENSION
  5
6D5
330
1F
100
AcDbEntity
  8
WY
100
AcDbDimension
  2
*D22
 10
166.8327198266734
 20
137.7901764821234
 30
0.0
 11
164.6660531600067
 21
134.5401764150681
 31
0.0
 70
    32
  3
ISO-25
100
AcDbAlignedDimension
 13
153.7368559129964
 23
131.2901763480129
 33
0.0
 14
157.1368557252417
 24
137.7901764821234
 34
0.0
 50
90.0
100
AcDbRotatedDimension
1001
ACAD
1000
DSTYLE
1002
{
1070
   287
1070
     5
1070
   179
1070
     2
1070
   143
1040
0.0393700787401575
1070
    41
1040
2.0
1070
    44
1040
1.0
1070
    42
1040
1.0
1070
   147
1040
1.0
1070
    77
1070
     3
1070
   174
1070
     1
1070
   279
1070
     2
1070
    74
1070
     1
1070
   140
1040
2.0
1002
}
  0
DIMENSION
  5
6E4
330
1F
100
AcDbEntity
  8
WY
100
AcDbDimension
  2
*D23
 10
154.3368558250795
 20
124.2593735364392
 30
0.0
 11
164.8368558250795
 21
124.2593735364392
 31
0.0
 70
   160
  3
ISO-25
100
AcDbAlignedDimension
 13
152.1368558370004
 23
132.0901763860109
 33
0.0
 14
154.3368558250795
 24
132.0901763860109
 34
0.0
100
AcDbRotatedDimension
1001
ACAD
1000
DSTYLE
1002
{
1070
   287
1070
     3
1070
     3
1000
x0,5
1070
   179
1070
     2
1070
   143
1040
0.0393700787401575
1070
    41
1040
2.0
1070
    44
1040
1.0
1070
    42
1040
1.0
1070
   147
1040
1.0
1070
    77
1070
     3
1070
   174
1070
     1
1070
   279
1070
     0
1070
    74
1070
     1
1070
   140
1040
2.0
1002
}
  0
DIMENSION
  5
6F6
330
1F
100
AcDbEntity
  8
WY
100
AcDbDimension
  2
*D24
 10
100.6712252657765
 20
86.79371644602467
 30
0.0
 11
100.173173348954
 21
76.15513196117121
 31
0.0
 70
    34
  1
 
  3
ISO-25
100
AcDb2LineAngularDimension
 13
89.5345888641005
 23
89.57869008004674
 33
0.0
 14
89.5345888641005
 24
75.21495768982754
 34
0.0
 15
86.85406515824712
 25
86.79371644602467
 35
0.0
 16
98.05720409556638
 26
72.0321138517654
 36
0.0
1001
ACAD
1000
DSTYLE
1002
{
1070
   287
1070
     5
1070
     7
1000

1070
     6
1000
NONE
1070
     5
1000

1070
   173
1070
     1
1070
    79
1070
     2
1070
   179
1070
     2
1070
   143
1040
0.0393700787401575
1070
    41
1040
2.0
1070
    44
1040
1.0
1070
    42
1040
1.0
1070
   147
1040
1.0
1070
    77
1070
     3
1070
   174
1070
     1
1070
   279
1070
     2
1070
    74
1070
     1
1070
   140
1040
2.0
1002
}
  0
ENDSEC
  0
SECTION
  2
OBJECTS
  0
DICTIONARY
  5
C
330
0
100
AcDbDictionary
  3
ACAD_DETAILVIEWSTYLE
350
53C
  3
ACAD_GROUP
350
D
  3
ACAD_IMAGE_VARS
350
317
  3
ACAD_MLINESTYLE
350
17
  3
ACAD_SCALELIST
350
725
  3
ACAD_SECTIONVIEWSTYLE
350
53D
  3
ACDBVARIABLEDICTIONARY
350
537
  3
APPDATA
350
315
  3
DIMOFFSETDICTIONARY
350
646
  3
DWGPROPS
350
757
  0
DICTIONARY
  5
5D0
330
2
100
AcDbDictionary
280
     1
  3
ACAD_LAYERSTATES
360
5D1
  0
DICTIONARY
  5
53C
102
{ACAD_REACTORS
330
C
102
}
330
C
100
AcDbDictionary
  0
DICTIONARY
  5
D
102
{ACAD_REACTORS
330
C
102
}
330
C
100
AcDbDictionary
  0
RASTERVARIABLES
  5
317
102
{ACAD_REACTORS
330
C
102
}
330
C
100
AcDbRasterVariables
 90
        0
 70
     1
 71
     1
 72
     1
  0
DICTIONARY
  5
17
102
{ACAD_REACTORS
330
C
102
}
330
C
100
AcDbDictionary
  3
STANDARD
350
18
  0
DICTIONARY
  5
725
102
{ACAD_REACTORS
330
C
102
}
330
C
100
AcDbDictionary
  0
DICTIONARY
  5
53D
102
{ACAD_REACTORS
330
C
102
}
330
C
100
AcDbDictionary
  0
DICTIONARY
  5
537
102
{ACAD_REACTORS
330
C
102
}
330
C
100
AcDbDictionary
  3
HPTRANSPARENCY
350
645
  0
DICTIONARY
  5
315
102
{ACAD_REACTORS
330
C
102
}
330
C
100
AcDbDictionary
  0
DICTIONARY
  5
646
102
{ACAD_REACTORS
330
C
102
}
330
C
100
AcDbDictionary
  3
DIMRAILANGLE
350
651
  3
DIMRAILFIRSTOFFSET
350
64F
  3
DIMRAILOFFSET
350
650
  3
DIMRAILSENABLED
350
652
  0
XRECORD
  5
757
102
{ACAD_REACTORS
330
C
102
}
330
C
100
AcDbXrecord
  1
DWGPROPS COOKIE
  2

  3

  4

  6

  7

  8
pikusl
  9

300
=
301
=
302
=
303
=
304
=
305
=
306
=
307
=
308
=
309
=
 40
0.0
 41
2457525.462618472
 42
2457525.490997396
  1

 90
        0
  0
DICTIONARY
  5
5D1
102
{ACAD_REACTORS
330
5D0
102
}
330
5D0
100
AcDbDictionary
  0
MLINESTYLE
  5
18
102
{ACAD_REACTORS
330
17
102
}
330
17
100
AcDbMlineStyle
  2
Standard
 70
     0
  3

 62
   256
 51
90.0
 52
90.0
 71
     2
 49
0.5
 62
   256
  6
BYLAYER
 49
-0.5
 62
   256
  6
BYLAYER
  0
DICTIONARYVAR
  5
645
102
{ACAD_REACTORS
330
537
102
}
330
537
100
DictionaryVariables
280
     0
  1
ByLayer
  0
DICTIONARYVAR
  5
651
102
{ACAD_REACTORS
330
646
102
}
330
646
100
DictionaryVariables
280
     0
  1
0.261799
  0
DICTIONARYVAR
  5
64F
102
{ACAD_REACTORS
330
646
102
}
330
646
100
DictionaryVariables
280
     0
  1
10.000000
  0
DICTIONARYVAR
  5
650
102
{ACAD_REACTORS
330
646
102
}
330
646
100
DictionaryVariables
280
     0
  1
6.000000
  0
DICTIONARYVAR
  5
652
102
{ACAD_REACTORS
330
646
102
}
330
646
100
DictionaryVariables
280
     0
  1
1
  0
ENDSEC
  0
EOF
