  0
SECTION
  2
HEADER
  9
$ACADVER
  1
AC1014
  9
$ACADMAINTVER
 70
     0
  9
$DWGCODEPAGE
  3
ANSI_1250
  9
$INSBASE
 10
0.0
 20
0.0
 30
0.0
  9
$EXTMIN
 10
486.041244
 20
0.0
 30
0.0
  9
$EXTMAX
 10
687.671651
 20
297.0
 30
0.0
  9
$LIMMIN
 10
0.0
 20
0.0
  9
$LIMMAX
 10
420.0
 20
297.0
  9
$ORTHOMODE
 70
     0
  9
$REGENMODE
 70
     1
  9
$FILLMODE
 70
     1
  9
$QTEXTMODE
 70
     0
  9
$MIRRTEXT
 70
     1
  9
$DRAGMODE
 70
     2
  9
$LTSCALE
 40
6.0
  9
$OSMODE
 70
     0
  9
$ATTMODE
 70
     1
  9
$TEXTSIZE
 40
3.5
  9
$TRACEWID
 40
0.05
  9
$TEXTSTYLE
  7
ITALIC
  9
$CLAYER
  8
WYMIARY
  9
$CELTYPE
  6
BYLAYER
  9
$CECOLOR
 62
     3
  9
$CELTSCALE
 40
1.0
  9
$DELOBJ
 70
     1
  9
$DISPSILH
 70
     0
  9
$DIMSCALE
 40
1.0
  9
$DIMASZ
 40
2.0
  9
$DIMEXO
 40
1.5
  9
$DIMDLI
 40
7.0
  9
$DIMRND
 40
0.0
  9
$DIMDLE
 40
0.0
  9
$DIMEXE
 40
1.5
  9
$DIMTP
 40
0.1
  9
$DIMTM
 40
0.0
  9
$DIMTXT
 40
1.0
  9
$DIMCEN
 40
-1.0
  9
$DIMTSZ
 40
0.0
  9
$DIMTOL
 70
     0
  9
$DIMLIM
 70
     0
  9
$DIMTIH
 70
     0
  9
$DIMTOH
 70
     0
  9
$DIMSE1
 70
     0
  9
$DIMSE2
 70
     0
  9
$DIMTAD
 70
     1
  9
$DIMZIN
 70
     0
  9
$DIMBLK
  1

  9
$DIMASO
 70
     1
  9
$DIMSHO
 70
     0
  9
$DIMPOST
  1

  9
$DIMAPOST
  1

  9
$DIMALT
 70
     0
  9
$DIMALTD
 70
     2
  9
$DIMALTF
 40
25.4
  9
$DIMLFAC
 40
1.0
  9
$DIMTOFL
 70
     0
  9
$DIMTVP
 40
0.0
  9
$DIMTIX
 70
     0
  9
$DIMSOXD
 70
     0
  9
$DIMSAH
 70
     0
  9
$DIMBLK1
  1

  9
$DIMBLK2
  1

  9
$DIMSTYLE
  2
STANDARD
  9
$DIMCLRD
 70
     0
  9
$DIMCLRE
 70
     0
  9
$DIMCLRT
 70
     0
  9
$DIMTFAC
 40
1.0
  9
$DIMGAP
 40
0.5
  9
$DIMJUST
 70
     0
  9
$DIMSD1
 70
     0
  9
$DIMSD2
 70
     0
  9
$DIMTOLJ
 70
     1
  9
$DIMTZIN
 70
     0
  9
$DIMALTZ
 70
     0
  9
$DIMALTTZ
 70
     0
  9
$DIMFIT
 70
     3
  9
$DIMUPT
 70
     0
  9
$DIMUNIT
 70
     2
  9
$DIMDEC
 70
     2
  9
$DIMTDEC
 70
     4
  9
$DIMALTU
 70
     2
  9
$DIMALTTD
 70
     2
  9
$DIMTXSTY
  7
STANDARD
  9
$DIMAUNIT
 70
     0
  9
$LUNITS
 70
     2
  9
$LUPREC
 70
     2
  9
$SKETCHINC
 40
0.1
  9
$FILLETRAD
 40
0.1
  9
$AUNITS
 70
     0
  9
$AUPREC
 70
     2
  9
$MENU
  1
ACAD
  9
$ELEVATION
 40
0.0
  9
$PELEVATION
 40
0.0
  9
$THICKNESS
 40
0.0
  9
$LIMCHECK
 70
     0
  9
$BLIPMODE
 70
     0
  9
$CHAMFERA
 40
0.0
  9
$CHAMFERB
 40
0.0
  9
$CHAMFERC
 40
0.0
  9
$CHAMFERD
 40
0.0
  9
$SKPOLY
 70
     0
  9
$TDCREATE
 40
2448721.399136690
  9
$TDUPDATE
 40
2454572.397130891
  9
$TDINDWG
 40
1.6542218750
  9
$TDUSRTIMER
 40
1.6542218750
  9
$USRTIMER
 70
     1
  9
$ANGBASE
 50
0.0
  9
$ANGDIR
 70
     0
  9
$PDMODE
 70
     0
  9
$PDSIZE
 40
0.0
  9
$PLINEWID
 40
0.5
  9
$COORDS
 70
     2
  9
$SPLFRAME
 70
     0
  9
$SPLINETYPE
 70
     6
  9
$SPLINESEGS
 70
     8
  9
$ATTDIA
 70
     0
  9
$ATTREQ
 70
     1
  9
$HANDLING
 70
     1
  9
$HANDSEED
  5
114AC
  9
$SURFTAB1
 70
     6
  9
$SURFTAB2
 70
     6
  9
$SURFTYPE
 70
     6
  9
$SURFU
 70
     6
  9
$SURFV
 70
     6
  9
$UCSNAME
  2

  9
$UCSORG
 10
0.0
 20
0.0
 30
0.0
  9
$UCSXDIR
 10
1.0
 20
0.0
 30
0.0
  9
$UCSYDIR
 10
0.0
 20
1.0
 30
0.0
  9
$PUCSNAME
  2

  9
$PUCSORG
 10
0.0
 20
0.0
 30
0.0
  9
$PUCSXDIR
 10
1.0
 20
0.0
 30
0.0
  9
$PUCSYDIR
 10
0.0
 20
1.0
 30
0.0
  9
$USERI1
 70
     0
  9
$USERI2
 70
     0
  9
$USERI3
 70
     0
  9
$USERI4
 70
     0
  9
$USERI5
 70
     0
  9
$USERR1
 40
0.0
  9
$USERR2
 40
0.0
  9
$USERR3
 40
0.0
  9
$USERR4
 40
0.0
  9
$USERR5
 40
0.0
  9
$WORLDVIEW
 70
     1
  9
$SHADEDGE
 70
     3
  9
$SHADEDIF
 70
    70
  9
$TILEMODE
 70
     1
  9
$MAXACTVP
 70
    16
  9
$PINSBASE
 10
0.0
 20
0.0
 30
0.0
  9
$PLIMCHECK
 70
     0
  9
$PEXTMIN
 10
1.000000E+20
 20
1.000000E+20
 30
1.000000E+20
  9
$PEXTMAX
 10
-1.000000E+20
 20
-1.000000E+20
 30
-1.000000E+20
  9
$PLIMMIN
 10
0.0
 20
0.0
  9
$PLIMMAX
 10
12.0
 20
9.0
  9
$UNITMODE
 70
     0
  9
$VISRETAIN
 70
     0
  9
$PLINEGEN
 70
     0
  9
$PSLTSCALE
 70
     0
  9
$TREEDEPTH
 70
  3020
  9
$PICKSTYLE
 70
     0
  9
$CMLSTYLE
  2
STANDARD
  9
$CMLJUST
 70
     0
  9
$CMLSCALE
 40
1.0
  9
$PROXYGRAPHICS
 70
     1
  9
$MEASUREMENT
 70
     0
  0
ENDSEC
  0
SECTION
  2
CLASSES
  0
CLASS
  1
HATCH
  2
AcDbHatch
  3
"ACAD_SEDONA"
 90
        0
280
     0
281
     1
  0
CLASS
  1
LWPOLYLINE
  2
AcDbPolyline
  3
"AutoCAD"
 90
        0
280
     0
281
     1
  0
CLASS
  1
DICTIONARYVAR
  2
AcDbDictionaryVar
  3
"AutoCAD"
 90
        0
280
     0
281
     0
  0
CLASS
  1
XRECORD
  2
AcDbXrecord
  3
"<Built In>"
 90
        0
280
     0
281
     0
  0
ENDSEC
  0
SECTION
  2
TABLES
  0
TABLE
  2
VPORT
  5
8
100
AcDbSymbolTable
 70
     2
  0
VPORT
  5
114AB
100
AcDbSymbolTableRecord
100
AcDbViewportTableRecord
  2
*ACTIVE
 70
     0
 10
0.0
 20
0.0
 11
1.0
 21
1.0
 12
586.854556
 22
148.500001
 13
0.0
 23
0.0
 14
1.0
 24
1.0
 15
5.0
 25
5.0
 16
0.0
 26
0.0
 36
1.0
 17
0.0
 27
0.0
 37
0.0
 40
300.883873
 41
2.008696
 42
50.0
 43
0.0
 44
0.0
 50
0.0
 51
0.0
 71
     0
 72
   200
 73
     1
 74
     0
 75
     0
 76
     0
 77
     0
 78
     0
  0
ENDTAB
  0
TABLE
  2
LTYPE
  5
5
100
AcDbSymbolTable
 70
     3
  0
LTYPE
  5
12
100
AcDbSymbolTableRecord
100
AcDbLinetypeTableRecord
  2
BYBLOCK
 70
     0
  3

 72
    65
 73
     0
 40
0.0
  0
LTYPE
  5
13
100
AcDbSymbolTableRecord
100
AcDbLinetypeTableRecord
  2
BYLAYER
 70
     0
  3

 72
    65
 73
     0
 40
0.0
  0
LTYPE
  5
14
100
AcDbSymbolTableRecord
100
AcDbLinetypeTableRecord
  2
CONTINUOUS
 70
     0
  3
Solid line
 72
    65
 73
     0
 40
0.0
  0
LTYPE
  5
1D
100
AcDbSymbolTableRecord
100
AcDbLinetypeTableRecord
  2
CENTER
 70
     0
  3
____ _ ____ _ ____ _ ____ _ ____ _ ____ _ ____
 72
    65
 73
     4
 40
2.0
 49
1.25
 74
     0
 49
-0.25
 74
     0
 49
0.25
 74
     0
 49
-0.25
 74
     0
  0
LTYPE
  5
1E
100
AcDbSymbolTableRecord
100
AcDbLinetypeTableRecord
  2
HIDDEN
 70
     0
  3
_ _ _ _ _ _ _ _ _ _ _ _ _ _ _ _ _ _ _ _ _ _ _
 72
    65
 73
     2
 40
0.375
 49
0.25
 74
     0
 49
-0.125
 74
     0
  0
ENDTAB
  0
TABLE
  2
LAYER
  5
2
100
AcDbSymbolTable
 70
     7
  0
LAYER
  5
F
100
AcDbSymbolTableRecord
100
AcDbLayerTableRecord
  2
0
 70
     0
 62
     7
  6
CONTINUOUS
  0
LAYER
  5
21
100
AcDbSymbolTableRecord
100
AcDbLayerTableRecord
  2
1
 70
     0
 62
     3
  6
CONTINUOUS
  0
LAYER
  5
22
100
AcDbSymbolTableRecord
100
AcDbLayerTableRecord
  2
2
 70
     0
 62
     6
  6
CONTINUOUS
  0
LAYER
  5
25
100
AcDbSymbolTableRecord
100
AcDbLayerTableRecord
  2
WY
 70
     0
 62
     1
  6
CONTINUOUS
  0
LAYER
  5
26
100
AcDbSymbolTableRecord
100
AcDbLayerTableRecord
  2
DEFPOINTS
 70
     0
 62
     7
  6
CONTINUOUS
  0
LAYER
  5
464
100
AcDbSymbolTableRecord
100
AcDbLayerTableRecord
  2
WYMIARY
 70
     0
 62
     1
  6
CONTINUOUS
  0
LAYER
  5
10C89
100
AcDbSymbolTableRecord
100
AcDbLayerTableRecord
  2
WARSTWA_1
 70
     0
 62
     7
  6
CONTINUOUS
  0
ENDTAB
  0
TABLE
  2
STYLE
  5
3
100
AcDbSymbolTable
 70
     4
  0
STYLE
  5
10
100
AcDbSymbolTableRecord
100
AcDbTextStyleTableRecord
  2
STANDARD
 70
     0
 40
0.0
 41
1.0
 50
0.0
 71
     0
 42
6.0
  3
txt
  4

  0
STYLE
  5
1C
100
AcDbSymbolTableRecord
100
AcDbTextStyleTableRecord
  2
ITALIC
 70
     0
 40
0.0
 41
1.0
 50
15.0
 71
     0
 42
3.5
  3
simplex
  4

  0
STYLE
  5
8065
100
AcDbSymbolTableRecord
100
AcDbTextStyleTableRecord
  2
SN0
 70
     0
 40
0.0
 41
0.000004
 50
0.0
 71
     0
 42
0.0
  3
ROMAND
  4

  0
STYLE
  5
1060D
100
AcDbSymbolTableRecord
100
AcDbTextStyleTableRecord
  2
GOST
 70
     0
 40
0.0
 41
1.0
 50
15.0
 71
     0
 42
3.0
  3
ISO
  4

  0
ENDTAB
  0
TABLE
  2
VIEW
  5
6
100
AcDbSymbolTable
 70
     0
  0
ENDTAB
  0
TABLE
  2
UCS
  5
7
100
AcDbSymbolTable
 70
     0
  0
ENDTAB
  0
TABLE
  2
APPID
  5
9
100
AcDbSymbolTable
 70
     1
  0
APPID
  5
11
100
AcDbSymbolTableRecord
100
AcDbRegAppTableRecord
  2
ACAD
 70
     0
  0
ENDTAB
  0
TABLE
  2
DIMSTYLE
  5
A
100
AcDbSymbolTable
 70
     1
  0
DIMSTYLE
105
3B
102
{ACAD_REACTORS
330
10886
330
1147A
102
}
100
AcDbSymbolTableRecord
100
AcDbDimStyleTableRecord
  2
STANDARD
 70
     0
  3

  4

  5

  6

  7

 40
1.0
 41
3.5
 42
1.5
 43
7.0
 44
1.5
 45
0.0
 46
0.0
 47
0.1
 48
0.0
140
3.6
141
-1.0
142
0.0
143
25.4
144
1.0
145
0.0
146
1.0
147
1.5
 71
     0
 72
     0
 73
     0
 74
     0
 75
     0
 76
     0
 77
     1
 78
     0
170
     0
171
     2
172
     0
173
     0
174
     0
175
     0
176
     0
177
     0
178
     0
270
     2
271
     2
272
     4
273
     2
274
     2
340
10
275
     0
280
     0
281
     0
282
     0
283
     1
284
     0
285
     0
286
     0
287
     3
288
     0
  0
ENDTAB
  0
TABLE
  2
BLOCK_RECORD
  5
1
100
AcDbSymbolTable
 70
     5
  0
BLOCK_RECORD
  5
18
100
AcDbSymbolTableRecord
100
AcDbBlockTableRecord
  2
*MODEL_SPACE
  0
BLOCK_RECORD
  5
15
100
AcDbSymbolTableRecord
100
AcDbBlockTableRecord
  2
*PAPER_SPACE
  0
BLOCK_RECORD
  5
1087A
100
AcDbSymbolTableRecord
100
AcDbBlockTableRecord
  2
*D0
  0
BLOCK_RECORD
  5
108B5
100
AcDbSymbolTableRecord
100
AcDbBlockTableRecord
  2
A$C394A53EE
  0
BLOCK_RECORD
  5
11433
100
AcDbSymbolTableRecord
100
AcDbBlockTableRecord
  2
A$C113F12C2
  0
BLOCK_RECORD
  5
1144B
100
AcDbSymbolTableRecord
100
AcDbBlockTableRecord
  2
A$C365A7C82
  0
BLOCK_RECORD
  5
1146E
100
AcDbSymbolTableRecord
100
AcDbBlockTableRecord
  2
*D4
  0
ENDTAB
  0
ENDSEC
  0
SECTION
  2
BLOCKS
  0
BLOCK
  5
29
100
AcDbEntity
  8
0
100
AcDbBlockBegin
  2
*MODEL_SPACE
 70
     0
 10
0.0
 20
0.0
 30
0.0
  3
*MODEL_SPACE
  1

  0
ENDBLK
  5
2A
100
AcDbEntity
  8
0
100
AcDbBlockEnd
  0
BLOCK
  5
27
100
AcDbEntity
 67
     1
  8
0
100
AcDbBlockBegin
  2
*PAPER_SPACE
 70
     0
 10
0.0
 20
0.0
 30
0.0
  3
*PAPER_SPACE
  1

  0
ENDBLK
  5
28
100
AcDbEntity
 67
     1
  8
0
100
AcDbBlockEnd
  0
BLOCK
  5
10887
100
AcDbEntity
  8
0
100
AcDbBlockBegin
  2
*D0
 70
     1
 10
0.0
 20
0.0
 30
0.0
  3
*D0
  1

  0
LINE
  5
10888
100
AcDbEntity
  8
0
  6
BYBLOCK
 62
     0
100
AcDbLine
 10
546.655672
 20
139.832558
 30
0.0
 11
546.655672
 21
134.044785
 31
0.0
  0
LINE
  5
10889
100
AcDbEntity
  8
0
  6
BYBLOCK
 62
     0
100
AcDbLine
 10
643.659607
 20
139.832558
 30
0.0
 11
643.659607
 21
134.044785
 31
0.0
  0
LINE
  5
1088A
100
AcDbEntity
  8
0
  6
BYBLOCK
 62
     0
100
AcDbLine
 10
550.155672
 20
135.544785
 30
0.0
 11
640.159607
 21
135.544785
 31
0.0
  0
SOLID
  5
1088B
100
AcDbEntity
  8
0
  6
BYBLOCK
 62
     0
100
AcDbTrace
 10
550.155672
 20
136.128119
 30
0.0
 11
550.155672
 21
134.961452
 31
0.0
 12
546.655672
 22
135.544785
 32
0.0
 13
546.655672
 23
135.544785
 33
0.0
  0
SOLID
  5
1088C
100
AcDbEntity
  8
0
  6
BYBLOCK
 62
     0
100
AcDbTrace
 10
640.159607
 20
136.128119
 30
0.0
 11
640.159607
 21
134.961452
 31
0.0
 12
643.659607
 22
135.544785
 32
0.0
 13
643.659607
 23
135.544785
 33
0.0
  0
MTEXT
  5
1088D
100
AcDbEntity
  8
0
  6
BYBLOCK
 62
     0
100
AcDbMText
 10
595.15764
 20
137.194785
 30
0.0
 40
1.8
 41
0.0
 71
     5
 72
     1
  1
\A1;97.00
  0
POINT
  5
1088E
100
AcDbEntity
  8
DEFPOINTS
  6
BYBLOCK
 62
     0
100
AcDbPoint
 10
546.655672
 20
141.332558
 30
0.0
  0
POINT
  5
1088F
100
AcDbEntity
  8
DEFPOINTS
  6
BYBLOCK
 62
     0
100
AcDbPoint
 10
643.659607
 20
141.332558
 30
0.0
  0
POINT
  5
10890
100
AcDbEntity
  8
DEFPOINTS
  6
BYBLOCK
 62
     0
100
AcDbPoint
 10
643.659607
 20
135.544785
 30
0.0
  0
ENDBLK
  5
10891
100
AcDbEntity
  8
0
100
AcDbBlockEnd
  0
BLOCK
  5
10C21
100
AcDbEntity
  8
0
 62
     2
100
AcDbBlockBegin
  2
A$C394A53EE
 70
     0
 10
0.0
 20
0.0
 30
0.0
  3
A$C394A53EE
  1

  0
HATCH
  5
108B6
100
AcDbEntity
  8
0
  6
CONTINUOUS
 62
    20
100
AcDbHatch
 10
0.0
 20
0.0
 30
0.0
210
0.0
220
0.0
230
1.0
  2
SOLID
 70
     1
 71
     1
 91
        2
 92
        7
 72
     0
 73
     1
 93
       87
 10
2.730075769928969
 20
0.7449929936242992
 10
3.115937769928968
 20
0.7449929936242992
 10
3.115937769928968
 20
1.181373993624296
 10
3.114642769928968
 20
1.209377993624302
 10
3.110847769928967
 20
1.235271993624307
 10
3.104504769928966
 20
1.259236993624301
 10
3.095705769928969
 20
1.281381993624299
 10
3.084422769928968
 20
1.301637993624295
 10
3.070575769928972
 20
1.320161993624294
 10
3.054248769928966
 20
1.336929993624299
 10
3.03526476992897
 20
1.352027993624297
 10
3.013733769928974
 20
1.365370993624296
 10
2.989437769928968
 20
1.377023993624298
 10
2.962489769928966
 20
1.386944993624299
 10
2.932796769928972
 20
1.395106993624298
 10
2.900426769928965
 20
1.401448993624299
 10
2.865331769928968
 20
1.406035993624299
 10
2.827540769928966
 20
1.408755993624299
 10
2.787004769928967
 20
1.409724993624299
 10
2.746997769928967
 20
1.408736993624298
 10
2.709623769928971
 20
1.405881993624299
 10
2.67494976992897
 20
1.401141993624299
 10
2.642906769928969
 20
1.394515993624299
 10
2.613587769928968
 20
1.386043993624299
 10
2.586941769928968
 20
1.375728993624299
 10
2.562934769928967
 20
1.363614993624298
 10
2.541556769928968
 20
1.349720993624298
 10
2.522835769928969
 20
1.3340079936243
 10
2.506619769928967
 20
1.316515993624298
 10
2.492926769928967
 20
1.297184993624298
 10
2.481666769928969
 20
1.276003993624301
 10
2.472910769928968
 20
1.252873993624298
 10
2.466611769928968
 20
1.227767993624299
 10
2.462815769928969
 20
1.2006659936243
 10
2.461520769928968
 20
1.171385993624293
 10
2.461520769928968
 20
0.4716109936243022
 10
2.462815769928968
 20
0.4422679936243016
 10
2.466611769928968
 20
0.4151659936243018
 10
2.472910769928969
 20
0.3900359936243008
 10
2.481666769928968
 20
0.3669259936243004
 10
2.49292676992897
 20
0.3457049936242983
 10
2.506619769928968
 20
0.3264139936242981
 10
2.522835769928968
 20
0.3089219936242999
 10
2.541556769928967
 20
0.2932519936243009
 10
2.562934769928967
 20
0.2793149936242986
 10
2.586941769928971
 20
0.2672009936242996
 10
2.613587769928969
 20
0.2568859936242989
 10
2.642906769928969
 20
0.2484609936242989
 10
2.674949769928969
 20
0.2418109936242993
 10
2.709623769928969
 20
0.2370909936242992
 10
2.746997769928969
 20
0.2342409936242991
 10
2.787004769928968
 20
0.2332959936242989
 10
2.827540769928968
 20
0.2342169936242988
 10
2.865331769928968
 20
0.2369369936242989
 10
2.900402769928969
 20
0.2414809936242991
 10
2.93279676992897
 20
0.2478899936242992
 10
2.96248976992897
 20
0.2560119936242995
 10
2.989437769928967
 20
0.265952993624299
 10
3.013713769928969
 20
0.2776069936242995
 10
3.035264769928969
 20
0.2909929936243004
 10
3.054248769928968
 20
0.3060479936243
 10
3.070575769928968
 20
0.3228149936242999
 10
3.084422769928969
 20
0.3413149936242993
 10
3.095705769928966
 20
0.3615949936242969
 10
3.10450476992897
 20
0.3836699936243058
 10
3.110847769928967
 20
0.4077009936242958
 10
3.114642769928969
 20
0.4335789936242997
 10
3.115937769928968
 20
0.4616459936242968
 10
3.115937769928968
 20
0.6267479936242993
 10
2.847378769928969
 20
0.6267479936242993
 10
2.847378769928969
 20
0.4629179936243026
 10
2.846591769928968
 20
0.4481699936243009
 10
2.843977769928967
 20
0.4348079936242979
 10
2.839544769928968
 20
0.4230439936242982
 10
2.832985769928969
 20
0.4130359936242999
 10
2.824445769928968
 20
0.4050909936242996
 10
2.814044769928968
 20
0.3994729936242991
 10
2.802213769928968
 20
0.3962249936242989
 10
2.789067769928969
 20
0.3952169936242989
 10
2.775859769928968
 20
0.396224993624299
 10
2.763898769928969
 20
0.3994729936242989
 10
2.753449769928967
 20
0.4050669936242991
 10
2.744737769928968
 20
0.4129929936242993
 10
2.738130769928969
 20
0.4229769936242977
 10
2.733544769928969
 20
0.4347639936242979
 10
2.730910769928969
 20
0.4481499936242983
 10
2.730075769928968
 20
0.4629179936243012
 97
        1
330
108B7
 92
       22
 72
     0
 73
     1
 93
       19
 10
2.730075769928968
 20
0.9028309936242989
 10
2.730075769928968
 20
1.179771993624299
 10
2.730910769928968
 20
1.194145993624299
 10
2.733567769928968
 20
1.2072249936243
 10
2.73817476992897
 20
1.2187249936243
 10
2.744823769928968
 20
1.228511993624298
 10
2.753536769928969
 20
1.236192993624299
 10
2.763985769928969
 20
1.241614993624299
 10
2.775878769928969
 20
1.244732993624299
 10
2.789067769928968
 20
1.245740993624298
 10
2.802170769928968
 20
1.244732993624299
 10
2.813957769928968
 20
1.241594993624298
 10
2.824335769928969
 20
1.236149993624298
 10
2.832894769928971
 20
1.228448993624296
 10
2.839500769928969
 20
1.218681993624299
 10
2.843957769928967
 20
1.207181993624303
 10
2.846591769928968
 20
1.194121993624299
 10
2.847378769928969
 20
1.179747993624295
 10
2.847378769928969
 20
0.902830993624299
 97
        1
330
10A2E
 75
     0
 76
     1
 47
0.007755
 98
        2
 10
2.627639
 20
0.772296
 10
2.627639
 20
0.772296
  0
POLYLINE
  5
108B7
102
{ACAD_REACTORS
330
108B6
102
}
100
AcDbEntity
  8
WARSTWA_1
  6
CONTINUOUS
 62
    20
100
AcDb2dPolyline
 66
     1
 10
0.0
 20
0.0
 30
0.0
 70
     1
 40
0.003
 41
0.003
  0
VERTEX
  5
108B8
100
AcDbEntity
  8
WARSTWA_1
  6
CONTINUOUS
 62
    20
100
AcDbVertex
100
AcDb2dVertex
 10
3.115938
 20
0.744993
 30
0.0
  0
VERTEX
  5
108B9
100
AcDbEntity
  8
WARSTWA_1
  6
CONTINUOUS
 62
    20
100
AcDbVertex
100
AcDb2dVertex
 10
2.730076
 20
0.744993
 30
0.0
  0
VERTEX
  5
108BA
100
AcDbEntity
  8
WARSTWA_1
  6
CONTINUOUS
 62
    20
100
AcDbVertex
100
AcDb2dVertex
 10
2.730076
 20
0.462918
 30
0.0
  0
VERTEX
  5
108BB
100
AcDbEntity
  8
WARSTWA_1
  6
CONTINUOUS
 62
    20
100
AcDbVertex
100
AcDb2dVertex
 10
2.730911
 20
0.44815
 30
0.0
  0
VERTEX
  5
108BC
100
AcDbEntity
  8
WARSTWA_1
  6
CONTINUOUS
 62
    20
100
AcDbVertex
100
AcDb2dVertex
 10
2.733545
 20
0.434764
 30
0.0
  0
VERTEX
  5
108BD
100
AcDbEntity
  8
WARSTWA_1
  6
CONTINUOUS
 62
    20
100
AcDbVertex
100
AcDb2dVertex
 10
2.738131
 20
0.422977
 30
0.0
  0
VERTEX
  5
108BE
100
AcDbEntity
  8
WARSTWA_1
  6
CONTINUOUS
 62
    20
100
AcDbVertex
100
AcDb2dVertex
 10
2.744738
 20
0.412993
 30
0.0
  0
VERTEX
  5
108BF
100
AcDbEntity
  8
WARSTWA_1
  6
CONTINUOUS
 62
    20
100
AcDbVertex
100
AcDb2dVertex
 10
2.75345
 20
0.405067
 30
0.0
  0
VERTEX
  5
108C0
100
AcDbEntity
  8
WARSTWA_1
  6
CONTINUOUS
 62
    20
100
AcDbVertex
100
AcDb2dVertex
 10
2.763899
 20
0.399473
 30
0.0
  0
VERTEX
  5
108C1
100
AcDbEntity
  8
WARSTWA_1
  6
CONTINUOUS
 62
    20
100
AcDbVertex
100
AcDb2dVertex
 10
2.77586
 20
0.396225
 30
0.0
  0
VERTEX
  5
108C2
100
AcDbEntity
  8
WARSTWA_1
  6
CONTINUOUS
 62
    20
100
AcDbVertex
100
AcDb2dVertex
 10
2.789068
 20
0.395217
 30
0.0
  0
VERTEX
  5
108C3
100
AcDbEntity
  8
WARSTWA_1
  6
CONTINUOUS
 62
    20
100
AcDbVertex
100
AcDb2dVertex
 10
2.802214
 20
0.396225
 30
0.0
  0
VERTEX
  5
108C4
100
AcDbEntity
  8
WARSTWA_1
  6
CONTINUOUS
 62
    20
100
AcDbVertex
100
AcDb2dVertex
 10
2.814045
 20
0.399473
 30
0.0
  0
VERTEX
  5
108C5
100
AcDbEntity
  8
WARSTWA_1
  6
CONTINUOUS
 62
    20
100
AcDbVertex
100
AcDb2dVertex
 10
2.824446
 20
0.405091
 30
0.0
  0
VERTEX
  5
108C6
100
AcDbEntity
  8
WARSTWA_1
  6
CONTINUOUS
 62
    20
100
AcDbVertex
100
AcDb2dVertex
 10
2.832986
 20
0.413036
 30
0.0
  0
VERTEX
  5
108C7
100
AcDbEntity
  8
WARSTWA_1
  6
CONTINUOUS
 62
    20
100
AcDbVertex
100
AcDb2dVertex
 10
2.839545
 20
0.423044
 30
0.0
  0
VERTEX
  5
108C8
100
AcDbEntity
  8
WARSTWA_1
  6
CONTINUOUS
 62
    20
100
AcDbVertex
100
AcDb2dVertex
 10
2.843978
 20
0.434808
 30
0.0
  0
VERTEX
  5
108C9
100
AcDbEntity
  8
WARSTWA_1
  6
CONTINUOUS
 62
    20
100
AcDbVertex
100
AcDb2dVertex
 10
2.846592
 20
0.44817
 30
0.0
  0
VERTEX
  5
108CA
100
AcDbEntity
  8
WARSTWA_1
  6
CONTINUOUS
 62
    20
100
AcDbVertex
100
AcDb2dVertex
 10
2.847379
 20
0.462918
 30
0.0
  0
VERTEX
  5
108CB
100
AcDbEntity
  8
WARSTWA_1
  6
CONTINUOUS
 62
    20
100
AcDbVertex
100
AcDb2dVertex
 10
2.847379
 20
0.626748
 30
0.0
  0
VERTEX
  5
108CC
100
AcDbEntity
  8
WARSTWA_1
  6
CONTINUOUS
 62
    20
100
AcDbVertex
100
AcDb2dVertex
 10
3.115938
 20
0.626748
 30
0.0
  0
VERTEX
  5
108CD
100
AcDbEntity
  8
WARSTWA_1
  6
CONTINUOUS
 62
    20
100
AcDbVertex
100
AcDb2dVertex
 10
3.115938
 20
0.461646
 30
0.0
  0
VERTEX
  5
108CE
100
AcDbEntity
  8
WARSTWA_1
  6
CONTINUOUS
 62
    20
100
AcDbVertex
100
AcDb2dVertex
 10
3.114643
 20
0.433579
 30
0.0
  0
VERTEX
  5
108CF
100
AcDbEntity
  8
WARSTWA_1
  6
CONTINUOUS
 62
    20
100
AcDbVertex
100
AcDb2dVertex
 10
3.110848
 20
0.407701
 30
0.0
  0
VERTEX
  5
108D0
100
AcDbEntity
  8
WARSTWA_1
  6
CONTINUOUS
 62
    20
100
AcDbVertex
100
AcDb2dVertex
 10
3.104505
 20
0.38367
 30
0.0
  0
VERTEX
  5
108D1
100
AcDbEntity
  8
WARSTWA_1
  6
CONTINUOUS
 62
    20
100
AcDbVertex
100
AcDb2dVertex
 10
3.095706
 20
0.361595
 30
0.0
  0
VERTEX
  5
108D2
100
AcDbEntity
  8
WARSTWA_1
  6
CONTINUOUS
 62
    20
100
AcDbVertex
100
AcDb2dVertex
 10
3.084423
 20
0.341315
 30
0.0
  0
VERTEX
  5
108D3
100
AcDbEntity
  8
WARSTWA_1
  6
CONTINUOUS
 62
    20
100
AcDbVertex
100
AcDb2dVertex
 10
3.070576
 20
0.322815
 30
0.0
  0
VERTEX
  5
108D4
100
AcDbEntity
  8
WARSTWA_1
  6
CONTINUOUS
 62
    20
100
AcDbVertex
100
AcDb2dVertex
 10
3.054249
 20
0.306048
 30
0.0
  0
VERTEX
  5
108D5
100
AcDbEntity
  8
WARSTWA_1
  6
CONTINUOUS
 62
    20
100
AcDbVertex
100
AcDb2dVertex
 10
3.035265
 20
0.290993
 30
0.0
  0
VERTEX
  5
108D6
100
AcDbEntity
  8
WARSTWA_1
  6
CONTINUOUS
 62
    20
100
AcDbVertex
100
AcDb2dVertex
 10
3.013714
 20
0.277607
 30
0.0
  0
VERTEX
  5
108D7
100
AcDbEntity
  8
WARSTWA_1
  6
CONTINUOUS
 62
    20
100
AcDbVertex
100
AcDb2dVertex
 10
2.989438
 20
0.265953
 30
0.0
  0
VERTEX
  5
108D8
100
AcDbEntity
  8
WARSTWA_1
  6
CONTINUOUS
 62
    20
100
AcDbVertex
100
AcDb2dVertex
 10
2.96249
 20
0.256012
 30
0.0
  0
VERTEX
  5
108D9
100
AcDbEntity
  8
WARSTWA_1
  6
CONTINUOUS
 62
    20
100
AcDbVertex
100
AcDb2dVertex
 10
2.932797
 20
0.24789
 30
0.0
  0
VERTEX
  5
108DA
100
AcDbEntity
  8
WARSTWA_1
  6
CONTINUOUS
 62
    20
100
AcDbVertex
100
AcDb2dVertex
 10
2.900403
 20
0.241481
 30
0.0
  0
VERTEX
  5
108DB
100
AcDbEntity
  8
WARSTWA_1
  6
CONTINUOUS
 62
    20
100
AcDbVertex
100
AcDb2dVertex
 10
2.865332
 20
0.236937
 30
0.0
  0
VERTEX
  5
108DC
100
AcDbEntity
  8
WARSTWA_1
  6
CONTINUOUS
 62
    20
100
AcDbVertex
100
AcDb2dVertex
 10
2.827541
 20
0.234217
 30
0.0
  0
VERTEX
  5
108DD
100
AcDbEntity
  8
WARSTWA_1
  6
CONTINUOUS
 62
    20
100
AcDbVertex
100
AcDb2dVertex
 10
2.787005
 20
0.233296
 30
0.0
  0
VERTEX
  5
108DE
100
AcDbEntity
  8
WARSTWA_1
  6
CONTINUOUS
 62
    20
100
AcDbVertex
100
AcDb2dVertex
 10
2.746998
 20
0.234241
 30
0.0
  0
VERTEX
  5
108DF
100
AcDbEntity
  8
WARSTWA_1
  6
CONTINUOUS
 62
    20
100
AcDbVertex
100
AcDb2dVertex
 10
2.709624
 20
0.237091
 30
0.0
  0
VERTEX
  5
108E0
100
AcDbEntity
  8
WARSTWA_1
  6
CONTINUOUS
 62
    20
100
AcDbVertex
100
AcDb2dVertex
 10
2.67495
 20
0.241811
 30
0.0
  0
VERTEX
  5
108E1
100
AcDbEntity
  8
WARSTWA_1
  6
CONTINUOUS
 62
    20
100
AcDbVertex
100
AcDb2dVertex
 10
2.642907
 20
0.248461
 30
0.0
  0
VERTEX
  5
108E2
100
AcDbEntity
  8
WARSTWA_1
  6
CONTINUOUS
 62
    20
100
AcDbVertex
100
AcDb2dVertex
 10
2.613588
 20
0.256886
 30
0.0
  0
VERTEX
  5
108E3
100
AcDbEntity
  8
WARSTWA_1
  6
CONTINUOUS
 62
    20
100
AcDbVertex
100
AcDb2dVertex
 10
2.586942
 20
0.267201
 30
0.0
  0
VERTEX
  5
108E4
100
AcDbEntity
  8
WARSTWA_1
  6
CONTINUOUS
 62
    20
100
AcDbVertex
100
AcDb2dVertex
 10
2.562935
 20
0.279315
 30
0.0
  0
VERTEX
  5
108E5
100
AcDbEntity
  8
WARSTWA_1
  6
CONTINUOUS
 62
    20
100
AcDbVertex
100
AcDb2dVertex
 10
2.541557
 20
0.293252
 30
0.0
  0
VERTEX
  5
108E6
100
AcDbEntity
  8
WARSTWA_1
  6
CONTINUOUS
 62
    20
100
AcDbVertex
100
AcDb2dVertex
 10
2.522836
 20
0.308922
 30
0.0
  0
VERTEX
  5
108E7
100
AcDbEntity
  8
WARSTWA_1
  6
CONTINUOUS
 62
    20
100
AcDbVertex
100
AcDb2dVertex
 10
2.50662
 20
0.326414
 30
0.0
  0
VERTEX
  5
108E8
100
AcDbEntity
  8
WARSTWA_1
  6
CONTINUOUS
 62
    20
100
AcDbVertex
100
AcDb2dVertex
 10
2.492927
 20
0.345705
 30
0.0
  0
VERTEX
  5
108E9
100
AcDbEntity
  8
WARSTWA_1
  6
CONTINUOUS
 62
    20
100
AcDbVertex
100
AcDb2dVertex
 10
2.481667
 20
0.366926
 30
0.0
  0
VERTEX
  5
108EA
100
AcDbEntity
  8
WARSTWA_1
  6
CONTINUOUS
 62
    20
100
AcDbVertex
100
AcDb2dVertex
 10
2.472911
 20
0.390036
 30
0.0
  0
VERTEX
  5
108EB
100
AcDbEntity
  8
WARSTWA_1
  6
CONTINUOUS
 62
    20
100
AcDbVertex
100
AcDb2dVertex
 10
2.466612
 20
0.415166
 30
0.0
  0
VERTEX
  5
108EC
100
AcDbEntity
  8
WARSTWA_1
  6
CONTINUOUS
 62
    20
100
AcDbVertex
100
AcDb2dVertex
 10
2.462816
 20
0.442268
 30
0.0
  0
VERTEX
  5
108ED
100
AcDbEntity
  8
WARSTWA_1
  6
CONTINUOUS
 62
    20
100
AcDbVertex
100
AcDb2dVertex
 10
2.461521
 20
0.471611
 30
0.0
  0
VERTEX
  5
108EE
100
AcDbEntity
  8
WARSTWA_1
  6
CONTINUOUS
 62
    20
100
AcDbVertex
100
AcDb2dVertex
 10
2.461521
 20
1.171386
 30
0.0
  0
VERTEX
  5
108EF
100
AcDbEntity
  8
WARSTWA_1
  6
CONTINUOUS
 62
    20
100
AcDbVertex
100
AcDb2dVertex
 10
2.462816
 20
1.200666
 30
0.0
  0
VERTEX
  5
108F0
100
AcDbEntity
  8
WARSTWA_1
  6
CONTINUOUS
 62
    20
100
AcDbVertex
100
AcDb2dVertex
 10
2.466612
 20
1.227768
 30
0.0
  0
VERTEX
  5
108F1
100
AcDbEntity
  8
WARSTWA_1
  6
CONTINUOUS
 62
    20
100
AcDbVertex
100
AcDb2dVertex
 10
2.472911
 20
1.252874
 30
0.0
  0
VERTEX
  5
108F2
100
AcDbEntity
  8
WARSTWA_1
  6
CONTINUOUS
 62
    20
100
AcDbVertex
100
AcDb2dVertex
 10
2.481667
 20
1.276004
 30
0.0
  0
VERTEX
  5
108F3
100
AcDbEntity
  8
WARSTWA_1
  6
CONTINUOUS
 62
    20
100
AcDbVertex
100
AcDb2dVertex
 10
2.492927
 20
1.297185
 30
0.0
  0
VERTEX
  5
108F4
100
AcDbEntity
  8
WARSTWA_1
  6
CONTINUOUS
 62
    20
100
AcDbVertex
100
AcDb2dVertex
 10
2.50662
 20
1.316516
 30
0.0
  0
VERTEX
  5
108F5
100
AcDbEntity
  8
WARSTWA_1
  6
CONTINUOUS
 62
    20
100
AcDbVertex
100
AcDb2dVertex
 10
2.522836
 20
1.334008
 30
0.0
  0
VERTEX
  5
108F6
100
AcDbEntity
  8
WARSTWA_1
  6
CONTINUOUS
 62
    20
100
AcDbVertex
100
AcDb2dVertex
 10
2.541557
 20
1.349721
 30
0.0
  0
VERTEX
  5
108F7
100
AcDbEntity
  8
WARSTWA_1
  6
CONTINUOUS
 62
    20
100
AcDbVertex
100
AcDb2dVertex
 10
2.562935
 20
1.363615
 30
0.0
  0
VERTEX
  5
108F8
100
AcDbEntity
  8
WARSTWA_1
  6
CONTINUOUS
 62
    20
100
AcDbVertex
100
AcDb2dVertex
 10
2.586942
 20
1.375729
 30
0.0
  0
VERTEX
  5
108F9
100
AcDbEntity
  8
WARSTWA_1
  6
CONTINUOUS
 62
    20
100
AcDbVertex
100
AcDb2dVertex
 10
2.613588
 20
1.386044
 30
0.0
  0
VERTEX
  5
108FA
100
AcDbEntity
  8
WARSTWA_1
  6
CONTINUOUS
 62
    20
100
AcDbVertex
100
AcDb2dVertex
 10
2.642907
 20
1.394516
 30
0.0
  0
VERTEX
  5
108FB
100
AcDbEntity
  8
WARSTWA_1
  6
CONTINUOUS
 62
    20
100
AcDbVertex
100
AcDb2dVertex
 10
2.67495
 20
1.401142
 30
0.0
  0
VERTEX
  5
108FC
100
AcDbEntity
  8
WARSTWA_1
  6
CONTINUOUS
 62
    20
100
AcDbVertex
100
AcDb2dVertex
 10
2.709624
 20
1.405882
 30
0.0
  0
VERTEX
  5
108FD
100
AcDbEntity
  8
WARSTWA_1
  6
CONTINUOUS
 62
    20
100
AcDbVertex
100
AcDb2dVertex
 10
2.746998
 20
1.408737
 30
0.0
  0
VERTEX
  5
108FE
100
AcDbEntity
  8
WARSTWA_1
  6
CONTINUOUS
 62
    20
100
AcDbVertex
100
AcDb2dVertex
 10
2.787005
 20
1.409725
 30
0.0
  0
VERTEX
  5
108FF
100
AcDbEntity
  8
WARSTWA_1
  6
CONTINUOUS
 62
    20
100
AcDbVertex
100
AcDb2dVertex
 10
2.827541
 20
1.408756
 30
0.0
  0
VERTEX
  5
10900
100
AcDbEntity
  8
WARSTWA_1
  6
CONTINUOUS
 62
    20
100
AcDbVertex
100
AcDb2dVertex
 10
2.865332
 20
1.406036
 30
0.0
  0
VERTEX
  5
10901
100
AcDbEntity
  8
WARSTWA_1
  6
CONTINUOUS
 62
    20
100
AcDbVertex
100
AcDb2dVertex
 10
2.900427
 20
1.401449
 30
0.0
  0
VERTEX
  5
10902
100
AcDbEntity
  8
WARSTWA_1
  6
CONTINUOUS
 62
    20
100
AcDbVertex
100
AcDb2dVertex
 10
2.932797
 20
1.395107
 30
0.0
  0
VERTEX
  5
10903
100
AcDbEntity
  8
WARSTWA_1
  6
CONTINUOUS
 62
    20
100
AcDbVertex
100
AcDb2dVertex
 10
2.96249
 20
1.386945
 30
0.0
  0
VERTEX
  5
10904
100
AcDbEntity
  8
WARSTWA_1
  6
CONTINUOUS
 62
    20
100
AcDbVertex
100
AcDb2dVertex
 10
2.989438
 20
1.377024
 30
0.0
  0
VERTEX
  5
10905
100
AcDbEntity
  8
WARSTWA_1
  6
CONTINUOUS
 62
    20
100
AcDbVertex
100
AcDb2dVertex
 10
3.013734
 20
1.365371
 30
0.0
  0
VERTEX
  5
10906
100
AcDbEntity
  8
WARSTWA_1
  6
CONTINUOUS
 62
    20
100
AcDbVertex
100
AcDb2dVertex
 10
3.035265
 20
1.352028
 30
0.0
  0
VERTEX
  5
10907
100
AcDbEntity
  8
WARSTWA_1
  6
CONTINUOUS
 62
    20
100
AcDbVertex
100
AcDb2dVertex
 10
3.054249
 20
1.33693
 30
0.0
  0
VERTEX
  5
10908
100
AcDbEntity
  8
WARSTWA_1
  6
CONTINUOUS
 62
    20
100
AcDbVertex
100
AcDb2dVertex
 10
3.070576
 20
1.320162
 30
0.0
  0
VERTEX
  5
10909
100
AcDbEntity
  8
WARSTWA_1
  6
CONTINUOUS
 62
    20
100
AcDbVertex
100
AcDb2dVertex
 10
3.084423
 20
1.301638
 30
0.0
  0
VERTEX
  5
1090A
100
AcDbEntity
  8
WARSTWA_1
  6
CONTINUOUS
 62
    20
100
AcDbVertex
100
AcDb2dVertex
 10
3.095706
 20
1.281382
 30
0.0
  0
VERTEX
  5
1090B
100
AcDbEntity
  8
WARSTWA_1
  6
CONTINUOUS
 62
    20
100
AcDbVertex
100
AcDb2dVertex
 10
3.104505
 20
1.259237
 30
0.0
  0
VERTEX
  5
1090C
100
AcDbEntity
  8
WARSTWA_1
  6
CONTINUOUS
 62
    20
100
AcDbVertex
100
AcDb2dVertex
 10
3.110848
 20
1.235272
 30
0.0
  0
VERTEX
  5
1090D
100
AcDbEntity
  8
WARSTWA_1
  6
CONTINUOUS
 62
    20
100
AcDbVertex
100
AcDb2dVertex
 10
3.114643
 20
1.209378
 30
0.0
  0
VERTEX
  5
1090E
100
AcDbEntity
  8
WARSTWA_1
  6
CONTINUOUS
 62
    20
100
AcDbVertex
100
AcDb2dVertex
 10
3.115938
 20
1.181374
 30
0.0
  0
SEQEND
  5
1090F
100
AcDbEntity
  8
0
 62
    20
  0
HATCH
  5
10910
100
AcDbEntity
  8
0
  6
CONTINUOUS
 62
    20
100
AcDbHatch
 10
0.0
 20
0.0
 30
0.0
210
0.0
220
0.0
230
1.0
  2
SOLID
 70
     1
 71
     1
 91
        2
 92
        7
 72
     0
 73
     1
 93
       63
 10
0.2052417699289691
 20
0.7343429936242992
 10
0.205241769928969
 20
0.5793469936242991
 10
0.2259127699289682
 20
0.6091739936242986
 10
0.2484447699289682
 20
0.6369009936242983
 10
0.2727547699289683
 20
0.6625819936242992
 10
0.2987587699289692
 20
0.6862679936242998
 10
0.3263747699289694
 20
0.7080129936242991
 10
0.35552076992897
 20
0.7278669936243003
 10
0.386112769928969
 20
0.7458849936242982
 10
0.4180667699289681
 20
0.7621169936242992
 10
0.4513017699289697
 20
0.7766169936242995
 10
0.4857347699289689
 20
0.7894369936242992
 10
0.5212817699289684
 20
0.8006289936242986
 10
0.5578607699289701
 20
0.8102449936242988
 10
0.5953877699289685
 20
0.8183389936242983
 10
0.6337817699289695
 20
0.8249609936242997
 10
0.6729577699289675
 20
0.8301659936242991
 10
0.7070367699289653
 20
0.8326969936242988
 10
0.7416427699289656
 20
0.834551993624299
 10
0.7778907699289652
 20
0.835858993624299
 10
0.8193517699289701
 20
0.838999993624299
 10
0.8599027699289708
 20
0.8447369936242989
 10
0.8989577699289682
 20
0.8532369936242989
 10
0.9365167699289676
 20
0.8645589936242988
 10
0.9724307699289685
 20
0.8789649936242987
 10
1.006489769928968
 20
0.8964449936242989
 10
1.038540769928969
 20
0.917133993624299
 10
1.068382769928969
 20
0.9410669936242992
 10
1.095859769928968
 20
0.9682519936242986
 10
1.120745769928969
 20
0.9985559936242999
 10
1.142969769928968
 20
1.031936993624298
 10
1.162457769928969
 20
1.0682719936243
 10
1.179221769928968
 20
1.107598993624298
 10
1.193201769928968
 20
1.1498189936243
 10
1.204504769928968
 20
1.195007993624298
 10
1.213595769928969
 20
1.2459809936243
 10
1.213595769928968
 20
1.539058993624297
 10
1.211528769928968
 20
1.5634809936243
 10
1.204233769928968
 20
1.589082993624299
 10
1.191662769928969
 20
1.613015993624299
 10
1.173780769928968
 20
1.633787993624297
 10
1.151552769928968
 20
1.650299993624299
 10
1.125930769928967
 20
1.661940993624299
 10
1.09798976992897
 20
1.668814993624299
 10
1.069500769928968
 20
1.671070993624298
 10
0.3323637699289676
 20
1.671070993624299
 10
0.3089347699289691
 20
1.670058993624298
 10
0.2842607699289679
 20
1.665421993624298
 10
0.2603047699289684
 20
1.656184993624298
 10
0.2382257699289695
 20
1.641338993624298
 10
0.2202567699289681
 20
1.620988993624298
 10
0.2078357699289688
 20
1.596755993624298
 10
0.2011507699289692
 20
1.570480993624299
 10
0.1992727699289687
 20
1.544712993624299
 10
0.1992727699289687
 20
0.9418079936242991
 10
0.1988317699289689
 20
0.9417449936242984
 10
0.1580877699289691
 20
0.9320829936242988
 10
0.1214817699289682
 20
0.9192839936242995
 10
0.0888787699289694
 20
0.9027089936242994
 10
0.0605757699289691
 20
0.8816419936242992
 10
0.0375917699289686
 20
0.8553229936242988
 10
0.0217337699289693
 20
0.8242209936242989
 10
0.0018677699289688
 20
0.7343429936242992
 97
        1
330
10974
 92
       22
 72
     0
 73
     1
 93
       95
 10
0.1126277699289688
 20
0.784952993624299
 10
0.0648787699289688
 20
0.784952993624299
 10
0.0725127699289688
 20
0.8137929936242993
 10
0.0894257699289689
 20
0.838652993624299
 10
0.1156197699289689
 20
0.8595359936242996
 10
0.151093769928969
 20
0.8764429936242992
 10
0.1958487699289689
 20
0.8893779936242989
 10
0.2498867699289686
 20
0.8983429936242991
 10
0.2498867699289686
 20
0.9362569936242991
 10
0.2498867699289686
 20
0.9741709936242992
 10
0.2498867699289686
 20
1.012084993624299
 10
0.2498867699289686
 20
1.049998993624298
 10
0.2498867699289686
 20
1.087912993624299
 10
0.2498867699289686
 20
1.125825993624299
 10
0.2498867699289686
 20
1.163739993624299
 10
0.2498867699289686
 20
1.201653993624299
 10
0.2498867699289686
 20
1.239567993624299
 10
0.2498867699289686
 20
1.277480993624299
 10
0.2498867699289686
 20
1.315394993624298
 10
0.2498867699289686
 20
1.353308993624299
 10
0.2498867699289686
 20
1.391222993624298
 10
0.2498867699289686
 20
1.429135993624299
 10
0.2498867699289686
 20
1.467049993624299
 10
0.2498867699289686
 20
1.504963993624299
 10
0.2498867699289686
 20
1.542877993624299
 10
0.259747769928969
 20
1.588047993624299
 10
0.2883307699289686
 20
1.613119993624299
 10
0.3334377699289708
 20
1.620460993624299
 10
0.3701407699289687
 20
1.620460993624299
 10
0.4068437699289689
 20
1.620460993624299
 10
0.4435467699289691
 20
1.620460993624299
 10
0.4802497699289688
 20
1.620460993624299
 10
0.5169517699289688
 20
1.620460993624299
 10
0.5536547699289689
 20
1.620460993624299
 10
0.5903577699289691
 20
1.620460993624299
 10
0.6270607699289688
 20
1.620460993624299
 10
0.6637637699289689
 20
1.620460993624299
 10
0.7004667699289691
 20
1.620460993624299
 10
0.7371687699289687
 20
1.620460993624299
 10
0.7738717699289688
 20
1.620460993624299
 10
0.810574769928969
 20
1.620460993624299
 10
0.8472777699289686
 20
1.620460993624299
 10
0.8839807699289687
 20
1.620460993624299
 10
0.9206847699289685
 20
1.620460993624299
 10
0.9573877699289688
 20
1.620460993624299
 10
0.9940907699289688
 20
1.620460993624299
 10
1.030793769928968
 20
1.620460993624299
 10
1.067497769928968
 20
1.620460993624299
 10
1.120514769928968
 20
1.609202993624299
 10
1.152336769928968
 20
1.579813993624298
 10
1.162981769928968
 20
1.536909993624299
 10
1.162981769928968
 20
1.495987993624298
 10
1.162981769928968
 20
1.455064993624299
 10
1.162981769928968
 20
1.414142993624299
 10
1.162981769928968
 20
1.373218993624299
 10
1.162981769928968
 20
1.332295993624299
 10
1.162981769928968
 20
1.291372993624298
 10
1.162981769928968
 20
1.250448993624298
 10
1.155494769928969
 20
1.2081139936243
 10
1.145890769928968
 20
1.168666993624301
 10
1.134209769928969
 20
1.132052993624299
 10
1.120492769928969
 20
1.0982179936243
 10
1.104779769928968
 20
1.067106993624299
 10
1.087109769928967
 20
1.038665993624297
 10
1.067522769928968
 20
1.012840993624299
 10
1.046059769928968
 20
0.9895749936242989
 10
1.022760769928969
 20
0.9688159936242993
 10
0.9976657699289688
 20
0.9505079936242989
 10
0.9708137699289689
 20
0.934596993624299
 10
0.9422457699289681
 20
0.9210279936242988
 10
0.9120017699289691
 20
0.909747993624299
 10
0.8801207699289673
 20
0.9006999936242991
 10
0.8466447699289696
 20
0.893830993624299
 10
0.8116127699289668
 20
0.8890859936242994
 10
0.7750637699289717
 20
0.886409993624299
 10
0.7369467699289645
 20
0.8849829936242983
 10
0.6990517699289603
 20
0.8828839936242991
 10
0.6614427699289709
 20
0.8799239936242996
 10
0.6241847699289681
 20
0.8759089936242995
 10
0.587340769928967
 20
0.8706489936242983
 10
0.5509767699289682
 20
0.8639519936242992
 10
0.5151557699289703
 20
0.8556249936242991
 10
0.4799417699289677
 20
0.8454779936242994
 10
0.445400769928969
 20
0.8333189936242991
 10
0.411594769928968
 20
0.8189549936242993
 10
0.3785897699289693
 20
0.8021959936243
 10
0.3464487699289693
 20
0.7828499936242987
 10
0.315236769928968
 20
0.7607249936242987
 10
0.285017769928969
 20
0.7356289936242996
 10
0.255855769928969
 20
0.707370993624299
 10
0.255855769928969
 20
0.7332259936242989
 10
0.255855769928969
 20
0.759084993624299
 10
0.255855769928969
 20
0.784952993624299
 10
0.2081177699289687
 20
0.784952993624299
 10
0.1603747699289686
 20
0.784952993624299
 97
        1
330
10912
 75
     0
 76
     1
 47
0.007755
 98
        2
 10
0.112883
 20
0.76454
 10
0.112883
 20
0.76454
  0
HATCH
  5
10911
100
AcDbEntity
  8
0
  6
CONTINUOUS
 62
    20
100
AcDbHatch
 10
0.0
 20
0.0
 30
0.0
210
0.0
220
0.0
230
1.0
  2
SOLID
 70
     1
 71
     1
 91
        1
 92
        7
 72
     0
 73
     1
 93
       68
 10
1.225063769928968
 20
0.731850993624299
 10
1.225508769928968
 20
0.731917993624299
 10
1.225867769928968
 20
0.789220993624299
 10
1.251944769928969
 20
0.7949229936242992
 10
1.27765576992897
 20
0.8028549936242995
 10
1.302859769928969
 20
0.811614993624299
 10
1.342716769928968
 20
0.8349759936242984
 10
1.370579769928968
 20
0.8587859936242995
 10
1.389481769928969
 20
0.8850969936242993
 10
1.402456769928968
 20
0.9159629936242982
 10
1.412536769928969
 20
0.9534359936243072
 10
1.422756769928968
 20
0.9995669936242988
 10
1.216666769928969
 20
0.9995669936242991
 10
1.216579769928968
 20
0.9992639936242998
 10
1.216567769928968
 20
0.9995669936242988
 10
1.195471769928968
 20
0.9613549936242986
 10
1.172984769928967
 20
0.927359993624298
 10
1.149186769928969
 20
0.8973189936242995
 10
1.12415476992897
 20
0.8709699936243001
 10
1.097967769928969
 20
0.8480499936243001
 10
1.070703769928968
 20
0.8282979936242991
 10
1.042441769928968
 20
0.8114499936242987
 10
1.013258769928969
 20
0.7972449936242987
 10
0.9832337699289691
 20
0.7854199936242989
 10
0.9524447699289677
 20
0.7757139936242985
 10
0.9209707699289669
 20
0.7678619936242985
 10
0.888889769928968
 20
0.7616039936242986
 10
0.8562797699289662
 20
0.7566769936242989
 10
0.8232187699289658
 20
0.7528189936242985
 10
0.789785769928966
 20
0.7497669936242981
 10
0.7560587699289674
 20
0.7472589936242992
 10
0.7221157699289652
 20
0.745031993624299
 10
0.6921567699289719
 20
0.7426069936242997
 10
0.6615577699289697
 20
0.7390369936242989
 10
0.6304717699289667
 20
0.7342119936242982
 10
0.5990537699289699
 20
0.7280269936242993
 10
0.5674577699289707
 20
0.7203729936242994
 10
0.5358377699289684
 20
0.7111439936242988
 10
0.5043497699289701
 20
0.7002309936242999
 10
0.473145769928969
 20
0.6875279936242992
 10
0.4423817699289684
 20
0.6729269936242993
 10
0.412211769928968
 20
0.6563199936242982
 10
0.3827897699289692
 20
0.6376009936243
 10
0.3542707699289679
 20
0.6166619936242986
 10
0.3268077699289688
 20
0.5933949936242989
 10
0.3005567699289693
 20
0.5676929936242998
 10
0.2756707699289691
 20
0.5394489936242995
 10
0.2523047699289687
 20
0.5085559936242993
 10
0.2306127699289689
 20
0.4749049936242995
 10
0.2107487699289691
 20
0.4383899936242988
 10
0.2107487699289692
 20
0.1345949936242981
 10
0.2128117699289689
 20
0.110177993624299
 10
0.2201077699289692
 20
0.0845749936242992
 10
0.2326747699289689
 20
0.0606419936242987
 10
0.2505607699289685
 20
0.039873993624299
 10
0.2727887699289689
 20
0.0233589936242992
 10
0.2984107699289688
 20
0.0117169936242991
 10
0.3263517699289688
 20
0.0048429936242993
 10
0.3548397699289691
 20
0.0025869936242993
 10
1.091977769928968
 20
0.0025869936242993
 10
1.115406769928968
 20
0.0036029936242992
 10
1.140083769928968
 20
0.0082369936242989
 10
1.164040769928969
 20
0.0174769936242991
 10
1.186119769928968
 20
0.0323229936242989
 10
1.204083769928969
 20
0.0526739936242984
 10
1.216504769928968
 20
0.0769019936242993
 10
1.223189769928968
 20
0.1031779936242981
 10
1.225063769928968
 20
0.1289449936243001
 97
        1
330
109B5
 75
     0
 76
     1
 47
0.007755
 98
        1
 10
1.090843
 20
0.586165
  0
POLYLINE
  5
10912
102
{ACAD_REACTORS
330
10910
102
}
100
AcDbEntity
  8
WARSTWA_1
  6
CONTINUOUS
 62
    20
100
AcDb2dPolyline
 66
     1
 10
0.0
 20
0.0
 30
0.0
 70
     1
 40
0.003
 41
0.003
  0
VERTEX
  5
10913
100
AcDbEntity
  8
WARSTWA_1
  6
CONTINUOUS
 62
    20
100
AcDbVertex
100
AcDb2dVertex
 10
0.255856
 20
0.707371
 30
0.0
  0
VERTEX
  5
10914
100
AcDbEntity
  8
WARSTWA_1
  6
CONTINUOUS
 62
    20
100
AcDbVertex
100
AcDb2dVertex
 10
0.255856
 20
0.733226
 30
0.0
  0
VERTEX
  5
10915
100
AcDbEntity
  8
WARSTWA_1
  6
CONTINUOUS
 62
    20
100
AcDbVertex
100
AcDb2dVertex
 10
0.255856
 20
0.759085
 30
0.0
  0
VERTEX
  5
10916
100
AcDbEntity
  8
WARSTWA_1
  6
CONTINUOUS
 62
    20
100
AcDbVertex
100
AcDb2dVertex
 10
0.255856
 20
0.784953
 30
0.0
  0
VERTEX
  5
10917
100
AcDbEntity
  8
WARSTWA_1
  6
CONTINUOUS
 62
    20
100
AcDbVertex
100
AcDb2dVertex
 10
0.208118
 20
0.784953
 30
0.0
  0
VERTEX
  5
10918
100
AcDbEntity
  8
WARSTWA_1
  6
CONTINUOUS
 62
    20
100
AcDbVertex
100
AcDb2dVertex
 10
0.160375
 20
0.784953
 30
0.0
  0
VERTEX
  5
10919
100
AcDbEntity
  8
WARSTWA_1
  6
CONTINUOUS
 62
    20
100
AcDbVertex
100
AcDb2dVertex
 10
0.112628
 20
0.784953
 30
0.0
  0
VERTEX
  5
1091A
100
AcDbEntity
  8
WARSTWA_1
  6
CONTINUOUS
 62
    20
100
AcDbVertex
100
AcDb2dVertex
 10
0.064879
 20
0.784953
 30
0.0
  0
VERTEX
  5
1091B
100
AcDbEntity
  8
WARSTWA_1
  6
CONTINUOUS
 62
    20
100
AcDbVertex
100
AcDb2dVertex
 10
0.072513
 20
0.813793
 30
0.0
  0
VERTEX
  5
1091C
100
AcDbEntity
  8
WARSTWA_1
  6
CONTINUOUS
 62
    20
100
AcDbVertex
100
AcDb2dVertex
 10
0.089426
 20
0.838653
 30
0.0
  0
VERTEX
  5
1091D
100
AcDbEntity
  8
WARSTWA_1
  6
CONTINUOUS
 62
    20
100
AcDbVertex
100
AcDb2dVertex
 10
0.11562
 20
0.859536
 30
0.0
  0
VERTEX
  5
1091E
100
AcDbEntity
  8
WARSTWA_1
  6
CONTINUOUS
 62
    20
100
AcDbVertex
100
AcDb2dVertex
 10
0.151094
 20
0.876443
 30
0.0
  0
VERTEX
  5
1091F
100
AcDbEntity
  8
WARSTWA_1
  6
CONTINUOUS
 62
    20
100
AcDbVertex
100
AcDb2dVertex
 10
0.195849
 20
0.889378
 30
0.0
  0
VERTEX
  5
10920
100
AcDbEntity
  8
WARSTWA_1
  6
CONTINUOUS
 62
    20
100
AcDbVertex
100
AcDb2dVertex
 10
0.249887
 20
0.898343
 30
0.0
  0
VERTEX
  5
10921
100
AcDbEntity
  8
WARSTWA_1
  6
CONTINUOUS
 62
    20
100
AcDbVertex
100
AcDb2dVertex
 10
0.249887
 20
0.936257
 30
0.0
  0
VERTEX
  5
10922
100
AcDbEntity
  8
WARSTWA_1
  6
CONTINUOUS
 62
    20
100
AcDbVertex
100
AcDb2dVertex
 10
0.249887
 20
0.974171
 30
0.0
  0
VERTEX
  5
10923
100
AcDbEntity
  8
WARSTWA_1
  6
CONTINUOUS
 62
    20
100
AcDbVertex
100
AcDb2dVertex
 10
0.249887
 20
1.012085
 30
0.0
  0
VERTEX
  5
10924
100
AcDbEntity
  8
WARSTWA_1
  6
CONTINUOUS
 62
    20
100
AcDbVertex
100
AcDb2dVertex
 10
0.249887
 20
1.049999
 30
0.0
  0
VERTEX
  5
10925
100
AcDbEntity
  8
WARSTWA_1
  6
CONTINUOUS
 62
    20
100
AcDbVertex
100
AcDb2dVertex
 10
0.249887
 20
1.087913
 30
0.0
  0
VERTEX
  5
10926
100
AcDbEntity
  8
WARSTWA_1
  6
CONTINUOUS
 62
    20
100
AcDbVertex
100
AcDb2dVertex
 10
0.249887
 20
1.125826
 30
0.0
  0
VERTEX
  5
10927
100
AcDbEntity
  8
WARSTWA_1
  6
CONTINUOUS
 62
    20
100
AcDbVertex
100
AcDb2dVertex
 10
0.249887
 20
1.16374
 30
0.0
  0
VERTEX
  5
10928
100
AcDbEntity
  8
WARSTWA_1
  6
CONTINUOUS
 62
    20
100
AcDbVertex
100
AcDb2dVertex
 10
0.249887
 20
1.201654
 30
0.0
  0
VERTEX
  5
10929
100
AcDbEntity
  8
WARSTWA_1
  6
CONTINUOUS
 62
    20
100
AcDbVertex
100
AcDb2dVertex
 10
0.249887
 20
1.239568
 30
0.0
  0
VERTEX
  5
1092A
100
AcDbEntity
  8
WARSTWA_1
  6
CONTINUOUS
 62
    20
100
AcDbVertex
100
AcDb2dVertex
 10
0.249887
 20
1.277481
 30
0.0
  0
VERTEX
  5
1092B
100
AcDbEntity
  8
WARSTWA_1
  6
CONTINUOUS
 62
    20
100
AcDbVertex
100
AcDb2dVertex
 10
0.249887
 20
1.315395
 30
0.0
  0
VERTEX
  5
1092C
100
AcDbEntity
  8
WARSTWA_1
  6
CONTINUOUS
 62
    20
100
AcDbVertex
100
AcDb2dVertex
 10
0.249887
 20
1.353309
 30
0.0
  0
VERTEX
  5
1092D
100
AcDbEntity
  8
WARSTWA_1
  6
CONTINUOUS
 62
    20
100
AcDbVertex
100
AcDb2dVertex
 10
0.249887
 20
1.391223
 30
0.0
  0
VERTEX
  5
1092E
100
AcDbEntity
  8
WARSTWA_1
  6
CONTINUOUS
 62
    20
100
AcDbVertex
100
AcDb2dVertex
 10
0.249887
 20
1.429136
 30
0.0
  0
VERTEX
  5
1092F
100
AcDbEntity
  8
WARSTWA_1
  6
CONTINUOUS
 62
    20
100
AcDbVertex
100
AcDb2dVertex
 10
0.249887
 20
1.46705
 30
0.0
  0
VERTEX
  5
10930
100
AcDbEntity
  8
WARSTWA_1
  6
CONTINUOUS
 62
    20
100
AcDbVertex
100
AcDb2dVertex
 10
0.249887
 20
1.504964
 30
0.0
  0
VERTEX
  5
10931
100
AcDbEntity
  8
WARSTWA_1
  6
CONTINUOUS
 62
    20
100
AcDbVertex
100
AcDb2dVertex
 10
0.249887
 20
1.542878
 30
0.0
  0
VERTEX
  5
10932
100
AcDbEntity
  8
WARSTWA_1
  6
CONTINUOUS
 62
    20
100
AcDbVertex
100
AcDb2dVertex
 10
0.259748
 20
1.588048
 30
0.0
  0
VERTEX
  5
10933
100
AcDbEntity
  8
WARSTWA_1
  6
CONTINUOUS
 62
    20
100
AcDbVertex
100
AcDb2dVertex
 10
0.288331
 20
1.61312
 30
0.0
  0
VERTEX
  5
10934
100
AcDbEntity
  8
WARSTWA_1
  6
CONTINUOUS
 62
    20
100
AcDbVertex
100
AcDb2dVertex
 10
0.333438
 20
1.620461
 30
0.0
  0
VERTEX
  5
10935
100
AcDbEntity
  8
WARSTWA_1
  6
CONTINUOUS
 62
    20
100
AcDbVertex
100
AcDb2dVertex
 10
0.370141
 20
1.620461
 30
0.0
  0
VERTEX
  5
10936
100
AcDbEntity
  8
WARSTWA_1
  6
CONTINUOUS
 62
    20
100
AcDbVertex
100
AcDb2dVertex
 10
0.406844
 20
1.620461
 30
0.0
  0
VERTEX
  5
10937
100
AcDbEntity
  8
WARSTWA_1
  6
CONTINUOUS
 62
    20
100
AcDbVertex
100
AcDb2dVertex
 10
0.443547
 20
1.620461
 30
0.0
  0
VERTEX
  5
10938
100
AcDbEntity
  8
WARSTWA_1
  6
CONTINUOUS
 62
    20
100
AcDbVertex
100
AcDb2dVertex
 10
0.48025
 20
1.620461
 30
0.0
  0
VERTEX
  5
10939
100
AcDbEntity
  8
WARSTWA_1
  6
CONTINUOUS
 62
    20
100
AcDbVertex
100
AcDb2dVertex
 10
0.516952
 20
1.620461
 30
0.0
  0
VERTEX
  5
1093A
100
AcDbEntity
  8
WARSTWA_1
  6
CONTINUOUS
 62
    20
100
AcDbVertex
100
AcDb2dVertex
 10
0.553655
 20
1.620461
 30
0.0
  0
VERTEX
  5
1093B
100
AcDbEntity
  8
WARSTWA_1
  6
CONTINUOUS
 62
    20
100
AcDbVertex
100
AcDb2dVertex
 10
0.590358
 20
1.620461
 30
0.0
  0
VERTEX
  5
1093C
100
AcDbEntity
  8
WARSTWA_1
  6
CONTINUOUS
 62
    20
100
AcDbVertex
100
AcDb2dVertex
 10
0.627061
 20
1.620461
 30
0.0
  0
VERTEX
  5
1093D
100
AcDbEntity
  8
WARSTWA_1
  6
CONTINUOUS
 62
    20
100
AcDbVertex
100
AcDb2dVertex
 10
0.663764
 20
1.620461
 30
0.0
  0
VERTEX
  5
1093E
100
AcDbEntity
  8
WARSTWA_1
  6
CONTINUOUS
 62
    20
100
AcDbVertex
100
AcDb2dVertex
 10
0.700467
 20
1.620461
 30
0.0
  0
VERTEX
  5
1093F
100
AcDbEntity
  8
WARSTWA_1
  6
CONTINUOUS
 62
    20
100
AcDbVertex
100
AcDb2dVertex
 10
0.737169
 20
1.620461
 30
0.0
  0
VERTEX
  5
10940
100
AcDbEntity
  8
WARSTWA_1
  6
CONTINUOUS
 62
    20
100
AcDbVertex
100
AcDb2dVertex
 10
0.773872
 20
1.620461
 30
0.0
  0
VERTEX
  5
10941
100
AcDbEntity
  8
WARSTWA_1
  6
CONTINUOUS
 62
    20
100
AcDbVertex
100
AcDb2dVertex
 10
0.810575
 20
1.620461
 30
0.0
  0
VERTEX
  5
10942
100
AcDbEntity
  8
WARSTWA_1
  6
CONTINUOUS
 62
    20
100
AcDbVertex
100
AcDb2dVertex
 10
0.847278
 20
1.620461
 30
0.0
  0
VERTEX
  5
10943
100
AcDbEntity
  8
WARSTWA_1
  6
CONTINUOUS
 62
    20
100
AcDbVertex
100
AcDb2dVertex
 10
0.883981
 20
1.620461
 30
0.0
  0
VERTEX
  5
10944
100
AcDbEntity
  8
WARSTWA_1
  6
CONTINUOUS
 62
    20
100
AcDbVertex
100
AcDb2dVertex
 10
0.920685
 20
1.620461
 30
0.0
  0
VERTEX
  5
10945
100
AcDbEntity
  8
WARSTWA_1
  6
CONTINUOUS
 62
    20
100
AcDbVertex
100
AcDb2dVertex
 10
0.957388
 20
1.620461
 30
0.0
  0
VERTEX
  5
10946
100
AcDbEntity
  8
WARSTWA_1
  6
CONTINUOUS
 62
    20
100
AcDbVertex
100
AcDb2dVertex
 10
0.994091
 20
1.620461
 30
0.0
  0
VERTEX
  5
10947
100
AcDbEntity
  8
WARSTWA_1
  6
CONTINUOUS
 62
    20
100
AcDbVertex
100
AcDb2dVertex
 10
1.030794
 20
1.620461
 30
0.0
  0
VERTEX
  5
10948
100
AcDbEntity
  8
WARSTWA_1
  6
CONTINUOUS
 62
    20
100
AcDbVertex
100
AcDb2dVertex
 10
1.067498
 20
1.620461
 30
0.0
  0
VERTEX
  5
10949
100
AcDbEntity
  8
WARSTWA_1
  6
CONTINUOUS
 62
    20
100
AcDbVertex
100
AcDb2dVertex
 10
1.067498
 20
1.620461
 30
0.0
  0
VERTEX
  5
1094A
100
AcDbEntity
  8
WARSTWA_1
  6
CONTINUOUS
 62
    20
100
AcDbVertex
100
AcDb2dVertex
 10
1.120515
 20
1.609203
 30
0.0
  0
VERTEX
  5
1094B
100
AcDbEntity
  8
WARSTWA_1
  6
CONTINUOUS
 62
    20
100
AcDbVertex
100
AcDb2dVertex
 10
1.152337
 20
1.579814
 30
0.0
  0
VERTEX
  5
1094C
100
AcDbEntity
  8
WARSTWA_1
  6
CONTINUOUS
 62
    20
100
AcDbVertex
100
AcDb2dVertex
 10
1.162982
 20
1.53691
 30
0.0
  0
VERTEX
  5
1094D
100
AcDbEntity
  8
WARSTWA_1
  6
CONTINUOUS
 62
    20
100
AcDbVertex
100
AcDb2dVertex
 10
1.162982
 20
1.495988
 30
0.0
  0
VERTEX
  5
1094E
100
AcDbEntity
  8
WARSTWA_1
  6
CONTINUOUS
 62
    20
100
AcDbVertex
100
AcDb2dVertex
 10
1.162982
 20
1.455065
 30
0.0
  0
VERTEX
  5
1094F
100
AcDbEntity
  8
WARSTWA_1
  6
CONTINUOUS
 62
    20
100
AcDbVertex
100
AcDb2dVertex
 10
1.162982
 20
1.414143
 30
0.0
  0
VERTEX
  5
10950
100
AcDbEntity
  8
WARSTWA_1
  6
CONTINUOUS
 62
    20
100
AcDbVertex
100
AcDb2dVertex
 10
1.162982
 20
1.373219
 30
0.0
  0
VERTEX
  5
10951
100
AcDbEntity
  8
WARSTWA_1
  6
CONTINUOUS
 62
    20
100
AcDbVertex
100
AcDb2dVertex
 10
1.162982
 20
1.332296
 30
0.0
  0
VERTEX
  5
10952
100
AcDbEntity
  8
WARSTWA_1
  6
CONTINUOUS
 62
    20
100
AcDbVertex
100
AcDb2dVertex
 10
1.162982
 20
1.291373
 30
0.0
  0
VERTEX
  5
10953
100
AcDbEntity
  8
WARSTWA_1
  6
CONTINUOUS
 62
    20
100
AcDbVertex
100
AcDb2dVertex
 10
1.162982
 20
1.250449
 30
0.0
  0
VERTEX
  5
10954
100
AcDbEntity
  8
WARSTWA_1
  6
CONTINUOUS
 62
    20
100
AcDbVertex
100
AcDb2dVertex
 10
1.155495
 20
1.208114
 30
0.0
  0
VERTEX
  5
10955
100
AcDbEntity
  8
WARSTWA_1
  6
CONTINUOUS
 62
    20
100
AcDbVertex
100
AcDb2dVertex
 10
1.145891
 20
1.168667
 30
0.0
  0
VERTEX
  5
10956
100
AcDbEntity
  8
WARSTWA_1
  6
CONTINUOUS
 62
    20
100
AcDbVertex
100
AcDb2dVertex
 10
1.13421
 20
1.132053
 30
0.0
  0
VERTEX
  5
10957
100
AcDbEntity
  8
WARSTWA_1
  6
CONTINUOUS
 62
    20
100
AcDbVertex
100
AcDb2dVertex
 10
1.120493
 20
1.098218
 30
0.0
  0
VERTEX
  5
10958
100
AcDbEntity
  8
WARSTWA_1
  6
CONTINUOUS
 62
    20
100
AcDbVertex
100
AcDb2dVertex
 10
1.10478
 20
1.067107
 30
0.0
  0
VERTEX
  5
10959
100
AcDbEntity
  8
WARSTWA_1
  6
CONTINUOUS
 62
    20
100
AcDbVertex
100
AcDb2dVertex
 10
1.08711
 20
1.038666
 30
0.0
  0
VERTEX
  5
1095A
100
AcDbEntity
  8
WARSTWA_1
  6
CONTINUOUS
 62
    20
100
AcDbVertex
100
AcDb2dVertex
 10
1.067523
 20
1.012841
 30
0.0
  0
VERTEX
  5
1095B
100
AcDbEntity
  8
WARSTWA_1
  6
CONTINUOUS
 62
    20
100
AcDbVertex
100
AcDb2dVertex
 10
1.04606
 20
0.989575
 30
0.0
  0
VERTEX
  5
1095C
100
AcDbEntity
  8
WARSTWA_1
  6
CONTINUOUS
 62
    20
100
AcDbVertex
100
AcDb2dVertex
 10
1.022761
 20
0.968816
 30
0.0
  0
VERTEX
  5
1095D
100
AcDbEntity
  8
WARSTWA_1
  6
CONTINUOUS
 62
    20
100
AcDbVertex
100
AcDb2dVertex
 10
0.997666
 20
0.950508
 30
0.0
  0
VERTEX
  5
1095E
100
AcDbEntity
  8
WARSTWA_1
  6
CONTINUOUS
 62
    20
100
AcDbVertex
100
AcDb2dVertex
 10
0.970814
 20
0.934597
 30
0.0
  0
VERTEX
  5
1095F
100
AcDbEntity
  8
WARSTWA_1
  6
CONTINUOUS
 62
    20
100
AcDbVertex
100
AcDb2dVertex
 10
0.942246
 20
0.921028
 30
0.0
  0
VERTEX
  5
10960
100
AcDbEntity
  8
WARSTWA_1
  6
CONTINUOUS
 62
    20
100
AcDbVertex
100
AcDb2dVertex
 10
0.912002
 20
0.909748
 30
0.0
  0
VERTEX
  5
10961
100
AcDbEntity
  8
WARSTWA_1
  6
CONTINUOUS
 62
    20
100
AcDbVertex
100
AcDb2dVertex
 10
0.880121
 20
0.9007
 30
0.0
  0
VERTEX
  5
10962
100
AcDbEntity
  8
WARSTWA_1
  6
CONTINUOUS
 62
    20
100
AcDbVertex
100
AcDb2dVertex
 10
0.846645
 20
0.893831
 30
0.0
  0
VERTEX
  5
10963
100
AcDbEntity
  8
WARSTWA_1
  6
CONTINUOUS
 62
    20
100
AcDbVertex
100
AcDb2dVertex
 10
0.811613
 20
0.889086
 30
0.0
  0
VERTEX
  5
10964
100
AcDbEntity
  8
WARSTWA_1
  6
CONTINUOUS
 62
    20
100
AcDbVertex
100
AcDb2dVertex
 10
0.775064
 20
0.88641
 30
0.0
  0
VERTEX
  5
10965
100
AcDbEntity
  8
WARSTWA_1
  6
CONTINUOUS
 62
    20
100
AcDbVertex
100
AcDb2dVertex
 10
0.736947
 20
0.884983
 30
0.0
  0
VERTEX
  5
10966
100
AcDbEntity
  8
WARSTWA_1
  6
CONTINUOUS
 62
    20
100
AcDbVertex
100
AcDb2dVertex
 10
0.699052
 20
0.882884
 30
0.0
  0
VERTEX
  5
10967
100
AcDbEntity
  8
WARSTWA_1
  6
CONTINUOUS
 62
    20
100
AcDbVertex
100
AcDb2dVertex
 10
0.661443
 20
0.879924
 30
0.0
  0
VERTEX
  5
10968
100
AcDbEntity
  8
WARSTWA_1
  6
CONTINUOUS
 62
    20
100
AcDbVertex
100
AcDb2dVertex
 10
0.624185
 20
0.875909
 30
0.0
  0
VERTEX
  5
10969
100
AcDbEntity
  8
WARSTWA_1
  6
CONTINUOUS
 62
    20
100
AcDbVertex
100
AcDb2dVertex
 10
0.587341
 20
0.870649
 30
0.0
  0
VERTEX
  5
1096A
100
AcDbEntity
  8
WARSTWA_1
  6
CONTINUOUS
 62
    20
100
AcDbVertex
100
AcDb2dVertex
 10
0.550977
 20
0.863952
 30
0.0
  0
VERTEX
  5
1096B
100
AcDbEntity
  8
WARSTWA_1
  6
CONTINUOUS
 62
    20
100
AcDbVertex
100
AcDb2dVertex
 10
0.515156
 20
0.855625
 30
0.0
  0
VERTEX
  5
1096C
100
AcDbEntity
  8
WARSTWA_1
  6
CONTINUOUS
 62
    20
100
AcDbVertex
100
AcDb2dVertex
 10
0.479942
 20
0.845478
 30
0.0
  0
VERTEX
  5
1096D
100
AcDbEntity
  8
WARSTWA_1
  6
CONTINUOUS
 62
    20
100
AcDbVertex
100
AcDb2dVertex
 10
0.445401
 20
0.833319
 30
0.0
  0
VERTEX
  5
1096E
100
AcDbEntity
  8
WARSTWA_1
  6
CONTINUOUS
 62
    20
100
AcDbVertex
100
AcDb2dVertex
 10
0.411595
 20
0.818955
 30
0.0
  0
VERTEX
  5
1096F
100
AcDbEntity
  8
WARSTWA_1
  6
CONTINUOUS
 62
    20
100
AcDbVertex
100
AcDb2dVertex
 10
0.37859
 20
0.802196
 30
0.0
  0
VERTEX
  5
10970
100
AcDbEntity
  8
WARSTWA_1
  6
CONTINUOUS
 62
    20
100
AcDbVertex
100
AcDb2dVertex
 10
0.346449
 20
0.78285
 30
0.0
  0
VERTEX
  5
10971
100
AcDbEntity
  8
WARSTWA_1
  6
CONTINUOUS
 62
    20
100
AcDbVertex
100
AcDb2dVertex
 10
0.315237
 20
0.760725
 30
0.0
  0
VERTEX
  5
10972
100
AcDbEntity
  8
WARSTWA_1
  6
CONTINUOUS
 62
    20
100
AcDbVertex
100
AcDb2dVertex
 10
0.285018
 20
0.735629
 30
0.0
  0
SEQEND
  5
10973
100
AcDbEntity
  8
0
 62
    20
  0
POLYLINE
  5
10974
102
{ACAD_REACTORS
330
10910
102
}
100
AcDbEntity
  8
WARSTWA_1
  6
CONTINUOUS
 62
    20
100
AcDb2dPolyline
 66
     1
 10
0.0
 20
0.0
 30
0.0
 70
     1
 40
0.003
 41
0.003
  0
VERTEX
  5
10975
100
AcDbEntity
  8
WARSTWA_1
  6
CONTINUOUS
 62
    20
100
AcDbVertex
100
AcDb2dVertex
 10
0.205242
 20
0.579347
 30
0.0
  0
VERTEX
  5
10976
100
AcDbEntity
  8
WARSTWA_1
  6
CONTINUOUS
 62
    20
100
AcDbVertex
100
AcDb2dVertex
 10
0.205242
 20
0.734343
 30
0.0
  0
VERTEX
  5
10977
100
AcDbEntity
  8
WARSTWA_1
  6
CONTINUOUS
 62
    20
100
AcDbVertex
100
AcDb2dVertex
 10
0.001868
 20
0.734343
 30
0.0
  0
VERTEX
  5
10978
100
AcDbEntity
  8
WARSTWA_1
  6
CONTINUOUS
 62
    20
100
AcDbVertex
100
AcDb2dVertex
 10
0.021734
 20
0.824221
 30
0.0
  0
VERTEX
  5
10979
100
AcDbEntity
  8
WARSTWA_1
  6
CONTINUOUS
 62
    20
100
AcDbVertex
100
AcDb2dVertex
 10
0.037592
 20
0.855323
 30
0.0
  0
VERTEX
  5
1097A
100
AcDbEntity
  8
WARSTWA_1
  6
CONTINUOUS
 62
    20
100
AcDbVertex
100
AcDb2dVertex
 10
0.060576
 20
0.881642
 30
0.0
  0
VERTEX
  5
1097B
100
AcDbEntity
  8
WARSTWA_1
  6
CONTINUOUS
 62
    20
100
AcDbVertex
100
AcDb2dVertex
 10
0.088879
 20
0.902709
 30
0.0
  0
VERTEX
  5
1097C
100
AcDbEntity
  8
WARSTWA_1
  6
CONTINUOUS
 62
    20
100
AcDbVertex
100
AcDb2dVertex
 10
0.121482
 20
0.919284
 30
0.0
  0
VERTEX
  5
1097D
100
AcDbEntity
  8
WARSTWA_1
  6
CONTINUOUS
 62
    20
100
AcDbVertex
100
AcDb2dVertex
 10
0.158088
 20
0.932083
 30
0.0
  0
VERTEX
  5
1097E
100
AcDbEntity
  8
WARSTWA_1
  6
CONTINUOUS
 62
    20
100
AcDbVertex
100
AcDb2dVertex
 10
0.198832
 20
0.941745
 30
0.0
  0
VERTEX
  5
1097F
100
AcDbEntity
  8
WARSTWA_1
  6
CONTINUOUS
 62
    20
100
AcDbVertex
100
AcDb2dVertex
 10
0.199273
 20
0.941808
 30
0.0
  0
VERTEX
  5
10980
100
AcDbEntity
  8
WARSTWA_1
  6
CONTINUOUS
 62
    20
100
AcDbVertex
100
AcDb2dVertex
 10
0.199273
 20
1.544713
 30
0.0
  0
VERTEX
  5
10981
100
AcDbEntity
  8
WARSTWA_1
  6
CONTINUOUS
 62
    20
100
AcDbVertex
100
AcDb2dVertex
 10
0.201151
 20
1.570481
 30
0.0
  0
VERTEX
  5
10982
100
AcDbEntity
  8
WARSTWA_1
  6
CONTINUOUS
 62
    20
100
AcDbVertex
100
AcDb2dVertex
 10
0.207836
 20
1.596756
 30
0.0
  0
VERTEX
  5
10983
100
AcDbEntity
  8
WARSTWA_1
  6
CONTINUOUS
 62
    20
100
AcDbVertex
100
AcDb2dVertex
 10
0.220257
 20
1.620989
 30
0.0
  0
VERTEX
  5
10984
100
AcDbEntity
  8
WARSTWA_1
  6
CONTINUOUS
 62
    20
100
AcDbVertex
100
AcDb2dVertex
 10
0.238226
 20
1.641339
 30
0.0
  0
VERTEX
  5
10985
100
AcDbEntity
  8
WARSTWA_1
  6
CONTINUOUS
 62
    20
100
AcDbVertex
100
AcDb2dVertex
 10
0.260305
 20
1.656185
 30
0.0
  0
VERTEX
  5
10986
100
AcDbEntity
  8
WARSTWA_1
  6
CONTINUOUS
 62
    20
100
AcDbVertex
100
AcDb2dVertex
 10
0.284261
 20
1.665422
 30
0.0
  0
VERTEX
  5
10987
100
AcDbEntity
  8
WARSTWA_1
  6
CONTINUOUS
 62
    20
100
AcDbVertex
100
AcDb2dVertex
 10
0.308935
 20
1.670059
 30
0.0
  0
VERTEX
  5
10988
100
AcDbEntity
  8
WARSTWA_1
  6
CONTINUOUS
 62
    20
100
AcDbVertex
100
AcDb2dVertex
 10
0.332364
 20
1.671071
 30
0.0
  0
VERTEX
  5
10989
100
AcDbEntity
  8
WARSTWA_1
  6
CONTINUOUS
 62
    20
100
AcDbVertex
100
AcDb2dVertex
 10
1.069501
 20
1.671071
 30
0.0
  0
VERTEX
  5
1098A
100
AcDbEntity
  8
WARSTWA_1
  6
CONTINUOUS
 62
    20
100
AcDbVertex
100
AcDb2dVertex
 10
1.09799
 20
1.668815
 30
0.0
  0
VERTEX
  5
1098B
100
AcDbEntity
  8
WARSTWA_1
  6
CONTINUOUS
 62
    20
100
AcDbVertex
100
AcDb2dVertex
 10
1.125931
 20
1.661941
 30
0.0
  0
VERTEX
  5
1098C
100
AcDbEntity
  8
WARSTWA_1
  6
CONTINUOUS
 62
    20
100
AcDbVertex
100
AcDb2dVertex
 10
1.151553
 20
1.6503
 30
0.0
  0
VERTEX
  5
1098D
100
AcDbEntity
  8
WARSTWA_1
  6
CONTINUOUS
 62
    20
100
AcDbVertex
100
AcDb2dVertex
 10
1.173781
 20
1.633788
 30
0.0
  0
VERTEX
  5
1098E
100
AcDbEntity
  8
WARSTWA_1
  6
CONTINUOUS
 62
    20
100
AcDbVertex
100
AcDb2dVertex
 10
1.191663
 20
1.613016
 30
0.0
  0
VERTEX
  5
1098F
100
AcDbEntity
  8
WARSTWA_1
  6
CONTINUOUS
 62
    20
100
AcDbVertex
100
AcDb2dVertex
 10
1.204234
 20
1.589083
 30
0.0
  0
VERTEX
  5
10990
100
AcDbEntity
  8
WARSTWA_1
  6
CONTINUOUS
 62
    20
100
AcDbVertex
100
AcDb2dVertex
 10
1.211529
 20
1.563481
 30
0.0
  0
VERTEX
  5
10991
100
AcDbEntity
  8
WARSTWA_1
  6
CONTINUOUS
 62
    20
100
AcDbVertex
100
AcDb2dVertex
 10
1.213596
 20
1.539059
 30
0.0
  0
VERTEX
  5
10992
100
AcDbEntity
  8
WARSTWA_1
  6
CONTINUOUS
 62
    20
100
AcDbVertex
100
AcDb2dVertex
 10
1.213596
 20
1.245981
 30
0.0
  0
VERTEX
  5
10993
100
AcDbEntity
  8
WARSTWA_1
  6
CONTINUOUS
 62
    20
100
AcDbVertex
100
AcDb2dVertex
 10
1.204505
 20
1.195008
 30
0.0
  0
VERTEX
  5
10994
100
AcDbEntity
  8
WARSTWA_1
  6
CONTINUOUS
 62
    20
100
AcDbVertex
100
AcDb2dVertex
 10
1.193202
 20
1.149819
 30
0.0
  0
VERTEX
  5
10995
100
AcDbEntity
  8
WARSTWA_1
  6
CONTINUOUS
 62
    20
100
AcDbVertex
100
AcDb2dVertex
 10
1.179222
 20
1.107599
 30
0.0
  0
VERTEX
  5
10996
100
AcDbEntity
  8
WARSTWA_1
  6
CONTINUOUS
 62
    20
100
AcDbVertex
100
AcDb2dVertex
 10
1.162458
 20
1.068272
 30
0.0
  0
VERTEX
  5
10997
100
AcDbEntity
  8
WARSTWA_1
  6
CONTINUOUS
 62
    20
100
AcDbVertex
100
AcDb2dVertex
 10
1.14297
 20
1.031937
 30
0.0
  0
VERTEX
  5
10998
100
AcDbEntity
  8
WARSTWA_1
  6
CONTINUOUS
 62
    20
100
AcDbVertex
100
AcDb2dVertex
 10
1.120746
 20
0.998556
 30
0.0
  0
VERTEX
  5
10999
100
AcDbEntity
  8
WARSTWA_1
  6
CONTINUOUS
 62
    20
100
AcDbVertex
100
AcDb2dVertex
 10
1.09586
 20
0.968252
 30
0.0
  0
VERTEX
  5
1099A
100
AcDbEntity
  8
WARSTWA_1
  6
CONTINUOUS
 62
    20
100
AcDbVertex
100
AcDb2dVertex
 10
1.068383
 20
0.941067
 30
0.0
  0
VERTEX
  5
1099B
100
AcDbEntity
  8
WARSTWA_1
  6
CONTINUOUS
 62
    20
100
AcDbVertex
100
AcDb2dVertex
 10
1.038541
 20
0.917134
 30
0.0
  0
VERTEX
  5
1099C
100
AcDbEntity
  8
WARSTWA_1
  6
CONTINUOUS
 62
    20
100
AcDbVertex
100
AcDb2dVertex
 10
1.00649
 20
0.896445
 30
0.0
  0
VERTEX
  5
1099D
100
AcDbEntity
  8
WARSTWA_1
  6
CONTINUOUS
 62
    20
100
AcDbVertex
100
AcDb2dVertex
 10
0.972431
 20
0.878965
 30
0.0
  0
VERTEX
  5
1099E
100
AcDbEntity
  8
WARSTWA_1
  6
CONTINUOUS
 62
    20
100
AcDbVertex
100
AcDb2dVertex
 10
0.936517
 20
0.864559
 30
0.0
  0
VERTEX
  5
1099F
100
AcDbEntity
  8
WARSTWA_1
  6
CONTINUOUS
 62
    20
100
AcDbVertex
100
AcDb2dVertex
 10
0.898958
 20
0.853237
 30
0.0
  0
VERTEX
  5
109A0
100
AcDbEntity
  8
WARSTWA_1
  6
CONTINUOUS
 62
    20
100
AcDbVertex
100
AcDb2dVertex
 10
0.859903
 20
0.844737
 30
0.0
  0
VERTEX
  5
109A1
100
AcDbEntity
  8
WARSTWA_1
  6
CONTINUOUS
 62
    20
100
AcDbVertex
100
AcDb2dVertex
 10
0.819352
 20
0.839
 30
0.0
  0
VERTEX
  5
109A2
100
AcDbEntity
  8
WARSTWA_1
  6
CONTINUOUS
 62
    20
100
AcDbVertex
100
AcDb2dVertex
 10
0.777891
 20
0.835859
 30
0.0
  0
VERTEX
  5
109A3
100
AcDbEntity
  8
WARSTWA_1
  6
CONTINUOUS
 62
    20
100
AcDbVertex
100
AcDb2dVertex
 10
0.741643
 20
0.834552
 30
0.0
  0
VERTEX
  5
109A4
100
AcDbEntity
  8
WARSTWA_1
  6
CONTINUOUS
 62
    20
100
AcDbVertex
100
AcDb2dVertex
 10
0.707037
 20
0.832697
 30
0.0
  0
VERTEX
  5
109A5
100
AcDbEntity
  8
WARSTWA_1
  6
CONTINUOUS
 62
    20
100
AcDbVertex
100
AcDb2dVertex
 10
0.672958
 20
0.830166
 30
0.0
  0
VERTEX
  5
109A6
100
AcDbEntity
  8
WARSTWA_1
  6
CONTINUOUS
 62
    20
100
AcDbVertex
100
AcDb2dVertex
 10
0.633782
 20
0.824961
 30
0.0
  0
VERTEX
  5
109A7
100
AcDbEntity
  8
WARSTWA_1
  6
CONTINUOUS
 62
    20
100
AcDbVertex
100
AcDb2dVertex
 10
0.595388
 20
0.818339
 30
0.0
  0
VERTEX
  5
109A8
100
AcDbEntity
  8
WARSTWA_1
  6
CONTINUOUS
 62
    20
100
AcDbVertex
100
AcDb2dVertex
 10
0.557861
 20
0.810245
 30
0.0
  0
VERTEX
  5
109A9
100
AcDbEntity
  8
WARSTWA_1
  6
CONTINUOUS
 62
    20
100
AcDbVertex
100
AcDb2dVertex
 10
0.521282
 20
0.800629
 30
0.0
  0
VERTEX
  5
109AA
100
AcDbEntity
  8
WARSTWA_1
  6
CONTINUOUS
 62
    20
100
AcDbVertex
100
AcDb2dVertex
 10
0.485735
 20
0.789437
 30
0.0
  0
VERTEX
  5
109AB
100
AcDbEntity
  8
WARSTWA_1
  6
CONTINUOUS
 62
    20
100
AcDbVertex
100
AcDb2dVertex
 10
0.451302
 20
0.776617
 30
0.0
  0
VERTEX
  5
109AC
100
AcDbEntity
  8
WARSTWA_1
  6
CONTINUOUS
 62
    20
100
AcDbVertex
100
AcDb2dVertex
 10
0.418067
 20
0.762117
 30
0.0
  0
VERTEX
  5
109AD
100
AcDbEntity
  8
WARSTWA_1
  6
CONTINUOUS
 62
    20
100
AcDbVertex
100
AcDb2dVertex
 10
0.386113
 20
0.745885
 30
0.0
  0
VERTEX
  5
109AE
100
AcDbEntity
  8
WARSTWA_1
  6
CONTINUOUS
 62
    20
100
AcDbVertex
100
AcDb2dVertex
 10
0.355521
 20
0.727867
 30
0.0
  0
VERTEX
  5
109AF
100
AcDbEntity
  8
WARSTWA_1
  6
CONTINUOUS
 62
    20
100
AcDbVertex
100
AcDb2dVertex
 10
0.326375
 20
0.708013
 30
0.0
  0
VERTEX
  5
109B0
100
AcDbEntity
  8
WARSTWA_1
  6
CONTINUOUS
 62
    20
100
AcDbVertex
100
AcDb2dVertex
 10
0.298759
 20
0.686268
 30
0.0
  0
VERTEX
  5
109B1
100
AcDbEntity
  8
WARSTWA_1
  6
CONTINUOUS
 62
    20
100
AcDbVertex
100
AcDb2dVertex
 10
0.272755
 20
0.662582
 30
0.0
  0
VERTEX
  5
109B2
100
AcDbEntity
  8
WARSTWA_1
  6
CONTINUOUS
 62
    20
100
AcDbVertex
100
AcDb2dVertex
 10
0.248445
 20
0.636901
 30
0.0
  0
VERTEX
  5
109B3
100
AcDbEntity
  8
WARSTWA_1
  6
CONTINUOUS
 62
    20
100
AcDbVertex
100
AcDb2dVertex
 10
0.225913
 20
0.609174
 30
0.0
  0
SEQEND
  5
109B4
100
AcDbEntity
  8
0
 62
    20
  0
POLYLINE
  5
109B5
102
{ACAD_REACTORS
330
10911
102
}
100
AcDbEntity
  8
WARSTWA_1
  6
CONTINUOUS
 62
    20
100
AcDb2dPolyline
 66
     1
 10
0.0
 20
0.0
 30
0.0
 70
     1
 40
0.003
 41
0.003
  0
VERTEX
  5
109B6
100
AcDbEntity
  8
WARSTWA_1
  6
CONTINUOUS
 62
    20
100
AcDbVertex
100
AcDb2dVertex
 10
1.21658
 20
0.999264
 30
0.0
  0
VERTEX
  5
109B7
100
AcDbEntity
  8
WARSTWA_1
  6
CONTINUOUS
 62
    20
100
AcDbVertex
100
AcDb2dVertex
 10
1.216667
 20
0.999567
 30
0.0
  0
VERTEX
  5
109B8
100
AcDbEntity
  8
WARSTWA_1
  6
CONTINUOUS
 62
    20
100
AcDbVertex
100
AcDb2dVertex
 10
1.422757
 20
0.999567
 30
0.0
  0
VERTEX
  5
109B9
100
AcDbEntity
  8
WARSTWA_1
  6
CONTINUOUS
 62
    20
100
AcDbVertex
100
AcDb2dVertex
 10
1.412537
 20
0.953436
 30
0.0
  0
VERTEX
  5
109BA
100
AcDbEntity
  8
WARSTWA_1
  6
CONTINUOUS
 62
    20
100
AcDbVertex
100
AcDb2dVertex
 10
1.402457
 20
0.915963
 30
0.0
  0
VERTEX
  5
109BB
100
AcDbEntity
  8
WARSTWA_1
  6
CONTINUOUS
 62
    20
100
AcDbVertex
100
AcDb2dVertex
 10
1.389482
 20
0.885097
 30
0.0
  0
VERTEX
  5
109BC
100
AcDbEntity
  8
WARSTWA_1
  6
CONTINUOUS
 62
    20
100
AcDbVertex
100
AcDb2dVertex
 10
1.37058
 20
0.858786
 30
0.0
  0
VERTEX
  5
109BD
100
AcDbEntity
  8
WARSTWA_1
  6
CONTINUOUS
 62
    20
100
AcDbVertex
100
AcDb2dVertex
 10
1.342717
 20
0.834976
 30
0.0
  0
VERTEX
  5
109BE
100
AcDbEntity
  8
WARSTWA_1
  6
CONTINUOUS
 62
    20
100
AcDbVertex
100
AcDb2dVertex
 10
1.30286
 20
0.811615
 30
0.0
  0
VERTEX
  5
109BF
100
AcDbEntity
  8
WARSTWA_1
  6
CONTINUOUS
 62
    20
100
AcDbVertex
100
AcDb2dVertex
 10
1.277656
 20
0.802855
 30
0.0
  0
VERTEX
  5
109C0
100
AcDbEntity
  8
WARSTWA_1
  6
CONTINUOUS
 62
    20
100
AcDbVertex
100
AcDb2dVertex
 10
1.251945
 20
0.794923
 30
0.0
  0
VERTEX
  5
109C1
100
AcDbEntity
  8
WARSTWA_1
  6
CONTINUOUS
 62
    20
100
AcDbVertex
100
AcDb2dVertex
 10
1.225868
 20
0.789221
 30
0.0
  0
VERTEX
  5
109C2
100
AcDbEntity
  8
WARSTWA_1
  6
CONTINUOUS
 62
    20
100
AcDbVertex
100
AcDb2dVertex
 10
1.225509
 20
0.731918
 30
0.0
  0
VERTEX
  5
109C3
100
AcDbEntity
  8
WARSTWA_1
  6
CONTINUOUS
 62
    20
100
AcDbVertex
100
AcDb2dVertex
 10
1.225064
 20
0.731851
 30
0.0
  0
VERTEX
  5
109C4
100
AcDbEntity
  8
WARSTWA_1
  6
CONTINUOUS
 62
    20
100
AcDbVertex
100
AcDb2dVertex
 10
1.225064
 20
0.128945
 30
0.0
  0
VERTEX
  5
109C5
100
AcDbEntity
  8
WARSTWA_1
  6
CONTINUOUS
 62
    20
100
AcDbVertex
100
AcDb2dVertex
 10
1.22319
 20
0.103178
 30
0.0
  0
VERTEX
  5
109C6
100
AcDbEntity
  8
WARSTWA_1
  6
CONTINUOUS
 62
    20
100
AcDbVertex
100
AcDb2dVertex
 10
1.216505
 20
0.076902
 30
0.0
  0
VERTEX
  5
109C7
100
AcDbEntity
  8
WARSTWA_1
  6
CONTINUOUS
 62
    20
100
AcDbVertex
100
AcDb2dVertex
 10
1.204084
 20
0.052674
 30
0.0
  0
VERTEX
  5
109C8
100
AcDbEntity
  8
WARSTWA_1
  6
CONTINUOUS
 62
    20
100
AcDbVertex
100
AcDb2dVertex
 10
1.18612
 20
0.032323
 30
0.0
  0
VERTEX
  5
109C9
100
AcDbEntity
  8
WARSTWA_1
  6
CONTINUOUS
 62
    20
100
AcDbVertex
100
AcDb2dVertex
 10
1.164041
 20
0.017477
 30
0.0
  0
VERTEX
  5
109CA
100
AcDbEntity
  8
WARSTWA_1
  6
CONTINUOUS
 62
    20
100
AcDbVertex
100
AcDb2dVertex
 10
1.140084
 20
0.008237
 30
0.0
  0
VERTEX
  5
109CB
100
AcDbEntity
  8
WARSTWA_1
  6
CONTINUOUS
 62
    20
100
AcDbVertex
100
AcDb2dVertex
 10
1.115407
 20
0.003603
 30
0.0
  0
VERTEX
  5
109CC
100
AcDbEntity
  8
WARSTWA_1
  6
CONTINUOUS
 62
    20
100
AcDbVertex
100
AcDb2dVertex
 10
1.091978
 20
0.002587
 30
0.0
  0
VERTEX
  5
109CD
100
AcDbEntity
  8
WARSTWA_1
  6
CONTINUOUS
 62
    20
100
AcDbVertex
100
AcDb2dVertex
 10
0.35484
 20
0.002587
 30
0.0
  0
VERTEX
  5
109CE
100
AcDbEntity
  8
WARSTWA_1
  6
CONTINUOUS
 62
    20
100
AcDbVertex
100
AcDb2dVertex
 10
0.326352
 20
0.004843
 30
0.0
  0
VERTEX
  5
109CF
100
AcDbEntity
  8
WARSTWA_1
  6
CONTINUOUS
 62
    20
100
AcDbVertex
100
AcDb2dVertex
 10
0.298411
 20
0.011717
 30
0.0
  0
VERTEX
  5
109D0
100
AcDbEntity
  8
WARSTWA_1
  6
CONTINUOUS
 62
    20
100
AcDbVertex
100
AcDb2dVertex
 10
0.272789
 20
0.023359
 30
0.0
  0
VERTEX
  5
109D1
100
AcDbEntity
  8
WARSTWA_1
  6
CONTINUOUS
 62
    20
100
AcDbVertex
100
AcDb2dVertex
 10
0.250561
 20
0.039874
 30
0.0
  0
VERTEX
  5
109D2
100
AcDbEntity
  8
WARSTWA_1
  6
CONTINUOUS
 62
    20
100
AcDbVertex
100
AcDb2dVertex
 10
0.232675
 20
0.060642
 30
0.0
  0
VERTEX
  5
109D3
100
AcDbEntity
  8
WARSTWA_1
  6
CONTINUOUS
 62
    20
100
AcDbVertex
100
AcDb2dVertex
 10
0.220108
 20
0.084575
 30
0.0
  0
VERTEX
  5
109D4
100
AcDbEntity
  8
WARSTWA_1
  6
CONTINUOUS
 62
    20
100
AcDbVertex
100
AcDb2dVertex
 10
0.212812
 20
0.110178
 30
0.0
  0
VERTEX
  5
109D5
100
AcDbEntity
  8
WARSTWA_1
  6
CONTINUOUS
 62
    20
100
AcDbVertex
100
AcDb2dVertex
 10
0.210749
 20
0.134595
 30
0.0
  0
VERTEX
  5
109D6
100
AcDbEntity
  8
WARSTWA_1
  6
CONTINUOUS
 62
    20
100
AcDbVertex
100
AcDb2dVertex
 10
0.210749
 20
0.43839
 30
0.0
  0
VERTEX
  5
109D7
100
AcDbEntity
  8
WARSTWA_1
  6
CONTINUOUS
 62
    20
100
AcDbVertex
100
AcDb2dVertex
 10
0.230613
 20
0.474905
 30
0.0
  0
VERTEX
  5
109D8
100
AcDbEntity
  8
WARSTWA_1
  6
CONTINUOUS
 62
    20
100
AcDbVertex
100
AcDb2dVertex
 10
0.252305
 20
0.508556
 30
0.0
  0
VERTEX
  5
109D9
100
AcDbEntity
  8
WARSTWA_1
  6
CONTINUOUS
 62
    20
100
AcDbVertex
100
AcDb2dVertex
 10
0.275671
 20
0.539449
 30
0.0
  0
VERTEX
  5
109DA
100
AcDbEntity
  8
WARSTWA_1
  6
CONTINUOUS
 62
    20
100
AcDbVertex
100
AcDb2dVertex
 10
0.300557
 20
0.567693
 30
0.0
  0
VERTEX
  5
109DB
100
AcDbEntity
  8
WARSTWA_1
  6
CONTINUOUS
 62
    20
100
AcDbVertex
100
AcDb2dVertex
 10
0.326808
 20
0.593395
 30
0.0
  0
VERTEX
  5
109DC
100
AcDbEntity
  8
WARSTWA_1
  6
CONTINUOUS
 62
    20
100
AcDbVertex
100
AcDb2dVertex
 10
0.354271
 20
0.616662
 30
0.0
  0
VERTEX
  5
109DD
100
AcDbEntity
  8
WARSTWA_1
  6
CONTINUOUS
 62
    20
100
AcDbVertex
100
AcDb2dVertex
 10
0.38279
 20
0.637601
 30
0.0
  0
VERTEX
  5
109DE
100
AcDbEntity
  8
WARSTWA_1
  6
CONTINUOUS
 62
    20
100
AcDbVertex
100
AcDb2dVertex
 10
0.412212
 20
0.65632
 30
0.0
  0
VERTEX
  5
109DF
100
AcDbEntity
  8
WARSTWA_1
  6
CONTINUOUS
 62
    20
100
AcDbVertex
100
AcDb2dVertex
 10
0.442382
 20
0.672927
 30
0.0
  0
VERTEX
  5
109E0
100
AcDbEntity
  8
WARSTWA_1
  6
CONTINUOUS
 62
    20
100
AcDbVertex
100
AcDb2dVertex
 10
0.473146
 20
0.687528
 30
0.0
  0
VERTEX
  5
109E1
100
AcDbEntity
  8
WARSTWA_1
  6
CONTINUOUS
 62
    20
100
AcDbVertex
100
AcDb2dVertex
 10
0.50435
 20
0.700231
 30
0.0
  0
VERTEX
  5
109E2
100
AcDbEntity
  8
WARSTWA_1
  6
CONTINUOUS
 62
    20
100
AcDbVertex
100
AcDb2dVertex
 10
0.535838
 20
0.711144
 30
0.0
  0
VERTEX
  5
109E3
100
AcDbEntity
  8
WARSTWA_1
  6
CONTINUOUS
 62
    20
100
AcDbVertex
100
AcDb2dVertex
 10
0.567458
 20
0.720373
 30
0.0
  0
VERTEX
  5
109E4
100
AcDbEntity
  8
WARSTWA_1
  6
CONTINUOUS
 62
    20
100
AcDbVertex
100
AcDb2dVertex
 10
0.599054
 20
0.728027
 30
0.0
  0
VERTEX
  5
109E5
100
AcDbEntity
  8
WARSTWA_1
  6
CONTINUOUS
 62
    20
100
AcDbVertex
100
AcDb2dVertex
 10
0.630472
 20
0.734212
 30
0.0
  0
VERTEX
  5
109E6
100
AcDbEntity
  8
WARSTWA_1
  6
CONTINUOUS
 62
    20
100
AcDbVertex
100
AcDb2dVertex
 10
0.661558
 20
0.739037
 30
0.0
  0
VERTEX
  5
109E7
100
AcDbEntity
  8
WARSTWA_1
  6
CONTINUOUS
 62
    20
100
AcDbVertex
100
AcDb2dVertex
 10
0.692157
 20
0.742607
 30
0.0
  0
VERTEX
  5
109E8
100
AcDbEntity
  8
WARSTWA_1
  6
CONTINUOUS
 62
    20
100
AcDbVertex
100
AcDb2dVertex
 10
0.722116
 20
0.745032
 30
0.0
  0
VERTEX
  5
109E9
100
AcDbEntity
  8
WARSTWA_1
  6
CONTINUOUS
 62
    20
100
AcDbVertex
100
AcDb2dVertex
 10
0.756059
 20
0.747259
 30
0.0
  0
VERTEX
  5
109EA
100
AcDbEntity
  8
WARSTWA_1
  6
CONTINUOUS
 62
    20
100
AcDbVertex
100
AcDb2dVertex
 10
0.789786
 20
0.749767
 30
0.0
  0
VERTEX
  5
109EB
100
AcDbEntity
  8
WARSTWA_1
  6
CONTINUOUS
 62
    20
100
AcDbVertex
100
AcDb2dVertex
 10
0.823219
 20
0.752819
 30
0.0
  0
VERTEX
  5
109EC
100
AcDbEntity
  8
WARSTWA_1
  6
CONTINUOUS
 62
    20
100
AcDbVertex
100
AcDb2dVertex
 10
0.85628
 20
0.756677
 30
0.0
  0
VERTEX
  5
109ED
100
AcDbEntity
  8
WARSTWA_1
  6
CONTINUOUS
 62
    20
100
AcDbVertex
100
AcDb2dVertex
 10
0.88889
 20
0.761604
 30
0.0
  0
VERTEX
  5
109EE
100
AcDbEntity
  8
WARSTWA_1
  6
CONTINUOUS
 62
    20
100
AcDbVertex
100
AcDb2dVertex
 10
0.920971
 20
0.767862
 30
0.0
  0
VERTEX
  5
109EF
100
AcDbEntity
  8
WARSTWA_1
  6
CONTINUOUS
 62
    20
100
AcDbVertex
100
AcDb2dVertex
 10
0.952445
 20
0.775714
 30
0.0
  0
VERTEX
  5
109F0
100
AcDbEntity
  8
WARSTWA_1
  6
CONTINUOUS
 62
    20
100
AcDbVertex
100
AcDb2dVertex
 10
0.983234
 20
0.78542
 30
0.0
  0
VERTEX
  5
109F1
100
AcDbEntity
  8
WARSTWA_1
  6
CONTINUOUS
 62
    20
100
AcDbVertex
100
AcDb2dVertex
 10
1.013259
 20
0.797245
 30
0.0
  0
VERTEX
  5
109F2
100
AcDbEntity
  8
WARSTWA_1
  6
CONTINUOUS
 62
    20
100
AcDbVertex
100
AcDb2dVertex
 10
1.042442
 20
0.81145
 30
0.0
  0
VERTEX
  5
109F3
100
AcDbEntity
  8
WARSTWA_1
  6
CONTINUOUS
 62
    20
100
AcDbVertex
100
AcDb2dVertex
 10
1.070704
 20
0.828298
 30
0.0
  0
VERTEX
  5
109F4
100
AcDbEntity
  8
WARSTWA_1
  6
CONTINUOUS
 62
    20
100
AcDbVertex
100
AcDb2dVertex
 10
1.097968
 20
0.84805
 30
0.0
  0
VERTEX
  5
109F5
100
AcDbEntity
  8
WARSTWA_1
  6
CONTINUOUS
 62
    20
100
AcDbVertex
100
AcDb2dVertex
 10
1.124155
 20
0.87097
 30
0.0
  0
VERTEX
  5
109F6
100
AcDbEntity
  8
WARSTWA_1
  6
CONTINUOUS
 62
    20
100
AcDbVertex
100
AcDb2dVertex
 10
1.149187
 20
0.897319
 30
0.0
  0
VERTEX
  5
109F7
100
AcDbEntity
  8
WARSTWA_1
  6
CONTINUOUS
 62
    20
100
AcDbVertex
100
AcDb2dVertex
 10
1.172985
 20
0.92736
 30
0.0
  0
VERTEX
  5
109F8
100
AcDbEntity
  8
WARSTWA_1
  6
CONTINUOUS
 62
    20
100
AcDbVertex
100
AcDb2dVertex
 10
1.195472
 20
0.961355
 30
0.0
  0
VERTEX
  5
109F9
100
AcDbEntity
  8
WARSTWA_1
  6
CONTINUOUS
 62
    20
100
AcDbVertex
100
AcDb2dVertex
 10
1.216568
 20
0.999567
 30
0.0
  0
SEQEND
  5
109FA
100
AcDbEntity
  8
0
 62
    20
  0
HATCH
  5
109FB
100
AcDbEntity
  8
0
  6
CONTINUOUS
 62
    20
100
AcDbHatch
 10
0.0
 20
0.0
 30
0.0
210
0.0
220
0.0
230
1.0
  2
SOLID
 70
     1
 71
     1
 91
        1
 92
        7
 72
     0
 73
     1
 93
       48
 10
1.972209769928968
 20
1.181854993624299
 10
1.973067769928969
 20
1.194846993624298
 10
1.975701769928969
 20
1.206854993624298
 10
1.980331769928969
 20
1.2173859936243
 10
1.986981769928969
 20
1.226362993624299
 10
1.995626769928968
 20
1.233342993624298
 10
2.005898769928968
 20
1.238236993624298
 10
2.017575769928969
 20
1.241023993624299
 10
2.030500769928966
 20
1.241944993624298
 10
2.04342676992897
 20
1.240980993624298
 10
2.055036769928969
 20
1.238058993624298
 10
2.065331769928968
 20
1.232944993624299
 10
2.073867769928969
 20
1.225704993624299
 10
2.080493769928969
 20
1.216440993624299
 10
2.085016769928969
 20
1.205578993624299
 10
2.087650769928968
 20
1.193244993624297
 10
2.088461769928969
 20
1.179771993624297
 10
2.088461769928969
 20
0.9344769936242993
 10
2.358052769928968
 20
0.9344769936242993
 10
2.358052769928968
 20
1.251842993624308
 10
2.357174769928968
 20
1.2693549936243
 10
2.354453769928968
 20
1.285684993624301
 10
2.349997769928968
 20
1.3011109936243
 10
2.343721769928968
 20
1.315641993624298
 10
2.335686769928968
 20
1.329310993624299
 10
2.325835769928969
 20
1.342216993624303
 10
2.314071769928966
 20
1.354354993624298
 10
2.300355769928969
 20
1.365720993624299
 10
2.28520976992897
 20
1.375905993624296
 10
2.269300769928968
 20
1.384814993624298
 10
2.252709769928967
 20
1.392362993624298
 10
2.235371769928965
 20
1.398574993624299
 10
2.217331769928962
 20
1.4034019936243
 10
2.198457769928968
 20
1.406893993624299
 10
2.178878769928968
 20
1.408999993624299
 10
2.158382769928967
 20
1.409724993624299
 10
2.129894769928965
 20
1.408956993624299
 10
2.103363769928966
 20
1.406759993624298
 10
2.07887176992897
 20
1.403118993624299
 10
2.05641876992897
 20
1.3981149936243
 10
2.03600876992897
 20
1.391661993624298
 10
2.017595769928969
 20
1.383893993624299
 10
2.001134769928968
 20
1.374720993624299
 10
1.972209769928968
 20
1.353936993624298
 10
1.972209769928968
 20
1.401472993624299
 10
1.702599769928968
 20
1.401472993624298
 10
1.702599769928968
 20
0.2494489936242989
 10
1.972209769928969
 20
0.249448993624299
 97
        1
330
109FC
 75
     0
 76
     1
 47
0.007755
 98
        1
 10
1.874764
 20
1.067003
  0
POLYLINE
  5
109FC
102
{ACAD_REACTORS
330
109FB
102
}
100
AcDbEntity
  8
WARSTWA_1
  6
CONTINUOUS
 62
    20
100
AcDb2dPolyline
 66
     1
 10
0.0
 20
0.0
 30
0.0
 70
     1
 40
0.003
 41
0.003
  0
VERTEX
  5
109FD
100
AcDbEntity
  8
WARSTWA_1
  6
CONTINUOUS
 62
    20
100
AcDbVertex
100
AcDb2dVertex
 10
2.358053
 20
0.934477
 30
0.0
  0
VERTEX
  5
109FE
100
AcDbEntity
  8
WARSTWA_1
  6
CONTINUOUS
 62
    20
100
AcDbVertex
100
AcDb2dVertex
 10
2.088462
 20
0.934477
 30
0.0
  0
VERTEX
  5
109FF
100
AcDbEntity
  8
WARSTWA_1
  6
CONTINUOUS
 62
    20
100
AcDbVertex
100
AcDb2dVertex
 10
2.088462
 20
1.179772
 30
0.0
  0
VERTEX
  5
10A00
100
AcDbEntity
  8
WARSTWA_1
  6
CONTINUOUS
 62
    20
100
AcDbVertex
100
AcDb2dVertex
 10
2.087651
 20
1.193245
 30
0.0
  0
VERTEX
  5
10A01
100
AcDbEntity
  8
WARSTWA_1
  6
CONTINUOUS
 62
    20
100
AcDbVertex
100
AcDb2dVertex
 10
2.085017
 20
1.205579
 30
0.0
  0
VERTEX
  5
10A02
100
AcDbEntity
  8
WARSTWA_1
  6
CONTINUOUS
 62
    20
100
AcDbVertex
100
AcDb2dVertex
 10
2.080494
 20
1.216441
 30
0.0
  0
VERTEX
  5
10A03
100
AcDbEntity
  8
WARSTWA_1
  6
CONTINUOUS
 62
    20
100
AcDbVertex
100
AcDb2dVertex
 10
2.073868
 20
1.225705
 30
0.0
  0
VERTEX
  5
10A04
100
AcDbEntity
  8
WARSTWA_1
  6
CONTINUOUS
 62
    20
100
AcDbVertex
100
AcDb2dVertex
 10
2.065332
 20
1.232945
 30
0.0
  0
VERTEX
  5
10A05
100
AcDbEntity
  8
WARSTWA_1
  6
CONTINUOUS
 62
    20
100
AcDbVertex
100
AcDb2dVertex
 10
2.055037
 20
1.238059
 30
0.0
  0
VERTEX
  5
10A06
100
AcDbEntity
  8
WARSTWA_1
  6
CONTINUOUS
 62
    20
100
AcDbVertex
100
AcDb2dVertex
 10
2.043427
 20
1.240981
 30
0.0
  0
VERTEX
  5
10A07
100
AcDbEntity
  8
WARSTWA_1
  6
CONTINUOUS
 62
    20
100
AcDbVertex
100
AcDb2dVertex
 10
2.030501
 20
1.241945
 30
0.0
  0
VERTEX
  5
10A08
100
AcDbEntity
  8
WARSTWA_1
  6
CONTINUOUS
 62
    20
100
AcDbVertex
100
AcDb2dVertex
 10
2.017576
 20
1.241024
 30
0.0
  0
VERTEX
  5
10A09
100
AcDbEntity
  8
WARSTWA_1
  6
CONTINUOUS
 62
    20
100
AcDbVertex
100
AcDb2dVertex
 10
2.005899
 20
1.238237
 30
0.0
  0
VERTEX
  5
10A0A
100
AcDbEntity
  8
WARSTWA_1
  6
CONTINUOUS
 62
    20
100
AcDbVertex
100
AcDb2dVertex
 10
1.995627
 20
1.233343
 30
0.0
  0
VERTEX
  5
10A0B
100
AcDbEntity
  8
WARSTWA_1
  6
CONTINUOUS
 62
    20
100
AcDbVertex
100
AcDb2dVertex
 10
1.986982
 20
1.226363
 30
0.0
  0
VERTEX
  5
10A0C
100
AcDbEntity
  8
WARSTWA_1
  6
CONTINUOUS
 62
    20
100
AcDbVertex
100
AcDb2dVertex
 10
1.980332
 20
1.217386
 30
0.0
  0
VERTEX
  5
10A0D
100
AcDbEntity
  8
WARSTWA_1
  6
CONTINUOUS
 62
    20
100
AcDbVertex
100
AcDb2dVertex
 10
1.975702
 20
1.206855
 30
0.0
  0
VERTEX
  5
10A0E
100
AcDbEntity
  8
WARSTWA_1
  6
CONTINUOUS
 62
    20
100
AcDbVertex
100
AcDb2dVertex
 10
1.973068
 20
1.194847
 30
0.0
  0
VERTEX
  5
10A0F
100
AcDbEntity
  8
WARSTWA_1
  6
CONTINUOUS
 62
    20
100
AcDbVertex
100
AcDb2dVertex
 10
1.97221
 20
1.181855
 30
0.0
  0
VERTEX
  5
10A10
100
AcDbEntity
  8
WARSTWA_1
  6
CONTINUOUS
 62
    20
100
AcDbVertex
100
AcDb2dVertex
 10
1.97221
 20
0.249449
 30
0.0
  0
VERTEX
  5
10A11
100
AcDbEntity
  8
WARSTWA_1
  6
CONTINUOUS
 62
    20
100
AcDbVertex
100
AcDb2dVertex
 10
1.7026
 20
0.249449
 30
0.0
  0
VERTEX
  5
10A12
100
AcDbEntity
  8
WARSTWA_1
  6
CONTINUOUS
 62
    20
100
AcDbVertex
100
AcDb2dVertex
 10
1.7026
 20
1.401473
 30
0.0
  0
VERTEX
  5
10A13
100
AcDbEntity
  8
WARSTWA_1
  6
CONTINUOUS
 62
    20
100
AcDbVertex
100
AcDb2dVertex
 10
1.97221
 20
1.401473
 30
0.0
  0
VERTEX
  5
10A14
100
AcDbEntity
  8
WARSTWA_1
  6
CONTINUOUS
 62
    20
100
AcDbVertex
100
AcDb2dVertex
 10
1.97221
 20
1.353937
 30
0.0
  0
VERTEX
  5
10A15
100
AcDbEntity
  8
WARSTWA_1
  6
CONTINUOUS
 62
    20
100
AcDbVertex
100
AcDb2dVertex
 10
2.001135
 20
1.374721
 30
0.0
  0
VERTEX
  5
10A16
100
AcDbEntity
  8
WARSTWA_1
  6
CONTINUOUS
 62
    20
100
AcDbVertex
100
AcDb2dVertex
 10
2.017596
 20
1.383894
 30
0.0
  0
VERTEX
  5
10A17
100
AcDbEntity
  8
WARSTWA_1
  6
CONTINUOUS
 62
    20
100
AcDbVertex
100
AcDb2dVertex
 10
2.036009
 20
1.391662
 30
0.0
  0
VERTEX
  5
10A18
100
AcDbEntity
  8
WARSTWA_1
  6
CONTINUOUS
 62
    20
100
AcDbVertex
100
AcDb2dVertex
 10
2.056419
 20
1.398115
 30
0.0
  0
VERTEX
  5
10A19
100
AcDbEntity
  8
WARSTWA_1
  6
CONTINUOUS
 62
    20
100
AcDbVertex
100
AcDb2dVertex
 10
2.078872
 20
1.403119
 30
0.0
  0
VERTEX
  5
10A1A
100
AcDbEntity
  8
WARSTWA_1
  6
CONTINUOUS
 62
    20
100
AcDbVertex
100
AcDb2dVertex
 10
2.103364
 20
1.40676
 30
0.0
  0
VERTEX
  5
10A1B
100
AcDbEntity
  8
WARSTWA_1
  6
CONTINUOUS
 62
    20
100
AcDbVertex
100
AcDb2dVertex
 10
2.129895
 20
1.408957
 30
0.0
  0
VERTEX
  5
10A1C
100
AcDbEntity
  8
WARSTWA_1
  6
CONTINUOUS
 62
    20
100
AcDbVertex
100
AcDb2dVertex
 10
2.158383
 20
1.409725
 30
0.0
  0
VERTEX
  5
10A1D
100
AcDbEntity
  8
WARSTWA_1
  6
CONTINUOUS
 62
    20
100
AcDbVertex
100
AcDb2dVertex
 10
2.178879
 20
1.409
 30
0.0
  0
VERTEX
  5
10A1E
100
AcDbEntity
  8
WARSTWA_1
  6
CONTINUOUS
 62
    20
100
AcDbVertex
100
AcDb2dVertex
 10
2.198458
 20
1.406894
 30
0.0
  0
VERTEX
  5
10A1F
100
AcDbEntity
  8
WARSTWA_1
  6
CONTINUOUS
 62
    20
100
AcDbVertex
100
AcDb2dVertex
 10
2.217332
 20
1.403402
 30
0.0
  0
VERTEX
  5
10A20
100
AcDbEntity
  8
WARSTWA_1
  6
CONTINUOUS
 62
    20
100
AcDbVertex
100
AcDb2dVertex
 10
2.235372
 20
1.398575
 30
0.0
  0
VERTEX
  5
10A21
100
AcDbEntity
  8
WARSTWA_1
  6
CONTINUOUS
 62
    20
100
AcDbVertex
100
AcDb2dVertex
 10
2.25271
 20
1.392363
 30
0.0
  0
VERTEX
  5
10A22
100
AcDbEntity
  8
WARSTWA_1
  6
CONTINUOUS
 62
    20
100
AcDbVertex
100
AcDb2dVertex
 10
2.269301
 20
1.384815
 30
0.0
  0
VERTEX
  5
10A23
100
AcDbEntity
  8
WARSTWA_1
  6
CONTINUOUS
 62
    20
100
AcDbVertex
100
AcDb2dVertex
 10
2.28521
 20
1.375906
 30
0.0
  0
VERTEX
  5
10A24
100
AcDbEntity
  8
WARSTWA_1
  6
CONTINUOUS
 62
    20
100
AcDbVertex
100
AcDb2dVertex
 10
2.300356
 20
1.365721
 30
0.0
  0
VERTEX
  5
10A25
100
AcDbEntity
  8
WARSTWA_1
  6
CONTINUOUS
 62
    20
100
AcDbVertex
100
AcDb2dVertex
 10
2.314072
 20
1.354355
 30
0.0
  0
VERTEX
  5
10A26
100
AcDbEntity
  8
WARSTWA_1
  6
CONTINUOUS
 62
    20
100
AcDbVertex
100
AcDb2dVertex
 10
2.325836
 20
1.342217
 30
0.0
  0
VERTEX
  5
10A27
100
AcDbEntity
  8
WARSTWA_1
  6
CONTINUOUS
 62
    20
100
AcDbVertex
100
AcDb2dVertex
 10
2.335687
 20
1.329311
 30
0.0
  0
VERTEX
  5
10A28
100
AcDbEntity
  8
WARSTWA_1
  6
CONTINUOUS
 62
    20
100
AcDbVertex
100
AcDb2dVertex
 10
2.343722
 20
1.315642
 30
0.0
  0
VERTEX
  5
10A29
100
AcDbEntity
  8
WARSTWA_1
  6
CONTINUOUS
 62
    20
100
AcDbVertex
100
AcDb2dVertex
 10
2.349998
 20
1.301111
 30
0.0
  0
VERTEX
  5
10A2A
100
AcDbEntity
  8
WARSTWA_1
  6
CONTINUOUS
 62
    20
100
AcDbVertex
100
AcDb2dVertex
 10
2.354454
 20
1.285685
 30
0.0
  0
VERTEX
  5
10A2B
100
AcDbEntity
  8
WARSTWA_1
  6
CONTINUOUS
 62
    20
100
AcDbVertex
100
AcDb2dVertex
 10
2.357175
 20
1.269355
 30
0.0
  0
VERTEX
  5
10A2C
100
AcDbEntity
  8
WARSTWA_1
  6
CONTINUOUS
 62
    20
100
AcDbVertex
100
AcDb2dVertex
 10
2.358053
 20
1.251843
 30
0.0
  0
SEQEND
  5
10A2D
100
AcDbEntity
  8
0
 62
    20
  0
POLYLINE
  5
10A2E
102
{ACAD_REACTORS
330
108B6
102
}
100
AcDbEntity
  8
WARSTWA_1
  6
CONTINUOUS
 62
    20
100
AcDb2dPolyline
 66
     1
 10
0.0
 20
0.0
 30
0.0
 70
     1
 40
0.003
 41
0.003
  0
VERTEX
  5
10A2F
100
AcDbEntity
  8
WARSTWA_1
  6
CONTINUOUS
 62
    20
100
AcDbVertex
100
AcDb2dVertex
 10
2.847379
 20
0.902831
 30
0.0
  0
VERTEX
  5
10A30
100
AcDbEntity
  8
WARSTWA_1
  6
CONTINUOUS
 62
    20
100
AcDbVertex
100
AcDb2dVertex
 10
2.847379
 20
1.179748
 30
0.0
  0
VERTEX
  5
10A31
100
AcDbEntity
  8
WARSTWA_1
  6
CONTINUOUS
 62
    20
100
AcDbVertex
100
AcDb2dVertex
 10
2.846592
 20
1.194122
 30
0.0
  0
VERTEX
  5
10A32
100
AcDbEntity
  8
WARSTWA_1
  6
CONTINUOUS
 62
    20
100
AcDbVertex
100
AcDb2dVertex
 10
2.843958
 20
1.207182
 30
0.0
  0
VERTEX
  5
10A33
100
AcDbEntity
  8
WARSTWA_1
  6
CONTINUOUS
 62
    20
100
AcDbVertex
100
AcDb2dVertex
 10
2.839501
 20
1.218682
 30
0.0
  0
VERTEX
  5
10A34
100
AcDbEntity
  8
WARSTWA_1
  6
CONTINUOUS
 62
    20
100
AcDbVertex
100
AcDb2dVertex
 10
2.832895
 20
1.228449
 30
0.0
  0
VERTEX
  5
10A35
100
AcDbEntity
  8
WARSTWA_1
  6
CONTINUOUS
 62
    20
100
AcDbVertex
100
AcDb2dVertex
 10
2.824336
 20
1.23615
 30
0.0
  0
VERTEX
  5
10A36
100
AcDbEntity
  8
WARSTWA_1
  6
CONTINUOUS
 62
    20
100
AcDbVertex
100
AcDb2dVertex
 10
2.813958
 20
1.241595
 30
0.0
  0
VERTEX
  5
10A37
100
AcDbEntity
  8
WARSTWA_1
  6
CONTINUOUS
 62
    20
100
AcDbVertex
100
AcDb2dVertex
 10
2.802171
 20
1.244733
 30
0.0
  0
VERTEX
  5
10A38
100
AcDbEntity
  8
WARSTWA_1
  6
CONTINUOUS
 62
    20
100
AcDbVertex
100
AcDb2dVertex
 10
2.789068
 20
1.245741
 30
0.0
  0
VERTEX
  5
10A39
100
AcDbEntity
  8
WARSTWA_1
  6
CONTINUOUS
 62
    20
100
AcDbVertex
100
AcDb2dVertex
 10
2.775879
 20
1.244733
 30
0.0
  0
VERTEX
  5
10A3A
100
AcDbEntity
  8
WARSTWA_1
  6
CONTINUOUS
 62
    20
100
AcDbVertex
100
AcDb2dVertex
 10
2.763986
 20
1.241615
 30
0.0
  0
VERTEX
  5
10A3B
100
AcDbEntity
  8
WARSTWA_1
  6
CONTINUOUS
 62
    20
100
AcDbVertex
100
AcDb2dVertex
 10
2.753537
 20
1.236193
 30
0.0
  0
VERTEX
  5
10A3C
100
AcDbEntity
  8
WARSTWA_1
  6
CONTINUOUS
 62
    20
100
AcDbVertex
100
AcDb2dVertex
 10
2.744824
 20
1.228512
 30
0.0
  0
VERTEX
  5
10A3D
100
AcDbEntity
  8
WARSTWA_1
  6
CONTINUOUS
 62
    20
100
AcDbVertex
100
AcDb2dVertex
 10
2.738175
 20
1.218725
 30
0.0
  0
VERTEX
  5
10A3E
100
AcDbEntity
  8
WARSTWA_1
  6
CONTINUOUS
 62
    20
100
AcDbVertex
100
AcDb2dVertex
 10
2.733568
 20
1.207225
 30
0.0
  0
VERTEX
  5
10A3F
100
AcDbEntity
  8
WARSTWA_1
  6
CONTINUOUS
 62
    20
100
AcDbVertex
100
AcDb2dVertex
 10
2.730911
 20
1.194146
 30
0.0
  0
VERTEX
  5
10A40
100
AcDbEntity
  8
WARSTWA_1
  6
CONTINUOUS
 62
    20
100
AcDbVertex
100
AcDb2dVertex
 10
2.730076
 20
1.179772
 30
0.0
  0
VERTEX
  5
10A41
100
AcDbEntity
  8
WARSTWA_1
  6
CONTINUOUS
 62
    20
100
AcDbVertex
100
AcDb2dVertex
 10
2.730076
 20
0.902831
 30
0.0
  0
SEQEND
  5
10A42
100
AcDbEntity
  8
0
 62
    20
  0
POLYLINE
  5
10A43
100
AcDbEntity
  8
WARSTWA_1
  6
CONTINUOUS
 62
    20
100
AcDb2dPolyline
 66
     1
 10
0.0
 20
0.0
 30
0.0
 70
     1
 40
0.003
 41
0.003
  0
VERTEX
  5
10A44
100
AcDbEntity
  8
WARSTWA_1
  6
CONTINUOUS
 62
    20
100
AcDbVertex
100
AcDb2dVertex
 10
5.410466
 20
0.249449
 30
0.0
  0
VERTEX
  5
10A45
100
AcDbEntity
  8
WARSTWA_1
  6
CONTINUOUS
 62
    20
100
AcDbVertex
100
AcDb2dVertex
 10
5.140875
 20
0.249449
 30
0.0
  0
VERTEX
  5
10A46
100
AcDbEntity
  8
WARSTWA_1
  6
CONTINUOUS
 62
    20
100
AcDbVertex
100
AcDb2dVertex
 10
5.140875
 20
1.672811
 30
0.0
  0
VERTEX
  5
10A47
100
AcDbEntity
  8
WARSTWA_1
  6
CONTINUOUS
 62
    20
100
AcDbVertex
100
AcDb2dVertex
 10
5.410466
 20
1.672811
 30
0.0
  0
SEQEND
  5
10A48
100
AcDbEntity
  8
0
 62
    20
  0
SOLID
  5
10A49
100
AcDbEntity
  8
WARSTWA_1
  6
CONTINUOUS
 62
    20
100
AcDbTrace
 10
5.410466
 20
0.249449
 30
0.0
 11
5.140875
 21
0.249449
 31
0.0
 12
5.410466
 22
1.672811
 32
0.0
 13
5.140875
 23
1.672811
 33
0.0
  0
HATCH
  5
10A4A
100
AcDbEntity
  8
0
  6
CONTINUOUS
 62
    20
100
AcDbHatch
 10
0.0
 20
0.0
 30
0.0
210
0.0
220
0.0
230
1.0
  2
SOLID
 70
     1
 71
     1
 91
        2
 92
        7
 72
     0
 73
     1
 93
       66
 10
4.375087769928969
 20
0.4716109936242766
 10
4.376426769928967
 20
0.4422919936243003
 10
4.380308769928968
 20
0.4151849936243043
 10
4.386760769928969
 20
0.3900789936242974
 10
4.395670769928966
 20
0.3669929936243017
 10
4.407150769928968
 20
0.3457719936242957
 10
4.421130769928968
 20
0.3264809936242983
 10
4.437721769928966
 20
0.3089649936242992
 10
4.456859769928969
 20
0.2933189936243026
 10
4.47873776992897
 20
0.2793629936242996
 10
4.503276769928964
 20
0.2672249936242996
 10
4.530532769928971
 20
0.2569099936242995
 10
4.560489769928967
 20
0.248460993624299
 10
4.593233769928969
 20
0.241830993624299
 10
4.62869776992897
 20
0.237090993624299
 10
4.66693076992897
 20
0.234240993624299
 10
4.707792769928969
 20
0.2332959936242989
 10
4.747713769928967
 20
0.2342169936242988
 10
4.78491476992897
 20
0.236936993624299
 10
4.819477769928967
 20
0.2414809936242988
 10
4.851323769928969
 20
0.2478669936242991
 10
4.88053276992897
 20
0.2560119936242997
 10
4.907044769928968
 20
0.2659299936242982
 10
4.930922769928969
 20
0.2775829936242991
 10
4.952146769928968
 20
0.2909489936243006
 10
4.97084376992897
 20
0.3060039936242979
 10
4.986930769928972
 20
0.3227719936242993
 10
5.000536769928968
 20
0.3412719936243
 10
5.011642769928967
 20
0.361551993624297
 10
5.020355769928968
 20
0.3836499936243034
 10
5.02656376992897
 20
0.4076819936243045
 10
5.030319769928969
 20
0.433578993624301
 10
5.031567769928969
 20
0.4616459936243008
 10
5.031567769928969
 20
1.181350993624298
 10
5.030075769928968
 20
1.210102993624298
 10
5.025532769928969
 20
1.236499993624292
 10
5.018095769928968
 20
1.260818993624295
 10
5.007646769928971
 20
1.2831149936243
 10
4.994304769928969
 20
1.303417993624299
 10
4.97788676992897
 20
1.321917993624297
 10
4.958465769928967
 20
1.338574993624299
 10
4.935815769928963
 20
1.353496993624299
 10
4.910863769928979
 20
1.366555993624298
 10
4.884811769928976
 20
1.377968993624298
 10
4.857819769928969
 20
1.387621993624299
 10
4.82981576992897
 20
1.3955669936243
 10
4.800847769928968
 20
1.401712993624298
 10
4.770847769928965
 20
1.406169993624299
 10
4.739835769928964
 20
1.408803993624298
 10
4.707772769928968
 20
1.409724993624299
 10
4.666930769928965
 20
1.408736993624298
 10
4.62872176992897
 20
1.405881993624299
 10
4.59323376992897
 20
1.401121993624299
 10
4.560489769928969
 20
1.394515993624299
 10
4.530556769928966
 20
1.386019993624298
 10
4.503276769928969
 20
1.375708993624298
 10
4.478717769928973
 20
1.3635709936243
 10
4.456859769928966
 20
1.349677993624297
 10
4.437721769928968
 20
1.333944993624298
 10
4.42115076992897
 20
1.316452993624299
 10
4.40715076992897
 20
1.297118993624299
 10
4.395670769928967
 20
1.275940993624297
 10
4.38676076992897
 20
1.252830993624296
 10
4.380308769928969
 20
1.227744993624298
 10
4.376426769928968
 20
1.200641993624297
 10
4.375087769928969
 20
1.171385993624287
 97
        1
330
10A4C
 92
       22
 72
     0
 73
     1
 93
       34
 10
4.644674769928968
 20
1.179771993624302
 10
4.645508769928968
 20
1.194145993624303
 10
4.648166769928968
 20
1.207224993624298
 10
4.652772769928966
 20
1.218747993624299
 10
4.659469769928969
 20
1.228535993624298
 10
4.668225769928969
 20
1.236192993624298
 10
4.678737769928968
 20
1.241614993624299
 10
4.690717769928969
 20
1.244732993624299
 10
4.704020769928966
 20
1.245740993624298
 10
4.717012769928969
 20
1.244732993624299
 10
4.728709769928967
 20
1.2415949936243
 10
4.73902476992897
 20
1.236129993624297
 10
4.747540769928972
 20
1.228448993624298
 10
4.754099769928966
 20
1.218661993624302
 10
4.758556769928969
 20
1.207161993624295
 10
4.76116676992897
 20
1.194102993624288
 10
4.76195776992897
 20
1.179747993624284
 10
4.76195776992897
 20
0.4629179936242934
 10
4.761166769928969
 20
0.4481699936243022
 10
4.758575769928969
 20
0.4348269936242979
 10
4.754142769928969
 20
0.4230439936242992
 10
4.747626769928968
 20
0.4130589936243006
 10
4.739134769928968
 20
0.405114993624299
 10
4.728796769928971
 20
0.3994969936242991
 10
4.717056769928968
 20
0.396224993624299
 10
4.704020769928968
 20
0.3952169936242988
 10
4.690674769928969
 20
0.3962249936242989
 10
4.678650769928969
 20
0.3994489936242989
 10
4.668115769928967
 20
0.4050479936242994
 10
4.659402769928968
 20
0.4129689936242993
 10
4.65272976992897
 20
0.4229769936243013
 10
4.648142769928969
 20
0.4347639936242983
 10
4.645508769928969
 20
0.4481499936243
 10
4.644674769928968
 20
0.462917993624288
 97
        1
330
10A90
 75
     0
 76
     1
 47
0.007755
 98
        2
 10
4.476443
 20
0.725763
 10
4.476443
 20
0.725763
  0
HATCH
  5
10A4B
100
AcDbEntity
  8
0
  6
CONTINUOUS
 62
    20
100
AcDbHatch
 10
0.0
 20
0.0
 30
0.0
210
0.0
220
0.0
230
1.0
  2
SOLID
 70
     1
 71
     1
 91
        2
 92
        7
 72
     0
 73
     1
 93
       46
 10
4.268874769928968
 20
1.226712993624292
 10
4.264297769928967
 20
1.258533993624303
 10
4.254660769928968
 20
1.287669993624304
 10
4.240488769928966
 20
1.314010993624302
 10
4.222307769928969
 20
1.337444993624298
 10
4.200643769928964
 20
1.357860993624301
 10
4.176022769928967
 20
1.375147993624301
 10
4.148968769928968
 20
1.389193993624298
 10
4.120007769928969
 20
1.399888993624299
 10
4.089665769928966
 20
1.407119993624299
 10
4.058468769928972
 20
1.410777993624299
 10
4.026940769928968
 20
1.410749993624299
 10
3.995609769928968
 20
1.406924993624299
 10
3.964998769928969
 20
1.399191993624299
 10
3.935634769928969
 20
1.387439993624299
 10
3.908042769928971
 20
1.371557993624301
 10
3.882748769928969
 20
1.351433993624298
 10
3.882374769928968
 20
1.401472993624298
 10
3.614453769928968
 20
1.401472993624298
 10
3.614453769928968
 20
0.0014999936242992
 10
3.883012769928968
 20
0.0014999936242992
 10
3.883012769928969
 20
0.2840589936242988
 10
3.911741769928968
 20
0.2652919936242983
 10
3.928398769928966
 20
0.2569099936243001
 10
3.947032769928965
 20
0.249755993624299
 10
3.967638769928965
 20
0.2438739936242994
 10
3.990288769928969
 20
0.239244993624299
 10
4.014867769928968
 20
0.2359529936242992
 10
4.041445769928969
 20
0.2339529936242993
 10
4.069886769928968
 20
0.2332959936242989
 10
4.090626769928968
 20
0.2339529936242993
 10
4.110489769928968
 20
0.2359729936242993
 10
4.129469769928967
 20
0.2393079936242987
 10
4.147619769928968
 20
0.2439849936242992
 10
4.164914769928966
 20
0.2499529936242991
 10
4.181394769928971
 20
0.2573039936242988
 10
4.197067769928971
 20
0.2659529936243005
 10
4.211902769928967
 20
0.2759369936242975
 10
4.225398769928967
 20
0.2869099936242981
 10
4.23698576992897
 20
0.2986299936242997
 10
4.246729769928967
 20
0.3111619936242992
 10
4.254674769928966
 20
0.324503993624297
 10
4.260863769928969
 20
0.3386579936243048
 10
4.265296769928967
 20
0.3537599936242921
 10
4.267997769928969
 20
0.3697799936243013
 10
4.268874769928968
 20
0.3870519936243079
 97
        1
330
10AB4
 92
       22
 72
     0
 73
     1
 93
       34
 10
4.000315769928969
 20
0.459121993624299
 10
3.999504769928968
 20
0.4455829936242994
 10
3.996847769928967
 20
0.4332479936242941
 10
3.99230876992897
 20
0.4223389936243008
 10
3.985658769928969
 20
0.4131459936243
 10
3.977075769928968
 20
0.4058389936242993
 10
3.966717769928968
 20
0.4007679936242993
 10
3.955020769928969
 20
0.3978469936242988
 10
3.942004769928968
 20
0.3969489936242989
 10
3.928969769928968
 20
0.3978269936242991
 10
3.917205769928966
 20
0.4005909936242991
 10
3.906823769928968
 20
0.4054409936242998
 10
3.898048769928968
 20
0.4124409936242979
 10
3.891288769928968
 20
0.4213549936243003
 10
3.886591769928967
 20
0.4319529936242988
 10
3.883871769928967
 20
0.4439369936243022
 10
3.883012769928969
 20
0.4570399936242908
 10
3.883012769928969
 20
1.183917993624302
 10
3.883871769928968
 20
1.1973939936243
 10
3.886548769928968
 20
1.209728993624298
 10
3.891245769928967
 20
1.220566993624296
 10
3.897957769928968
 20
1.229763993624298
 10
3.906737769928968
 20
1.236940993624298
 10
3.917138769928969
 20
1.241944993624298
 10
3.928926769928969
 20
1.244818993624299
 10
3.942004769928968
 20
1.245740993624299
 10
3.955020769928969
 20
1.244818993624299
 10
3.966693769928969
 20
1.241921993624299
 10
3.977032769928968
 20
1.236897993624296
 10
3.985634769928967
 20
1.229720993624299
 10
3.992308769928969
 20
1.220503993624297
 10
3.996847769928968
 20
1.209684993624299
 10
3.999504769928968
 20
1.197350993624301
 10
4.000315769928969
 20
1.183897993624303
 97
        1
330
10AE4
 75
     0
 76
     1
 47
0.007755
 98
        2
 10
4.096125
 20
0.741274
 10
4.096125
 20
0.741274
  0
POLYLINE
  5
10A4C
102
{ACAD_REACTORS
330
10A4A
102
}
100
AcDbEntity
  8
WARSTWA_1
  6
CONTINUOUS
 62
    20
100
AcDb2dPolyline
 66
     1
 10
0.0
 20
0.0
 30
0.0
 70
     1
 40
0.003
 41
0.003
  0
VERTEX
  5
10A4D
100
AcDbEntity
  8
WARSTWA_1
  6
CONTINUOUS
 62
    20
100
AcDbVertex
100
AcDb2dVertex
 10
4.375088
 20
0.471611
 30
0.0
  0
VERTEX
  5
10A4E
100
AcDbEntity
  8
WARSTWA_1
  6
CONTINUOUS
 62
    20
100
AcDbVertex
100
AcDb2dVertex
 10
4.375088
 20
1.171386
 30
0.0
  0
VERTEX
  5
10A4F
100
AcDbEntity
  8
WARSTWA_1
  6
CONTINUOUS
 62
    20
100
AcDbVertex
100
AcDb2dVertex
 10
4.376427
 20
1.200642
 30
0.0
  0
VERTEX
  5
10A50
100
AcDbEntity
  8
WARSTWA_1
  6
CONTINUOUS
 62
    20
100
AcDbVertex
100
AcDb2dVertex
 10
4.380309
 20
1.227745
 30
0.0
  0
VERTEX
  5
10A51
100
AcDbEntity
  8
WARSTWA_1
  6
CONTINUOUS
 62
    20
100
AcDbVertex
100
AcDb2dVertex
 10
4.386761
 20
1.252831
 30
0.0
  0
VERTEX
  5
10A52
100
AcDbEntity
  8
WARSTWA_1
  6
CONTINUOUS
 62
    20
100
AcDbVertex
100
AcDb2dVertex
 10
4.395671
 20
1.275941
 30
0.0
  0
VERTEX
  5
10A53
100
AcDbEntity
  8
WARSTWA_1
  6
CONTINUOUS
 62
    20
100
AcDbVertex
100
AcDb2dVertex
 10
4.407151
 20
1.297119
 30
0.0
  0
VERTEX
  5
10A54
100
AcDbEntity
  8
WARSTWA_1
  6
CONTINUOUS
 62
    20
100
AcDbVertex
100
AcDb2dVertex
 10
4.421151
 20
1.316453
 30
0.0
  0
VERTEX
  5
10A55
100
AcDbEntity
  8
WARSTWA_1
  6
CONTINUOUS
 62
    20
100
AcDbVertex
100
AcDb2dVertex
 10
4.437722
 20
1.333945
 30
0.0
  0
VERTEX
  5
10A56
100
AcDbEntity
  8
WARSTWA_1
  6
CONTINUOUS
 62
    20
100
AcDbVertex
100
AcDb2dVertex
 10
4.45686
 20
1.349678
 30
0.0
  0
VERTEX
  5
10A57
100
AcDbEntity
  8
WARSTWA_1
  6
CONTINUOUS
 62
    20
100
AcDbVertex
100
AcDb2dVertex
 10
4.478718
 20
1.363571
 30
0.0
  0
VERTEX
  5
10A58
100
AcDbEntity
  8
WARSTWA_1
  6
CONTINUOUS
 62
    20
100
AcDbVertex
100
AcDb2dVertex
 10
4.503277
 20
1.375709
 30
0.0
  0
VERTEX
  5
10A59
100
AcDbEntity
  8
WARSTWA_1
  6
CONTINUOUS
 62
    20
100
AcDbVertex
100
AcDb2dVertex
 10
4.530557
 20
1.38602
 30
0.0
  0
VERTEX
  5
10A5A
100
AcDbEntity
  8
WARSTWA_1
  6
CONTINUOUS
 62
    20
100
AcDbVertex
100
AcDb2dVertex
 10
4.56049
 20
1.394516
 30
0.0
  0
VERTEX
  5
10A5B
100
AcDbEntity
  8
WARSTWA_1
  6
CONTINUOUS
 62
    20
100
AcDbVertex
100
AcDb2dVertex
 10
4.593234
 20
1.401122
 30
0.0
  0
VERTEX
  5
10A5C
100
AcDbEntity
  8
WARSTWA_1
  6
CONTINUOUS
 62
    20
100
AcDbVertex
100
AcDb2dVertex
 10
4.628722
 20
1.405882
 30
0.0
  0
VERTEX
  5
10A5D
100
AcDbEntity
  8
WARSTWA_1
  6
CONTINUOUS
 62
    20
100
AcDbVertex
100
AcDb2dVertex
 10
4.666931
 20
1.408737
 30
0.0
  0
VERTEX
  5
10A5E
100
AcDbEntity
  8
WARSTWA_1
  6
CONTINUOUS
 62
    20
100
AcDbVertex
100
AcDb2dVertex
 10
4.707773
 20
1.409725
 30
0.0
  0
VERTEX
  5
10A5F
100
AcDbEntity
  8
WARSTWA_1
  6
CONTINUOUS
 62
    20
100
AcDbVertex
100
AcDb2dVertex
 10
4.739836
 20
1.408804
 30
0.0
  0
VERTEX
  5
10A60
100
AcDbEntity
  8
WARSTWA_1
  6
CONTINUOUS
 62
    20
100
AcDbVertex
100
AcDb2dVertex
 10
4.770848
 20
1.40617
 30
0.0
  0
VERTEX
  5
10A61
100
AcDbEntity
  8
WARSTWA_1
  6
CONTINUOUS
 62
    20
100
AcDbVertex
100
AcDb2dVertex
 10
4.800848
 20
1.401713
 30
0.0
  0
VERTEX
  5
10A62
100
AcDbEntity
  8
WARSTWA_1
  6
CONTINUOUS
 62
    20
100
AcDbVertex
100
AcDb2dVertex
 10
4.829816
 20
1.395567
 30
0.0
  0
VERTEX
  5
10A63
100
AcDbEntity
  8
WARSTWA_1
  6
CONTINUOUS
 62
    20
100
AcDbVertex
100
AcDb2dVertex
 10
4.85782
 20
1.387622
 30
0.0
  0
VERTEX
  5
10A64
100
AcDbEntity
  8
WARSTWA_1
  6
CONTINUOUS
 62
    20
100
AcDbVertex
100
AcDb2dVertex
 10
4.884812
 20
1.377969
 30
0.0
  0
VERTEX
  5
10A65
100
AcDbEntity
  8
WARSTWA_1
  6
CONTINUOUS
 62
    20
100
AcDbVertex
100
AcDb2dVertex
 10
4.910864
 20
1.366556
 30
0.0
  0
VERTEX
  5
10A66
100
AcDbEntity
  8
WARSTWA_1
  6
CONTINUOUS
 62
    20
100
AcDbVertex
100
AcDb2dVertex
 10
4.935816
 20
1.353497
 30
0.0
  0
VERTEX
  5
10A67
100
AcDbEntity
  8
WARSTWA_1
  6
CONTINUOUS
 62
    20
100
AcDbVertex
100
AcDb2dVertex
 10
4.958466
 20
1.338575
 30
0.0
  0
VERTEX
  5
10A68
100
AcDbEntity
  8
WARSTWA_1
  6
CONTINUOUS
 62
    20
100
AcDbVertex
100
AcDb2dVertex
 10
4.977887
 20
1.321918
 30
0.0
  0
VERTEX
  5
10A69
100
AcDbEntity
  8
WARSTWA_1
  6
CONTINUOUS
 62
    20
100
AcDbVertex
100
AcDb2dVertex
 10
4.994305
 20
1.303418
 30
0.0
  0
VERTEX
  5
10A6A
100
AcDbEntity
  8
WARSTWA_1
  6
CONTINUOUS
 62
    20
100
AcDbVertex
100
AcDb2dVertex
 10
5.007647
 20
1.283115
 30
0.0
  0
VERTEX
  5
10A6B
100
AcDbEntity
  8
WARSTWA_1
  6
CONTINUOUS
 62
    20
100
AcDbVertex
100
AcDb2dVertex
 10
5.018096
 20
1.260819
 30
0.0
  0
VERTEX
  5
10A6C
100
AcDbEntity
  8
WARSTWA_1
  6
CONTINUOUS
 62
    20
100
AcDbVertex
100
AcDb2dVertex
 10
5.025533
 20
1.2365
 30
0.0
  0
VERTEX
  5
10A6D
100
AcDbEntity
  8
WARSTWA_1
  6
CONTINUOUS
 62
    20
100
AcDbVertex
100
AcDb2dVertex
 10
5.030076
 20
1.210103
 30
0.0
  0
VERTEX
  5
10A6E
100
AcDbEntity
  8
WARSTWA_1
  6
CONTINUOUS
 62
    20
100
AcDbVertex
100
AcDb2dVertex
 10
5.031568
 20
1.181351
 30
0.0
  0
VERTEX
  5
10A6F
100
AcDbEntity
  8
WARSTWA_1
  6
CONTINUOUS
 62
    20
100
AcDbVertex
100
AcDb2dVertex
 10
5.031568
 20
0.461646
 30
0.0
  0
VERTEX
  5
10A70
100
AcDbEntity
  8
WARSTWA_1
  6
CONTINUOUS
 62
    20
100
AcDbVertex
100
AcDb2dVertex
 10
5.03032
 20
0.433579
 30
0.0
  0
VERTEX
  5
10A71
100
AcDbEntity
  8
WARSTWA_1
  6
CONTINUOUS
 62
    20
100
AcDbVertex
100
AcDb2dVertex
 10
5.026564
 20
0.407682
 30
0.0
  0
VERTEX
  5
10A72
100
AcDbEntity
  8
WARSTWA_1
  6
CONTINUOUS
 62
    20
100
AcDbVertex
100
AcDb2dVertex
 10
5.020356
 20
0.38365
 30
0.0
  0
VERTEX
  5
10A73
100
AcDbEntity
  8
WARSTWA_1
  6
CONTINUOUS
 62
    20
100
AcDbVertex
100
AcDb2dVertex
 10
5.011643
 20
0.361552
 30
0.0
  0
VERTEX
  5
10A74
100
AcDbEntity
  8
WARSTWA_1
  6
CONTINUOUS
 62
    20
100
AcDbVertex
100
AcDb2dVertex
 10
5.000537
 20
0.341272
 30
0.0
  0
VERTEX
  5
10A75
100
AcDbEntity
  8
WARSTWA_1
  6
CONTINUOUS
 62
    20
100
AcDbVertex
100
AcDb2dVertex
 10
4.986931
 20
0.322772
 30
0.0
  0
VERTEX
  5
10A76
100
AcDbEntity
  8
WARSTWA_1
  6
CONTINUOUS
 62
    20
100
AcDbVertex
100
AcDb2dVertex
 10
4.970844
 20
0.306004
 30
0.0
  0
VERTEX
  5
10A77
100
AcDbEntity
  8
WARSTWA_1
  6
CONTINUOUS
 62
    20
100
AcDbVertex
100
AcDb2dVertex
 10
4.952147
 20
0.290949
 30
0.0
  0
VERTEX
  5
10A78
100
AcDbEntity
  8
WARSTWA_1
  6
CONTINUOUS
 62
    20
100
AcDbVertex
100
AcDb2dVertex
 10
4.930923
 20
0.277583
 30
0.0
  0
VERTEX
  5
10A79
100
AcDbEntity
  8
WARSTWA_1
  6
CONTINUOUS
 62
    20
100
AcDbVertex
100
AcDb2dVertex
 10
4.907045
 20
0.26593
 30
0.0
  0
VERTEX
  5
10A7A
100
AcDbEntity
  8
WARSTWA_1
  6
CONTINUOUS
 62
    20
100
AcDbVertex
100
AcDb2dVertex
 10
4.880533
 20
0.256012
 30
0.0
  0
VERTEX
  5
10A7B
100
AcDbEntity
  8
WARSTWA_1
  6
CONTINUOUS
 62
    20
100
AcDbVertex
100
AcDb2dVertex
 10
4.851324
 20
0.247867
 30
0.0
  0
VERTEX
  5
10A7C
100
AcDbEntity
  8
WARSTWA_1
  6
CONTINUOUS
 62
    20
100
AcDbVertex
100
AcDb2dVertex
 10
4.819478
 20
0.241481
 30
0.0
  0
VERTEX
  5
10A7D
100
AcDbEntity
  8
WARSTWA_1
  6
CONTINUOUS
 62
    20
100
AcDbVertex
100
AcDb2dVertex
 10
4.784915
 20
0.236937
 30
0.0
  0
VERTEX
  5
10A7E
100
AcDbEntity
  8
WARSTWA_1
  6
CONTINUOUS
 62
    20
100
AcDbVertex
100
AcDb2dVertex
 10
4.747714
 20
0.234217
 30
0.0
  0
VERTEX
  5
10A7F
100
AcDbEntity
  8
WARSTWA_1
  6
CONTINUOUS
 62
    20
100
AcDbVertex
100
AcDb2dVertex
 10
4.707793
 20
0.233296
 30
0.0
  0
VERTEX
  5
10A80
100
AcDbEntity
  8
WARSTWA_1
  6
CONTINUOUS
 62
    20
100
AcDbVertex
100
AcDb2dVertex
 10
4.666931
 20
0.234241
 30
0.0
  0
VERTEX
  5
10A81
100
AcDbEntity
  8
WARSTWA_1
  6
CONTINUOUS
 62
    20
100
AcDbVertex
100
AcDb2dVertex
 10
4.628698
 20
0.237091
 30
0.0
  0
VERTEX
  5
10A82
100
AcDbEntity
  8
WARSTWA_1
  6
CONTINUOUS
 62
    20
100
AcDbVertex
100
AcDb2dVertex
 10
4.593234
 20
0.241831
 30
0.0
  0
VERTEX
  5
10A83
100
AcDbEntity
  8
WARSTWA_1
  6
CONTINUOUS
 62
    20
100
AcDbVertex
100
AcDb2dVertex
 10
4.56049
 20
0.248461
 30
0.0
  0
VERTEX
  5
10A84
100
AcDbEntity
  8
WARSTWA_1
  6
CONTINUOUS
 62
    20
100
AcDbVertex
100
AcDb2dVertex
 10
4.530533
 20
0.25691
 30
0.0
  0
VERTEX
  5
10A85
100
AcDbEntity
  8
WARSTWA_1
  6
CONTINUOUS
 62
    20
100
AcDbVertex
100
AcDb2dVertex
 10
4.503277
 20
0.267225
 30
0.0
  0
VERTEX
  5
10A86
100
AcDbEntity
  8
WARSTWA_1
  6
CONTINUOUS
 62
    20
100
AcDbVertex
100
AcDb2dVertex
 10
4.478738
 20
0.279363
 30
0.0
  0
VERTEX
  5
10A87
100
AcDbEntity
  8
WARSTWA_1
  6
CONTINUOUS
 62
    20
100
AcDbVertex
100
AcDb2dVertex
 10
4.45686
 20
0.293319
 30
0.0
  0
VERTEX
  5
10A88
100
AcDbEntity
  8
WARSTWA_1
  6
CONTINUOUS
 62
    20
100
AcDbVertex
100
AcDb2dVertex
 10
4.437722
 20
0.308965
 30
0.0
  0
VERTEX
  5
10A89
100
AcDbEntity
  8
WARSTWA_1
  6
CONTINUOUS
 62
    20
100
AcDbVertex
100
AcDb2dVertex
 10
4.421131
 20
0.326481
 30
0.0
  0
VERTEX
  5
10A8A
100
AcDbEntity
  8
WARSTWA_1
  6
CONTINUOUS
 62
    20
100
AcDbVertex
100
AcDb2dVertex
 10
4.407151
 20
0.345772
 30
0.0
  0
VERTEX
  5
10A8B
100
AcDbEntity
  8
WARSTWA_1
  6
CONTINUOUS
 62
    20
100
AcDbVertex
100
AcDb2dVertex
 10
4.395671
 20
0.366993
 30
0.0
  0
VERTEX
  5
10A8C
100
AcDbEntity
  8
WARSTWA_1
  6
CONTINUOUS
 62
    20
100
AcDbVertex
100
AcDb2dVertex
 10
4.386761
 20
0.390079
 30
0.0
  0
VERTEX
  5
10A8D
100
AcDbEntity
  8
WARSTWA_1
  6
CONTINUOUS
 62
    20
100
AcDbVertex
100
AcDb2dVertex
 10
4.380309
 20
0.415185
 30
0.0
  0
VERTEX
  5
10A8E
100
AcDbEntity
  8
WARSTWA_1
  6
CONTINUOUS
 62
    20
100
AcDbVertex
100
AcDb2dVertex
 10
4.376427
 20
0.442292
 30
0.0
  0
SEQEND
  5
10A8F
100
AcDbEntity
  8
0
 62
    20
  0
POLYLINE
  5
10A90
102
{ACAD_REACTORS
330
10A4A
102
}
100
AcDbEntity
  8
WARSTWA_1
  6
CONTINUOUS
 62
    20
100
AcDb2dPolyline
 66
     1
 10
0.0
 20
0.0
 30
0.0
 70
     1
 40
0.003
 41
0.003
  0
VERTEX
  5
10A91
100
AcDbEntity
  8
WARSTWA_1
  6
CONTINUOUS
 62
    20
100
AcDbVertex
100
AcDb2dVertex
 10
4.761958
 20
0.462918
 30
0.0
  0
VERTEX
  5
10A92
100
AcDbEntity
  8
WARSTWA_1
  6
CONTINUOUS
 62
    20
100
AcDbVertex
100
AcDb2dVertex
 10
4.761958
 20
1.179748
 30
0.0
  0
VERTEX
  5
10A93
100
AcDbEntity
  8
WARSTWA_1
  6
CONTINUOUS
 62
    20
100
AcDbVertex
100
AcDb2dVertex
 10
4.761167
 20
1.194103
 30
0.0
  0
VERTEX
  5
10A94
100
AcDbEntity
  8
WARSTWA_1
  6
CONTINUOUS
 62
    20
100
AcDbVertex
100
AcDb2dVertex
 10
4.758557
 20
1.207162
 30
0.0
  0
VERTEX
  5
10A95
100
AcDbEntity
  8
WARSTWA_1
  6
CONTINUOUS
 62
    20
100
AcDbVertex
100
AcDb2dVertex
 10
4.7541
 20
1.218662
 30
0.0
  0
VERTEX
  5
10A96
100
AcDbEntity
  8
WARSTWA_1
  6
CONTINUOUS
 62
    20
100
AcDbVertex
100
AcDb2dVertex
 10
4.747541
 20
1.228449
 30
0.0
  0
VERTEX
  5
10A97
100
AcDbEntity
  8
WARSTWA_1
  6
CONTINUOUS
 62
    20
100
AcDbVertex
100
AcDb2dVertex
 10
4.739025
 20
1.23613
 30
0.0
  0
VERTEX
  5
10A98
100
AcDbEntity
  8
WARSTWA_1
  6
CONTINUOUS
 62
    20
100
AcDbVertex
100
AcDb2dVertex
 10
4.72871
 20
1.241595
 30
0.0
  0
VERTEX
  5
10A99
100
AcDbEntity
  8
WARSTWA_1
  6
CONTINUOUS
 62
    20
100
AcDbVertex
100
AcDb2dVertex
 10
4.717013
 20
1.244733
 30
0.0
  0
VERTEX
  5
10A9A
100
AcDbEntity
  8
WARSTWA_1
  6
CONTINUOUS
 62
    20
100
AcDbVertex
100
AcDb2dVertex
 10
4.704021
 20
1.245741
 30
0.0
  0
VERTEX
  5
10A9B
100
AcDbEntity
  8
WARSTWA_1
  6
CONTINUOUS
 62
    20
100
AcDbVertex
100
AcDb2dVertex
 10
4.690718
 20
1.244733
 30
0.0
  0
VERTEX
  5
10A9C
100
AcDbEntity
  8
WARSTWA_1
  6
CONTINUOUS
 62
    20
100
AcDbVertex
100
AcDb2dVertex
 10
4.678738
 20
1.241615
 30
0.0
  0
VERTEX
  5
10A9D
100
AcDbEntity
  8
WARSTWA_1
  6
CONTINUOUS
 62
    20
100
AcDbVertex
100
AcDb2dVertex
 10
4.668226
 20
1.236193
 30
0.0
  0
VERTEX
  5
10A9E
100
AcDbEntity
  8
WARSTWA_1
  6
CONTINUOUS
 62
    20
100
AcDbVertex
100
AcDb2dVertex
 10
4.65947
 20
1.228536
 30
0.0
  0
VERTEX
  5
10A9F
100
AcDbEntity
  8
WARSTWA_1
  6
CONTINUOUS
 62
    20
100
AcDbVertex
100
AcDb2dVertex
 10
4.652773
 20
1.218748
 30
0.0
  0
VERTEX
  5
10AA0
100
AcDbEntity
  8
WARSTWA_1
  6
CONTINUOUS
 62
    20
100
AcDbVertex
100
AcDb2dVertex
 10
4.648167
 20
1.207225
 30
0.0
  0
VERTEX
  5
10AA1
100
AcDbEntity
  8
WARSTWA_1
  6
CONTINUOUS
 62
    20
100
AcDbVertex
100
AcDb2dVertex
 10
4.645509
 20
1.194146
 30
0.0
  0
VERTEX
  5
10AA2
100
AcDbEntity
  8
WARSTWA_1
  6
CONTINUOUS
 62
    20
100
AcDbVertex
100
AcDb2dVertex
 10
4.644675
 20
1.179772
 30
0.0
  0
VERTEX
  5
10AA3
100
AcDbEntity
  8
WARSTWA_1
  6
CONTINUOUS
 62
    20
100
AcDbVertex
100
AcDb2dVertex
 10
4.644675
 20
0.462918
 30
0.0
  0
VERTEX
  5
10AA4
100
AcDbEntity
  8
WARSTWA_1
  6
CONTINUOUS
 62
    20
100
AcDbVertex
100
AcDb2dVertex
 10
4.645509
 20
0.44815
 30
0.0
  0
VERTEX
  5
10AA5
100
AcDbEntity
  8
WARSTWA_1
  6
CONTINUOUS
 62
    20
100
AcDbVertex
100
AcDb2dVertex
 10
4.648143
 20
0.434764
 30
0.0
  0
VERTEX
  5
10AA6
100
AcDbEntity
  8
WARSTWA_1
  6
CONTINUOUS
 62
    20
100
AcDbVertex
100
AcDb2dVertex
 10
4.65273
 20
0.422977
 30
0.0
  0
VERTEX
  5
10AA7
100
AcDbEntity
  8
WARSTWA_1
  6
CONTINUOUS
 62
    20
100
AcDbVertex
100
AcDb2dVertex
 10
4.659403
 20
0.412969
 30
0.0
  0
VERTEX
  5
10AA8
100
AcDbEntity
  8
WARSTWA_1
  6
CONTINUOUS
 62
    20
100
AcDbVertex
100
AcDb2dVertex
 10
4.668116
 20
0.405048
 30
0.0
  0
VERTEX
  5
10AA9
100
AcDbEntity
  8
WARSTWA_1
  6
CONTINUOUS
 62
    20
100
AcDbVertex
100
AcDb2dVertex
 10
4.678651
 20
0.399449
 30
0.0
  0
VERTEX
  5
10AAA
100
AcDbEntity
  8
WARSTWA_1
  6
CONTINUOUS
 62
    20
100
AcDbVertex
100
AcDb2dVertex
 10
4.690675
 20
0.396225
 30
0.0
  0
VERTEX
  5
10AAB
100
AcDbEntity
  8
WARSTWA_1
  6
CONTINUOUS
 62
    20
100
AcDbVertex
100
AcDb2dVertex
 10
4.704021
 20
0.395217
 30
0.0
  0
VERTEX
  5
10AAC
100
AcDbEntity
  8
WARSTWA_1
  6
CONTINUOUS
 62
    20
100
AcDbVertex
100
AcDb2dVertex
 10
4.717057
 20
0.396225
 30
0.0
  0
VERTEX
  5
10AAD
100
AcDbEntity
  8
WARSTWA_1
  6
CONTINUOUS
 62
    20
100
AcDbVertex
100
AcDb2dVertex
 10
4.728797
 20
0.399497
 30
0.0
  0
VERTEX
  5
10AAE
100
AcDbEntity
  8
WARSTWA_1
  6
CONTINUOUS
 62
    20
100
AcDbVertex
100
AcDb2dVertex
 10
4.739135
 20
0.405115
 30
0.0
  0
VERTEX
  5
10AAF
100
AcDbEntity
  8
WARSTWA_1
  6
CONTINUOUS
 62
    20
100
AcDbVertex
100
AcDb2dVertex
 10
4.747627
 20
0.413059
 30
0.0
  0
VERTEX
  5
10AB0
100
AcDbEntity
  8
WARSTWA_1
  6
CONTINUOUS
 62
    20
100
AcDbVertex
100
AcDb2dVertex
 10
4.754143
 20
0.423044
 30
0.0
  0
VERTEX
  5
10AB1
100
AcDbEntity
  8
WARSTWA_1
  6
CONTINUOUS
 62
    20
100
AcDbVertex
100
AcDb2dVertex
 10
4.758576
 20
0.434827
 30
0.0
  0
VERTEX
  5
10AB2
100
AcDbEntity
  8
WARSTWA_1
  6
CONTINUOUS
 62
    20
100
AcDbVertex
100
AcDb2dVertex
 10
4.761167
 20
0.44817
 30
0.0
  0
SEQEND
  5
10AB3
100
AcDbEntity
  8
0
 62
    20
  0
POLYLINE
  5
10AB4
102
{ACAD_REACTORS
330
10A4B
102
}
100
AcDbEntity
  8
WARSTWA_1
  6
CONTINUOUS
 62
    20
100
AcDb2dPolyline
 66
     1
 10
0.0
 20
0.0
 30
0.0
 70
     1
 40
0.003
 41
0.003
  0
VERTEX
  5
10AB5
100
AcDbEntity
  8
WARSTWA_1
  6
CONTINUOUS
 62
    20
100
AcDbVertex
100
AcDb2dVertex
 10
3.883013
 20
0.284059
 30
0.0
  0
VERTEX
  5
10AB6
100
AcDbEntity
  8
WARSTWA_1
  6
CONTINUOUS
 62
    20
100
AcDbVertex
100
AcDb2dVertex
 10
3.883013
 20
0.0015
 30
0.0
  0
VERTEX
  5
10AB7
100
AcDbEntity
  8
WARSTWA_1
  6
CONTINUOUS
 62
    20
100
AcDbVertex
100
AcDb2dVertex
 10
3.614454
 20
0.0015
 30
0.0
  0
VERTEX
  5
10AB8
100
AcDbEntity
  8
WARSTWA_1
  6
CONTINUOUS
 62
    20
100
AcDbVertex
100
AcDb2dVertex
 10
3.614454
 20
1.401473
 30
0.0
  0
VERTEX
  5
10AB9
100
AcDbEntity
  8
WARSTWA_1
  6
CONTINUOUS
 62
    20
100
AcDbVertex
100
AcDb2dVertex
 10
3.882375
 20
1.401473
 30
0.0
  0
VERTEX
  5
10ABA
100
AcDbEntity
  8
WARSTWA_1
  6
CONTINUOUS
 62
    20
100
AcDbVertex
100
AcDb2dVertex
 10
3.882749
 20
1.351434
 30
0.0
  0
VERTEX
  5
10ABB
100
AcDbEntity
  8
WARSTWA_1
  6
CONTINUOUS
 62
    20
100
AcDbVertex
100
AcDb2dVertex
 10
3.908043
 20
1.371558
 30
0.0
  0
VERTEX
  5
10ABC
100
AcDbEntity
  8
WARSTWA_1
  6
CONTINUOUS
 62
    20
100
AcDbVertex
100
AcDb2dVertex
 10
3.935635
 20
1.38744
 30
0.0
  0
VERTEX
  5
10ABD
100
AcDbEntity
  8
WARSTWA_1
  6
CONTINUOUS
 62
    20
100
AcDbVertex
100
AcDb2dVertex
 10
3.964999
 20
1.399192
 30
0.0
  0
VERTEX
  5
10ABE
100
AcDbEntity
  8
WARSTWA_1
  6
CONTINUOUS
 62
    20
100
AcDbVertex
100
AcDb2dVertex
 10
3.99561
 20
1.406925
 30
0.0
  0
VERTEX
  5
10ABF
100
AcDbEntity
  8
WARSTWA_1
  6
CONTINUOUS
 62
    20
100
AcDbVertex
100
AcDb2dVertex
 10
4.026941
 20
1.41075
 30
0.0
  0
VERTEX
  5
10AC0
100
AcDbEntity
  8
WARSTWA_1
  6
CONTINUOUS
 62
    20
100
AcDbVertex
100
AcDb2dVertex
 10
4.058469
 20
1.410778
 30
0.0
  0
VERTEX
  5
10AC1
100
AcDbEntity
  8
WARSTWA_1
  6
CONTINUOUS
 62
    20
100
AcDbVertex
100
AcDb2dVertex
 10
4.089666
 20
1.40712
 30
0.0
  0
VERTEX
  5
10AC2
100
AcDbEntity
  8
WARSTWA_1
  6
CONTINUOUS
 62
    20
100
AcDbVertex
100
AcDb2dVertex
 10
4.120008
 20
1.399889
 30
0.0
  0
VERTEX
  5
10AC3
100
AcDbEntity
  8
WARSTWA_1
  6
CONTINUOUS
 62
    20
100
AcDbVertex
100
AcDb2dVertex
 10
4.148969
 20
1.389194
 30
0.0
  0
VERTEX
  5
10AC4
100
AcDbEntity
  8
WARSTWA_1
  6
CONTINUOUS
 62
    20
100
AcDbVertex
100
AcDb2dVertex
 10
4.176023
 20
1.375148
 30
0.0
  0
VERTEX
  5
10AC5
100
AcDbEntity
  8
WARSTWA_1
  6
CONTINUOUS
 62
    20
100
AcDbVertex
100
AcDb2dVertex
 10
4.200644
 20
1.357861
 30
0.0
  0
VERTEX
  5
10AC6
100
AcDbEntity
  8
WARSTWA_1
  6
CONTINUOUS
 62
    20
100
AcDbVertex
100
AcDb2dVertex
 10
4.222308
 20
1.337445
 30
0.0
  0
VERTEX
  5
10AC7
100
AcDbEntity
  8
WARSTWA_1
  6
CONTINUOUS
 62
    20
100
AcDbVertex
100
AcDb2dVertex
 10
4.240489
 20
1.314011
 30
0.0
  0
VERTEX
  5
10AC8
100
AcDbEntity
  8
WARSTWA_1
  6
CONTINUOUS
 62
    20
100
AcDbVertex
100
AcDb2dVertex
 10
4.254661
 20
1.28767
 30
0.0
  0
VERTEX
  5
10AC9
100
AcDbEntity
  8
WARSTWA_1
  6
CONTINUOUS
 62
    20
100
AcDbVertex
100
AcDb2dVertex
 10
4.264298
 20
1.258534
 30
0.0
  0
VERTEX
  5
10ACA
100
AcDbEntity
  8
WARSTWA_1
  6
CONTINUOUS
 62
    20
100
AcDbVertex
100
AcDb2dVertex
 10
4.268875
 20
1.226713
 30
0.0
  0
VERTEX
  5
10ACB
100
AcDbEntity
  8
WARSTWA_1
  6
CONTINUOUS
 62
    20
100
AcDbVertex
100
AcDb2dVertex
 10
4.268875
 20
0.387052
 30
0.0
  0
VERTEX
  5
10ACC
100
AcDbEntity
  8
WARSTWA_1
  6
CONTINUOUS
 62
    20
100
AcDbVertex
100
AcDb2dVertex
 10
4.267998
 20
0.36978
 30
0.0
  0
VERTEX
  5
10ACD
100
AcDbEntity
  8
WARSTWA_1
  6
CONTINUOUS
 62
    20
100
AcDbVertex
100
AcDb2dVertex
 10
4.265297
 20
0.35376
 30
0.0
  0
VERTEX
  5
10ACE
100
AcDbEntity
  8
WARSTWA_1
  6
CONTINUOUS
 62
    20
100
AcDbVertex
100
AcDb2dVertex
 10
4.260864
 20
0.338658
 30
0.0
  0
VERTEX
  5
10ACF
100
AcDbEntity
  8
WARSTWA_1
  6
CONTINUOUS
 62
    20
100
AcDbVertex
100
AcDb2dVertex
 10
4.254675
 20
0.324504
 30
0.0
  0
VERTEX
  5
10AD0
100
AcDbEntity
  8
WARSTWA_1
  6
CONTINUOUS
 62
    20
100
AcDbVertex
100
AcDb2dVertex
 10
4.24673
 20
0.311162
 30
0.0
  0
VERTEX
  5
10AD1
100
AcDbEntity
  8
WARSTWA_1
  6
CONTINUOUS
 62
    20
100
AcDbVertex
100
AcDb2dVertex
 10
4.236986
 20
0.29863
 30
0.0
  0
VERTEX
  5
10AD2
100
AcDbEntity
  8
WARSTWA_1
  6
CONTINUOUS
 62
    20
100
AcDbVertex
100
AcDb2dVertex
 10
4.225399
 20
0.28691
 30
0.0
  0
VERTEX
  5
10AD3
100
AcDbEntity
  8
WARSTWA_1
  6
CONTINUOUS
 62
    20
100
AcDbVertex
100
AcDb2dVertex
 10
4.211903
 20
0.275937
 30
0.0
  0
VERTEX
  5
10AD4
100
AcDbEntity
  8
WARSTWA_1
  6
CONTINUOUS
 62
    20
100
AcDbVertex
100
AcDb2dVertex
 10
4.197068
 20
0.265953
 30
0.0
  0
VERTEX
  5
10AD5
100
AcDbEntity
  8
WARSTWA_1
  6
CONTINUOUS
 62
    20
100
AcDbVertex
100
AcDb2dVertex
 10
4.181395
 20
0.257304
 30
0.0
  0
VERTEX
  5
10AD6
100
AcDbEntity
  8
WARSTWA_1
  6
CONTINUOUS
 62
    20
100
AcDbVertex
100
AcDb2dVertex
 10
4.164915
 20
0.249953
 30
0.0
  0
VERTEX
  5
10AD7
100
AcDbEntity
  8
WARSTWA_1
  6
CONTINUOUS
 62
    20
100
AcDbVertex
100
AcDb2dVertex
 10
4.14762
 20
0.243985
 30
0.0
  0
VERTEX
  5
10AD8
100
AcDbEntity
  8
WARSTWA_1
  6
CONTINUOUS
 62
    20
100
AcDbVertex
100
AcDb2dVertex
 10
4.12947
 20
0.239308
 30
0.0
  0
VERTEX
  5
10AD9
100
AcDbEntity
  8
WARSTWA_1
  6
CONTINUOUS
 62
    20
100
AcDbVertex
100
AcDb2dVertex
 10
4.11049
 20
0.235973
 30
0.0
  0
VERTEX
  5
10ADA
100
AcDbEntity
  8
WARSTWA_1
  6
CONTINUOUS
 62
    20
100
AcDbVertex
100
AcDb2dVertex
 10
4.090627
 20
0.233953
 30
0.0
  0
VERTEX
  5
10ADB
100
AcDbEntity
  8
WARSTWA_1
  6
CONTINUOUS
 62
    20
100
AcDbVertex
100
AcDb2dVertex
 10
4.069887
 20
0.233296
 30
0.0
  0
VERTEX
  5
10ADC
100
AcDbEntity
  8
WARSTWA_1
  6
CONTINUOUS
 62
    20
100
AcDbVertex
100
AcDb2dVertex
 10
4.041446
 20
0.233953
 30
0.0
  0
VERTEX
  5
10ADD
100
AcDbEntity
  8
WARSTWA_1
  6
CONTINUOUS
 62
    20
100
AcDbVertex
100
AcDb2dVertex
 10
4.014868
 20
0.235953
 30
0.0
  0
VERTEX
  5
10ADE
100
AcDbEntity
  8
WARSTWA_1
  6
CONTINUOUS
 62
    20
100
AcDbVertex
100
AcDb2dVertex
 10
3.990289
 20
0.239245
 30
0.0
  0
VERTEX
  5
10ADF
100
AcDbEntity
  8
WARSTWA_1
  6
CONTINUOUS
 62
    20
100
AcDbVertex
100
AcDb2dVertex
 10
3.967639
 20
0.243874
 30
0.0
  0
VERTEX
  5
10AE0
100
AcDbEntity
  8
WARSTWA_1
  6
CONTINUOUS
 62
    20
100
AcDbVertex
100
AcDb2dVertex
 10
3.947033
 20
0.249756
 30
0.0
  0
VERTEX
  5
10AE1
100
AcDbEntity
  8
WARSTWA_1
  6
CONTINUOUS
 62
    20
100
AcDbVertex
100
AcDb2dVertex
 10
3.928399
 20
0.25691
 30
0.0
  0
VERTEX
  5
10AE2
100
AcDbEntity
  8
WARSTWA_1
  6
CONTINUOUS
 62
    20
100
AcDbVertex
100
AcDb2dVertex
 10
3.911742
 20
0.265292
 30
0.0
  0
SEQEND
  5
10AE3
100
AcDbEntity
  8
0
 62
    20
  0
POLYLINE
  5
10AE4
102
{ACAD_REACTORS
330
10A4B
102
}
100
AcDbEntity
  8
WARSTWA_1
  6
CONTINUOUS
 62
    20
100
AcDb2dPolyline
 66
     1
 10
0.0
 20
0.0
 30
0.0
 70
     1
 40
0.003
 41
0.003
  0
VERTEX
  5
10AE5
100
AcDbEntity
  8
WARSTWA_1
  6
CONTINUOUS
 62
    20
100
AcDbVertex
100
AcDb2dVertex
 10
4.000316
 20
0.459122
 30
0.0
  0
VERTEX
  5
10AE6
100
AcDbEntity
  8
WARSTWA_1
  6
CONTINUOUS
 62
    20
100
AcDbVertex
100
AcDb2dVertex
 10
4.000316
 20
1.183898
 30
0.0
  0
VERTEX
  5
10AE7
100
AcDbEntity
  8
WARSTWA_1
  6
CONTINUOUS
 62
    20
100
AcDbVertex
100
AcDb2dVertex
 10
3.999505
 20
1.197351
 30
0.0
  0
VERTEX
  5
10AE8
100
AcDbEntity
  8
WARSTWA_1
  6
CONTINUOUS
 62
    20
100
AcDbVertex
100
AcDb2dVertex
 10
3.996848
 20
1.209685
 30
0.0
  0
VERTEX
  5
10AE9
100
AcDbEntity
  8
WARSTWA_1
  6
CONTINUOUS
 62
    20
100
AcDbVertex
100
AcDb2dVertex
 10
3.992309
 20
1.220504
 30
0.0
  0
VERTEX
  5
10AEA
100
AcDbEntity
  8
WARSTWA_1
  6
CONTINUOUS
 62
    20
100
AcDbVertex
100
AcDb2dVertex
 10
3.985635
 20
1.229721
 30
0.0
  0
VERTEX
  5
10AEB
100
AcDbEntity
  8
WARSTWA_1
  6
CONTINUOUS
 62
    20
100
AcDbVertex
100
AcDb2dVertex
 10
3.977033
 20
1.236898
 30
0.0
  0
VERTEX
  5
10AEC
100
AcDbEntity
  8
WARSTWA_1
  6
CONTINUOUS
 62
    20
100
AcDbVertex
100
AcDb2dVertex
 10
3.966694
 20
1.241922
 30
0.0
  0
VERTEX
  5
10AED
100
AcDbEntity
  8
WARSTWA_1
  6
CONTINUOUS
 62
    20
100
AcDbVertex
100
AcDb2dVertex
 10
3.955021
 20
1.244819
 30
0.0
  0
VERTEX
  5
10AEE
100
AcDbEntity
  8
WARSTWA_1
  6
CONTINUOUS
 62
    20
100
AcDbVertex
100
AcDb2dVertex
 10
3.942005
 20
1.245741
 30
0.0
  0
VERTEX
  5
10AEF
100
AcDbEntity
  8
WARSTWA_1
  6
CONTINUOUS
 62
    20
100
AcDbVertex
100
AcDb2dVertex
 10
3.928927
 20
1.244819
 30
0.0
  0
VERTEX
  5
10AF0
100
AcDbEntity
  8
WARSTWA_1
  6
CONTINUOUS
 62
    20
100
AcDbVertex
100
AcDb2dVertex
 10
3.917139
 20
1.241945
 30
0.0
  0
VERTEX
  5
10AF1
100
AcDbEntity
  8
WARSTWA_1
  6
CONTINUOUS
 62
    20
100
AcDbVertex
100
AcDb2dVertex
 10
3.906738
 20
1.236941
 30
0.0
  0
VERTEX
  5
10AF2
100
AcDbEntity
  8
WARSTWA_1
  6
CONTINUOUS
 62
    20
100
AcDbVertex
100
AcDb2dVertex
 10
3.897958
 20
1.229764
 30
0.0
  0
VERTEX
  5
10AF3
100
AcDbEntity
  8
WARSTWA_1
  6
CONTINUOUS
 62
    20
100
AcDbVertex
100
AcDb2dVertex
 10
3.891246
 20
1.220567
 30
0.0
  0
VERTEX
  5
10AF4
100
AcDbEntity
  8
WARSTWA_1
  6
CONTINUOUS
 62
    20
100
AcDbVertex
100
AcDb2dVertex
 10
3.886549
 20
1.209729
 30
0.0
  0
VERTEX
  5
10AF5
100
AcDbEntity
  8
WARSTWA_1
  6
CONTINUOUS
 62
    20
100
AcDbVertex
100
AcDb2dVertex
 10
3.883872
 20
1.197394
 30
0.0
  0
VERTEX
  5
10AF6
100
AcDbEntity
  8
WARSTWA_1
  6
CONTINUOUS
 62
    20
100
AcDbVertex
100
AcDb2dVertex
 10
3.883013
 20
1.183918
 30
0.0
  0
VERTEX
  5
10AF7
100
AcDbEntity
  8
WARSTWA_1
  6
CONTINUOUS
 62
    20
100
AcDbVertex
100
AcDb2dVertex
 10
3.883013
 20
0.45704
 30
0.0
  0
VERTEX
  5
10AF8
100
AcDbEntity
  8
WARSTWA_1
  6
CONTINUOUS
 62
    20
100
AcDbVertex
100
AcDb2dVertex
 10
3.883872
 20
0.443937
 30
0.0
  0
VERTEX
  5
10AF9
100
AcDbEntity
  8
WARSTWA_1
  6
CONTINUOUS
 62
    20
100
AcDbVertex
100
AcDb2dVertex
 10
3.886592
 20
0.431953
 30
0.0
  0
VERTEX
  5
10AFA
100
AcDbEntity
  8
WARSTWA_1
  6
CONTINUOUS
 62
    20
100
AcDbVertex
100
AcDb2dVertex
 10
3.891289
 20
0.421355
 30
0.0
  0
VERTEX
  5
10AFB
100
AcDbEntity
  8
WARSTWA_1
  6
CONTINUOUS
 62
    20
100
AcDbVertex
100
AcDb2dVertex
 10
3.898049
 20
0.412441
 30
0.0
  0
VERTEX
  5
10AFC
100
AcDbEntity
  8
WARSTWA_1
  6
CONTINUOUS
 62
    20
100
AcDbVertex
100
AcDb2dVertex
 10
3.906824
 20
0.405441
 30
0.0
  0
VERTEX
  5
10AFD
100
AcDbEntity
  8
WARSTWA_1
  6
CONTINUOUS
 62
    20
100
AcDbVertex
100
AcDb2dVertex
 10
3.917206
 20
0.400591
 30
0.0
  0
VERTEX
  5
10AFE
100
AcDbEntity
  8
WARSTWA_1
  6
CONTINUOUS
 62
    20
100
AcDbVertex
100
AcDb2dVertex
 10
3.92897
 20
0.397827
 30
0.0
  0
VERTEX
  5
10AFF
100
AcDbEntity
  8
WARSTWA_1
  6
CONTINUOUS
 62
    20
100
AcDbVertex
100
AcDb2dVertex
 10
3.942005
 20
0.396949
 30
0.0
  0
VERTEX
  5
10B00
100
AcDbEntity
  8
WARSTWA_1
  6
CONTINUOUS
 62
    20
100
AcDbVertex
100
AcDb2dVertex
 10
3.955021
 20
0.397847
 30
0.0
  0
VERTEX
  5
10B01
100
AcDbEntity
  8
WARSTWA_1
  6
CONTINUOUS
 62
    20
100
AcDbVertex
100
AcDb2dVertex
 10
3.966718
 20
0.400768
 30
0.0
  0
VERTEX
  5
10B02
100
AcDbEntity
  8
WARSTWA_1
  6
CONTINUOUS
 62
    20
100
AcDbVertex
100
AcDb2dVertex
 10
3.977076
 20
0.405839
 30
0.0
  0
VERTEX
  5
10B03
100
AcDbEntity
  8
WARSTWA_1
  6
CONTINUOUS
 62
    20
100
AcDbVertex
100
AcDb2dVertex
 10
3.985659
 20
0.413146
 30
0.0
  0
VERTEX
  5
10B04
100
AcDbEntity
  8
WARSTWA_1
  6
CONTINUOUS
 62
    20
100
AcDbVertex
100
AcDb2dVertex
 10
3.992309
 20
0.422339
 30
0.0
  0
VERTEX
  5
10B05
100
AcDbEntity
  8
WARSTWA_1
  6
CONTINUOUS
 62
    20
100
AcDbVertex
100
AcDb2dVertex
 10
3.996848
 20
0.433248
 30
0.0
  0
VERTEX
  5
10B06
100
AcDbEntity
  8
WARSTWA_1
  6
CONTINUOUS
 62
    20
100
AcDbVertex
100
AcDb2dVertex
 10
3.999505
 20
0.445583
 30
0.0
  0
SEQEND
  5
10B07
100
AcDbEntity
  8
0
 62
    20
  0
SOLID
  5
10B08
100
AcDbEntity
  8
WARSTWA_1
  6
CONTINUOUS
 62
    20
100
AcDbTrace
 10
3.501025
 20
0.249449
 30
0.0
 11
3.231435
 21
0.249449
 31
0.0
 12
3.501025
 22
1.67376
 32
0.0
 13
3.231435
 23
1.67376
 33
0.0
  0
HATCH
  5
10B09
100
AcDbEntity
  8
0
  6
CONTINUOUS
 62
    20
100
AcDbHatch
 10
0.0
 20
0.0
 30
0.0
210
0.0
220
0.0
230
1.0
  2
SOLID
 70
     1
 71
     1
 91
        2
 92
        7
 72
     0
 73
     1
 93
        8
 10
6.494831769928969
 20
0.3819339936242998
 10
6.544048769928968
 20
0.2541379936242989
 10
6.607705769928968
 20
0.2541379936242989
 10
6.435016769928969
 20
0.6760559936242992
 10
6.374898769928968
 20
0.6760559936242992
 10
6.212804769928968
 20
0.2541379936242989
 10
6.272142769928969
 20
0.2541379936242989
 10
6.318406769928968
 20
0.3819339936242993
 97
        1
330
10B15
 92
       22
 72
     0
 73
     1
 93
        9
 10
6.47765076992897
 20
0.4274139936242995
 10
6.334520769928967
 20
0.4274139936242994
 10
6.380890769928971
 20
0.5511029936243024
 10
6.389960769928967
 20
0.5778569936242822
 10
6.397546769928969
 20
0.6047209936243242
 10
6.403674769928968
 20
0.6317479936242983
 10
6.411335769928973
 20
0.606761993624277
 10
6.421303769928957
 20
0.5775879936242983
 10
6.433540769928965
 20
0.5442209936243854
 97
        1
330
10B0A
 75
     0
 76
     1
 47
0.003856
 98
        2
 10
6.500793
 20
0.398939
 10
6.500793
 20
0.398939
  0
POLYLINE
  5
10B0A
102
{ACAD_REACTORS
330
10B09
102
}
100
AcDbEntity
  8
WARSTWA_1
  6
CONTINUOUS
 62
    20
100
AcDb2dPolyline
 66
     1
 10
0.0
 20
0.0
 30
0.0
 70
     1
 40
0.003
 41
0.003
  0
VERTEX
  5
10B0B
100
AcDbEntity
  8
WARSTWA_1
  6
CONTINUOUS
 62
    20
100
AcDbVertex
100
AcDb2dVertex
 10
6.334521
 20
0.427414
 30
0.0
  0
VERTEX
  5
10B0C
100
AcDbEntity
  8
WARSTWA_1
  6
CONTINUOUS
 62
    20
100
AcDbVertex
100
AcDb2dVertex
 10
6.477651
 20
0.427414
 30
0.0
  0
VERTEX
  5
10B0D
100
AcDbEntity
  8
WARSTWA_1
  6
CONTINUOUS
 62
    20
100
AcDbVertex
100
AcDb2dVertex
 10
6.433541
 20
0.544221
 30
0.0
  0
VERTEX
  5
10B0E
100
AcDbEntity
  8
WARSTWA_1
  6
CONTINUOUS
 62
    20
100
AcDbVertex
100
AcDb2dVertex
 10
6.421304
 20
0.577588
 30
0.0
  0
VERTEX
  5
10B0F
100
AcDbEntity
  8
WARSTWA_1
  6
CONTINUOUS
 62
    20
100
AcDbVertex
100
AcDb2dVertex
 10
6.411336
 20
0.606762
 30
0.0
  0
VERTEX
  5
10B10
100
AcDbEntity
  8
WARSTWA_1
  6
CONTINUOUS
 62
    20
100
AcDbVertex
100
AcDb2dVertex
 10
6.403675
 20
0.631748
 30
0.0
  0
VERTEX
  5
10B11
100
AcDbEntity
  8
WARSTWA_1
  6
CONTINUOUS
 62
    20
100
AcDbVertex
100
AcDb2dVertex
 10
6.397547
 20
0.604721
 30
0.0
  0
VERTEX
  5
10B12
100
AcDbEntity
  8
WARSTWA_1
  6
CONTINUOUS
 62
    20
100
AcDbVertex
100
AcDb2dVertex
 10
6.389961
 20
0.577857
 30
0.0
  0
VERTEX
  5
10B13
100
AcDbEntity
  8
WARSTWA_1
  6
CONTINUOUS
 62
    20
100
AcDbVertex
100
AcDb2dVertex
 10
6.380891
 20
0.551103
 30
0.0
  0
SEQEND
  5
10B14
100
AcDbEntity
  8
0
 62
    20
  0
POLYLINE
  5
10B15
102
{ACAD_REACTORS
330
10B09
102
}
100
AcDbEntity
  8
WARSTWA_1
  6
CONTINUOUS
 62
    20
100
AcDb2dPolyline
 66
     1
 10
0.0
 20
0.0
 30
0.0
 70
     1
 40
0.003
 41
0.003
  0
VERTEX
  5
10B16
100
AcDbEntity
  8
WARSTWA_1
  6
CONTINUOUS
 62
    20
100
AcDbVertex
100
AcDb2dVertex
 10
6.212805
 20
0.254138
 30
0.0
  0
VERTEX
  5
10B17
100
AcDbEntity
  8
WARSTWA_1
  6
CONTINUOUS
 62
    20
100
AcDbVertex
100
AcDb2dVertex
 10
6.374899
 20
0.676056
 30
0.0
  0
VERTEX
  5
10B18
100
AcDbEntity
  8
WARSTWA_1
  6
CONTINUOUS
 62
    20
100
AcDbVertex
100
AcDb2dVertex
 10
6.435017
 20
0.676056
 30
0.0
  0
VERTEX
  5
10B19
100
AcDbEntity
  8
WARSTWA_1
  6
CONTINUOUS
 62
    20
100
AcDbVertex
100
AcDb2dVertex
 10
6.607706
 20
0.254138
 30
0.0
  0
VERTEX
  5
10B1A
100
AcDbEntity
  8
WARSTWA_1
  6
CONTINUOUS
 62
    20
100
AcDbVertex
100
AcDb2dVertex
 10
6.544049
 20
0.254138
 30
0.0
  0
VERTEX
  5
10B1B
100
AcDbEntity
  8
WARSTWA_1
  6
CONTINUOUS
 62
    20
100
AcDbVertex
100
AcDb2dVertex
 10
6.494832
 20
0.381934
 30
0.0
  0
VERTEX
  5
10B1C
100
AcDbEntity
  8
WARSTWA_1
  6
CONTINUOUS
 62
    20
100
AcDbVertex
100
AcDb2dVertex
 10
6.318407
 20
0.381934
 30
0.0
  0
VERTEX
  5
10B1D
100
AcDbEntity
  8
WARSTWA_1
  6
CONTINUOUS
 62
    20
100
AcDbVertex
100
AcDb2dVertex
 10
6.272143
 20
0.254138
 30
0.0
  0
SEQEND
  5
10B1E
100
AcDbEntity
  8
0
 62
    20
  0
HATCH
  5
10B1F
100
AcDbEntity
  8
0
  6
CONTINUOUS
 62
    20
100
AcDbHatch
 10
0.0
 20
0.0
 30
0.0
210
0.0
220
0.0
230
1.0
  2
SOLID
 70
     1
 71
     1
 91
        1
 92
        7
 72
     0
 73
     1
 93
      101
 10
5.953367769928968
 20
0.3325239936243002
 10
5.944010769928968
 20
0.3223119936242982
 10
5.931853769928967
 20
0.3136459936242991
 10
5.916922769928967
 20
0.3065039936242986
 10
5.89980576992897
 20
0.3012549936242993
 10
5.881017769928969
 20
0.2981049936242992
 10
5.860540769928968
 20
0.2970559936242991
 10
5.837369769928968
 20
0.2984349936242992
 10
5.815787769928966
 20
0.3025899936242987
 10
5.795815769928971
 20
0.3095439936242986
 10
5.778330769928969
 20
0.3187419936243
 10
5.76418576992897
 20
0.3296739936242982
 10
5.753374769928967
 20
0.3423629936242967
 10
5.745347769928971
 20
0.357162993624291
 10
5.73954876992897
 20
0.3744729936242951
 10
5.735977769928968
 20
0.3943149936242989
 10
5.683331769928969
 20
0.389708993624299
 10
5.68637376992897
 20
0.362463993624297
 10
5.69408276992897
 20
0.3371729936242931
 10
5.706418769928968
 20
0.3138669936242965
 10
5.722987769928969
 20
0.2933669936242976
 10
5.743252769928968
 20
0.2766429936242999
 10
5.76723376992897
 20
0.2636739936242983
 10
5.795059769928967
 20
0.254361993624299
 10
5.827051769928969
 20
0.2488119936242992
 10
5.863189769928967
 20
0.2469729936242992
 10
5.892266769928968
 20
0.2488049936242991
 10
5.919359769928968
 20
0.2543039936242993
 10
5.944441769928966
 20
0.263476993624299
 10
5.966639769928971
 20
0.276018993624298
 10
5.985106769928968
 20
0.2914629936243005
 10
5.999847769928969
 20
0.3098269936242981
 10
6.010551769928969
 20
0.3301019936242974
 10
6.016959769928968
 20
0.3512459936243017
 10
6.019091769928969
 20
0.3732879936243009
 10
6.01715576992897
 20
0.3950269936242952
 10
6.011333769928968
 20
0.415045993624296
 10
6.001607769928968
 20
0.4333229936242987
 10
5.987761769928967
 20
0.4496269936243023
 10
5.969609769928966
 20
0.4639669936243006
 10
5.947178769928968
 20
0.4763469936242995
 10
5.925546769928976
 20
0.4844289936242988
 10
5.894407769928966
 20
0.4933939936242976
 10
5.853764769928946
 20
0.5032559936242956
 10
5.814176769928962
 20
0.5134059936242999
 10
5.78612876992897
 20
0.5234289936242971
 10
5.769579769928969
 20
0.533314993624299
 10
5.760481769928969
 20
0.5439599936243001
 10
5.755009769928969
 20
0.5564319936242983
 10
5.753182769928968
 20
0.5707409936242972
 10
5.755762769928969
 20
0.5873079936242994
 10
5.763493769928967
 20
0.6022119936242975
 10
5.77635576992897
 20
0.6154369936242987
 10
5.794902769928971
 20
0.6257529936242993
 10
5.819511769928968
 20
0.631943993624299
 10
5.850221769928968
 20
0.6340079936242988
 10
5.879997769928968
 20
0.6317449936242986
 10
5.90448876992897
 20
0.6249389936242991
 10
5.923721769928967
 20
0.6135669936243002
 10
5.938029769928969
 20
0.5977979936243019
 10
5.94777676992897
 20
0.5776399936242998
 10
5.95297776992897
 20
0.5531699936242991
 10
6.006516769928968
 20
0.5571849936242992
 10
6.003547769928969
 20
0.5810879936242941
 10
5.996626769928965
 20
0.6032619936243082
 10
5.985796769928965
 20
0.6236889936243026
 10
5.971089769928971
 20
0.6416619936242989
 10
5.952725769928967
 20
0.6564679936243003
 10
5.930693769928969
 20
0.668082993624298
 10
5.905529769928966
 20
0.6765059936242997
 10
5.877948769928969
 20
0.6815459936242993
 10
5.847878769928968
 20
0.6832209936242993
 10
5.820366769928968
 20
0.6816179936242995
 10
5.794577769928969
 20
0.6768259936242989
 10
5.770469769928968
 20
0.6688669936242989
 10
5.74912576992897
 20
0.6577659936243002
 10
5.731463769928969
 20
0.6436959936242991
 10
5.717516769928969
 20
0.6266419936242982
 10
5.707465769928969
 20
0.6076819936242992
 10
5.701447769928967
 20
0.5877889936243012
 10
5.69944576992897
 20
0.5670039936243043
 10
5.701082769928969
 20
0.5482119936242973
 10
5.705991769928971
 20
0.5307059936242992
 10
5.71417476992897
 20
0.5144649936242976
 10
5.725800769928969
 20
0.4996589936242993
 10
5.740828769928969
 20
0.4865429936242986
 10
5.759260769928968
 20
0.4751539936242991
 10
5.778679769928966
 20
0.4667349936242978
 10
5.80584276992897
 20
0.4579699936243
 10
5.840709769929009
 20
0.4488269936242952
 10
5.87489976992897
 20
0.4403229936242995
 10
5.899928769928965
 20
0.4334439936242998
 10
5.915859769928973
 20
0.4281969936242975
 10
5.93179676992897
 20
0.420996993624298
 10
5.944446769928971
 20
0.412721993624298
 10
5.953780769928968
 20
0.4033509936242995
 10
5.960228769928971
 20
0.3928949936242973
 10
5.964077769928969
 20
0.3813539936242942
 10
5.96535576992897
 20
0.3686849936243033
 10
5.964018769928968
 20
0.3559659936242967
 10
5.960018769928968
 20
0.3439259936243028
 97
        1
330
10B20
 75
     0
 76
     1
 47
0.003856
 98
        1
 10
5.975986
 20
0.321822
  0
POLYLINE
  5
10B20
102
{ACAD_REACTORS
330
10B1F
102
}
100
AcDbEntity
  8
WARSTWA_1
  6
CONTINUOUS
 62
    20
100
AcDb2dPolyline
 66
     1
 10
0.0
 20
0.0
 30
0.0
 70
     1
 40
0.003
 41
0.003
  0
VERTEX
  5
10B21
100
AcDbEntity
  8
WARSTWA_1
  6
CONTINUOUS
 62
    20
100
AcDbVertex
100
AcDb2dVertex
 10
5.683332
 20
0.389709
 30
0.0
  0
VERTEX
  5
10B22
100
AcDbEntity
  8
WARSTWA_1
  6
CONTINUOUS
 62
    20
100
AcDbVertex
100
AcDb2dVertex
 10
5.735978
 20
0.394315
 30
0.0
  0
VERTEX
  5
10B23
100
AcDbEntity
  8
WARSTWA_1
  6
CONTINUOUS
 62
    20
100
AcDbVertex
100
AcDb2dVertex
 10
5.739549
 20
0.374473
 30
0.0
  0
VERTEX
  5
10B24
100
AcDbEntity
  8
WARSTWA_1
  6
CONTINUOUS
 62
    20
100
AcDbVertex
100
AcDb2dVertex
 10
5.745348
 20
0.357163
 30
0.0
  0
VERTEX
  5
10B25
100
AcDbEntity
  8
WARSTWA_1
  6
CONTINUOUS
 62
    20
100
AcDbVertex
100
AcDb2dVertex
 10
5.753375
 20
0.342363
 30
0.0
  0
VERTEX
  5
10B26
100
AcDbEntity
  8
WARSTWA_1
  6
CONTINUOUS
 62
    20
100
AcDbVertex
100
AcDb2dVertex
 10
5.764186
 20
0.329674
 30
0.0
  0
VERTEX
  5
10B27
100
AcDbEntity
  8
WARSTWA_1
  6
CONTINUOUS
 62
    20
100
AcDbVertex
100
AcDb2dVertex
 10
5.778331
 20
0.318742
 30
0.0
  0
VERTEX
  5
10B28
100
AcDbEntity
  8
WARSTWA_1
  6
CONTINUOUS
 62
    20
100
AcDbVertex
100
AcDb2dVertex
 10
5.795816
 20
0.309544
 30
0.0
  0
VERTEX
  5
10B29
100
AcDbEntity
  8
WARSTWA_1
  6
CONTINUOUS
 62
    20
100
AcDbVertex
100
AcDb2dVertex
 10
5.815788
 20
0.30259
 30
0.0
  0
VERTEX
  5
10B2A
100
AcDbEntity
  8
WARSTWA_1
  6
CONTINUOUS
 62
    20
100
AcDbVertex
100
AcDb2dVertex
 10
5.83737
 20
0.298435
 30
0.0
  0
VERTEX
  5
10B2B
100
AcDbEntity
  8
WARSTWA_1
  6
CONTINUOUS
 62
    20
100
AcDbVertex
100
AcDb2dVertex
 10
5.860541
 20
0.297056
 30
0.0
  0
VERTEX
  5
10B2C
100
AcDbEntity
  8
WARSTWA_1
  6
CONTINUOUS
 62
    20
100
AcDbVertex
100
AcDb2dVertex
 10
5.881018
 20
0.298105
 30
0.0
  0
VERTEX
  5
10B2D
100
AcDbEntity
  8
WARSTWA_1
  6
CONTINUOUS
 62
    20
100
AcDbVertex
100
AcDb2dVertex
 10
5.899806
 20
0.301255
 30
0.0
  0
VERTEX
  5
10B2E
100
AcDbEntity
  8
WARSTWA_1
  6
CONTINUOUS
 62
    20
100
AcDbVertex
100
AcDb2dVertex
 10
5.916923
 20
0.306504
 30
0.0
  0
VERTEX
  5
10B2F
100
AcDbEntity
  8
WARSTWA_1
  6
CONTINUOUS
 62
    20
100
AcDbVertex
100
AcDb2dVertex
 10
5.931854
 20
0.313646
 30
0.0
  0
VERTEX
  5
10B30
100
AcDbEntity
  8
WARSTWA_1
  6
CONTINUOUS
 62
    20
100
AcDbVertex
100
AcDb2dVertex
 10
5.944011
 20
0.322312
 30
0.0
  0
VERTEX
  5
10B31
100
AcDbEntity
  8
WARSTWA_1
  6
CONTINUOUS
 62
    20
100
AcDbVertex
100
AcDb2dVertex
 10
5.953368
 20
0.332524
 30
0.0
  0
VERTEX
  5
10B32
100
AcDbEntity
  8
WARSTWA_1
  6
CONTINUOUS
 62
    20
100
AcDbVertex
100
AcDb2dVertex
 10
5.960019
 20
0.343926
 30
0.0
  0
VERTEX
  5
10B33
100
AcDbEntity
  8
WARSTWA_1
  6
CONTINUOUS
 62
    20
100
AcDbVertex
100
AcDb2dVertex
 10
5.964019
 20
0.355966
 30
0.0
  0
VERTEX
  5
10B34
100
AcDbEntity
  8
WARSTWA_1
  6
CONTINUOUS
 62
    20
100
AcDbVertex
100
AcDb2dVertex
 10
5.965356
 20
0.368685
 30
0.0
  0
VERTEX
  5
10B35
100
AcDbEntity
  8
WARSTWA_1
  6
CONTINUOUS
 62
    20
100
AcDbVertex
100
AcDb2dVertex
 10
5.964078
 20
0.381354
 30
0.0
  0
VERTEX
  5
10B36
100
AcDbEntity
  8
WARSTWA_1
  6
CONTINUOUS
 62
    20
100
AcDbVertex
100
AcDb2dVertex
 10
5.960229
 20
0.392895
 30
0.0
  0
VERTEX
  5
10B37
100
AcDbEntity
  8
WARSTWA_1
  6
CONTINUOUS
 62
    20
100
AcDbVertex
100
AcDb2dVertex
 10
5.953781
 20
0.403351
 30
0.0
  0
VERTEX
  5
10B38
100
AcDbEntity
  8
WARSTWA_1
  6
CONTINUOUS
 62
    20
100
AcDbVertex
100
AcDb2dVertex
 10
5.944447
 20
0.412722
 30
0.0
  0
VERTEX
  5
10B39
100
AcDbEntity
  8
WARSTWA_1
  6
CONTINUOUS
 62
    20
100
AcDbVertex
100
AcDb2dVertex
 10
5.931797
 20
0.420997
 30
0.0
  0
VERTEX
  5
10B3A
100
AcDbEntity
  8
WARSTWA_1
  6
CONTINUOUS
 62
    20
100
AcDbVertex
100
AcDb2dVertex
 10
5.91586
 20
0.428197
 30
0.0
  0
VERTEX
  5
10B3B
100
AcDbEntity
  8
WARSTWA_1
  6
CONTINUOUS
 62
    20
100
AcDbVertex
100
AcDb2dVertex
 10
5.899929
 20
0.433444
 30
0.0
  0
VERTEX
  5
10B3C
100
AcDbEntity
  8
WARSTWA_1
  6
CONTINUOUS
 62
    20
100
AcDbVertex
100
AcDb2dVertex
 10
5.8749
 20
0.440323
 30
0.0
  0
VERTEX
  5
10B3D
100
AcDbEntity
  8
WARSTWA_1
  6
CONTINUOUS
 62
    20
100
AcDbVertex
100
AcDb2dVertex
 10
5.84071
 20
0.448827
 30
0.0
  0
VERTEX
  5
10B3E
100
AcDbEntity
  8
WARSTWA_1
  6
CONTINUOUS
 62
    20
100
AcDbVertex
100
AcDb2dVertex
 10
5.805843
 20
0.45797
 30
0.0
  0
VERTEX
  5
10B3F
100
AcDbEntity
  8
WARSTWA_1
  6
CONTINUOUS
 62
    20
100
AcDbVertex
100
AcDb2dVertex
 10
5.77868
 20
0.466735
 30
0.0
  0
VERTEX
  5
10B40
100
AcDbEntity
  8
WARSTWA_1
  6
CONTINUOUS
 62
    20
100
AcDbVertex
100
AcDb2dVertex
 10
5.759261
 20
0.475154
 30
0.0
  0
VERTEX
  5
10B41
100
AcDbEntity
  8
WARSTWA_1
  6
CONTINUOUS
 62
    20
100
AcDbVertex
100
AcDb2dVertex
 10
5.740829
 20
0.486543
 30
0.0
  0
VERTEX
  5
10B42
100
AcDbEntity
  8
WARSTWA_1
  6
CONTINUOUS
 62
    20
100
AcDbVertex
100
AcDb2dVertex
 10
5.725801
 20
0.499659
 30
0.0
  0
VERTEX
  5
10B43
100
AcDbEntity
  8
WARSTWA_1
  6
CONTINUOUS
 62
    20
100
AcDbVertex
100
AcDb2dVertex
 10
5.714175
 20
0.514465
 30
0.0
  0
VERTEX
  5
10B44
100
AcDbEntity
  8
WARSTWA_1
  6
CONTINUOUS
 62
    20
100
AcDbVertex
100
AcDb2dVertex
 10
5.705992
 20
0.530706
 30
0.0
  0
VERTEX
  5
10B45
100
AcDbEntity
  8
WARSTWA_1
  6
CONTINUOUS
 62
    20
100
AcDbVertex
100
AcDb2dVertex
 10
5.701083
 20
0.548212
 30
0.0
  0
VERTEX
  5
10B46
100
AcDbEntity
  8
WARSTWA_1
  6
CONTINUOUS
 62
    20
100
AcDbVertex
100
AcDb2dVertex
 10
5.699446
 20
0.567004
 30
0.0
  0
VERTEX
  5
10B47
100
AcDbEntity
  8
WARSTWA_1
  6
CONTINUOUS
 62
    20
100
AcDbVertex
100
AcDb2dVertex
 10
5.701448
 20
0.587789
 30
0.0
  0
VERTEX
  5
10B48
100
AcDbEntity
  8
WARSTWA_1
  6
CONTINUOUS
 62
    20
100
AcDbVertex
100
AcDb2dVertex
 10
5.707466
 20
0.607682
 30
0.0
  0
VERTEX
  5
10B49
100
AcDbEntity
  8
WARSTWA_1
  6
CONTINUOUS
 62
    20
100
AcDbVertex
100
AcDb2dVertex
 10
5.717517
 20
0.626642
 30
0.0
  0
VERTEX
  5
10B4A
100
AcDbEntity
  8
WARSTWA_1
  6
CONTINUOUS
 62
    20
100
AcDbVertex
100
AcDb2dVertex
 10
5.731464
 20
0.643696
 30
0.0
  0
VERTEX
  5
10B4B
100
AcDbEntity
  8
WARSTWA_1
  6
CONTINUOUS
 62
    20
100
AcDbVertex
100
AcDb2dVertex
 10
5.749126
 20
0.657766
 30
0.0
  0
VERTEX
  5
10B4C
100
AcDbEntity
  8
WARSTWA_1
  6
CONTINUOUS
 62
    20
100
AcDbVertex
100
AcDb2dVertex
 10
5.77047
 20
0.668867
 30
0.0
  0
VERTEX
  5
10B4D
100
AcDbEntity
  8
WARSTWA_1
  6
CONTINUOUS
 62
    20
100
AcDbVertex
100
AcDb2dVertex
 10
5.794578
 20
0.676826
 30
0.0
  0
VERTEX
  5
10B4E
100
AcDbEntity
  8
WARSTWA_1
  6
CONTINUOUS
 62
    20
100
AcDbVertex
100
AcDb2dVertex
 10
5.820367
 20
0.681618
 30
0.0
  0
VERTEX
  5
10B4F
100
AcDbEntity
  8
WARSTWA_1
  6
CONTINUOUS
 62
    20
100
AcDbVertex
100
AcDb2dVertex
 10
5.847879
 20
0.683221
 30
0.0
  0
VERTEX
  5
10B50
100
AcDbEntity
  8
WARSTWA_1
  6
CONTINUOUS
 62
    20
100
AcDbVertex
100
AcDb2dVertex
 10
5.877949
 20
0.681546
 30
0.0
  0
VERTEX
  5
10B51
100
AcDbEntity
  8
WARSTWA_1
  6
CONTINUOUS
 62
    20
100
AcDbVertex
100
AcDb2dVertex
 10
5.90553
 20
0.676506
 30
0.0
  0
VERTEX
  5
10B52
100
AcDbEntity
  8
WARSTWA_1
  6
CONTINUOUS
 62
    20
100
AcDbVertex
100
AcDb2dVertex
 10
5.930694
 20
0.668083
 30
0.0
  0
VERTEX
  5
10B53
100
AcDbEntity
  8
WARSTWA_1
  6
CONTINUOUS
 62
    20
100
AcDbVertex
100
AcDb2dVertex
 10
5.952726
 20
0.656468
 30
0.0
  0
VERTEX
  5
10B54
100
AcDbEntity
  8
WARSTWA_1
  6
CONTINUOUS
 62
    20
100
AcDbVertex
100
AcDb2dVertex
 10
5.97109
 20
0.641662
 30
0.0
  0
VERTEX
  5
10B55
100
AcDbEntity
  8
WARSTWA_1
  6
CONTINUOUS
 62
    20
100
AcDbVertex
100
AcDb2dVertex
 10
5.985797
 20
0.623689
 30
0.0
  0
VERTEX
  5
10B56
100
AcDbEntity
  8
WARSTWA_1
  6
CONTINUOUS
 62
    20
100
AcDbVertex
100
AcDb2dVertex
 10
5.996627
 20
0.603262
 30
0.0
  0
VERTEX
  5
10B57
100
AcDbEntity
  8
WARSTWA_1
  6
CONTINUOUS
 62
    20
100
AcDbVertex
100
AcDb2dVertex
 10
6.003548
 20
0.581088
 30
0.0
  0
VERTEX
  5
10B58
100
AcDbEntity
  8
WARSTWA_1
  6
CONTINUOUS
 62
    20
100
AcDbVertex
100
AcDb2dVertex
 10
6.006517
 20
0.557185
 30
0.0
  0
VERTEX
  5
10B59
100
AcDbEntity
  8
WARSTWA_1
  6
CONTINUOUS
 62
    20
100
AcDbVertex
100
AcDb2dVertex
 10
5.952978
 20
0.55317
 30
0.0
  0
VERTEX
  5
10B5A
100
AcDbEntity
  8
WARSTWA_1
  6
CONTINUOUS
 62
    20
100
AcDbVertex
100
AcDb2dVertex
 10
5.947777
 20
0.57764
 30
0.0
  0
VERTEX
  5
10B5B
100
AcDbEntity
  8
WARSTWA_1
  6
CONTINUOUS
 62
    20
100
AcDbVertex
100
AcDb2dVertex
 10
5.93803
 20
0.597798
 30
0.0
  0
VERTEX
  5
10B5C
100
AcDbEntity
  8
WARSTWA_1
  6
CONTINUOUS
 62
    20
100
AcDbVertex
100
AcDb2dVertex
 10
5.923722
 20
0.613567
 30
0.0
  0
VERTEX
  5
10B5D
100
AcDbEntity
  8
WARSTWA_1
  6
CONTINUOUS
 62
    20
100
AcDbVertex
100
AcDb2dVertex
 10
5.904489
 20
0.624939
 30
0.0
  0
VERTEX
  5
10B5E
100
AcDbEntity
  8
WARSTWA_1
  6
CONTINUOUS
 62
    20
100
AcDbVertex
100
AcDb2dVertex
 10
5.879998
 20
0.631745
 30
0.0
  0
VERTEX
  5
10B5F
100
AcDbEntity
  8
WARSTWA_1
  6
CONTINUOUS
 62
    20
100
AcDbVertex
100
AcDb2dVertex
 10
5.850222
 20
0.634008
 30
0.0
  0
VERTEX
  5
10B60
100
AcDbEntity
  8
WARSTWA_1
  6
CONTINUOUS
 62
    20
100
AcDbVertex
100
AcDb2dVertex
 10
5.819512
 20
0.631944
 30
0.0
  0
VERTEX
  5
10B61
100
AcDbEntity
  8
WARSTWA_1
  6
CONTINUOUS
 62
    20
100
AcDbVertex
100
AcDb2dVertex
 10
5.794903
 20
0.625753
 30
0.0
  0
VERTEX
  5
10B62
100
AcDbEntity
  8
WARSTWA_1
  6
CONTINUOUS
 62
    20
100
AcDbVertex
100
AcDb2dVertex
 10
5.776356
 20
0.615437
 30
0.0
  0
VERTEX
  5
10B63
100
AcDbEntity
  8
WARSTWA_1
  6
CONTINUOUS
 62
    20
100
AcDbVertex
100
AcDb2dVertex
 10
5.763494
 20
0.602212
 30
0.0
  0
VERTEX
  5
10B64
100
AcDbEntity
  8
WARSTWA_1
  6
CONTINUOUS
 62
    20
100
AcDbVertex
100
AcDb2dVertex
 10
5.755763
 20
0.587308
 30
0.0
  0
VERTEX
  5
10B65
100
AcDbEntity
  8
WARSTWA_1
  6
CONTINUOUS
 62
    20
100
AcDbVertex
100
AcDb2dVertex
 10
5.753183
 20
0.570741
 30
0.0
  0
VERTEX
  5
10B66
100
AcDbEntity
  8
WARSTWA_1
  6
CONTINUOUS
 62
    20
100
AcDbVertex
100
AcDb2dVertex
 10
5.75501
 20
0.556432
 30
0.0
  0
VERTEX
  5
10B67
100
AcDbEntity
  8
WARSTWA_1
  6
CONTINUOUS
 62
    20
100
AcDbVertex
100
AcDb2dVertex
 10
5.760482
 20
0.54396
 30
0.0
  0
VERTEX
  5
10B68
100
AcDbEntity
  8
WARSTWA_1
  6
CONTINUOUS
 62
    20
100
AcDbVertex
100
AcDb2dVertex
 10
5.76958
 20
0.533315
 30
0.0
  0
VERTEX
  5
10B69
100
AcDbEntity
  8
WARSTWA_1
  6
CONTINUOUS
 62
    20
100
AcDbVertex
100
AcDb2dVertex
 10
5.786129
 20
0.523429
 30
0.0
  0
VERTEX
  5
10B6A
100
AcDbEntity
  8
WARSTWA_1
  6
CONTINUOUS
 62
    20
100
AcDbVertex
100
AcDb2dVertex
 10
5.814177
 20
0.513406
 30
0.0
  0
VERTEX
  5
10B6B
100
AcDbEntity
  8
WARSTWA_1
  6
CONTINUOUS
 62
    20
100
AcDbVertex
100
AcDb2dVertex
 10
5.853765
 20
0.503256
 30
0.0
  0
VERTEX
  5
10B6C
100
AcDbEntity
  8
WARSTWA_1
  6
CONTINUOUS
 62
    20
100
AcDbVertex
100
AcDb2dVertex
 10
5.894408
 20
0.493394
 30
0.0
  0
VERTEX
  5
10B6D
100
AcDbEntity
  8
WARSTWA_1
  6
CONTINUOUS
 62
    20
100
AcDbVertex
100
AcDb2dVertex
 10
5.925547
 20
0.484429
 30
0.0
  0
VERTEX
  5
10B6E
100
AcDbEntity
  8
WARSTWA_1
  6
CONTINUOUS
 62
    20
100
AcDbVertex
100
AcDb2dVertex
 10
5.947179
 20
0.476347
 30
0.0
  0
VERTEX
  5
10B6F
100
AcDbEntity
  8
WARSTWA_1
  6
CONTINUOUS
 62
    20
100
AcDbVertex
100
AcDb2dVertex
 10
5.96961
 20
0.463967
 30
0.0
  0
VERTEX
  5
10B70
100
AcDbEntity
  8
WARSTWA_1
  6
CONTINUOUS
 62
    20
100
AcDbVertex
100
AcDb2dVertex
 10
5.987762
 20
0.449627
 30
0.0
  0
VERTEX
  5
10B71
100
AcDbEntity
  8
WARSTWA_1
  6
CONTINUOUS
 62
    20
100
AcDbVertex
100
AcDb2dVertex
 10
6.001608
 20
0.433323
 30
0.0
  0
VERTEX
  5
10B72
100
AcDbEntity
  8
WARSTWA_1
  6
CONTINUOUS
 62
    20
100
AcDbVertex
100
AcDb2dVertex
 10
6.011334
 20
0.415046
 30
0.0
  0
VERTEX
  5
10B73
100
AcDbEntity
  8
WARSTWA_1
  6
CONTINUOUS
 62
    20
100
AcDbVertex
100
AcDb2dVertex
 10
6.017156
 20
0.395027
 30
0.0
  0
VERTEX
  5
10B74
100
AcDbEntity
  8
WARSTWA_1
  6
CONTINUOUS
 62
    20
100
AcDbVertex
100
AcDb2dVertex
 10
6.019092
 20
0.373288
 30
0.0
  0
VERTEX
  5
10B75
100
AcDbEntity
  8
WARSTWA_1
  6
CONTINUOUS
 62
    20
100
AcDbVertex
100
AcDb2dVertex
 10
6.01696
 20
0.351246
 30
0.0
  0
VERTEX
  5
10B76
100
AcDbEntity
  8
WARSTWA_1
  6
CONTINUOUS
 62
    20
100
AcDbVertex
100
AcDb2dVertex
 10
6.010552
 20
0.330102
 30
0.0
  0
VERTEX
  5
10B77
100
AcDbEntity
  8
WARSTWA_1
  6
CONTINUOUS
 62
    20
100
AcDbVertex
100
AcDb2dVertex
 10
5.999848
 20
0.309827
 30
0.0
  0
VERTEX
  5
10B78
100
AcDbEntity
  8
WARSTWA_1
  6
CONTINUOUS
 62
    20
100
AcDbVertex
100
AcDb2dVertex
 10
5.985107
 20
0.291463
 30
0.0
  0
VERTEX
  5
10B79
100
AcDbEntity
  8
WARSTWA_1
  6
CONTINUOUS
 62
    20
100
AcDbVertex
100
AcDb2dVertex
 10
5.96664
 20
0.276019
 30
0.0
  0
VERTEX
  5
10B7A
100
AcDbEntity
  8
WARSTWA_1
  6
CONTINUOUS
 62
    20
100
AcDbVertex
100
AcDb2dVertex
 10
5.944442
 20
0.263477
 30
0.0
  0
VERTEX
  5
10B7B
100
AcDbEntity
  8
WARSTWA_1
  6
CONTINUOUS
 62
    20
100
AcDbVertex
100
AcDb2dVertex
 10
5.91936
 20
0.254304
 30
0.0
  0
VERTEX
  5
10B7C
100
AcDbEntity
  8
WARSTWA_1
  6
CONTINUOUS
 62
    20
100
AcDbVertex
100
AcDb2dVertex
 10
5.892267
 20
0.248805
 30
0.0
  0
VERTEX
  5
10B7D
100
AcDbEntity
  8
WARSTWA_1
  6
CONTINUOUS
 62
    20
100
AcDbVertex
100
AcDb2dVertex
 10
5.86319
 20
0.246973
 30
0.0
  0
VERTEX
  5
10B7E
100
AcDbEntity
  8
WARSTWA_1
  6
CONTINUOUS
 62
    20
100
AcDbVertex
100
AcDb2dVertex
 10
5.827052
 20
0.248812
 30
0.0
  0
VERTEX
  5
10B7F
100
AcDbEntity
  8
WARSTWA_1
  6
CONTINUOUS
 62
    20
100
AcDbVertex
100
AcDb2dVertex
 10
5.79506
 20
0.254362
 30
0.0
  0
VERTEX
  5
10B80
100
AcDbEntity
  8
WARSTWA_1
  6
CONTINUOUS
 62
    20
100
AcDbVertex
100
AcDb2dVertex
 10
5.767234
 20
0.263674
 30
0.0
  0
VERTEX
  5
10B81
100
AcDbEntity
  8
WARSTWA_1
  6
CONTINUOUS
 62
    20
100
AcDbVertex
100
AcDb2dVertex
 10
5.743253
 20
0.276643
 30
0.0
  0
VERTEX
  5
10B82
100
AcDbEntity
  8
WARSTWA_1
  6
CONTINUOUS
 62
    20
100
AcDbVertex
100
AcDb2dVertex
 10
5.722988
 20
0.293367
 30
0.0
  0
VERTEX
  5
10B83
100
AcDbEntity
  8
WARSTWA_1
  6
CONTINUOUS
 62
    20
100
AcDbVertex
100
AcDb2dVertex
 10
5.706419
 20
0.313867
 30
0.0
  0
VERTEX
  5
10B84
100
AcDbEntity
  8
WARSTWA_1
  6
CONTINUOUS
 62
    20
100
AcDbVertex
100
AcDb2dVertex
 10
5.694083
 20
0.337173
 30
0.0
  0
VERTEX
  5
10B85
100
AcDbEntity
  8
WARSTWA_1
  6
CONTINUOUS
 62
    20
100
AcDbVertex
100
AcDb2dVertex
 10
5.686374
 20
0.362464
 30
0.0
  0
SEQEND
  5
10B86
100
AcDbEntity
  8
0
 62
    20
  0
POLYLINE
  5
10B87
100
AcDbEntity
  8
WARSTWA_1
  6
CONTINUOUS
 62
    20
100
AcDb2dPolyline
 66
     1
 10
0.0
 20
0.0
 30
0.0
 70
     1
 40
0.003
 41
0.003
  0
VERTEX
  5
10B88
100
AcDbEntity
  8
WARSTWA_1
  6
CONTINUOUS
 62
    20
100
AcDbVertex
100
AcDb2dVertex
 10
6.10347
 20
0.254138
 30
0.0
  0
VERTEX
  5
10B89
100
AcDbEntity
  8
WARSTWA_1
  6
CONTINUOUS
 62
    20
100
AcDbVertex
100
AcDb2dVertex
 10
6.10347
 20
0.31317
 30
0.0
  0
VERTEX
  5
10B8A
100
AcDbEntity
  8
WARSTWA_1
  6
CONTINUOUS
 62
    20
100
AcDbVertex
100
AcDb2dVertex
 10
6.162505
 20
0.31317
 30
0.0
  0
VERTEX
  5
10B8B
100
AcDbEntity
  8
WARSTWA_1
  6
CONTINUOUS
 62
    20
100
AcDbVertex
100
AcDb2dVertex
 10
6.162505
 20
0.254138
 30
0.0
  0
SEQEND
  5
10B8C
100
AcDbEntity
  8
0
 62
    20
  0
SOLID
  5
10B8D
100
AcDbEntity
  8
WARSTWA_1
 62
    20
100
AcDbTrace
 10
6.10347
 20
0.254138
 30
0.0
 11
6.10347
 21
0.31317
 31
0.0
 12
6.162505
 22
0.254138
 32
0.0
 13
6.162505
 23
0.31317
 33
0.0
  0
POLYLINE
  5
10B8E
100
AcDbEntity
  8
WARSTWA_1
  6
CONTINUOUS
 62
    20
100
AcDb2dPolyline
 66
     1
 10
0.0
 20
0.0
 30
0.0
 70
     1
 40
0.003
 41
0.003
  0
VERTEX
  5
10B8F
100
AcDbEntity
  8
WARSTWA_1
  6
CONTINUOUS
 62
    20
100
AcDbVertex
100
AcDb2dVertex
 10
6.660356
 20
0.254138
 30
0.0
  0
VERTEX
  5
10B90
100
AcDbEntity
  8
WARSTWA_1
  6
CONTINUOUS
 62
    20
100
AcDbVertex
100
AcDb2dVertex
 10
6.660356
 20
0.31317
 30
0.0
  0
VERTEX
  5
10B91
100
AcDbEntity
  8
WARSTWA_1
  6
CONTINUOUS
 62
    20
100
AcDbVertex
100
AcDb2dVertex
 10
6.719387
 20
0.31317
 30
0.0
  0
VERTEX
  5
10B92
100
AcDbEntity
  8
WARSTWA_1
  6
CONTINUOUS
 62
    20
100
AcDbVertex
100
AcDb2dVertex
 10
6.719387
 20
0.254138
 30
0.0
  0
SEQEND
  5
10B93
100
AcDbEntity
  8
0
 62
    20
  0
SOLID
  5
10B94
100
AcDbEntity
  8
WARSTWA_1
  6
CONTINUOUS
 62
    20
100
AcDbTrace
 10
6.660356
 20
0.254138
 30
0.0
 11
6.660356
 21
0.31317
 31
0.0
 12
6.719387
 22
0.254138
 32
0.0
 13
6.719387
 23
0.31317
 33
0.0
  0
HATCH
  5
10B95
100
AcDbEntity
  8
0
  6
CONTINUOUS
 62
    20
100
AcDbHatch
 10
0.0
 20
0.0
 30
0.0
210
0.0
220
0.0
230
1.0
  2
SOLID
 70
     1
 71
     1
 91
        4
 92
        7
 72
     0
 73
     1
 93
       48
 10
6.213609769928965
 20
1.274360993624299
 10
6.232985769928964
 20
1.245522993624303
 10
6.256288769928965
 20
1.219007993624303
 10
6.283374769928963
 20
1.195036993624298
 10
6.312644769928978
 20
1.175130993624297
 10
6.344126769928966
 20
1.159287993624298
 10
6.377143769928971
 20
1.147762993624298
 10
6.411017769928968
 20
1.140828993624298
 10
6.445776769928968
 20
1.138511993624298
 10
6.480272769928967
 20
1.140828993624299
 10
6.514298769928967
 20
1.147762993624298
 10
6.547800769928968
 20
1.159287993624298
 10
6.579903769928963
 20
1.175051993624297
 10
6.609546769928968
 20
1.194741993624298
 10
6.636756769928967
 20
1.218385993624299
 10
6.660233769928969
 20
1.244389993624298
 10
6.679674769928968
 20
1.272881993624293
 10
6.695107769928971
 20
1.303862993624304
 10
6.70621876992897
 20
1.336743993624301
 10
6.712904769928967
 20
1.371173993624293
 10
6.715138769928968
 20
1.407125993624292
 10
6.712904769928966
 20
1.442120993624304
 10
6.706218769928969
 20
1.476146993624302
 10
6.695107769928974
 20
1.509149993624293
 10
6.679758769928969
 20
1.540505993624303
 10
6.660567769928971
 20
1.569402993624297
 10
6.637504769928965
 20
1.595866993624293
 10
6.610956769928967
 20
1.619623993624296
 10
6.581811769928965
 20
1.639373993624301
 10
6.550040769928972
 20
1.655086993624297
 10
6.516399769928968
 20
1.666579993624297
 10
6.481653769928971
 20
1.673454993624298
 10
6.445776769928968
 20
1.675740993624298
 10
6.410520769928968
 20
1.673588993624299
 10
6.376645769928966
 20
1.667151993624298
 10
6.344126769928969
 20
1.656456993624299
 10
6.313442769928967
 20
1.641523993624296
 10
6.28510776992897
 20
1.622579993624299
 10
6.259150769928968
 20
1.599598993624296
 10
6.235137769928972
 20
1.5725259936243
 10
6.21510576992897
 20
1.542855993624298
 10
6.199056769928971
 20
1.510641993624304
 10
6.187324769928968
 20
1.476753993624301
 10
6.180265769928967
 20
1.4422589936243
 10
6.177906769928967
 20
1.407125993624294
 10
6.180150769928968
 20
1.372372993624297
 10
6.186900769928967
 20
1.3385319936243
 10
6.198186769928967
 20
1.305602993624304
 97
        1
330
10B96
 92
       22
 72
     0
 73
     1
 93
       48
 10
6.230536769928968
 20
1.319165993624298
 10
6.220700769928967
 20
1.347774993624301
 10
6.214820769928969
 20
1.377104993624296
 10
6.212867769928968
 20
1.407125993624296
 10
6.214904769928969
 20
1.437685993624297
 10
6.221033769928967
 20
1.4676379936243
 10
6.231280769928964
 20
1.496952993624297
 10
6.245340769928971
 20
1.524956993624298
 10
6.262884769928966
 20
1.550776993624294
 10
6.283910769928973
 20
1.574468993624301
 10
6.306005769928968
 20
1.594202993624299
 10
6.330449769928971
 20
1.610592993624299
 10
6.357189769928966
 20
1.623610993624298
 10
6.385770769928965
 20
1.633148993624298
 10
6.415539769928968
 20
1.638871993624299
 10
6.446524769928968
 20
1.640779993624298
 10
6.477590769928965
 20
1.638788993624299
 10
6.507608769928967
 20
1.632816993624298
 10
6.536603769928974
 20
1.622862993624298
 10
6.564015769928968
 20
1.6092649936243
 10
6.589520769928977
 20
1.592127993624294
 10
6.613119769928966
 20
1.571480993624295
 10
6.633030769928972
 20
1.548767993624299
 10
6.649485769928969
 20
1.523731993624296
 10
6.662512769928969
 20
1.496456993624299
 10
6.671930769928966
 20
1.4673019936243
 10
6.677562769928969
 20
1.436820993624297
 10
6.679434769928969
 20
1.405011993624303
 10
6.677484769928969
 20
1.374768993624297
 10
6.671635769928967
 20
1.345466993624306
 10
6.66189076992897
 20
1.317047993624295
 10
6.648582769928967
 20
1.290216993624295
 10
6.631817769928965
 20
1.265457993624297
 10
6.61162676992897
 20
1.242771993624299
 10
6.587986769928971
 20
1.222362993624299
 10
6.562356769928966
 20
1.205409993624298
 10
6.534737769928972
 20
1.191885993624301
 10
6.505534769928971
 20
1.182051993624299
 10
6.475393769928968
 20
1.176170993624299
 10
6.444284769928967
 20
1.174216993624299
 10
6.414666769928967
 20
1.176244993624299
 10
6.385520769928971
 20
1.182309993624298
 10
6.356815769928966
 20
1.192381993624299
 10
6.329528769928966
 20
1.206233993624301
 10
6.304397769928967
 20
1.223402993624297
 10
6.281422769928969
 20
1.243889993624296
 10
6.261013769928964
 20
1.266779993624299
 10
6.24406076992897
 20
1.291879993624296
 97
        1
330
10BC8
 92
        6
 72
     0
 73
     1
 93
       20
 10
6.338280769928969
 20
1.564511993624299
 10
6.453115769928965
 20
1.564511993624298
 10
6.491841769928971
 20
1.562189993624299
 10
6.523629769928968
 20
1.555223993624298
 10
6.54842276992897
 20
1.543610993624298
 10
6.566135769928967
 20
1.527302993624298
 10
6.576743769928969
 20
1.506460993624297
 10
6.580272769928968
 20
1.4810279936243
 10
6.578235769928968
 20
1.460458993624303
 10
6.572106769928968
 20
1.442293993624299
 10
6.561859769928966
 20
1.426535993624296
 10
6.547960769928969
 20
1.413848993624298
 10
6.53088276992897
 20
1.404673993624299
 10
6.510595769928968
 20
1.399039993624299
 10
6.578780769928969
 20
1.260314993624299
 10
6.514205769928969
 20
1.260314993624299
 10
6.452371769928968
 20
1.389956993624299
 10
6.395886769928968
 20
1.389956993624299
 10
6.395886769928969
 20
1.260314993624299
 10
6.338280769928968
 20
1.260314993624299
 97
        1
330
10BFA
 92
        6
 72
     0
 73
     1
 93
       15
 10
6.395886769928967
 20
1.426409993624298
 10
6.395886769928967
 20
1.527310993624299
 10
6.442914769928971
 20
1.527310993624299
 10
6.467797769928967
 20
1.525937993624298
 10
6.487704769928972
 20
1.521799993624298
 10
6.502634769928967
 20
1.514870993624299
 10
6.512916769928968
 20
1.504953993624299
 10
6.519105769928968
 20
1.491608993624299
 10
6.521174769928967
 20
1.4748079936243
 10
6.519220769928971
 20
1.459223993624302
 10
6.513340769928966
 20
1.446846993624297
 10
6.503504769928968
 20
1.437732993624299
 10
6.489063769928968
 20
1.431423993624298
 10
6.469342769928966
 20
1.427658993624298
 10
6.44428476992897
 20
1.426409993624298
 97
        1
330
10C10
 75
     0
 76
     1
 47
0.003856
 98
        4
 10
6.226813
 20
1.289633
 10
6.226813
 20
1.289633
 10
6.226813
 20
1.289633
 10
6.226813
 20
1.289633
  0
POLYLINE
  5
10B96
102
{ACAD_REACTORS
330
10B95
102
}
100
AcDbEntity
  8
WARSTWA_1
  6
CONTINUOUS
 62
    20
100
AcDb2dPolyline
 66
     1
 10
0.0
 20
0.0
 30
0.0
 70
     1
 40
0.003
 41
0.003
  0
VERTEX
  5
10B97
100
AcDbEntity
  8
WARSTWA_1
  6
CONTINUOUS
 62
    20
100
AcDbVertex
100
AcDb2dVertex
 10
6.445777
 20
1.675741
 30
0.0
  0
VERTEX
  5
10B98
100
AcDbEntity
  8
WARSTWA_1
  6
CONTINUOUS
 62
    20
100
AcDbVertex
100
AcDb2dVertex
 10
6.481654
 20
1.673455
 30
0.0
  0
VERTEX
  5
10B99
100
AcDbEntity
  8
WARSTWA_1
  6
CONTINUOUS
 62
    20
100
AcDbVertex
100
AcDb2dVertex
 10
6.5164
 20
1.66658
 30
0.0
  0
VERTEX
  5
10B9A
100
AcDbEntity
  8
WARSTWA_1
  6
CONTINUOUS
 62
    20
100
AcDbVertex
100
AcDb2dVertex
 10
6.550041
 20
1.655087
 30
0.0
  0
VERTEX
  5
10B9B
100
AcDbEntity
  8
WARSTWA_1
  6
CONTINUOUS
 62
    20
100
AcDbVertex
100
AcDb2dVertex
 10
6.581812
 20
1.639374
 30
0.0
  0
VERTEX
  5
10B9C
100
AcDbEntity
  8
WARSTWA_1
  6
CONTINUOUS
 62
    20
100
AcDbVertex
100
AcDb2dVertex
 10
6.610957
 20
1.619624
 30
0.0
  0
VERTEX
  5
10B9D
100
AcDbEntity
  8
WARSTWA_1
  6
CONTINUOUS
 62
    20
100
AcDbVertex
100
AcDb2dVertex
 10
6.637505
 20
1.595867
 30
0.0
  0
VERTEX
  5
10B9E
100
AcDbEntity
  8
WARSTWA_1
  6
CONTINUOUS
 62
    20
100
AcDbVertex
100
AcDb2dVertex
 10
6.660568
 20
1.569403
 30
0.0
  0
VERTEX
  5
10B9F
100
AcDbEntity
  8
WARSTWA_1
  6
CONTINUOUS
 62
    20
100
AcDbVertex
100
AcDb2dVertex
 10
6.679759
 20
1.540506
 30
0.0
  0
VERTEX
  5
10BA0
100
AcDbEntity
  8
WARSTWA_1
  6
CONTINUOUS
 62
    20
100
AcDbVertex
100
AcDb2dVertex
 10
6.695108
 20
1.50915
 30
0.0
  0
VERTEX
  5
10BA1
100
AcDbEntity
  8
WARSTWA_1
  6
CONTINUOUS
 62
    20
100
AcDbVertex
100
AcDb2dVertex
 10
6.706219
 20
1.476147
 30
0.0
  0
VERTEX
  5
10BA2
100
AcDbEntity
  8
WARSTWA_1
  6
CONTINUOUS
 62
    20
100
AcDbVertex
100
AcDb2dVertex
 10
6.712905
 20
1.442121
 30
0.0
  0
VERTEX
  5
10BA3
100
AcDbEntity
  8
WARSTWA_1
  6
CONTINUOUS
 62
    20
100
AcDbVertex
100
AcDb2dVertex
 10
6.715139
 20
1.407126
 30
0.0
  0
VERTEX
  5
10BA4
100
AcDbEntity
  8
WARSTWA_1
  6
CONTINUOUS
 62
    20
100
AcDbVertex
100
AcDb2dVertex
 10
6.712905
 20
1.371174
 30
0.0
  0
VERTEX
  5
10BA5
100
AcDbEntity
  8
WARSTWA_1
  6
CONTINUOUS
 62
    20
100
AcDbVertex
100
AcDb2dVertex
 10
6.706219
 20
1.336744
 30
0.0
  0
VERTEX
  5
10BA6
100
AcDbEntity
  8
WARSTWA_1
  6
CONTINUOUS
 62
    20
100
AcDbVertex
100
AcDb2dVertex
 10
6.695108
 20
1.303863
 30
0.0
  0
VERTEX
  5
10BA7
100
AcDbEntity
  8
WARSTWA_1
  6
CONTINUOUS
 62
    20
100
AcDbVertex
100
AcDb2dVertex
 10
6.679675
 20
1.272882
 30
0.0
  0
VERTEX
  5
10BA8
100
AcDbEntity
  8
WARSTWA_1
  6
CONTINUOUS
 62
    20
100
AcDbVertex
100
AcDb2dVertex
 10
6.660234
 20
1.24439
 30
0.0
  0
VERTEX
  5
10BA9
100
AcDbEntity
  8
WARSTWA_1
  6
CONTINUOUS
 62
    20
100
AcDbVertex
100
AcDb2dVertex
 10
6.636757
 20
1.218386
 30
0.0
  0
VERTEX
  5
10BAA
100
AcDbEntity
  8
WARSTWA_1
  6
CONTINUOUS
 62
    20
100
AcDbVertex
100
AcDb2dVertex
 10
6.609547
 20
1.194742
 30
0.0
  0
VERTEX
  5
10BAB
100
AcDbEntity
  8
WARSTWA_1
  6
CONTINUOUS
 62
    20
100
AcDbVertex
100
AcDb2dVertex
 10
6.579904
 20
1.175052
 30
0.0
  0
VERTEX
  5
10BAC
100
AcDbEntity
  8
WARSTWA_1
  6
CONTINUOUS
 62
    20
100
AcDbVertex
100
AcDb2dVertex
 10
6.547801
 20
1.159288
 30
0.0
  0
VERTEX
  5
10BAD
100
AcDbEntity
  8
WARSTWA_1
  6
CONTINUOUS
 62
    20
100
AcDbVertex
100
AcDb2dVertex
 10
6.514299
 20
1.147763
 30
0.0
  0
VERTEX
  5
10BAE
100
AcDbEntity
  8
WARSTWA_1
  6
CONTINUOUS
 62
    20
100
AcDbVertex
100
AcDb2dVertex
 10
6.480273
 20
1.140829
 30
0.0
  0
VERTEX
  5
10BAF
100
AcDbEntity
  8
WARSTWA_1
  6
CONTINUOUS
 62
    20
100
AcDbVertex
100
AcDb2dVertex
 10
6.445777
 20
1.138512
 30
0.0
  0
VERTEX
  5
10BB0
100
AcDbEntity
  8
WARSTWA_1
  6
CONTINUOUS
 62
    20
100
AcDbVertex
100
AcDb2dVertex
 10
6.411018
 20
1.140829
 30
0.0
  0
VERTEX
  5
10BB1
100
AcDbEntity
  8
WARSTWA_1
  6
CONTINUOUS
 62
    20
100
AcDbVertex
100
AcDb2dVertex
 10
6.377144
 20
1.147763
 30
0.0
  0
VERTEX
  5
10BB2
100
AcDbEntity
  8
WARSTWA_1
  6
CONTINUOUS
 62
    20
100
AcDbVertex
100
AcDb2dVertex
 10
6.344127
 20
1.159288
 30
0.0
  0
VERTEX
  5
10BB3
100
AcDbEntity
  8
WARSTWA_1
  6
CONTINUOUS
 62
    20
100
AcDbVertex
100
AcDb2dVertex
 10
6.312645
 20
1.175131
 30
0.0
  0
VERTEX
  5
10BB4
100
AcDbEntity
  8
WARSTWA_1
  6
CONTINUOUS
 62
    20
100
AcDbVertex
100
AcDb2dVertex
 10
6.283375
 20
1.195037
 30
0.0
  0
VERTEX
  5
10BB5
100
AcDbEntity
  8
WARSTWA_1
  6
CONTINUOUS
 62
    20
100
AcDbVertex
100
AcDb2dVertex
 10
6.256289
 20
1.219008
 30
0.0
  0
VERTEX
  5
10BB6
100
AcDbEntity
  8
WARSTWA_1
  6
CONTINUOUS
 62
    20
100
AcDbVertex
100
AcDb2dVertex
 10
6.232986
 20
1.245523
 30
0.0
  0
VERTEX
  5
10BB7
100
AcDbEntity
  8
WARSTWA_1
  6
CONTINUOUS
 62
    20
100
AcDbVertex
100
AcDb2dVertex
 10
6.21361
 20
1.274361
 30
0.0
  0
VERTEX
  5
10BB8
100
AcDbEntity
  8
WARSTWA_1
  6
CONTINUOUS
 62
    20
100
AcDbVertex
100
AcDb2dVertex
 10
6.198187
 20
1.305603
 30
0.0
  0
VERTEX
  5
10BB9
100
AcDbEntity
  8
WARSTWA_1
  6
CONTINUOUS
 62
    20
100
AcDbVertex
100
AcDb2dVertex
 10
6.186901
 20
1.338532
 30
0.0
  0
VERTEX
  5
10BBA
100
AcDbEntity
  8
WARSTWA_1
  6
CONTINUOUS
 62
    20
100
AcDbVertex
100
AcDb2dVertex
 10
6.180151
 20
1.372373
 30
0.0
  0
VERTEX
  5
10BBB
100
AcDbEntity
  8
WARSTWA_1
  6
CONTINUOUS
 62
    20
100
AcDbVertex
100
AcDb2dVertex
 10
6.177907
 20
1.407126
 30
0.0
  0
VERTEX
  5
10BBC
100
AcDbEntity
  8
WARSTWA_1
  6
CONTINUOUS
 62
    20
100
AcDbVertex
100
AcDb2dVertex
 10
6.180266
 20
1.442259
 30
0.0
  0
VERTEX
  5
10BBD
100
AcDbEntity
  8
WARSTWA_1
  6
CONTINUOUS
 62
    20
100
AcDbVertex
100
AcDb2dVertex
 10
6.187325
 20
1.476754
 30
0.0
  0
VERTEX
  5
10BBE
100
AcDbEntity
  8
WARSTWA_1
  6
CONTINUOUS
 62
    20
100
AcDbVertex
100
AcDb2dVertex
 10
6.199057
 20
1.510642
 30
0.0
  0
VERTEX
  5
10BBF
100
AcDbEntity
  8
WARSTWA_1
  6
CONTINUOUS
 62
    20
100
AcDbVertex
100
AcDb2dVertex
 10
6.215106
 20
1.542856
 30
0.0
  0
VERTEX
  5
10BC0
100
AcDbEntity
  8
WARSTWA_1
  6
CONTINUOUS
 62
    20
100
AcDbVertex
100
AcDb2dVertex
 10
6.235138
 20
1.572526
 30
0.0
  0
VERTEX
  5
10BC1
100
AcDbEntity
  8
WARSTWA_1
  6
CONTINUOUS
 62
    20
100
AcDbVertex
100
AcDb2dVertex
 10
6.259151
 20
1.599599
 30
0.0
  0
VERTEX
  5
10BC2
100
AcDbEntity
  8
WARSTWA_1
  6
CONTINUOUS
 62
    20
100
AcDbVertex
100
AcDb2dVertex
 10
6.285108
 20
1.62258
 30
0.0
  0
VERTEX
  5
10BC3
100
AcDbEntity
  8
WARSTWA_1
  6
CONTINUOUS
 62
    20
100
AcDbVertex
100
AcDb2dVertex
 10
6.313443
 20
1.641524
 30
0.0
  0
VERTEX
  5
10BC4
100
AcDbEntity
  8
WARSTWA_1
  6
CONTINUOUS
 62
    20
100
AcDbVertex
100
AcDb2dVertex
 10
6.344127
 20
1.656457
 30
0.0
  0
VERTEX
  5
10BC5
100
AcDbEntity
  8
WARSTWA_1
  6
CONTINUOUS
 62
    20
100
AcDbVertex
100
AcDb2dVertex
 10
6.376646
 20
1.667152
 30
0.0
  0
VERTEX
  5
10BC6
100
AcDbEntity
  8
WARSTWA_1
  6
CONTINUOUS
 62
    20
100
AcDbVertex
100
AcDb2dVertex
 10
6.410521
 20
1.673589
 30
0.0
  0
SEQEND
  5
10BC7
100
AcDbEntity
  8
0
 62
    20
  0
POLYLINE
  5
10BC8
102
{ACAD_REACTORS
330
10B95
102
}
100
AcDbEntity
  8
WARSTWA_1
  6
CONTINUOUS
 62
    20
100
AcDb2dPolyline
 66
     1
 10
0.0
 20
0.0
 30
0.0
 70
     1
 40
0.003
 41
0.003
  0
VERTEX
  5
10BC9
100
AcDbEntity
  8
WARSTWA_1
  6
CONTINUOUS
 62
    20
100
AcDbVertex
100
AcDb2dVertex
 10
6.679435
 20
1.405012
 30
0.0
  0
VERTEX
  5
10BCA
100
AcDbEntity
  8
WARSTWA_1
  6
CONTINUOUS
 62
    20
100
AcDbVertex
100
AcDb2dVertex
 10
6.677563
 20
1.436821
 30
0.0
  0
VERTEX
  5
10BCB
100
AcDbEntity
  8
WARSTWA_1
  6
CONTINUOUS
 62
    20
100
AcDbVertex
100
AcDb2dVertex
 10
6.671931
 20
1.467302
 30
0.0
  0
VERTEX
  5
10BCC
100
AcDbEntity
  8
WARSTWA_1
  6
CONTINUOUS
 62
    20
100
AcDbVertex
100
AcDb2dVertex
 10
6.662513
 20
1.496457
 30
0.0
  0
VERTEX
  5
10BCD
100
AcDbEntity
  8
WARSTWA_1
  6
CONTINUOUS
 62
    20
100
AcDbVertex
100
AcDb2dVertex
 10
6.649486
 20
1.523732
 30
0.0
  0
VERTEX
  5
10BCE
100
AcDbEntity
  8
WARSTWA_1
  6
CONTINUOUS
 62
    20
100
AcDbVertex
100
AcDb2dVertex
 10
6.633031
 20
1.548768
 30
0.0
  0
VERTEX
  5
10BCF
100
AcDbEntity
  8
WARSTWA_1
  6
CONTINUOUS
 62
    20
100
AcDbVertex
100
AcDb2dVertex
 10
6.61312
 20
1.571481
 30
0.0
  0
VERTEX
  5
10BD0
100
AcDbEntity
  8
WARSTWA_1
  6
CONTINUOUS
 62
    20
100
AcDbVertex
100
AcDb2dVertex
 10
6.589521
 20
1.592128
 30
0.0
  0
VERTEX
  5
10BD1
100
AcDbEntity
  8
WARSTWA_1
  6
CONTINUOUS
 62
    20
100
AcDbVertex
100
AcDb2dVertex
 10
6.564016
 20
1.609265
 30
0.0
  0
VERTEX
  5
10BD2
100
AcDbEntity
  8
WARSTWA_1
  6
CONTINUOUS
 62
    20
100
AcDbVertex
100
AcDb2dVertex
 10
6.536604
 20
1.622863
 30
0.0
  0
VERTEX
  5
10BD3
100
AcDbEntity
  8
WARSTWA_1
  6
CONTINUOUS
 62
    20
100
AcDbVertex
100
AcDb2dVertex
 10
6.507609
 20
1.632817
 30
0.0
  0
VERTEX
  5
10BD4
100
AcDbEntity
  8
WARSTWA_1
  6
CONTINUOUS
 62
    20
100
AcDbVertex
100
AcDb2dVertex
 10
6.477591
 20
1.638789
 30
0.0
  0
VERTEX
  5
10BD5
100
AcDbEntity
  8
WARSTWA_1
  6
CONTINUOUS
 62
    20
100
AcDbVertex
100
AcDb2dVertex
 10
6.446525
 20
1.64078
 30
0.0
  0
VERTEX
  5
10BD6
100
AcDbEntity
  8
WARSTWA_1
  6
CONTINUOUS
 62
    20
100
AcDbVertex
100
AcDb2dVertex
 10
6.41554
 20
1.638872
 30
0.0
  0
VERTEX
  5
10BD7
100
AcDbEntity
  8
WARSTWA_1
  6
CONTINUOUS
 62
    20
100
AcDbVertex
100
AcDb2dVertex
 10
6.385771
 20
1.633149
 30
0.0
  0
VERTEX
  5
10BD8
100
AcDbEntity
  8
WARSTWA_1
  6
CONTINUOUS
 62
    20
100
AcDbVertex
100
AcDb2dVertex
 10
6.35719
 20
1.623611
 30
0.0
  0
VERTEX
  5
10BD9
100
AcDbEntity
  8
WARSTWA_1
  6
CONTINUOUS
 62
    20
100
AcDbVertex
100
AcDb2dVertex
 10
6.33045
 20
1.610593
 30
0.0
  0
VERTEX
  5
10BDA
100
AcDbEntity
  8
WARSTWA_1
  6
CONTINUOUS
 62
    20
100
AcDbVertex
100
AcDb2dVertex
 10
6.306006
 20
1.594203
 30
0.0
  0
VERTEX
  5
10BDB
100
AcDbEntity
  8
WARSTWA_1
  6
CONTINUOUS
 62
    20
100
AcDbVertex
100
AcDb2dVertex
 10
6.283911
 20
1.574469
 30
0.0
  0
VERTEX
  5
10BDC
100
AcDbEntity
  8
WARSTWA_1
  6
CONTINUOUS
 62
    20
100
AcDbVertex
100
AcDb2dVertex
 10
6.262885
 20
1.550777
 30
0.0
  0
VERTEX
  5
10BDD
100
AcDbEntity
  8
WARSTWA_1
  6
CONTINUOUS
 62
    20
100
AcDbVertex
100
AcDb2dVertex
 10
6.245341
 20
1.524957
 30
0.0
  0
VERTEX
  5
10BDE
100
AcDbEntity
  8
WARSTWA_1
  6
CONTINUOUS
 62
    20
100
AcDbVertex
100
AcDb2dVertex
 10
6.231281
 20
1.496953
 30
0.0
  0
VERTEX
  5
10BDF
100
AcDbEntity
  8
WARSTWA_1
  6
CONTINUOUS
 62
    20
100
AcDbVertex
100
AcDb2dVertex
 10
6.221034
 20
1.467638
 30
0.0
  0
VERTEX
  5
10BE0
100
AcDbEntity
  8
WARSTWA_1
  6
CONTINUOUS
 62
    20
100
AcDbVertex
100
AcDb2dVertex
 10
6.214905
 20
1.437686
 30
0.0
  0
VERTEX
  5
10BE1
100
AcDbEntity
  8
WARSTWA_1
  6
CONTINUOUS
 62
    20
100
AcDbVertex
100
AcDb2dVertex
 10
6.212868
 20
1.407126
 30
0.0
  0
VERTEX
  5
10BE2
100
AcDbEntity
  8
WARSTWA_1
  6
CONTINUOUS
 62
    20
100
AcDbVertex
100
AcDb2dVertex
 10
6.214821
 20
1.377105
 30
0.0
  0
VERTEX
  5
10BE3
100
AcDbEntity
  8
WARSTWA_1
  6
CONTINUOUS
 62
    20
100
AcDbVertex
100
AcDb2dVertex
 10
6.220701
 20
1.347775
 30
0.0
  0
VERTEX
  5
10BE4
100
AcDbEntity
  8
WARSTWA_1
  6
CONTINUOUS
 62
    20
100
AcDbVertex
100
AcDb2dVertex
 10
6.230537
 20
1.319166
 30
0.0
  0
VERTEX
  5
10BE5
100
AcDbEntity
  8
WARSTWA_1
  6
CONTINUOUS
 62
    20
100
AcDbVertex
100
AcDb2dVertex
 10
6.244061
 20
1.29188
 30
0.0
  0
VERTEX
  5
10BE6
100
AcDbEntity
  8
WARSTWA_1
  6
CONTINUOUS
 62
    20
100
AcDbVertex
100
AcDb2dVertex
 10
6.261014
 20
1.26678
 30
0.0
  0
VERTEX
  5
10BE7
100
AcDbEntity
  8
WARSTWA_1
  6
CONTINUOUS
 62
    20
100
AcDbVertex
100
AcDb2dVertex
 10
6.281423
 20
1.24389
 30
0.0
  0
VERTEX
  5
10BE8
100
AcDbEntity
  8
WARSTWA_1
  6
CONTINUOUS
 62
    20
100
AcDbVertex
100
AcDb2dVertex
 10
6.304398
 20
1.223403
 30
0.0
  0
VERTEX
  5
10BE9
100
AcDbEntity
  8
WARSTWA_1
  6
CONTINUOUS
 62
    20
100
AcDbVertex
100
AcDb2dVertex
 10
6.329529
 20
1.206234
 30
0.0
  0
VERTEX
  5
10BEA
100
AcDbEntity
  8
WARSTWA_1
  6
CONTINUOUS
 62
    20
100
AcDbVertex
100
AcDb2dVertex
 10
6.356816
 20
1.192382
 30
0.0
  0
VERTEX
  5
10BEB
100
AcDbEntity
  8
WARSTWA_1
  6
CONTINUOUS
 62
    20
100
AcDbVertex
100
AcDb2dVertex
 10
6.385521
 20
1.18231
 30
0.0
  0
VERTEX
  5
10BEC
100
AcDbEntity
  8
WARSTWA_1
  6
CONTINUOUS
 62
    20
100
AcDbVertex
100
AcDb2dVertex
 10
6.414667
 20
1.176245
 30
0.0
  0
VERTEX
  5
10BED
100
AcDbEntity
  8
WARSTWA_1
  6
CONTINUOUS
 62
    20
100
AcDbVertex
100
AcDb2dVertex
 10
6.444285
 20
1.174217
 30
0.0
  0
VERTEX
  5
10BEE
100
AcDbEntity
  8
WARSTWA_1
  6
CONTINUOUS
 62
    20
100
AcDbVertex
100
AcDb2dVertex
 10
6.475394
 20
1.176171
 30
0.0
  0
VERTEX
  5
10BEF
100
AcDbEntity
  8
WARSTWA_1
  6
CONTINUOUS
 62
    20
100
AcDbVertex
100
AcDb2dVertex
 10
6.505535
 20
1.182052
 30
0.0
  0
VERTEX
  5
10BF0
100
AcDbEntity
  8
WARSTWA_1
  6
CONTINUOUS
 62
    20
100
AcDbVertex
100
AcDb2dVertex
 10
6.534738
 20
1.191886
 30
0.0
  0
VERTEX
  5
10BF1
100
AcDbEntity
  8
WARSTWA_1
  6
CONTINUOUS
 62
    20
100
AcDbVertex
100
AcDb2dVertex
 10
6.562357
 20
1.20541
 30
0.0
  0
VERTEX
  5
10BF2
100
AcDbEntity
  8
WARSTWA_1
  6
CONTINUOUS
 62
    20
100
AcDbVertex
100
AcDb2dVertex
 10
6.587987
 20
1.222363
 30
0.0
  0
VERTEX
  5
10BF3
100
AcDbEntity
  8
WARSTWA_1
  6
CONTINUOUS
 62
    20
100
AcDbVertex
100
AcDb2dVertex
 10
6.611627
 20
1.242772
 30
0.0
  0
VERTEX
  5
10BF4
100
AcDbEntity
  8
WARSTWA_1
  6
CONTINUOUS
 62
    20
100
AcDbVertex
100
AcDb2dVertex
 10
6.631818
 20
1.265458
 30
0.0
  0
VERTEX
  5
10BF5
100
AcDbEntity
  8
WARSTWA_1
  6
CONTINUOUS
 62
    20
100
AcDbVertex
100
AcDb2dVertex
 10
6.648583
 20
1.290217
 30
0.0
  0
VERTEX
  5
10BF6
100
AcDbEntity
  8
WARSTWA_1
  6
CONTINUOUS
 62
    20
100
AcDbVertex
100
AcDb2dVertex
 10
6.661891
 20
1.317048
 30
0.0
  0
VERTEX
  5
10BF7
100
AcDbEntity
  8
WARSTWA_1
  6
CONTINUOUS
 62
    20
100
AcDbVertex
100
AcDb2dVertex
 10
6.671636
 20
1.345467
 30
0.0
  0
VERTEX
  5
10BF8
100
AcDbEntity
  8
WARSTWA_1
  6
CONTINUOUS
 62
    20
100
AcDbVertex
100
AcDb2dVertex
 10
6.677485
 20
1.374769
 30
0.0
  0
SEQEND
  5
10BF9
100
AcDbEntity
  8
0
 62
    20
  0
POLYLINE
  5
10BFA
102
{ACAD_REACTORS
330
10B95
102
}
100
AcDbEntity
  8
WARSTWA_1
  6
CONTINUOUS
 62
    20
100
AcDb2dPolyline
 66
     1
 10
0.0
 20
0.0
 30
0.0
 70
     1
 40
0.003
 41
0.003
  0
VERTEX
  5
10BFB
100
AcDbEntity
  8
WARSTWA_1
  6
CONTINUOUS
 62
    20
100
AcDbVertex
100
AcDb2dVertex
 10
6.453116
 20
1.564512
 30
0.0
  0
VERTEX
  5
10BFC
100
AcDbEntity
  8
WARSTWA_1
  6
CONTINUOUS
 62
    20
100
AcDbVertex
100
AcDb2dVertex
 10
6.491842
 20
1.56219
 30
0.0
  0
VERTEX
  5
10BFD
100
AcDbEntity
  8
WARSTWA_1
  6
CONTINUOUS
 62
    20
100
AcDbVertex
100
AcDb2dVertex
 10
6.52363
 20
1.555224
 30
0.0
  0
VERTEX
  5
10BFE
100
AcDbEntity
  8
WARSTWA_1
  6
CONTINUOUS
 62
    20
100
AcDbVertex
100
AcDb2dVertex
 10
6.548423
 20
1.543611
 30
0.0
  0
VERTEX
  5
10BFF
100
AcDbEntity
  8
WARSTWA_1
  6
CONTINUOUS
 62
    20
100
AcDbVertex
100
AcDb2dVertex
 10
6.566136
 20
1.527303
 30
0.0
  0
VERTEX
  5
10C00
100
AcDbEntity
  8
WARSTWA_1
  6
CONTINUOUS
 62
    20
100
AcDbVertex
100
AcDb2dVertex
 10
6.576744
 20
1.506461
 30
0.0
  0
VERTEX
  5
10C01
100
AcDbEntity
  8
WARSTWA_1
  6
CONTINUOUS
 62
    20
100
AcDbVertex
100
AcDb2dVertex
 10
6.580273
 20
1.481028
 30
0.0
  0
VERTEX
  5
10C02
100
AcDbEntity
  8
WARSTWA_1
  6
CONTINUOUS
 62
    20
100
AcDbVertex
100
AcDb2dVertex
 10
6.578236
 20
1.460459
 30
0.0
  0
VERTEX
  5
10C03
100
AcDbEntity
  8
WARSTWA_1
  6
CONTINUOUS
 62
    20
100
AcDbVertex
100
AcDb2dVertex
 10
6.572107
 20
1.442294
 30
0.0
  0
VERTEX
  5
10C04
100
AcDbEntity
  8
WARSTWA_1
  6
CONTINUOUS
 62
    20
100
AcDbVertex
100
AcDb2dVertex
 10
6.56186
 20
1.426536
 30
0.0
  0
VERTEX
  5
10C05
100
AcDbEntity
  8
WARSTWA_1
  6
CONTINUOUS
 62
    20
100
AcDbVertex
100
AcDb2dVertex
 10
6.547961
 20
1.413849
 30
0.0
  0
VERTEX
  5
10C06
100
AcDbEntity
  8
WARSTWA_1
  6
CONTINUOUS
 62
    20
100
AcDbVertex
100
AcDb2dVertex
 10
6.530883
 20
1.404674
 30
0.0
  0
VERTEX
  5
10C07
100
AcDbEntity
  8
WARSTWA_1
  6
CONTINUOUS
 62
    20
100
AcDbVertex
100
AcDb2dVertex
 10
6.510596
 20
1.39904
 30
0.0
  0
VERTEX
  5
10C08
100
AcDbEntity
  8
WARSTWA_1
  6
CONTINUOUS
 62
    20
100
AcDbVertex
100
AcDb2dVertex
 10
6.578781
 20
1.260315
 30
0.0
  0
VERTEX
  5
10C09
100
AcDbEntity
  8
WARSTWA_1
  6
CONTINUOUS
 62
    20
100
AcDbVertex
100
AcDb2dVertex
 10
6.514206
 20
1.260315
 30
0.0
  0
VERTEX
  5
10C0A
100
AcDbEntity
  8
WARSTWA_1
  6
CONTINUOUS
 62
    20
100
AcDbVertex
100
AcDb2dVertex
 10
6.452372
 20
1.389957
 30
0.0
  0
VERTEX
  5
10C0B
100
AcDbEntity
  8
WARSTWA_1
  6
CONTINUOUS
 62
    20
100
AcDbVertex
100
AcDb2dVertex
 10
6.395887
 20
1.389957
 30
0.0
  0
VERTEX
  5
10C0C
100
AcDbEntity
  8
WARSTWA_1
  6
CONTINUOUS
 62
    20
100
AcDbVertex
100
AcDb2dVertex
 10
6.395887
 20
1.260315
 30
0.0
  0
VERTEX
  5
10C0D
100
AcDbEntity
  8
WARSTWA_1
  6
CONTINUOUS
 62
    20
100
AcDbVertex
100
AcDb2dVertex
 10
6.338281
 20
1.260315
 30
0.0
  0
VERTEX
  5
10C0E
100
AcDbEntity
  8
WARSTWA_1
  6
CONTINUOUS
 62
    20
100
AcDbVertex
100
AcDb2dVertex
 10
6.338281
 20
1.564512
 30
0.0
  0
SEQEND
  5
10C0F
100
AcDbEntity
  8
0
 62
    20
  0
POLYLINE
  5
10C10
102
{ACAD_REACTORS
330
10B95
102
}
100
AcDbEntity
  8
WARSTWA_1
  6
CONTINUOUS
 62
    20
100
AcDb2dPolyline
 66
     1
 10
0.0
 20
0.0
 30
0.0
 70
     1
 40
0.003
 41
0.003
  0
VERTEX
  5
10C11
100
AcDbEntity
  8
WARSTWA_1
  6
CONTINUOUS
 62
    20
100
AcDbVertex
100
AcDb2dVertex
 10
6.442915
 20
1.527311
 30
0.0
  0
VERTEX
  5
10C12
100
AcDbEntity
  8
WARSTWA_1
  6
CONTINUOUS
 62
    20
100
AcDbVertex
100
AcDb2dVertex
 10
6.395887
 20
1.527311
 30
0.0
  0
VERTEX
  5
10C13
100
AcDbEntity
  8
WARSTWA_1
  6
CONTINUOUS
 62
    20
100
AcDbVertex
100
AcDb2dVertex
 10
6.395887
 20
1.42641
 30
0.0
  0
VERTEX
  5
10C14
100
AcDbEntity
  8
WARSTWA_1
  6
CONTINUOUS
 62
    20
100
AcDbVertex
100
AcDb2dVertex
 10
6.444285
 20
1.42641
 30
0.0
  0
VERTEX
  5
10C15
100
AcDbEntity
  8
WARSTWA_1
  6
CONTINUOUS
 62
    20
100
AcDbVertex
100
AcDb2dVertex
 10
6.469343
 20
1.427659
 30
0.0
  0
VERTEX
  5
10C16
100
AcDbEntity
  8
WARSTWA_1
  6
CONTINUOUS
 62
    20
100
AcDbVertex
100
AcDb2dVertex
 10
6.489064
 20
1.431424
 30
0.0
  0
VERTEX
  5
10C17
100
AcDbEntity
  8
WARSTWA_1
  6
CONTINUOUS
 62
    20
100
AcDbVertex
100
AcDb2dVertex
 10
6.503505
 20
1.437733
 30
0.0
  0
VERTEX
  5
10C18
100
AcDbEntity
  8
WARSTWA_1
  6
CONTINUOUS
 62
    20
100
AcDbVertex
100
AcDb2dVertex
 10
6.513341
 20
1.446847
 30
0.0
  0
VERTEX
  5
10C19
100
AcDbEntity
  8
WARSTWA_1
  6
CONTINUOUS
 62
    20
100
AcDbVertex
100
AcDb2dVertex
 10
6.519221
 20
1.459224
 30
0.0
  0
VERTEX
  5
10C1A
100
AcDbEntity
  8
WARSTWA_1
  6
CONTINUOUS
 62
    20
100
AcDbVertex
100
AcDb2dVertex
 10
6.521175
 20
1.474808
 30
0.0
  0
VERTEX
  5
10C1B
100
AcDbEntity
  8
WARSTWA_1
  6
CONTINUOUS
 62
    20
100
AcDbVertex
100
AcDb2dVertex
 10
6.519106
 20
1.491609
 30
0.0
  0
VERTEX
  5
10C1C
100
AcDbEntity
  8
WARSTWA_1
  6
CONTINUOUS
 62
    20
100
AcDbVertex
100
AcDb2dVertex
 10
6.512917
 20
1.504954
 30
0.0
  0
VERTEX
  5
10C1D
100
AcDbEntity
  8
WARSTWA_1
  6
CONTINUOUS
 62
    20
100
AcDbVertex
100
AcDb2dVertex
 10
6.502635
 20
1.514871
 30
0.0
  0
VERTEX
  5
10C1E
100
AcDbEntity
  8
WARSTWA_1
  6
CONTINUOUS
 62
    20
100
AcDbVertex
100
AcDb2dVertex
 10
6.487705
 20
1.5218
 30
0.0
  0
VERTEX
  5
10C1F
100
AcDbEntity
  8
WARSTWA_1
  6
CONTINUOUS
 62
    20
100
AcDbVertex
100
AcDb2dVertex
 10
6.467798
 20
1.525938
 30
0.0
  0
SEQEND
  5
10C20
100
AcDbEntity
  8
0
 62
    20
  0
ENDBLK
  5
10C22
100
AcDbEntity
  8
0
 62
     2
100
AcDbBlockEnd
  0
BLOCK
  5
11436
100
AcDbEntity
  8
0
 62
     3
100
AcDbBlockBegin
  2
A$C113F12C2
 70
     0
 10
0.0
 20
0.0
 30
0.0
  3
A$C113F12C2
  1

  0
TEXT
  5
11434
100
AcDbEntity
  8
1
100
AcDbText
 10
0.0
 20
1.333334
 30
0.0
 40
4.0
  1
Interconnection strip ZG20
 41
0.7
 51
15.0
  7
ITALIC
100
AcDbText
  0
TEXT
  5
11435
100
AcDbEntity
  8
1
100
AcDbText
 10
0.0
 20
8.15093
 30
0.0
 40
4.0
  1
Złacze grzebieniowe ZG20
 41
0.7
 51
15.0
  7
ITALIC
100
AcDbText
  0
ENDBLK
  5
11437
100
AcDbEntity
  8
0
 62
     3
100
AcDbBlockEnd
  0
BLOCK
  5
1144D
100
AcDbEntity
  8
0
 62
     3
100
AcDbBlockBegin
  2
A$C365A7C82
 70
     0
 10
0.0
 20
0.0
 30
0.0
  3
A$C365A7C82
  1

  0
TEXT
  5
1144C
100
AcDbEntity
  8
1
100
AcDbText
 10
-0.153114
 20
1.333334
 30
0.0
 40
4.0
  1
Schematy połączeń / Connections diagrams
 41
0.7
 51
15.0
  7
ITALIC
100
AcDbText
  0
ENDBLK
  5
1144E
100
AcDbEntity
  8
0
 62
     3
100
AcDbBlockEnd
  0
BLOCK
  5
1147B
100
AcDbEntity
  8
0
100
AcDbBlockBegin
  2
*D4
 70
     1
 10
0.0
 20
0.0
 30
0.0
  3
*D4
  1

  0
LINE
  5
1147C
100
AcDbEntity
  8
0
  6
BYBLOCK
 62
     0
100
AcDbLine
 10
645.159607
 20
231.725258
 30
0.0
 11
653.594327
 21
231.725258
 31
0.0
  0
LINE
  5
1147D
100
AcDbEntity
  8
0
  6
BYBLOCK
 62
     0
100
AcDbLine
 10
645.159607
 20
225.525258
 30
0.0
 11
653.594327
 21
225.525258
 31
0.0
  0
LINE
  5
1147E
100
AcDbEntity
  8
0
  6
BYBLOCK
 62
     0
100
AcDbLine
 10
652.094327
 20
235.225258
 30
0.0
 11
652.094327
 21
238.725258
 31
0.0
  0
LINE
  5
1147F
100
AcDbEntity
  8
0
  6
BYBLOCK
 62
     0
100
AcDbLine
 10
652.094327
 20
222.025258
 30
0.0
 11
652.094327
 21
211.925258
 31
0.0
  0
SOLID
  5
11480
100
AcDbEntity
  8
0
  6
BYBLOCK
 62
     0
100
AcDbTrace
 10
651.510994
 20
235.225258
 30
0.0
 11
652.677661
 21
235.225258
 31
0.0
 12
652.094327
 22
231.725258
 32
0.0
 13
652.094327
 23
231.725258
 33
0.0
  0
SOLID
  5
11481
100
AcDbEntity
  8
0
  6
BYBLOCK
 62
     0
100
AcDbTrace
 10
651.510994
 20
222.025258
 30
0.0
 11
652.677661
 21
222.025258
 31
0.0
 12
652.094327
 22
225.525258
 32
0.0
 13
652.094327
 23
225.525258
 33
0.0
  0
MTEXT
  5
11482
100
AcDbEntity
  8
0
  6
BYBLOCK
 62
     0
100
AcDbMText
 10
650.444327
 20
215.225258
 30
0.0
 40
1.8
 41
0.0
 71
     5
 72
     1
  1
\A1;6.20
 11
0.0
 21
1.0
 31
0.0
  0
POINT
  5
11483
100
AcDbEntity
  8
DEFPOINTS
  6
BYBLOCK
 62
     0
100
AcDbPoint
 10
643.659607
 20
231.725258
 30
0.0
  0
POINT
  5
11484
100
AcDbEntity
  8
DEFPOINTS
  6
BYBLOCK
 62
     0
100
AcDbPoint
 10
643.659607
 20
225.525258
 30
0.0
  0
POINT
  5
11485
100
AcDbEntity
  8
DEFPOINTS
  6
BYBLOCK
 62
     0
100
AcDbPoint
 10
652.094327
 20
225.525258
 30
0.0
  0
ENDBLK
  5
11486
100
AcDbEntity
  8
0
100
AcDbBlockEnd
  0
ENDSEC
  0
SECTION
  2
ENTITIES
  0
LINE
  5
2D2D
100
AcDbEntity
  8
WYMIARY
 62
     6
100
AcDbLine
 10
486.041244
 20
0.0
 30
0.0
 11
486.041244
 21
297.0
 31
0.0
  0
LINE
  5
2D2E
100
AcDbEntity
  8
WYMIARY
 62
     6
100
AcDbLine
 10
497.671651
 20
292.0
 30
0.0
 11
497.671651
 21
5.0
 31
0.0
  0
LINE
  5
2D34
100
AcDbEntity
  8
2
100
AcDbLine
 10
682.671651
 20
5.0
 30
0.0
 11
682.671651
 21
292.0
 31
0.0
  0
LINE
  5
2D35
100
AcDbEntity
  8
2
100
AcDbLine
 10
687.671651
 20
0.0
 30
0.0
 11
687.671651
 21
297.0
 31
0.0
  0
LINE
  5
2D36
100
AcDbEntity
  8
WY
  6
CONTINUOUS
 62
     3
100
AcDbLine
 10
682.671651
 20
19.689837
 30
0.0
 11
497.671651
 21
19.689837
 31
0.0
  0
LINE
  5
2D38
100
AcDbEntity
  8
2
100
AcDbLine
 10
497.671651
 20
5.0
 30
0.0
 11
682.671651
 21
5.0
 31
0.0
  0
LINE
  5
2D39
100
AcDbEntity
  8
2
 62
     6
100
AcDbLine
 10
497.671651
 20
0.0
 30
0.0
 11
687.671651
 21
0.0
 31
0.0
  0
LINE
  5
2D3A
100
AcDbEntity
  8
0
100
AcDbLine
 10
529.697667
 20
11.742481
 30
0.0
 11
528.795256
 21
11.742481
 31
0.0
1001
ACAD
1000
ASC_BOUNDS
1002
{
1070
    19
1002
}
  0
ELLIPSE
  5
2D3B
100
AcDbEntity
  8
0
100
AcDbEllipse
 10
529.697667
 20
11.742481
 30
0.0
 11
-1.203215696869327
 21
0.0000000000001967
 31
0.0
210
0.0
220
0.0
230
1.0
 40
0.958812
 41
-1.570796326794739
 42
0.0000000000001705
1001
ACAD
1000
ASC_BOUNDS
1002
{
1070
    19
1002
}
  0
TEXT
  5
2D3D
100
AcDbEntity
  8
1
100
AcDbText
 10
515.607578
 20
8.797457
 30
0.0
 40
5.0
  1
A4
 51
15.0
  7
ITALIC
100
AcDbText
  0
LINE
  5
2D40
100
AcDbEntity
  8
WYMIARY
 62
     6
100
AcDbLine
 10
497.671651
 20
0.0
 30
0.0
 11
486.041244
 21
0.0
 31
0.0
  0
TEXT
  5
2D42
100
AcDbEntity
  8
WY
100
AcDbText
 10
502.936765
 20
16.373844
 30
0.0
 40
2.0
  1
Skala
 51
15.0
  7
ITALIC
100
AcDbText
  0
TEXT
  5
2D43
100
AcDbEntity
  8
WY
100
AcDbText
 10
515.042219
 20
16.329369
 30
0.0
 40
2.0
  1
Format
 51
15.0
  7
ITALIC
100
AcDbText
  0
LINE
  5
2D44
100
AcDbEntity
  8
0
100
AcDbLine
 10
528.494452
 20
11.742481
 30
0.0
 11
528.795256
 21
11.742481
 31
0.0
1001
ACAD
1000
ASC_BOUNDS
1002
{
1070
    19
1002
}
  0
LINE
  5
2D45
100
AcDbEntity
  8
0
100
AcDbLine
 10
559.88722
 20
17.211264
 30
0.0
 11
559.88722
 21
9.015264
 31
0.0
  0
LINE
  5
2D46
100
AcDbEntity
  8
0
100
AcDbLine
 10
550.89322
 20
9.438264
 30
0.0
 11
550.89322
 21
7.416264
 31
0.0
  0
ARC
  5
2D47
100
AcDbEntity
  8
0
100
AcDbCircle
 10
551.5428
 20
9.724764
 30
0.0
 40
0.709955
100
AcDbArc
 50
203.80008
 51
272.051918
  0
LINE
  5
2D48
100
AcDbEntity
  8
0
100
AcDbLine
 10
549.34822
 20
7.416264
 30
0.0
 11
549.34822
 21
15.612264
 31
0.0
  0
ARC
  5
2D49
100
AcDbEntity
  8
0
100
AcDbCircle
 10
551.982126
 20
10.136416
 30
0.0
 40
1.128907
100
AcDbArc
 50
276.719576
 51
2.175194
  0
ARC
  5
2D4A
100
AcDbEntity
  8
0
100
AcDbCircle
 10
555.243059
 20
10.503572
 30
0.0
 40
1.488419
100
AcDbArc
 50
191.634268
 51
270.699113
  0
ARC
  5
2D4B
100
AcDbEntity
  8
0
100
AcDbCircle
 10
556.209381
 20
10.503572
 30
0.0
 40
1.488419
100
AcDbArc
 50
269.300887
 51
348.365732
  0
LINE
  5
2D4C
100
AcDbEntity
  8
0
100
AcDbLine
 10
558.34222
 20
9.015264
 30
0.0
 11
558.34222
 21
17.211264
 31
0.0
  0
ARC
  5
2D4D
100
AcDbEntity
  8
0
100
AcDbCircle
 10
545.056591
 20
10.472364
 30
0.0
 40
1.425319
100
AcDbArc
 50
269.703671
 51
350.465171
  0
ARC
  5
2D4E
100
AcDbEntity
  8
0
100
AcDbCircle
 10
544.201848
 20
10.472364
 30
0.0
 40
1.425319
100
AcDbArc
 50
189.534829
 51
270.296329
  0
LINE
  5
2D4F
100
AcDbEntity
  8
0
100
AcDbLine
 10
547.14922
 20
9.015264
 30
0.0
 11
547.14922
 21
17.211264
 31
0.0
  0
LINE
  5
2D50
100
AcDbEntity
  8
0
100
AcDbLine
 10
548.69422
 20
17.211264
 30
0.0
 11
548.69422
 21
9.015264
 31
0.0
  0
LINE
  5
2D51
100
AcDbEntity
  8
0
100
AcDbLine
 10
539.892236
 20
14.361264
 30
0.0
 11
539.903809
 21
9.015264
 31
0.0
  0
LINE
  5
2D52
100
AcDbEntity
  8
0
100
AcDbLine
 10
538.361694
 20
9.015264
 30
0.0
 11
538.361694
 21
15.60367
 31
0.0
1001
ACAD
1000
ASC_BOUNDS
1002
{
1070
    19
1002
}
  0
LINE
  5
2D53
100
AcDbEntity
  8
0
100
AcDbLine
 10
529.697667
 20
9.895061
 30
0.0
 11
529.697667
 21
8.185369
 31
0.0
1001
ACAD
1000
ASC_BOUNDS
1002
{
1070
    19
1002
}
  0
LINE
  5
2D54
100
AcDbEntity
  8
0
100
AcDbLine
 10
535.613478
 20
8.185369
 30
0.0
 11
535.613478
 21
11.742481
 31
0.0
1001
ACAD
1000
ASC_BOUNDS
1002
{
1070
    19
1002
}
  0
LINE
  5
2D55
100
AcDbEntity
  8
1
100
AcDbLine
 10
563.469863
 20
5.0
 30
0.0
 11
563.469863
 21
19.689837
 31
0.0
  0
LINE
  5
2D56
100
AcDbEntity
  8
0
100
AcDbLine
 10
530.499811
 20
7.416263
 30
0.0
 11
534.811334
 21
7.416263
 31
0.0
1001
ACAD
1000
ASC_BOUNDS
1002
{
1070
    19
1002
}
  0
ELLIPSE
  5
2D57
100
AcDbEntity
  8
0
100
AcDbEllipse
 10
530.499811
 20
8.185369
 30
0.0
 11
-0.8021437979128705
 21
0.0000000000000154
 31
0.0
210
0.0
220
0.0
230
1.0
 40
0.958812
 41
0.00000000000002
 42
1.570796326794914
1001
ACAD
1000
ASC_BOUNDS
1002
{
1070
    19
1002
}
  0
ELLIPSE
  5
2D58
100
AcDbEntity
  8
0
100
AcDbEllipse
 10
534.811334
 20
8.185369
 30
0.0
 11
0.8021437979128704
 21
0.0000000000001602
 31
0.0
210
0.0
220
0.0
230
1.0
 40
0.958812
 41
4.712388980384497
 42
6.283185307179378
1001
ACAD
1000
ASC_BOUNDS
1002
{
1070
    19
1002
}
  0
LINE
  5
2D59
100
AcDbEntity
  8
0
100
AcDbLine
 10
539.892236
 20
9.015264
 30
0.0
 11
539.903809
 21
9.022759
 31
0.0
  0
LINE
  5
2D5A
100
AcDbEntity
  8
0
100
AcDbLine
 10
538.361694
 20
9.015264
 30
0.0
 11
539.903809
 21
9.015264
 31
0.0
1001
ACAD
1000
ASC_BOUNDS
1002
{
1070
    19
1002
}
  0
LINE
  5
2D5B
100
AcDbEntity
  8
0
100
AcDbLine
 10
544.194477
 20
9.047064
 30
0.0
 11
545.04922
 21
9.047064
 31
0.0
  0
LINE
  5
2D5C
100
AcDbEntity
  8
0
100
AcDbLine
 10
550.89322
 20
7.416264
 30
0.0
 11
549.34822
 21
7.416264
 31
0.0
  0
LINE
  5
2D5D
100
AcDbEntity
  8
0
100
AcDbLine
 10
548.69422
 20
9.015264
 30
0.0
 11
547.14922
 21
9.015264
 31
0.0
  0
LINE
  5
2D5E
100
AcDbEntity
  8
0
100
AcDbLine
 10
551.576266
 20
9.015264
 30
0.0
 11
552.11422
 21
9.015264
 31
0.0
  0
LINE
  5
2D5F
100
AcDbEntity
  8
0
100
AcDbLine
 10
555.26122
 20
9.015264
 30
0.0
 11
556.19122
 21
9.015264
 31
0.0
  0
LINE
  5
2D60
100
AcDbEntity
  8
0
100
AcDbLine
 10
559.88722
 20
9.015264
 30
0.0
 11
558.34222
 21
9.015264
 31
0.0
  0
ARC
  5
2D61
100
AcDbEntity
  8
0
100
AcDbCircle
 10
545.056591
 20
14.17837
 30
0.0
 40
1.425319
100
AcDbArc
 50
9.534829
 51
90.296329
  0
LINE
  5
2D62
100
AcDbEntity
  8
0
100
AcDbLine
 10
546.46222
 20
11.81167
 30
0.0
 11
544.33822
 21
11.81167
 31
0.0
  0
LINE
  5
2D63
100
AcDbEntity
  8
0
100
AcDbLine
 10
545.01322
 20
11.13667
 30
0.0
 11
546.46222
 21
11.13667
 31
0.0
  0
LINE
  5
2D64
100
AcDbEntity
  8
0
100
AcDbLine
 10
529.697667
 20
13.461283
 30
0.0
 11
529.697667
 21
16.260974
 31
0.0
1001
ACAD
1000
ASC_BOUNDS
1002
{
1070
    19
1002
}
  0
ELLIPSE
  5
2D65
100
AcDbEntity
  8
0
100
AcDbEllipse
 10
532.630506
 20
15.17942
 30
0.0
 11
2.983077570132104
 21
0.0000000000002996
 31
0.0
210
0.0
220
0.0
230
1.0
 40
0.958812
 41
-1.562393163247347
 42
0.0084031635475457
1001
ACAD
1000
ASC_BOUNDS
1002
{
1070
    19
1002
}
  0
ELLIPSE
  5
2D66
100
AcDbEntity
  8
0
100
AcDbEllipse
 10
532.58733
 20
15.509539
 30
0.0
 11
-4.072692107280919
 21
0.0000000000000925
 31
0.0
210
0.0
220
0.0
230
1.0
 40
0.958812
 41
1.587553347046634
 42
2.408388587343224
1001
ACAD
1000
ASC_BOUNDS
1002
{
1070
    19
1002
}
  0
LINE
  5
2D67
100
AcDbEntity
  8
0
100
AcDbLine
 10
529.697667
 20
11.742481
 30
0.0
 11
529.697667
 21
11.034514
 31
0.0
1001
ACAD
1000
ASC_BOUNDS
1002
{
1070
    19
1002
}
  0
LINE
  5
2D68
100
AcDbEntity
  8
0
100
AcDbLine
 10
529.697667
 20
13.461283
 30
0.0
 11
529.697667
 21
12.896138
 31
0.0
1001
ACAD
1000
ASC_BOUNDS
1002
{
1070
    19
1002
}
  0
ELLIPSE
  5
2D69
100
AcDbEntity
  8
0
100
AcDbEllipse
 10
532.249598
 20
9.872487
 30
0.0
 11
2.960559210508897
 21
0.3570763225581005
 31
0.0
210
0.0
220
0.0
230
0.9999999999999998
 40
0.820999
 41
1.335209029023201
 42
2.503032872947537
1001
ACAD
1000
ASC_BOUNDS
1002
{
1070
    19
1002
}
  0
ELLIPSE
  5
2D6A
100
AcDbEntity
  8
0
100
AcDbEllipse
 10
532.480104
 20
8.937306
 30
0.0
 11
3.015746449176212
 21
0.7746519372140012
 31
0.0
210
0.0
220
0.0
230
1.0
 40
0.846775
 41
1.29973646820557
 42
2.479974117225238
1001
ACAD
1000
ASC_BOUNDS
1002
{
1070
    19
1002
}
  0
LINE
  5
2D6B
100
AcDbEntity
  8
0
100
AcDbLine
 10
536.816694
 20
12.896138
 30
0.0
 11
536.51589
 21
12.896138
 31
0.0
1001
ACAD
1000
ASC_BOUNDS
1002
{
1070
    19
1002
}
  0
LINE
  5
2D6C
100
AcDbEntity
  8
0
100
AcDbLine
 10
535.613478
 20
12.896138
 30
0.0
 11
536.51589
 21
12.896138
 31
0.0
1001
ACAD
1000
ASC_BOUNDS
1002
{
1070
    19
1002
}
  0
ELLIPSE
  5
2D6D
100
AcDbEntity
  8
0
100
AcDbEllipse
 10
535.613478
 20
12.896138
 30
0.0
 11
1.203215696869352
 21
0.0000000000000893
 31
0.0
210
0.0
220
0.0
230
1.0
 40
0.958812
 41
4.712388980384611
 42
6.283185307179508
1001
ACAD
1000
ASC_BOUNDS
1002
{
1070
    19
1002
}
  0
LINE
  5
2D6E
100
AcDbEntity
  8
0
100
AcDbLine
 10
530.499811
 20
17.030079
 30
0.0
 11
534.811334
 21
17.030079
 31
0.0
  0
ELLIPSE
  5
2D6F
100
AcDbEntity
  8
0
100
AcDbEllipse
 10
530.499811
 20
16.260974
 30
0.0
 11
0.8021437979128704
 21
0.000000000000038
 31
0.0
210
0.0
220
0.0
230
1.0
 40
0.958812
 41
1.570796326794851
 42
3.141592653589743
1001
ACAD
1000
ASC_BOUNDS
1002
{
1070
    19
1002
}
  0
LINE
  5
2D70
100
AcDbEntity
  8
0
100
AcDbLine
 10
535.613478
 20
15.155385
 30
0.0
 11
535.613478
 21
16.260974
 31
0.0
1001
ACAD
1000
ASC_BOUNDS
1002
{
1070
    19
1002
}
  0
ELLIPSE
  5
2D71
100
AcDbEntity
  8
0
100
AcDbEllipse
 10
534.811334
 20
16.260974
 30
0.0
 11
-0.8021437979128705
 21
0.000000000000038
 31
0.0
210
0.0
220
0.0
230
1.0
 40
0.958812
 41
3.141592653589842
 42
4.712388980384734
1001
ACAD
1000
ASC_BOUNDS
1002
{
1070
    19
1002
}
  0
ARC
  5
2D72
100
AcDbEntity
  8
0
100
AcDbCircle
 10
540.798894
 20
14.34127
 30
0.0
 40
1.377457
100
AcDbArc
 50
16.265061
 51
130.527299
  0
ARC
  5
2D73
100
AcDbEntity
  8
0
100
AcDbCircle
 10
544.201848
 20
14.17837
 30
0.0
 40
1.425319
100
AcDbArc
 50
89.703671
 51
170.465171
  0
LINE
  5
2D74
100
AcDbEntity
  8
0
100
AcDbLine
 10
540.911147
 20
12.93607
 30
0.0
 11
542.12122
 21
12.93607
 31
0.0
  0
LINE
  5
2D75
100
AcDbEntity
  8
0
100
AcDbLine
 10
540.578809
 20
12.93607
 30
0.0
 11
542.12122
 21
12.93607
 31
0.0
  0
ARC
  5
2D76
100
AcDbEntity
  8
0
100
AcDbCircle
 10
540.229736
 20
14.361264
 30
0.0
 40
0.3375
100
AcDbArc
 50
360.0
 51
180.0
  0
LINE
  5
2D77
100
AcDbEntity
  8
0
100
AcDbLine
 10
540.567236
 20
14.361264
 30
0.0
 11
540.578809
 21
12.93607
 31
0.0
  0
ARC
  5
2D78
100
AcDbEntity
  8
0
100
AcDbCircle
 10
544.67572
 20
14.361264
 30
0.0
 40
0.3375
100
AcDbArc
 50
360.0
 51
180.0
  0
LINE
  5
2D79
100
AcDbEntity
  8
0
100
AcDbLine
 10
544.33822
 20
11.81167
 30
0.0
 11
544.33822
 21
10.236264
 31
0.0
  0
LINE
  5
2D7A
100
AcDbEntity
  8
0
100
AcDbLine
 10
544.33822
 20
12.71167
 30
0.0
 11
545.01322
 21
12.71167
 31
0.0
  0
LINE
  5
2D7B
100
AcDbEntity
  8
0
100
AcDbLine
 10
545.01322
 20
11.13667
 30
0.0
 11
545.01322
 21
10.252764
 31
0.0
  0
LINE
  5
2D7C
100
AcDbEntity
  8
0
100
AcDbLine
 10
544.33822
 20
11.81167
 30
0.0
 11
544.33822
 21
10.252764
 31
0.0
  0
ARC
  5
2D7D
100
AcDbEntity
  8
0
100
AcDbCircle
 10
544.67572
 20
10.252764
 30
0.0
 40
0.3375
100
AcDbArc
 50
180.0
 51
0.0
  0
LINE
  5
2D7E
100
AcDbEntity
  8
0
100
AcDbLine
 10
545.01322
 20
14.361264
 30
0.0
 11
545.01322
 21
12.71167
 31
0.0
  0
LINE
  5
2D7F
100
AcDbEntity
  8
0
100
AcDbLine
 10
544.33822
 20
14.361264
 30
0.0
 11
544.33822
 21
12.71167
 31
0.0
  0
LINE
  5
2D80
100
AcDbEntity
  8
0
100
AcDbLine
 10
542.12122
 20
12.93607
 30
0.0
 11
542.12122
 21
14.72707
 31
0.0
1001
ACAD
1000
ASC_BOUNDS
1002
{
1070
    19
1002
}
  0
LINE
  5
2D81
100
AcDbEntity
  8
0
100
AcDbLine
 10
542.79622
 20
10.236264
 30
0.0
 11
542.79622
 21
14.41447
 31
0.0
  0
LINE
  5
2D82
100
AcDbEntity
  8
0
100
AcDbLine
 10
539.903809
 20
15.60367
 30
0.0
 11
539.903809
 21
15.38827
 31
0.0
  0
LINE
  5
2D83
100
AcDbEntity
  8
0
100
AcDbLine
 10
538.361694
 20
15.60367
 30
0.0
 11
539.903809
 21
15.60367
 31
0.0
1001
ACAD
1000
ASC_BOUNDS
1002
{
1070
    19
1002
}
  0
LINE
  5
2D84
100
AcDbEntity
  8
0
100
AcDbLine
 10
544.194477
 20
15.60367
 30
0.0
 11
545.04922
 21
15.60367
 31
0.0
  0
ARC
  5
2D85
100
AcDbEntity
  8
0
100
AcDbCircle
 10
555.243059
 20
14.124104
 30
0.0
 40
1.488419
100
AcDbArc
 50
89.300887
 51
168.365732
  0
ARC
  5
2D86
100
AcDbEntity
  8
0
100
AcDbCircle
 10
551.752247
 20
14.207365
 30
0.0
 40
1.409039
100
AcDbArc
 50
15.47255
 51
127.56454
  0
LINE
  5
2D87
100
AcDbEntity
  8
0
100
AcDbLine
 10
546.46222
 20
11.13667
 30
0.0
 11
546.46222
 21
10.236264
 31
0.0
  0
LINE
  5
2D88
100
AcDbEntity
  8
0
100
AcDbLine
 10
546.46222
 20
11.81167
 30
0.0
 11
546.46222
 21
14.41447
 31
0.0
  0
LINE
  5
2D89
100
AcDbEntity
  8
0
100
AcDbLine
 10
553.11022
 20
14.583264
 30
0.0
 11
553.11022
 21
10.179264
 31
0.0
  0
LINE
  5
2D8A
100
AcDbEntity
  8
0
100
AcDbLine
 10
551.56822
 20
14.361264
 30
0.0
 11
551.56822
 21
10.252764
 31
0.0
  0
LINE
  5
2D8B
100
AcDbEntity
  8
0
100
AcDbLine
 10
550.89322
 20
14.361264
 30
0.0
 11
550.89322
 21
10.252764
 31
0.0
  0
ARC
  5
2D8C
100
AcDbEntity
  8
0
100
AcDbCircle
 10
551.23072
 20
10.252764
 30
0.0
 40
0.3375
100
AcDbArc
 50
180.0
 51
0.0
  0
ARC
  5
2D8D
100
AcDbEntity
  8
0
100
AcDbCircle
 10
551.23072
 20
14.361264
 30
0.0
 40
0.3375
100
AcDbArc
 50
360.0
 51
180.0
  0
LINE
  5
2D8E
100
AcDbEntity
  8
0
100
AcDbLine
 10
549.34822
 20
15.612264
 30
0.0
 11
550.89322
 21
15.612264
 31
0.0
  0
LINE
  5
2D8F
100
AcDbEntity
  8
0
100
AcDbLine
 10
547.14922
 20
17.211264
 30
0.0
 11
548.69422
 21
17.211264
 31
0.0
  0
LINE
  5
2D90
100
AcDbEntity
  8
0
100
AcDbLine
 10
550.89322
 20
15.612264
 30
0.0
 11
550.89322
 21
15.324264
 31
0.0
  0
ARC
  5
2D91
100
AcDbEntity
  8
0
100
AcDbCircle
 10
556.209381
 20
14.124104
 30
0.0
 40
1.488419
100
AcDbArc
 50
11.634268
 51
90.699113
  0
LINE
  5
2D92
100
AcDbEntity
  8
0
100
AcDbLine
 10
557.66722
 20
14.424264
 30
0.0
 11
557.66722
 21
10.203412
 31
0.0
  0
ARC
  5
2D93
100
AcDbEntity
  8
0
100
AcDbCircle
 10
555.72622
 20
14.361264
 30
0.0
 40
0.3375
100
AcDbArc
 50
360.0
 51
180.0
  0
ARC
  5
2D94
100
AcDbEntity
  8
0
100
AcDbCircle
 10
555.72622
 20
10.252764
 30
0.0
 40
0.3375
100
AcDbArc
 50
180.0
 51
0.0
  0
LINE
  5
2D95
100
AcDbEntity
  8
0
100
AcDbLine
 10
555.38872
 20
14.361264
 30
0.0
 11
555.38872
 21
10.252764
 31
0.0
  0
LINE
  5
2D96
100
AcDbEntity
  8
0
100
AcDbLine
 10
556.06372
 20
14.361264
 30
0.0
 11
556.06372
 21
10.252764
 31
0.0
  0
LINE
  5
2D97
100
AcDbEntity
  8
0
100
AcDbLine
 10
553.78522
 20
10.203412
 30
0.0
 11
553.78522
 21
14.424264
 31
0.0
  0
LINE
  5
2D98
100
AcDbEntity
  8
0
100
AcDbLine
 10
555.26122
 20
15.612412
 30
0.0
 11
556.19122
 21
15.612412
 31
0.0
  0
LINE
  5
2D99
100
AcDbEntity
  8
0
100
AcDbLine
 10
558.34222
 20
17.211264
 30
0.0
 11
559.88722
 21
17.211264
 31
0.0
  0
TEXT
  5
2D9A
100
AcDbEntity
  8
WY
100
AcDbText
 10
564.417407
 20
11.60401
 30
0.0
 40
2.0
  1
02-12-2007
 51
15.0
  7
ITALIC
100
AcDbText
  0
TEXT
  5
2D9B
100
AcDbEntity
  8
WY
100
AcDbText
 10
568.848776
 20
16.149239
 30
0.0
 40
2.0
  1
Data
 51
15.0
  7
ITALIC
100
AcDbText
  0
TEXT
  5
2D9D
100
AcDbEntity
  8
1
100
AcDbText
 10
637.422754
 20
9.064009
 30
0.0
 40
5.0
  1
PI6-1P
 41
0.8
 51
15.0
  7
ITALIC
100
AcDbText
  0
LINE
  5
2D9E
100
AcDbEntity
  8
1
100
AcDbLine
 10
627.394234
 20
5.0
 30
0.0
 11
627.394234
 21
19.689837
 31
0.0
  0
TEXT
  5
2D9F
100
AcDbEntity
  8
WY
100
AcDbText
 10
629.585432
 20
16.599248
 30
0.0
 40
2.0
  1
Product type
 51
15.0
  7
ITALIC
100
AcDbText
  0
LINE
  5
2DF2
100
AcDbEntity
  8
2
100
AcDbLine
 10
682.671651
 20
292.0
 30
0.0
 11
497.671651
 21
292.0
 31
0.0
  0
LINE
  5
2DF3
100
AcDbEntity
  8
2
100
AcDbLine
 10
687.671651
 20
297.0
 30
0.0
 11
497.671651
 21
297.0
 31
0.0
  0
LINE
  5
2E74
100
AcDbEntity
  8
WYMIARY
 62
     6
100
AcDbLine
 10
497.671651
 20
297.0
 30
0.0
 11
486.041244
 21
297.0
 31
0.0
  0
MTEXT
  5
31F2
100
AcDbEntity
  8
WYMIARY
100
AcDbMText
 10
780.543201
 20
224.476865
 30
0.0
 40
3.5
 41
15.6
 71
     1
 72
     5
  1

  7
ITALIC
  0
TEXT
  5
478E
100
AcDbEntity
  8
1
100
AcDbText
 10
500.301985
 20
8.797457
 30
0.0
 40
5.0
  1
1:1
 51
15.0
  7
ITALIC
100
AcDbText
  0
LINE
  5
482F
100
AcDbEntity
  8
WYMIARY
 62
     6
100
AcDbLine
 10
687.671651
 20
0.0
 30
0.0
 11
687.671651
 21
297.0
 31
0.0
  0
LINE
  5
4AD7
100
AcDbEntity
  8
WYMIARY
 62
     3
100
AcDbLine
 10
512.671651
 20
19.689837
 30
0.0
 11
512.671651
 21
5.0
 31
0.0
  0
LINE
  5
4AD9
100
AcDbEntity
  8
WYMIARY
 62
     3
100
AcDbLine
 10
527.671651
 20
19.689837
 30
0.0
 11
527.671651
 21
5.0
 31
0.0
  0
LINE
  5
4ADA
100
AcDbEntity
  8
WYMIARY
 62
     3
100
AcDbLine
 10
586.373187
 20
19.689837
 30
0.0
 11
586.373187
 21
5.0
 31
0.0
  0
TEXT
  5
4ADB
100
AcDbEntity
  8
WY
100
AcDbText
 10
587.562196
 20
16.599248
 30
0.0
 40
2.0
  1
Draw. No.
 51
15.0
  7
ITALIC
100
AcDbText
  0
TEXT
  5
4ADF
100
AcDbEntity
  8
1
100
AcDbText
 10
591.935141
 20
9.064009
 30
0.0
 40
4.0
  1
PI6-1P-01A
 41
0.7
 51
15.0
  7
ITALIC
100
AcDbText
  0
LINE
  5
4AE9
100
AcDbEntity
  8
WYMIARY
 62
     6
100
AcDbLine
 10
687.671651
 20
0.0
 30
0.0
 11
687.671651
 21
297.0
 31
0.0
  0
LINE
  5
6488
100
AcDbEntity
  8
WYMIARY
 62
     6
100
AcDbLine
 10
687.671651
 20
0.0
 30
0.0
 11
687.671651
 21
297.0
 31
0.0
  0
LINE
  5
648E
100
AcDbEntity
  8
2
100
AcDbLine
 10
687.671651
 20
0.0
 30
0.0
 11
687.671651
 21
297.0
 31
0.0
  0
LINE
  5
6CB6
100
AcDbEntity
  8
WYMIARY
 62
     6
100
AcDbLine
 10
687.671651
 20
0.0
 30
0.0
 11
687.671651
 21
297.0
 31
0.0
  0
LINE
  5
6CB8
100
AcDbEntity
  8
2
100
AcDbLine
 10
687.671651
 20
0.0
 30
0.0
 11
687.671651
 21
297.0
 31
0.0
  0
LINE
  5
AE66
100
AcDbEntity
  8
WYMIARY
 62
     3
100
AcDbLine
 10
643.659607
 20
231.725258
 30
0.0
 11
643.659607
 21
225.525258
 31
0.0
  0
LINE
  5
AE67
100
AcDbEntity
  8
WYMIARY
 62
     3
100
AcDbLine
 10
640.655672
 20
231.725258
 30
0.0
 11
640.655672
 21
225.525258
 31
0.0
  0
LINE
  5
AE68
100
AcDbEntity
  8
WYMIARY
 62
     3
100
AcDbLine
 10
637.875415
 20
231.725258
 30
0.0
 11
637.875415
 21
225.525258
 31
0.0
  0
LINE
  5
AE69
100
AcDbEntity
  8
WYMIARY
 62
     3
100
AcDbLine
 10
627.655672
 20
231.725258
 30
0.0
 11
627.655672
 21
225.525258
 31
0.0
  0
LINE
  5
AE6A
100
AcDbEntity
  8
WYMIARY
 62
     3
100
AcDbLine
 10
624.875415
 20
231.725258
 30
0.0
 11
624.875415
 21
225.525258
 31
0.0
  0
LINE
  5
AE6D
100
AcDbEntity
  8
WYMIARY
 62
     3
100
AcDbLine
 10
607.855672
 20
231.725258
 30
0.0
 11
607.855672
 21
225.525258
 31
0.0
  0
LINE
  5
AE6F
100
AcDbEntity
  8
WYMIARY
 62
     3
100
AcDbLine
 10
583.43593
 20
231.725258
 30
0.0
 11
583.43593
 21
225.525258
 31
0.0
  0
LINE
  5
AE70
100
AcDbEntity
  8
WYMIARY
 62
     3
100
AcDbLine
 10
580.655672
 20
231.725258
 30
0.0
 11
580.655672
 21
225.525258
 31
0.0
  0
LINE
  5
AE71
100
AcDbEntity
  8
WYMIARY
 62
     3
100
AcDbLine
 10
567.655672
 20
231.725258
 30
0.0
 11
567.655672
 21
225.525258
 31
0.0
  0
LINE
  5
AE72
100
AcDbEntity
  8
WYMIARY
 62
     3
100
AcDbLine
 10
557.905776
 20
231.725258
 30
0.0
 11
557.905776
 21
225.525258
 31
0.0
  0
LINE
  5
AE73
100
AcDbEntity
  8
WYMIARY
 62
     3
100
AcDbLine
 10
554.655672
 20
230.625258
 30
0.0
 11
554.655672
 21
226.625258
 31
0.0
  0
LINE
  5
AE74
100
AcDbEntity
  8
WYMIARY
 62
     3
100
AcDbLine
 10
548.020781
 20
231.725258
 30
0.0
 11
548.020781
 21
225.525258
 31
0.0
  0
LINE
  5
AE75
100
AcDbEntity
  8
WYMIARY
 62
     3
100
AcDbLine
 10
546.655672
 20
231.725258
 30
0.0
 11
546.655672
 21
225.525258
 31
0.0
  0
TEXT
  5
AF41
100
AcDbEntity
  8
1
100
AcDbText
 10
572.499533
 20
277.28787
 30
0.0
 40
5.0
  1
PI6-1P
 41
0.8
 51
15.0
  7
ITALIC
100
AcDbText
  0
LINE
  5
106D1
100
AcDbEntity
  8
0
  6
CENTER
 62
     3
100
AcDbLine
 10
631.923342
 20
225.525258
 30
0.0
 11
631.923342
 21
226.625258
 31
0.0
  0
LINE
  5
10733
100
AcDbEntity
  8
0
  6
CONTINUOUS
 62
     3
100
AcDbLine
 10
557.323342
 20
226.625258
 30
0.0
 11
546.655672
 21
226.625258
 31
0.0
  0
LINE
  5
10734
100
AcDbEntity
  8
0
  6
CONTINUOUS
 62
     3
100
AcDbLine
 10
570.323342
 20
226.625258
 30
0.0
 11
564.123342
 21
226.625258
 31
0.0
  0
LINE
  5
10735
100
AcDbEntity
  8
0
  6
CONTINUOUS
 62
     3
100
AcDbLine
 10
583.43593
 20
226.625258
 30
0.0
 11
577.123342
 21
226.625258
 31
0.0
  0
LINE
  5
10736
100
AcDbEntity
  8
0
  6
CONTINUOUS
 62
     3
100
AcDbLine
 10
564.123342
 20
228.325258
 30
0.0
 11
562.612787
 21
228.325258
 31
0.0
  0
LINE
  5
10737
100
AcDbEntity
  8
0
  6
CONTINUOUS
 62
     3
100
AcDbLine
 10
558.833898
 20
228.325258
 30
0.0
 11
557.323342
 21
228.325258
 31
0.0
  0
LINE
  5
10738
100
AcDbEntity
  8
0
  6
CONTINUOUS
 62
     3
100
AcDbLine
 10
564.123342
 20
228.325258
 30
0.0
 11
564.123342
 21
226.625258
 31
0.0
  0
LINE
  5
1073C
100
AcDbEntity
  8
0
  6
CONTINUOUS
 62
     3
100
AcDbLine
 10
577.123342
 20
228.325258
 30
0.0
 11
575.612787
 21
228.325258
 31
0.0
  0
LINE
  5
1073D
100
AcDbEntity
  8
0
  6
CONTINUOUS
 62
     3
100
AcDbLine
 10
571.833898
 20
228.325258
 30
0.0
 11
570.323342
 21
228.325258
 31
0.0
  0
LINE
  5
1073E
100
AcDbEntity
  8
0
  6
CONTINUOUS
 62
     3
100
AcDbLine
 10
577.123342
 20
228.325258
 30
0.0
 11
577.123342
 21
226.625258
 31
0.0
  0
LINE
  5
1073F
100
AcDbEntity
  8
0
  6
CONTINUOUS
 62
     3
100
AcDbLine
 10
570.323342
 20
228.325258
 30
0.0
 11
570.323342
 21
226.625258
 31
0.0
  0
LINE
  5
10742
100
AcDbEntity
  8
0
  6
CONTINUOUS
 62
     3
100
AcDbLine
 10
584.847176
 20
228.325258
 30
0.0
 11
583.43593
 21
228.325258
 31
0.0
  0
LINE
  5
10743
100
AcDbEntity
  8
0
  6
CONTINUOUS
 62
     3
100
AcDbLine
 10
590.123342
 20
228.325258
 30
0.0
 11
588.599509
 21
228.325258
 31
0.0
  0
LINE
  5
10749
100
AcDbEntity
  8
0
  6
CONTINUOUS
 62
     3
100
AcDbLine
 10
628.523342
 20
226.625258
 30
0.0
 11
622.323342
 21
226.625258
 31
0.0
  0
LINE
  5
1074A
100
AcDbEntity
  8
0
  6
CONTINUOUS
 62
     3
100
AcDbLine
 10
635.323342
 20
228.325258
 30
0.0
 11
635.323342
 21
226.625258
 31
0.0
  0
LINE
  5
1074B
100
AcDbEntity
  8
0
  6
CONTINUOUS
 62
     3
100
AcDbLine
 10
635.323342
 20
228.325258
 30
0.0
 11
633.812787
 21
228.325258
 31
0.0
  0
LINE
  5
1074E
100
AcDbEntity
  8
0
  6
CONTINUOUS
 62
     3
100
AcDbLine
 10
628.523342
 20
228.325258
 30
0.0
 11
628.523342
 21
226.625258
 31
0.0
  0
LINE
  5
1074F
100
AcDbEntity
  8
0
  6
CONTINUOUS
 62
     3
100
AcDbLine
 10
630.033898
 20
228.325258
 30
0.0
 11
628.523342
 21
228.325258
 31
0.0
  0
LINE
  5
10750
100
AcDbEntity
  8
0
  6
CONTINUOUS
 62
     3
100
AcDbLine
 10
615.523342
 20
226.625258
 30
0.0
 11
612.092305
 21
226.625258
 31
0.0
  0
LINE
  5
10751
100
AcDbEntity
  8
0
  6
CONTINUOUS
 62
     3
100
AcDbLine
 10
608.571176
 20
228.325258
 30
0.0
 11
607.855672
 21
228.325258
 31
0.0
  0
LINE
  5
10752
100
AcDbEntity
  8
0
  6
CONTINUOUS
 62
     3
100
AcDbLine
 10
612.092305
 20
228.325258
 30
0.0
 11
611.241382
 21
228.325258
 31
0.0
  0
LINE
  5
10753
100
AcDbEntity
  8
0
  6
CONTINUOUS
 62
     3
100
AcDbLine
 10
617.033898
 20
228.325258
 30
0.0
 11
615.523342
 21
228.325258
 31
0.0
  0
LINE
  5
10756
100
AcDbEntity
  8
0
  6
CONTINUOUS
 62
     3
100
AcDbLine
 10
612.092305
 20
228.325258
 30
0.0
 11
612.092305
 21
226.625258
 31
0.0
  0
LINE
  5
10758
100
AcDbEntity
  8
0
  6
CONTINUOUS
 62
     3
100
AcDbLine
 10
622.323342
 20
228.325258
 30
0.0
 11
620.812787
 21
228.325258
 31
0.0
  0
LINE
  5
10759
100
AcDbEntity
  8
0
  6
CONTINUOUS
 62
     3
100
AcDbLine
 10
622.323342
 20
228.325258
 30
0.0
 11
622.323342
 21
226.625258
 31
0.0
  0
LINE
  5
1075A
100
AcDbEntity
  8
0
  6
CONTINUOUS
 62
     3
100
AcDbLine
 10
615.523342
 20
228.325258
 30
0.0
 11
615.523342
 21
226.625258
 31
0.0
  0
LINE
  5
10761
100
AcDbEntity
  8
0
  6
CONTINUOUS
 62
     3
100
AcDbLine
 10
546.655672
 20
225.525258
 30
0.0
 11
546.655672
 21
226.625258
 31
0.0
  0
LINE
  5
10762
100
AcDbEntity
  8
0
  6
CONTINUOUS
 62
     3
100
AcDbLine
 10
642.327277
 20
226.625258
 30
0.0
 11
640.946764
 21
226.625258
 31
0.0
  0
LINE
  5
10763
100
AcDbEntity
  8
0
  6
CONTINUOUS
 62
     3
100
AcDbLine
 10
560.723342
 20
225.525258
 30
0.0
 11
546.655672
 21
225.525258
 31
0.0
  0
LINE
  5
107BB
100
AcDbEntity
  8
WYMIARY
 62
     3
100
AcDbLine
 10
546.655672
 20
225.525258
 30
0.0
 11
546.655672
 21
231.725258
 31
0.0
  0
LINE
  5
107BC
100
AcDbEntity
  8
WYMIARY
 62
     3
100
AcDbLine
 10
546.655672
 20
231.725258
 30
0.0
 11
643.659607
 21
231.725258
 31
0.0
  0
CIRCLE
  5
107C2
100
AcDbEntity
  8
WYMIARY
 62
     3
100
AcDbCircle
 10
560.723342
 20
228.625258
 30
0.0
 40
1.9
  0
LINE
  5
107EF
100
AcDbEntity
  8
WYMIARY
 62
     3
100
AcDbLine
 10
546.655672
 20
225.525258
 30
0.0
 11
643.659607
 21
225.525258
 31
0.0
  0
LINE
  5
107F0
100
AcDbEntity
  8
WYMIARY
 62
     3
100
AcDbLine
 10
557.323342
 20
228.325258
 30
0.0
 11
557.323342
 21
226.625258
 31
0.0
  0
CIRCLE
  5
107F2
100
AcDbEntity
  8
WYMIARY
 62
     3
100
AcDbCircle
 10
573.723342
 20
228.625258
 30
0.0
 40
1.9
  0
CIRCLE
  5
107F4
100
AcDbEntity
  8
WYMIARY
 62
     3
100
AcDbCircle
 10
586.723342
 20
228.625258
 30
0.0
 40
1.9
  0
CIRCLE
  5
107FC
100
AcDbEntity
  8
WYMIARY
 62
     3
100
AcDbCircle
 10
618.923342
 20
228.525258
 30
0.0
 40
1.9
  0
CIRCLE
  5
107FF
100
AcDbEntity
  8
WYMIARY
 62
     3
100
AcDbCircle
 10
631.923342
 20
228.625258
 30
0.0
 40
1.9
  0
LINE
  5
10801
100
AcDbEntity
  8
0
  6
CENTER
 62
     3
100
AcDbLine
 10
631.923342
 20
225.525258
 30
0.0
 11
631.923342
 21
226.625258
 31
0.0
  0
LINE
  5
10805
100
AcDbEntity
  8
WYMIARY
 62
     3
100
AcDbLine
 10
549.610204
 20
226.625258
 30
0.0
 11
549.610204
 21
230.625258
 31
0.0
  0
LINE
  5
10806
100
AcDbEntity
  8
WYMIARY
 62
     3
100
AcDbLine
 10
552.443629
 20
226.625258
 30
0.0
 11
552.443629
 21
230.625258
 31
0.0
  0
LINE
  5
10815
100
AcDbEntity
  8
WYMIARY
 62
     3
100
AcDbLine
 10
549.610204
 20
231.725258
 30
0.0
 11
549.610204
 21
230.625258
 31
0.0
  0
LINE
  5
10816
100
AcDbEntity
  8
WYMIARY
 62
     3
100
AcDbLine
 10
552.443629
 20
230.625258
 30
0.0
 11
554.655672
 21
230.625258
 31
0.0
  0
LINE
  5
10817
100
AcDbEntity
  8
WYMIARY
 62
     3
100
AcDbLine
 10
590.123342
 20
231.725258
 30
0.0
 11
590.123342
 21
225.525258
 31
0.0
  0
CIRCLE
  5
1081C
100
AcDbEntity
  8
WYMIARY
 62
     3
100
AcDbCircle
 10
609.906279
 20
228.525258
 30
0.0
 40
1.35
  0
LINE
  5
10820
100
AcDbEntity
  8
WYMIARY
 62
     3
100
AcDbLine
 10
642.327277
 20
226.625258
 30
0.0
 11
642.327277
 21
230.625258
 31
0.0
  0
LINE
  5
10822
100
AcDbEntity
  8
WYMIARY
 62
     3
100
AcDbLine
 10
640.946764
 20
230.625258
 30
0.0
 11
640.946764
 21
226.625258
 31
0.0
  0
LINE
  5
10832
100
AcDbEntity
  8
WYMIARY
 62
     3
100
AcDbLine
 10
640.946764
 20
230.625258
 30
0.0
 11
642.327277
 21
230.625258
 31
0.0
  0
LINE
  5
1084D
100
AcDbEntity
  8
WYMIARY
 62
     3
100
AcDbLine
 10
635.323342
 20
226.625258
 30
0.0
 11
643.659607
 21
226.625258
 31
0.0
  0
DIMENSION
  5
10886
100
AcDbEntity
  8
WYMIARY
 62
     1
100
AcDbDimension
  2
*D0
 10
643.659607
 20
219.737486
 30
0.0
 11
595.15764
 21
221.387486
 31
0.0
 12
0.0
 22
84.192701
 32
0.0
 70
    32
  3
STANDARD
100
AcDbAlignedDimension
 13
546.655672
 23
225.525258
 33
0.0
 14
643.659607
 24
225.525258
 34
0.0
100
AcDbRotatedDimension
1001
ACAD
1000
DSTYLE
1002
{
1070
   140
1040
1.8
1070
   147
1040
0.75
1002
}
  0
TEXT
  5
10892
100
AcDbEntity
  8
1
100
AcDbText
 10
563.403999
 20
230.377705
 30
0.0
 40
2.0
  1
11
 50
270.0
 41
0.4
  7
ITALIC
100
AcDbText
  0
TEXT
  5
10895
100
AcDbEntity
  8
1
100
AcDbText
 10
624.42766
 20
229.139778
 30
0.0
 40
3.0
  1
A1
 50
90.0
 41
0.5
  7
ITALIC
100
AcDbText
  0
TEXT
  5
10896
100
AcDbEntity
  8
1
100
AcDbText
 10
637.319811
 20
228.574013
 30
0.0
 40
3.0
  1
A2
 50
90.0
 41
0.5
  7
ITALIC
100
AcDbText
  0
TEXT
  5
10897
100
AcDbEntity
  8
1
100
AcDbText
 10
576.206612
 20
230.377705
 30
0.0
 40
2.0
  1
14
 50
270.0
 41
0.4
  7
ITALIC
100
AcDbText
  0
TEXT
  5
10898
100
AcDbEntity
  8
1
100
AcDbText
 10
587.776199
 20
231.482669
 30
0.0
 40
2.0
  1
12
 50
270.0
 41
0.4
  7
ITALIC
100
AcDbText
  0
DIMENSION
  5
1147A
100
AcDbEntity
  8
WYMIARY
 62
     1
100
AcDbDimension
  2
*D4
 10
652.094327
 20
225.525258
 30
0.0
 11
650.444327
 21
215.225258
 31
0.0
 70
    32
  3
STANDARD
100
AcDbAlignedDimension
 13
643.659607
 23
231.725258
 33
0.0
 14
643.659607
 24
225.525258
 34
0.0
 50
90.0
100
AcDbRotatedDimension
1001
ACAD
1000
DSTYLE
1002
{
1070
   140
1040
1.8
1070
   147
1040
0.75
1002
}
  0
ENDSEC
  0
SECTION
  2
OBJECTS
  0
DICTIONARY
  5
C
100
AcDbDictionary
  3
ACAD_GROUP
350
D
  3
ACAD_MLINESTYLE
350
E
  3
ACDBVARIABLEDICTIONARY
350
C1B
  0
DICTIONARY
  5
D
102
{ACAD_REACTORS
330
C
102
}
100
AcDbDictionary
  0
DICTIONARY
  5
E
102
{ACAD_REACTORS
330
C
102
}
100
AcDbDictionary
  3
STANDARD
350
1B
  0
DICTIONARY
  5
C1B
102
{ACAD_REACTORS
330
C
102
}
100
AcDbDictionary
  3
SORTENTS
350
C1C
  0
MLINESTYLE
  5
1B
102
{ACAD_REACTORS
330
E
102
}
100
AcDbMlineStyle
  2
STANDARD
 70
     0
  3

 62
     0
 51
90.0
 52
90.0
 71
     2
 49
0.5
 62
   256
  6
BYLAYER
 49
-0.5
 62
   256
  6
BYLAYER
  0
DICTIONARYVAR
  5
C1C
102
{ACAD_REACTORS
330
C1B
102
}
100
DictionaryVariables
280
     0
  1
96
  0
ENDSEC
  0
EOF
