  0
SECTION
  2
HEADER
  9
$ACADVER
  1
AC1014
  9
$ACADMAINTVER
 70
     9
  9
$DWGCODEPAGE
  3
ANSI_1250
  9
$INSBASE
 10
0.0
 20
0.0
 30
0.0
  9
$EXTMIN
 10
0.0
 20
0.0
 30
0.0
  9
$EXTMAX
 10
201.630407
 20
297.0
 30
0.0
  9
$LIMMIN
 10
0.0
 20
0.0
  9
$LIMMAX
 10
210.0
 20
297.0
  9
$ORTHOMODE
 70
     0
  9
$REGENMODE
 70
     1
  9
$FILLMODE
 70
     1
  9
$QTEXTMODE
 70
     0
  9
$MIRRTEXT
 70
     1
  9
$DRAGMODE
 70
     2
  9
$LTSCALE
 40
1.0
  9
$OSMODE
 70
  9143
  9
$ATTMODE
 70
     1
  9
$TEXTSIZE
 40
2.5
  9
$TRACEWID
 40
1.0
  9
$TEXTSTYLE
  7
STANDARD
  9
$CLAYER
  8
WY
  9
$CELTYPE
  6
BYLAYER
  9
$CECOLOR
 62
   256
  9
$CELTSCALE
 40
1.0
  9
$DELOBJ
 70
     1
  9
$DISPSILH
 70
     0
  9
$DIMSCALE
 40
1.0
  9
$DIMASZ
 40
2.0
  9
$DIMEXO
 40
1.0
  9
$DIMDLI
 40
3.75
  9
$DIMRND
 40
0.0
  9
$DIMDLE
 40
0.0
  9
$DIMEXE
 40
1.0
  9
$DIMTP
 40
0.0
  9
$DIMTM
 40
0.0
  9
$DIMTXT
 40
2.0
  9
$DIMCEN
 40
2.5
  9
$DIMTSZ
 40
0.0
  9
$DIMTOL
 70
     0
  9
$DIMLIM
 70
     0
  9
$DIMTIH
 70
     0
  9
$DIMTOH
 70
     1
  9
$DIMSE1
 70
     0
  9
$DIMSE2
 70
     0
  9
$DIMTAD
 70
     3
  9
$DIMZIN
 70
     8
  9
$DIMBLK
  1

  9
$DIMASO
 70
     1
  9
$DIMSHO
 70
     1
  9
$DIMPOST
  1

  9
$DIMAPOST
  1

  9
$DIMALT
 70
     0
  9
$DIMALTD
 70
     3
  9
$DIMALTF
 40
0.0393700787401575
  9
$DIMLFAC
 40
1.0
  9
$DIMTOFL
 70
     1
  9
$DIMTVP
 40
0.0
  9
$DIMTIX
 70
     1
  9
$DIMSOXD
 70
     0
  9
$DIMSAH
 70
     0
  9
$DIMBLK1
  1

  9
$DIMBLK2
  1

  9
$DIMSTYLE
  2
ISO-25
  9
$DIMCLRD
 70
     0
  9
$DIMCLRE
 70
     0
  9
$DIMCLRT
 70
     0
  9
$DIMTFAC
 40
1.0
  9
$DIMGAP
 40
1.0
  9
$DIMJUST
 70
     0
  9
$DIMSD1
 70
     0
  9
$DIMSD2
 70
     0
  9
$DIMTOLJ
 70
     0
  9
$DIMTZIN
 70
     8
  9
$DIMALTZ
 70
     0
  9
$DIMALTTZ
 70
     0
  9
$DIMFIT
 70
     5
  9
$DIMUPT
 70
     0
  9
$DIMUNIT
 70
     2
  9
$DIMDEC
 70
     2
  9
$DIMTDEC
 70
     2
  9
$DIMALTU
 70
     2
  9
$DIMALTTD
 70
     3
  9
$DIMTXSTY
  7
STANDARD
  9
$DIMAUNIT
 70
     0
  9
$LUNITS
 70
     2
  9
$LUPREC
 70
     2
  9
$SKETCHINC
 40
1.0
  9
$FILLETRAD
 40
10.0
  9
$AUNITS
 70
     0
  9
$AUPREC
 70
     2
  9
$MENU
  1
.
  9
$ELEVATION
 40
0.0
  9
$PELEVATION
 40
0.0
  9
$THICKNESS
 40
0.0
  9
$LIMCHECK
 70
     0
  9
$CHAMFERA
 40
0.0
  9
$CHAMFERB
 40
0.0
  9
$CHAMFERC
 40
0.0
  9
$CHAMFERD
 40
0.0
  9
$SKPOLY
 70
     0
  9
$TDCREATE
 40
2457525.545951806
  9
$TDUPDATE
 40
2457526.341271863
  9
$TDINDWG
 40
0.0234549074
  9
$TDUSRTIMER
 40
2457526.256831644
  9
$USRTIMER
 70
     1
  9
$ANGBASE
 50
0.0
  9
$ANGDIR
 70
     0
  9
$PDMODE
 70
     0
  9
$PDSIZE
 40
-1.0
  9
$PLINEWID
 40
0.0
  9
$COORDS
 70
     1
  9
$SPLFRAME
 70
     0
  9
$SPLINETYPE
 70
     6
  9
$SPLINESEGS
 70
     8
  9
$ATTDIA
 70
     0
  9
$ATTREQ
 70
     1
  9
$HANDLING
 70
     1
  9
$HANDSEED
  5
121F
  9
$SURFTAB1
 70
     6
  9
$SURFTAB2
 70
     6
  9
$SURFTYPE
 70
     6
  9
$SURFU
 70
     6
  9
$SURFV
 70
     6
  9
$UCSNAME
  2

  9
$UCSORG
 10
0.0
 20
0.0
 30
0.0
  9
$UCSXDIR
 10
1.0
 20
0.0
 30
0.0
  9
$UCSYDIR
 10
0.0
 20
1.0
 30
0.0
  9
$PUCSNAME
  2

  9
$PUCSORG
 10
0.0
 20
0.0
 30
0.0
  9
$PUCSXDIR
 10
1.0
 20
0.0
 30
0.0
  9
$PUCSYDIR
 10
0.0
 20
1.0
 30
0.0
  9
$USERI1
 70
     0
  9
$USERI2
 70
     0
  9
$USERI3
 70
     0
  9
$USERI4
 70
     0
  9
$USERI5
 70
     0
  9
$USERR1
 40
0.0
  9
$USERR2
 40
0.0
  9
$USERR3
 40
0.0
  9
$USERR4
 40
0.0
  9
$USERR5
 40
0.0
  9
$WORLDVIEW
 70
     1
  9
$SHADEDGE
 70
     3
  9
$SHADEDIF
 70
    70
  9
$TILEMODE
 70
     1
  9
$MAXACTVP
 70
    64
  9
$PINSBASE
 10
0.0
 20
0.0
 30
0.0
  9
$PLIMCHECK
 70
     0
  9
$PEXTMIN
 10
1.000000000000000E+20
 20
1.000000000000000E+20
 30
1.000000000000000E+20
  9
$PEXTMAX
 10
-1.000000000000000E+20
 20
-1.000000000000000E+20
 30
-1.000000000000000E+20
  9
$PLIMMIN
 10
0.0
 20
0.0
  9
$PLIMMAX
 10
0.0
 20
0.0
  9
$UNITMODE
 70
     0
  9
$VISRETAIN
 70
     1
  9
$PLINEGEN
 70
     0
  9
$PSLTSCALE
 70
     1
  9
$TREEDEPTH
 70
  3020
  9
$PICKSTYLE
 70
     1
  9
$CMLSTYLE
  2
STANDARD
  9
$CMLJUST
 70
     0
  9
$CMLSCALE
 40
20.0
  9
$PROXYGRAPHICS
 70
     1
  9
$MEASUREMENT
 70
     1
  0
ENDSEC
  0
SECTION
  2
CLASSES
  0
CLASS
  1
ACDBDICTIONARYWDFLT
  2
AcDbDictionaryWithDefault
  3
ObjectDBX Classes
 90
        0
280
     0
281
     0
  0
CLASS
  1
VISUALSTYLE
  2
AcDbVisualStyle
  3
ObjectDBX Classes
 90
     4095
280
     0
281
     0
  0
CLASS
  1
MATERIAL
  2
AcDbMaterial
  3
ObjectDBX Classes
 90
     1153
280
     0
281
     0
  0
CLASS
  1
SCALE
  2
AcDbScale
  3
ObjectDBX Classes
 90
     1153
280
     0
281
     0
  0
CLASS
  1
TABLESTYLE
  2
AcDbTableStyle
  3
ObjectDBX Classes
 90
     4095
280
     0
281
     0
  0
CLASS
  1
MLEADERSTYLE
  2
AcDbMLeaderStyle
  3
ACDB_MLEADERSTYLE_CLASS
 90
     4095
280
     0
281
     0
  0
CLASS
  1
SUN
  2
AcDbSun
  3
SCENEOE
 90
     1153
280
     0
281
     0
  0
CLASS
  1
ACDBPLACEHOLDER
  2
AcDbPlaceHolder
  3
ObjectDBX Classes
 90
        0
280
     0
281
     0
  0
CLASS
  1
LAYOUT
  2
AcDbLayout
  3
ObjectDBX Classes
 90
        0
280
     0
281
     0
  0
CLASS
  1
RASTERVARIABLES
  2
AcDbRasterVariables
  3
ISM
 90
        0
280
     0
281
     0
  0
CLASS
  1
DICTIONARYVAR
  2
AcDbDictionaryVar
  3
ObjectDBX Classes
 90
        0
280
     0
281
     0
  0
CLASS
  1
XRECORD
  2
AcDbXrecord
  3
ObjectDBX Classes
 90
        0
280
     0
281
     0
  0
CLASS
  1
LWPOLYLINE
  2
AcDbPolyline
  3
ObjectDBX Classes
 90
        0
280
     0
281
     1
  0
CLASS
  1
HATCH
  2
AcDbHatch
  3
ObjectDBX Classes
 90
        0
280
     0
281
     1
  0
CLASS
  1
DIMASSOC
  2
AcDbDimAssoc
  3
"AcDbDimAssoc|Product Desc:     AcDim ARX App For Dimension|Company:          Autodesk, Inc.|WEB Address:      www.autodesk.com"
 90
        0
280
     0
281
     0
  0
ENDSEC
  0
SECTION
  2
TABLES
  0
TABLE
  2
VPORT
  5
8
330
0
100
AcDbSymbolTable
 70
     1
  0
VPORT
  5
29
330
8
100
AcDbSymbolTableRecord
100
AcDbViewportTableRecord
  2
*ACTIVE
 70
     0
 10
0.0
 20
0.0
 11
1.0
 21
1.0
 12
100.8152035
 22
148.5
 13
0.0
 23
0.0
 14
10.0
 24
10.0
 15
10.0
 25
10.0
 16
0.0
 26
0.0
 36
1.0
 17
0.0
 27
0.0
 37
0.0
 40
302.94
 41
2.811127379209371
 42
50.0
 43
0.0
 44
0.0
 50
0.0
 51
0.0
 71
    16
 72
  2000
 73
     1
 74
     3
 75
     0
 76
     0
 77
     0
 78
     0
  0
ENDTAB
  0
TABLE
  2
LTYPE
  5
5
330
0
100
AcDbSymbolTable
 70
     6
  0
LTYPE
  5
14
330
5
100
AcDbSymbolTableRecord
100
AcDbLinetypeTableRecord
  2
BYBLOCK
 70
     0
  3

 72
    65
 73
     0
 40
0.0
  0
LTYPE
  5
15
330
5
100
AcDbSymbolTableRecord
100
AcDbLinetypeTableRecord
  2
BYLAYER
 70
     0
  3

 72
    65
 73
     0
 40
0.0
  0
LTYPE
  5
16
330
5
100
AcDbSymbolTableRecord
100
AcDbLinetypeTableRecord
  2
CONTINUOUS
 70
     0
  3
Solid line
 72
    65
 73
     0
 40
0.0
  0
LTYPE
  5
6E
330
5
100
AcDbSymbolTableRecord
100
AcDbLinetypeTableRecord
  2
HIDDEN
 70
     0
  3
Hidden __ __ __ __ __ __ __ __ __ __ __ __ __ __
 72
    65
 73
     2
 40
1.905
 49
1.27
 74
     0
 49
-0.635
 74
     0
  0
LTYPE
  5
6F
330
5
100
AcDbSymbolTableRecord
100
AcDbLinetypeTableRecord
  2
PHANTOM
 70
     0
  3
Phantom ______  __  __  ______  __  __  ______
 72
    65
 73
     6
 40
12.7
 49
6.35
 74
     0
 49
-1.27
 74
     0
 49
1.27
 74
     0
 49
-1.27
 74
     0
 49
1.27
 74
     0
 49
-1.27
 74
     0
  0
LTYPE
  5
70
330
5
100
AcDbSymbolTableRecord
100
AcDbLinetypeTableRecord
  2
CENTER
 70
     0
  3
Center ____ _ ____ _ ____ _ ____ _ ____ _ ____
 72
    65
 73
     4
 40
10.16
 49
6.35
 74
     0
 49
-1.27
 74
     0
 49
1.27
 74
     0
 49
-1.27
 74
     0
  0
LTYPE
  5
71
330
5
100
AcDbSymbolTableRecord
100
AcDbLinetypeTableRecord
  2
CENTERX2
 70
     0
  3
Center (2x) ________  __  ________  __  _____
 72
    65
 73
     4
 40
20.32
 49
12.7
 74
     0
 49
-2.54
 74
     0
 49
2.54
 74
     0
 49
-2.54
 74
     0
  0
LTYPE
  5
72
330
5
100
AcDbSymbolTableRecord
100
AcDbLinetypeTableRecord
  2
DOT2
 70
     0
  3
Dot (.5x) ........................................
 72
    65
 73
     2
 40
0.635
 49
0.0
 74
     0
 49
-0.635
 74
     0
  0
ENDTAB
  0
TABLE
  2
LAYER
  5
2
102
{ACAD_XDICTIONARY
360
5D0
102
}
330
0
100
AcDbSymbolTable
 70
     9
  0
LAYER
  5
10
330
2
100
AcDbSymbolTableRecord
100
AcDbLayerTableRecord
  2
0
 70
     0
 62
     7
  6
CONTINUOUS
  0
LAYER
  5
73
330
2
100
AcDbSymbolTableRecord
100
AcDbLayerTableRecord
  2
FORMAT
 70
     0
 62
     7
  6
CONTINUOUS
  0
LAYER
  5
319
330
2
100
AcDbSymbolTableRecord
100
AcDbLayerTableRecord
  2
DEFPOINTS
 70
     0
 62
     7
  6
CONTINUOUS
  0
LAYER
  5
31A
330
2
100
AcDbSymbolTableRecord
100
AcDbLayerTableRecord
  2
1
 70
     0
 62
     3
  6
CONTINUOUS
  0
LAYER
  5
31C
330
2
100
AcDbSymbolTableRecord
100
AcDbLayerTableRecord
  2
2
 70
     0
 62
     6
  6
CONTINUOUS
  0
LAYER
  5
31D
330
2
100
AcDbSymbolTableRecord
100
AcDbLayerTableRecord
  2
3
 70
     0
 62
     4
  6
HIDDEN
  0
LAYER
  5
31F
330
2
100
AcDbSymbolTableRecord
100
AcDbLayerTableRecord
  2
OSIE
 70
     0
 62
     2
  6
CENTER
  0
LAYER
  5
321
330
2
100
AcDbSymbolTableRecord
100
AcDbLayerTableRecord
  2
WY
 70
     0
 62
     1
  6
CONTINUOUS
  0
LAYER
  5
322
330
2
100
AcDbSymbolTableRecord
100
AcDbLayerTableRecord
  2
WYMIARY
 70
     0
 62
     1
  6
CONTINUOUS
  0
ENDTAB
  0
TABLE
  2
STYLE
  5
3
330
0
100
AcDbSymbolTable
 70
     5
  0
STYLE
  5
11
330
3
100
AcDbSymbolTableRecord
100
AcDbTextStyleTableRecord
  2
STANDARD
 70
     0
 40
0.0
 41
1.0
 50
0.0
 71
     0
 42
2.5
  3
txt
  4

  0
STYLE
  5
125
330
3
100
AcDbSymbolTableRecord
100
AcDbTextStyleTableRecord
  2
SLDTEXTSTYLE0
 70
     0
 40
0.0
 41
0.75
 50
0.0
 71
     0
 42
2.5
  3
TXT
  4

  0
STYLE
  5
127
330
3
100
AcDbSymbolTableRecord
100
AcDbTextStyleTableRecord
  2
SLDTEXTSTYLE1
 70
     0
 40
0.0
 41
0.75
 50
0.0
 71
     0
 42
2.5
  3
TXT
  4
bigfont
  0
STYLE
  5
146
330
3
100
AcDbSymbolTableRecord
100
AcDbTextStyleTableRecord
  2
SLDTEXTSTYLE2
 70
     0
 40
0.0
 41
0.605
 50
0.0
 71
     0
 42
2.5
  3
TXT
  4

  0
STYLE
  5
325
330
3
100
AcDbSymbolTableRecord
100
AcDbTextStyleTableRecord
  2
ITALIC
 70
     0
 40
0.0
 41
1.0
 50
15.0
 71
     0
 42
2.5
  3
simplex
  4

  0
ENDTAB
  0
TABLE
  2
VIEW
  5
6
330
0
100
AcDbSymbolTable
 70
     0
  0
ENDTAB
  0
TABLE
  2
UCS
  5
7
330
0
100
AcDbSymbolTable
 70
     0
  0
ENDTAB
  0
TABLE
  2
APPID
  5
9
330
0
100
AcDbSymbolTable
 70
     1
  0
APPID
  5
12
330
9
100
AcDbSymbolTableRecord
100
AcDbRegAppTableRecord
  2
ACAD
 70
     0
  0
ENDTAB
  0
TABLE
  2
DIMSTYLE
  5
A
330
0
100
AcDbSymbolTable
 70
     2
  0
DIMSTYLE
105
27
102
{ACAD_REACTORS
330
B09
330
B18
330
B27
330
B36
330
B5C
330
B6E
330
B8C
330
120A
102
}
330
A
100
AcDbSymbolTableRecord
100
AcDbDimStyleTableRecord
  2
ISO-25
 70
     0
  3

  4

  5

  6

  7

 40
1.0
 41
2.5
 42
0.625
 43
3.75
 44
1.25
 45
0.0
 46
0.0
 47
0.0
 48
0.0
140
2.5
141
2.5
142
0.0
143
0.03937007874016
144
1.0
145
0.0
146
1.0
147
0.625
 71
     0
 72
     0
 73
     0
 74
     0
 75
     0
 76
     0
 77
     1
 78
     8
170
     0
171
     3
172
     1
173
     0
174
     0
175
     0
176
     0
177
     0
178
     0
270
     2
271
     2
272
     2
273
     2
274
     3
340
11
275
     0
280
     0
281
     0
282
     0
283
     0
284
     8
285
     0
286
     0
287
     3
288
     0
  0
DIMSTYLE
105
323
330
A
100
AcDbSymbolTableRecord
100
AcDbDimStyleTableRecord
  2
STANDARD
 70
     0
  3

  4

  5

  6

  7

 40
1.0
 41
3.5
 42
1.5
 43
7.0
 44
1.5
 45
0.0
 46
0.0
 47
0.1
 48
0.0
140
3.6
141
-1.0
142
0.0
143
25.4
144
1.0
145
0.0
146
1.0
147
1.5
 71
     0
 72
     0
 73
     0
 74
     0
 75
     0
 76
     0
 77
     1
 78
     0
170
     0
171
     2
172
     0
173
     0
174
     0
175
     0
176
     0
177
     0
178
     0
270
     2
271
     2
272
     4
273
     2
274
     2
340
11
275
     0
280
     0
281
     0
282
     0
283
     1
284
     0
285
     0
286
     0
287
     3
288
     0
  0
ENDTAB
  0
TABLE
  2
BLOCK_RECORD
  5
1
330
0
100
AcDbSymbolTable
 70
    40
  0
BLOCK_RECORD
  5
1F
330
1
100
AcDbSymbolTableRecord
100
AcDbBlockTableRecord
  2
*MODEL_SPACE
  0
BLOCK_RECORD
  5
1B
330
1
100
AcDbSymbolTableRecord
100
AcDbBlockTableRecord
  2
*PAPER_SPACE
  0
BLOCK_RECORD
  5
23
330
1
100
AcDbSymbolTableRecord
100
AcDbBlockTableRecord
  2
*PAPER_SPACE0
  0
BLOCK_RECORD
  5
14E
330
1
100
AcDbSymbolTableRecord
100
AcDbBlockTableRecord
  2
SW_NOTE_0
  0
BLOCK_RECORD
  5
591
330
1
100
AcDbSymbolTableRecord
100
AcDbBlockTableRecord
  2
SW_CENTERMARKSYMBOL_0
  0
BLOCK_RECORD
  5
707
330
1
100
AcDbSymbolTableRecord
100
AcDbBlockTableRecord
  2
_NONE
  0
BLOCK_RECORD
  5
B0C
330
1
100
AcDbSymbolTableRecord
100
AcDbBlockTableRecord
  2
*D30
  0
BLOCK_RECORD
  5
B1B
330
1
100
AcDbSymbolTableRecord
100
AcDbBlockTableRecord
  2
*D31
  0
BLOCK_RECORD
  5
B2A
330
1
100
AcDbSymbolTableRecord
100
AcDbBlockTableRecord
  2
*D32
  0
BLOCK_RECORD
  5
B39
330
1
100
AcDbSymbolTableRecord
100
AcDbBlockTableRecord
  2
*D33
  0
BLOCK_RECORD
  5
B5F
330
1
100
AcDbSymbolTableRecord
100
AcDbBlockTableRecord
  2
*D35
  0
BLOCK_RECORD
  5
B71
330
1
100
AcDbSymbolTableRecord
100
AcDbBlockTableRecord
  2
*D36
  0
BLOCK_RECORD
  5
B8F
330
1
100
AcDbSymbolTableRecord
100
AcDbBlockTableRecord
  2
*D38
  0
BLOCK_RECORD
  5
120D
330
1
100
AcDbSymbolTableRecord
100
AcDbBlockTableRecord
  2
*D39
  0
ENDTAB
  0
ENDSEC
  0
SECTION
  2
BLOCKS
  0
BLOCK
  5
20
330
1F
100
AcDbEntity
  8
0
100
AcDbBlockBegin
  2
*MODEL_SPACE
 70
     0
 10
0.0
 20
0.0
 30
0.0
  3
*MODEL_SPACE
  1

  0
ENDBLK
  5
21
330
1F
100
AcDbEntity
  8
0
100
AcDbBlockEnd
  0
BLOCK
  5
1C
330
1B
100
AcDbEntity
 67
     1
  8
0
100
AcDbBlockBegin
  2
*PAPER_SPACE
 70
     0
 10
0.0
 20
0.0
 30
0.0
  3
*PAPER_SPACE
  1

  0
ENDBLK
  5
1D
330
1B
100
AcDbEntity
 67
     1
  8
0
100
AcDbBlockEnd
  0
BLOCK
  5
24
330
23
100
AcDbEntity
  8
0
100
AcDbBlockBegin
  2
*PAPER_SPACE0
 70
     0
 10
0.0
 20
0.0
 30
0.0
  3
*PAPER_SPACE0
  1
*PAPER_SPACE0
  0
ENDBLK
  5
25
330
23
100
AcDbEntity
  8
0
100
AcDbBlockEnd
  0
BLOCK
  5
14F
330
14E
100
AcDbEntity
  8
0
100
AcDbBlockBegin
  2
SW_NOTE_0
 70
     0
 10
0.0
 20
0.0
 30
0.0
  3
SW_NOTE_0
  1
SW_NOTE_0
  0
MTEXT
  5
151
330
14E
100
AcDbEntity
  8
0
  6
CONTINUOUS
 62
     0
100
AcDbMText
 10
0.0
 20
3.867203219315898
 30
0.0
 40
3.0
 41
0.0
 71
     1
 72
     1
  1
%%p
  7
SLDTEXTSTYLE2
  0
MTEXT
  5
152
330
14E
100
AcDbEntity
  8
0
  6
CONTINUOUS
 62
     0
100
AcDbMText
 10
2.762499963864684
 20
3.867203219315898
 30
0.0
 40
3.0
 41
0.0
 71
     1
 72
     1
  1
0,03
  7
SLDTEXTSTYLE2
  0
ENDBLK
  5
150
330
14E
100
AcDbEntity
  8
0
100
AcDbBlockEnd
  0
BLOCK
  5
592
330
591
100
AcDbEntity
  8
0
100
AcDbBlockBegin
  2
SW_CENTERMARKSYMBOL_0
 70
     0
 10
0.0
 20
0.0
 30
0.0
  3
SW_CENTERMARKSYMBOL_0
  1
SW_CENTERMARKSYMBOL_0
  0
LINE
  5
593
330
591
100
AcDbEntity
  8
0
  6
CONTINUOUS
 62
     0
100
AcDbLine
 10
0.0
 20
0.0
 30
0.0
 11
0.0
 21
2.500000000000002
 31
0.0
  0
LINE
  5
594
330
591
100
AcDbEntity
  8
0
  6
CONTINUOUS
 62
     0
100
AcDbLine
 10
0.0
 20
0.0
 30
0.0
 11
-2.500000000000002
 21
0.0
 31
0.0
  0
LINE
  5
595
330
591
100
AcDbEntity
  8
0
  6
CONTINUOUS
 62
     0
100
AcDbLine
 10
0.0
 20
0.0
 30
0.0
 11
0.0
 21
-2.500000000000002
 31
0.0
  0
LINE
  5
596
330
591
100
AcDbEntity
  8
0
  6
CONTINUOUS
 62
     0
100
AcDbLine
 10
0.0
 20
0.0
 30
0.0
 11
2.500000000000002
 21
0.0
 31
0.0
  0
LINE
  5
597
330
591
100
AcDbEntity
  8
0
  6
CONTINUOUS
 62
     0
100
AcDbLine
 10
0.0
 20
2.500000000000002
 30
0.0
 11
0.0
 21
3.500000000000003
 31
0.0
  0
LINE
  5
598
330
591
100
AcDbEntity
  8
0
  6
CONTINUOUS
 62
     0
100
AcDbLine
 10
-2.500000000000002
 20
0.0
 30
0.0
 11
-3.500000000000003
 21
0.0
 31
0.0
  0
LINE
  5
599
330
591
100
AcDbEntity
  8
0
  6
CONTINUOUS
 62
     0
100
AcDbLine
 10
0.0
 20
-2.500000000000002
 30
0.0
 11
0.0
 21
-3.500000000000003
 31
0.0
  0
LINE
  5
59A
330
591
100
AcDbEntity
  8
0
  6
CONTINUOUS
 62
     0
100
AcDbLine
 10
2.500000000000002
 20
0.0
 30
0.0
 11
3.500000000000003
 21
0.0
 31
0.0
  0
ENDBLK
  5
59B
330
591
100
AcDbEntity
  8
0
100
AcDbBlockEnd
  0
BLOCK
  5
708
330
707
100
AcDbEntity
  8
0
100
AcDbBlockBegin
  2
_NONE
 70
     0
 10
0.0
 20
0.0
 30
0.0
  3
_NONE
  1
_NONE
  0
ENDBLK
  5
709
330
707
100
AcDbEntity
  8
0
100
AcDbBlockEnd
  0
BLOCK
  5
B0D
330
B0C
100
AcDbEntity
  8
0
100
AcDbBlockBegin
  2
*D30
 70
     1
 10
0.0
 20
0.0
 30
0.0
  3
*D30
  1
*D30
  0
LINE
  5
B0F
330
B0C
100
AcDbEntity
  8
WY
 62
     0
100
AcDbLine
 10
52.66997978613827
 20
133.3996958139664
 30
0.0
 11
52.66997978613827
 21
106.641677154455
 31
0.0
  0
LINE
  5
B10
330
B0C
100
AcDbEntity
  8
WY
 62
     0
100
AcDbLine
 10
151.3999646209285
 20
133.3996958139664
 30
0.0
 11
151.3999646209285
 21
106.641677154455
 31
0.0
  0
LINE
  5
B11
330
B0C
100
AcDbEntity
  8
WY
 62
     0
100
AcDbLine
 10
54.66997978613827
 20
107.641677154455
 30
0.0
 11
149.3999646209285
 21
107.641677154455
 31
0.0
  0
SOLID
  5
B12
330
B0C
100
AcDbEntity
  8
WY
 62
     0
100
AcDbTrace
 10
54.66997978613827
 20
107.9750104877883
 30
0.0
 11
54.66997978613827
 21
107.3083438211217
 31
0.0
 12
52.66997978613827
 22
107.641677154455
 32
0.0
 13
52.66997978613827
 23
107.641677154455
 33
0.0
  0
SOLID
  5
B13
330
B0C
100
AcDbEntity
  8
WY
 62
     0
100
AcDbTrace
 10
149.3999646209285
 20
107.3083438211217
 30
0.0
 11
149.3999646209285
 21
107.9750104877883
 31
0.0
 12
151.3999646209285
 22
107.641677154455
 32
0.0
 13
151.3999646209285
 23
107.641677154455
 33
0.0
  0
MTEXT
  5
B14
330
B0C
100
AcDbEntity
  8
WY
 62
     0
100
AcDbMText
 10
102.0349722035334
 20
109.641677154455
 30
0.0
 40
2.0
 41
0.0
 71
     5
 72
     1
  1
98.7
  0
POINT
  5
B15
330
B0C
100
AcDbEntity
  8
DEFPOINTS
 62
     0
100
AcDbPoint
 10
52.66997978613827
 20
134.3996958139664
 30
0.0
  0
POINT
  5
B16
330
B0C
100
AcDbEntity
  8
DEFPOINTS
 62
     0
100
AcDbPoint
 10
151.3999646209285
 20
134.3996958139664
 30
0.0
  0
POINT
  5
B17
330
B0C
100
AcDbEntity
  8
DEFPOINTS
 62
     0
100
AcDbPoint
 10
151.3999646209285
 20
107.641677154455
 30
0.0
  0
ENDBLK
  5
B0E
330
B0C
100
AcDbEntity
  8
0
100
AcDbBlockEnd
  0
BLOCK
  5
B1C
330
B1B
100
AcDbEntity
  8
0
100
AcDbBlockBegin
  2
*D31
 70
     1
 10
0.0
 20
0.0
 30
0.0
  3
*D31
  1
*D31
  0
LINE
  5
B1E
330
B1B
100
AcDbEntity
  8
WY
 62
     0
100
AcDbLine
 10
84.33497153745148
 20
129.8996980342395
 30
0.0
 11
84.33497153745148
 21
118.2636100342161
 31
0.0
  0
LINE
  5
B1F
330
B1B
100
AcDbEntity
  8
WY
 62
     0
100
AcDbLine
 10
119.7349672816798
 20
129.8996980342395
 30
0.0
 11
119.7349672816798
 21
118.2636100342161
 31
0.0
  0
LINE
  5
B20
330
B1B
100
AcDbEntity
  8
WY
 62
     0
100
AcDbLine
 10
86.33497153745148
 20
119.2636100342161
 30
0.0
 11
117.7349672816798
 21
119.2636100342161
 31
0.0
  0
SOLID
  5
B21
330
B1B
100
AcDbEntity
  8
WY
 62
     0
100
AcDbTrace
 10
86.33497153745148
 20
119.5969433675494
 30
0.0
 11
86.33497153745148
 21
118.9302767008828
 31
0.0
 12
84.33497153745148
 22
119.2636100342161
 32
0.0
 13
84.33497153745148
 23
119.2636100342161
 33
0.0
  0
SOLID
  5
B22
330
B1B
100
AcDbEntity
  8
WY
 62
     0
100
AcDbTrace
 10
117.7349672816798
 20
118.9302767008828
 30
0.0
 11
117.7349672816798
 21
119.5969433675494
 31
0.0
 12
119.7349672816798
 22
119.2636100342161
 32
0.0
 13
119.7349672816798
 23
119.2636100342161
 33
0.0
  0
MTEXT
  5
B23
330
B1B
100
AcDbEntity
  8
WY
 62
     0
100
AcDbMText
 10
102.0349694095657
 20
121.2636100342161
 30
0.0
 40
2.0
 41
0.0
 71
     5
 72
     1
  1
35.4
  0
POINT
  5
B24
330
B1B
100
AcDbEntity
  8
DEFPOINTS
 62
     0
100
AcDbPoint
 10
84.33497153745148
 20
130.8996980342395
 30
0.0
  0
POINT
  5
B25
330
B1B
100
AcDbEntity
  8
DEFPOINTS
 62
     0
100
AcDbPoint
 10
119.7349672816798
 20
130.8996980342395
 30
0.0
  0
POINT
  5
B26
330
B1B
100
AcDbEntity
  8
DEFPOINTS
 62
     0
100
AcDbPoint
 10
119.7349672816798
 20
119.2636100342161
 30
0.0
  0
ENDBLK
  5
B1D
330
B1B
100
AcDbEntity
  8
0
100
AcDbBlockEnd
  0
BLOCK
  5
B2B
330
B2A
100
AcDbEntity
  8
0
100
AcDbBlockBegin
  2
*D32
 70
     1
 10
0.0
 20
0.0
 30
0.0
  3
*D32
  1
*D32
  0
LINE
  5
B2D
330
B2A
100
AcDbEntity
  8
WY
 62
     0
100
AcDbLine
 10
57.03497040866725
 20
130.0996965024001
 30
0.0
 11
57.03497040866725
 21
112.7166507728346
 31
0.0
  0
LINE
  5
B2E
330
B2A
100
AcDbEntity
  8
WY
 62
     0
100
AcDbLine
 10
147.0349674724147
 20
129.8996980342395
 30
0.0
 11
147.0349674724147
 21
112.7166507728346
 31
0.0
  0
LINE
  5
B2F
330
B2A
100
AcDbEntity
  8
WY
 62
     0
100
AcDbLine
 10
59.03497040866725
 20
113.7166507728346
 30
0.0
 11
145.0349674724147
 21
113.7166507728346
 31
0.0
  0
SOLID
  5
B30
330
B2A
100
AcDbEntity
  8
WY
 62
     0
100
AcDbTrace
 10
59.03497040866725
 20
114.0499841061679
 30
0.0
 11
59.03497040866725
 21
113.3833174395013
 31
0.0
 12
57.03497040866725
 22
113.7166507728346
 32
0.0
 13
57.03497040866725
 23
113.7166507728346
 33
0.0
  0
SOLID
  5
B31
330
B2A
100
AcDbEntity
  8
WY
 62
     0
100
AcDbTrace
 10
145.0349674724147
 20
113.3833174395013
 30
0.0
 11
145.0349674724147
 21
114.0499841061679
 31
0.0
 12
147.0349674724147
 22
113.7166507728346
 32
0.0
 13
147.0349674724147
 23
113.7166507728346
 33
0.0
  0
MTEXT
  5
B32
330
B2A
100
AcDbEntity
  8
WY
 62
     0
100
AcDbMText
 10
102.034968940541
 20
115.7166507728346
 30
0.0
 40
2.0
 41
0.0
 71
     5
 72
     1
  1
90
  0
POINT
  5
B33
330
B2A
100
AcDbEntity
  8
DEFPOINTS
 62
     0
100
AcDbPoint
 10
57.03497040866725
 20
131.0996965024001
 30
0.0
  0
POINT
  5
B34
330
B2A
100
AcDbEntity
  8
DEFPOINTS
 62
     0
100
AcDbPoint
 10
147.0349674724147
 20
130.8996980342395
 30
0.0
  0
POINT
  5
B35
330
B2A
100
AcDbEntity
  8
DEFPOINTS
 62
     0
100
AcDbPoint
 10
147.0349674724147
 20
113.7166507728346
 30
0.0
  0
ENDBLK
  5
B2C
330
B2A
100
AcDbEntity
  8
0
100
AcDbBlockEnd
  0
BLOCK
  5
B3A
330
B39
100
AcDbEntity
  8
0
100
AcDbBlockBegin
  2
*D33
 70
     1
 10
0.0
 20
0.0
 30
0.0
  3
*D33
  1
*D33
  0
LINE
  5
B3C
330
B39
100
AcDbEntity
  8
WY
 62
     0
100
AcDbLine
 10
134.3071609638736
 20
178.3996965068704
 30
0.0
 11
161.1343538693603
 21
178.3996965068704
 31
0.0
  0
LINE
  5
B3D
330
B39
100
AcDbEntity
  8
WY
 62
     0
100
AcDbLine
 10
152.3999646209285
 20
134.3996958139664
 30
0.0
 11
161.1343538693603
 21
134.3996958139664
 31
0.0
  0
LINE
  5
B3E
330
B39
100
AcDbEntity
  8
WY
 62
     0
100
AcDbLine
 10
160.1343538693603
 20
176.3996965068704
 30
0.0
 11
160.1343538693603
 21
136.3996958139664
 31
0.0
  0
SOLID
  5
B3F
330
B39
100
AcDbEntity
  8
WY
 62
     0
100
AcDbTrace
 10
160.4676872026937
 20
176.3996965068704
 30
0.0
 11
159.801020536027
 21
176.3996965068704
 31
0.0
 12
160.1343538693603
 22
178.3996965068704
 32
0.0
 13
160.1343538693603
 23
178.3996965068704
 33
0.0
  0
SOLID
  5
B40
330
B39
100
AcDbEntity
  8
WY
 62
     0
100
AcDbTrace
 10
159.801020536027
 20
136.3996958139664
 30
0.0
 11
160.4676872026937
 21
136.3996958139664
 31
0.0
 12
160.1343538693603
 22
134.3996958139664
 32
0.0
 13
160.1343538693603
 23
134.3996958139664
 33
0.0
  0
MTEXT
  5
B41
330
B39
100
AcDbEntity
  8
WY
 62
     0
100
AcDbMText
 10
158.1343538693603
 20
156.3996961604184
 30
0.0
 40
2.0
 41
0.0
 71
     5
 72
     1
  1
44
 11
0.0
 21
1.0
 31
0.0
  0
POINT
  5
B42
330
B39
100
AcDbEntity
  8
DEFPOINTS
 62
     0
100
AcDbPoint
 10
133.3071609638736
 20
178.3996965068704
 30
0.0
  0
POINT
  5
B43
330
B39
100
AcDbEntity
  8
DEFPOINTS
 62
     0
100
AcDbPoint
 10
151.3999646209285
 20
134.3996958139664
 30
0.0
  0
POINT
  5
B44
330
B39
100
AcDbEntity
  8
DEFPOINTS
 62
     0
100
AcDbPoint
 10
160.1343538693603
 20
134.3996958139664
 30
0.0
  0
ENDBLK
  5
B3B
330
B39
100
AcDbEntity
  8
0
100
AcDbBlockEnd
  0
BLOCK
  5
B60
330
B5F
100
AcDbEntity
  8
0
100
AcDbBlockBegin
  2
*D35
 70
     1
 10
0.0
 20
0.0
 30
0.0
  3
*D35
  1
*D35
  0
LINE
  5
B62
330
B5F
100
AcDbEntity
  8
WY
 62
     0
100
AcDbLine
 10
148.0349674724147
 20
130.8996980342395
 30
0.0
 11
161.1343538693603
 21
130.8996980342395
 31
0.0
  0
LINE
  5
B63
330
B5F
100
AcDbEntity
  8
WY
 62
     0
100
AcDbLine
 10
152.3999646209285
 20
134.3996958139664
 30
0.0
 11
161.1343538693603
 21
134.3996958139664
 31
0.0
  0
LINE
  5
B64
330
B5F
100
AcDbEntity
  8
WY
 62
     0
100
AcDbLine
 10
160.1343538693603
 20
130.8996980342395
 30
0.0
 11
160.1343538693603
 21
120.8996980342395
 31
0.0
  0
LINE
  5
B65
330
B5F
100
AcDbEntity
  8
WY
 62
     0
100
AcDbLine
 10
160.1343538693603
 20
130.8996980342395
 30
0.0
 11
160.1343538693603
 21
134.3996958139664
 31
0.0
  0
LINE
  5
B66
330
B5F
100
AcDbEntity
  8
WY
 62
     0
100
AcDbLine
 10
160.1343538693603
 20
128.8996980342395
 30
0.0
 11
160.1343538693603
 21
126.8996980342395
 31
0.0
  0
LINE
  5
B67
330
B5F
100
AcDbEntity
  8
WY
 62
     0
100
AcDbLine
 10
160.1343538693603
 20
136.3996958139664
 30
0.0
 11
160.1343538693603
 21
138.3996958139664
 31
0.0
  0
SOLID
  5
B68
330
B5F
100
AcDbEntity
  8
WY
 62
     0
100
AcDbTrace
 10
160.4676872026937
 20
128.8996980342395
 30
0.0
 11
159.801020536027
 21
128.8996980342395
 31
0.0
 12
160.1343538693603
 22
130.8996980342395
 32
0.0
 13
160.1343538693603
 23
130.8996980342395
 33
0.0
  0
SOLID
  5
B69
330
B5F
100
AcDbEntity
  8
WY
 62
     0
100
AcDbTrace
 10
159.801020536027
 20
136.3996958139664
 30
0.0
 11
160.4676872026937
 21
136.3996958139664
 31
0.0
 12
160.1343538693603
 22
134.3996958139664
 32
0.0
 13
160.1343538693603
 23
134.3996958139664
 33
0.0
  0
MTEXT
  5
B6A
330
B5F
100
AcDbEntity
  8
WY
 62
     0
100
AcDbMText
 10
158.1343538693603
 20
123.8996980342395
 30
0.0
 40
2.0
 41
0.0
 71
     5
 72
     1
  1
3.5
 11
0.0
 21
1.0
 31
0.0
  0
POINT
  5
B6B
330
B5F
100
AcDbEntity
  8
DEFPOINTS
 62
     0
100
AcDbPoint
 10
147.0349674724147
 20
130.8996980342395
 30
0.0
  0
POINT
  5
B6C
330
B5F
100
AcDbEntity
  8
DEFPOINTS
 62
     0
100
AcDbPoint
 10
151.3999646209285
 20
134.3996958139664
 30
0.0
  0
POINT
  5
B6D
330
B5F
100
AcDbEntity
  8
DEFPOINTS
 62
     0
100
AcDbPoint
 10
160.1343538693603
 20
134.3996958139664
 30
0.0
  0
ENDBLK
  5
B61
330
B5F
100
AcDbEntity
  8
0
100
AcDbBlockEnd
  0
BLOCK
  5
B72
330
B71
100
AcDbEntity
  8
0
100
AcDbBlockBegin
  2
*D36
 70
     1
 10
0.0
 20
0.0
 30
0.0
  3
*D36
  1
*D36
  0
LINE
  5
B74
330
B71
100
AcDbEntity
  8
WY
 62
     0
100
AcDbLine
 10
120.6349730394885
 20
194.4096987399584
 30
0.0
 11
166.4921762219647
 21
194.4096987399584
 31
0.0
  0
LINE
  5
B75
330
B71
100
AcDbEntity
  8
WY
 62
     0
100
AcDbLine
 10
148.0349674724147
 20
130.8996980342395
 30
0.0
 11
166.4921762219647
 21
130.8996980342395
 31
0.0
  0
LINE
  5
B76
330
B71
100
AcDbEntity
  8
WY
 62
     0
100
AcDbLine
 10
165.4921762219647
 20
192.4096987399584
 30
0.0
 11
165.4921762219647
 21
132.8996980342395
 31
0.0
  0
SOLID
  5
B77
330
B71
100
AcDbEntity
  8
WY
 62
     0
100
AcDbTrace
 10
165.8255095552981
 20
192.4096987399584
 30
0.0
 11
165.1588428886314
 21
192.4096987399584
 31
0.0
 12
165.4921762219647
 22
194.4096987399584
 32
0.0
 13
165.4921762219647
 23
194.4096987399584
 33
0.0
  0
SOLID
  5
B78
330
B71
100
AcDbEntity
  8
WY
 62
     0
100
AcDbTrace
 10
165.1588428886314
 20
132.8996980342395
 30
0.0
 11
165.8255095552981
 21
132.8996980342395
 31
0.0
 12
165.4921762219647
 22
130.8996980342395
 32
0.0
 13
165.4921762219647
 23
130.8996980342395
 33
0.0
  0
MTEXT
  5
B79
330
B71
100
AcDbEntity
  8
WY
 62
     0
100
AcDbMText
 10
163.4921762219647
 20
162.6546983870989
 30
0.0
 40
2.0
 41
0.0
 71
     5
 72
     1
  1
63.5
 11
0.0
 21
1.0
 31
0.0
  0
POINT
  5
B7A
330
B71
100
AcDbEntity
  8
DEFPOINTS
 62
     0
100
AcDbPoint
 10
119.6349730394885
 20
194.4096987399584
 30
0.0
  0
POINT
  5
B7B
330
B71
100
AcDbEntity
  8
DEFPOINTS
 62
     0
100
AcDbPoint
 10
147.0349674724147
 20
130.8996980342395
 30
0.0
  0
POINT
  5
B7C
330
B71
100
AcDbEntity
  8
DEFPOINTS
 62
     0
100
AcDbPoint
 10
165.4921762219647
 20
130.8996980342395
 30
0.0
  0
ENDBLK
  5
B73
330
B71
100
AcDbEntity
  8
0
100
AcDbBlockEnd
  0
BLOCK
  5
B90
330
B8F
100
AcDbEntity
  8
0
100
AcDbBlockBegin
  2
*D38
 70
     1
 10
0.0
 20
0.0
 30
0.0
  3
*D38
  1
*D38
  0
LINE
  5
B92
330
B8F
100
AcDbEntity
  8
WY
 62
     0
100
AcDbLine
 10
147.8349704086673
 20
87.32051937790578
 30
0.0
 11
165.2534726632975
 21
87.32051937790578
 31
0.0
  0
LINE
  5
B93
330
B8F
100
AcDbEntity
  8
WY
 62
     0
100
AcDbLine
 10
147.8349704086673
 20
69.82051937790577
 30
0.0
 11
165.2534726632975
 21
69.82051937790577
 31
0.0
  0
LINE
  5
B94
330
B8F
100
AcDbEntity
  8
WY
 62
     0
100
AcDbLine
 10
164.2534726632975
 20
85.32051937790578
 30
0.0
 11
164.2534726632975
 21
71.82051937790577
 31
0.0
  0
SOLID
  5
B95
330
B8F
100
AcDbEntity
  8
WY
 62
     0
100
AcDbTrace
 10
164.5868059966308
 20
85.32051937790578
 30
0.0
 11
163.9201393299641
 21
85.32051937790578
 31
0.0
 12
164.2534726632975
 22
87.32051937790578
 32
0.0
 13
164.2534726632975
 23
87.32051937790578
 33
0.0
  0
SOLID
  5
B96
330
B8F
100
AcDbEntity
  8
WY
 62
     0
100
AcDbTrace
 10
163.9201393299641
 20
71.82051937790577
 30
0.0
 11
164.5868059966308
 21
71.82051937790577
 31
0.0
 12
164.2534726632975
 22
69.82051937790577
 32
0.0
 13
164.2534726632975
 23
69.82051937790577
 33
0.0
  0
MTEXT
  5
B97
330
B8F
100
AcDbEntity
  8
WY
 62
     0
100
AcDbMText
 10
162.2534726632975
 20
78.57051937790578
 30
0.0
 40
2.0
 41
0.0
 71
     5
 72
     1
  1
17.5
 11
0.0
 21
1.0
 31
0.0
  0
POINT
  5
B98
330
B8F
100
AcDbEntity
  8
DEFPOINTS
 62
     0
100
AcDbPoint
 10
146.8349704086673
 20
87.32051937790578
 30
0.0
  0
POINT
  5
B99
330
B8F
100
AcDbEntity
  8
DEFPOINTS
 62
     0
100
AcDbPoint
 10
146.8349704086673
 20
69.82051937790577
 30
0.0
  0
POINT
  5
B9A
330
B8F
100
AcDbEntity
  8
DEFPOINTS
 62
     0
100
AcDbPoint
 10
164.2534726632975
 20
69.82051937790577
 30
0.0
  0
ENDBLK
  5
B91
330
B8F
100
AcDbEntity
  8
0
100
AcDbBlockEnd
  0
BLOCK
  5
120E
330
120D
100
AcDbEntity
  8
0
100
AcDbBlockBegin
  2
*D39
 70
     1
 10
0.0
 20
0.0
 30
0.0
  3
*D39
  1
*D39
  0
LINE
  5
1210
330
120D
100
AcDbEntity
  8
WY
 62
     0
100
AcDbLine
 10
79.5349704086673
 20
194.2996965024001
 30
0.0
 11
79.5349704086673
 21
209.6511776812183
 31
0.0
  0
LINE
  5
1211
330
120D
100
AcDbEntity
  8
WY
 62
     0
100
AcDbLine
 10
124.5349740289256
 20
194.2996963414676
 30
0.0
 11
124.5349740289256
 21
209.6511776812183
 31
0.0
  0
LINE
  5
1212
330
120D
100
AcDbEntity
  8
WY
 62
     0
100
AcDbLine
 10
81.5349704086673
 20
208.6511776812183
 30
0.0
 11
122.5349740289256
 21
208.6511776812183
 31
0.0
  0
SOLID
  5
1213
330
120D
100
AcDbEntity
  8
WY
 62
     0
100
AcDbTrace
 10
81.5349704086673
 20
208.9845110145516
 30
0.0
 11
81.5349704086673
 21
208.3178443478849
 31
0.0
 12
79.5349704086673
 22
208.6511776812183
 32
0.0
 13
79.5349704086673
 23
208.6511776812183
 33
0.0
  0
SOLID
  5
1214
330
120D
100
AcDbEntity
  8
WY
 62
     0
100
AcDbTrace
 10
122.5349740289256
 20
208.3178443478849
 30
0.0
 11
122.5349740289256
 21
208.9845110145516
 31
0.0
 12
124.5349740289256
 22
208.6511776812183
 32
0.0
 13
124.5349740289256
 23
208.6511776812183
 33
0.0
  0
MTEXT
  5
1215
330
120D
100
AcDbEntity
  8
WY
 62
     0
100
AcDbMText
 10
102.0349722187965
 20
210.6511776812183
 30
0.0
 40
2.0
 41
0.0
 71
     5
 72
     1
  1
45
  0
POINT
  5
1216
330
120D
100
AcDbEntity
  8
DEFPOINTS
 62
     0
100
AcDbPoint
 10
79.5349704086673
 20
193.2996965024001
 30
0.0
  0
POINT
  5
1217
330
120D
100
AcDbEntity
  8
DEFPOINTS
 62
     0
100
AcDbPoint
 10
124.5349740289256
 20
193.2996963414676
 30
0.0
  0
POINT
  5
1218
330
120D
100
AcDbEntity
  8
DEFPOINTS
 62
     0
100
AcDbPoint
 10
124.5349740289256
 20
208.6511776812183
 30
0.0
  0
ENDBLK
  5
120F
330
120D
100
AcDbEntity
  8
0
100
AcDbBlockEnd
  0
ENDSEC
  0
SECTION
  2
ENTITIES
  0
LINE
  5
43F
330
1F
100
AcDbEntity
  8
WYMIARY
 62
     6
100
AcDbLine
 10
0.0
 20
0.0
 30
0.0
 11
0.0
 21
297.0
 31
0.0
  0
LINE
  5
440
330
1F
100
AcDbEntity
  8
WYMIARY
 62
     6
100
AcDbLine
 10
11.63040699999999
 20
292.0
 30
0.0
 11
11.63040699999999
 21
4.999999999999999
 31
0.0
  0
LINE
  5
441
330
1F
100
AcDbEntity
  8
2
100
AcDbLine
 10
196.630407
 20
4.999999999999999
 30
0.0
 11
196.630407
 21
292.0
 31
0.0
  0
LINE
  5
442
330
1F
100
AcDbEntity
  8
2
100
AcDbLine
 10
201.630407
 20
0.0
 30
0.0
 11
201.630407
 21
297.0
 31
0.0
  0
LINE
  5
443
330
1F
100
AcDbEntity
  8
WY
  6
CONTINUOUS
 62
     3
100
AcDbLine
 10
196.630407
 20
19.689837
 30
0.0
 11
11.63040699999999
 21
19.689837
 31
0.0
  0
LINE
  5
444
330
1F
100
AcDbEntity
  8
2
100
AcDbLine
 10
11.63040699999999
 20
4.999999999999999
 30
0.0
 11
196.630407
 21
4.999999999999999
 31
0.0
  0
LINE
  5
445
330
1F
100
AcDbEntity
  8
2
 62
     6
100
AcDbLine
 10
11.63040699999999
 20
0.0
 30
0.0
 11
201.630407
 21
0.0
 31
0.0
  0
LINE
  5
446
330
1F
100
AcDbEntity
  8
0
100
AcDbLine
 10
43.65642300000002
 20
11.742481
 30
0.0
 11
42.75401199999999
 21
11.742481
 31
0.0
  0
ELLIPSE
  5
447
330
1F
100
AcDbEntity
  8
0
100
AcDbEllipse
 10
43.65642300000002
 20
11.742481
 30
0.0
 11
-1.203215696869327
 21
1.967000000000000E-13
 31
0.0
210
0.0
220
0.0
230
1.0
 40
0.958812
 41
-1.570796326794739
 42
0.0000000000001705
  0
TEXT
  5
448
330
1F
100
AcDbEntity
  8
1
100
AcDbText
 10
29.56633399999998
 20
8.797457000000001
 30
0.0
 40
5.0
  1
A4
 51
15.0
  7
ITALIC
100
AcDbText
  0
LINE
  5
449
330
1F
100
AcDbEntity
  8
WYMIARY
 62
     6
100
AcDbLine
 10
11.63040699999999
 20
0.0
 30
0.0
 11
0.0
 21
0.0
 31
0.0
  0
TEXT
  5
44A
330
1F
100
AcDbEntity
  8
WY
100
AcDbText
 10
16.89552099999997
 20
16.373844
 30
0.0
 40
1.999999999999999
  1
Skala
 41
1.0
 51
15.0
  7
ITALIC
100
AcDbText
  0
TEXT
  5
44B
330
1F
100
AcDbEntity
  8
WY
100
AcDbText
 10
29.00097500000004
 20
16.329369
 30
0.0
 40
1.999999999999999
  1
Format
 41
1.0
 51
15.0
  7
ITALIC
100
AcDbText
  0
LINE
  5
44C
330
1F
100
AcDbEntity
  8
0
100
AcDbLine
 10
42.45320800000002
 20
11.742481
 30
0.0
 11
42.75401199999999
 21
11.742481
 31
0.0
  0
LINE
  5
44D
330
1F
100
AcDbEntity
  8
0
100
AcDbLine
 10
73.84597599999995
 20
17.211264
 30
0.0
 11
73.84597599999995
 21
9.015264000000002
 31
0.0
  0
LINE
  5
44E
330
1F
100
AcDbEntity
  8
0
100
AcDbLine
 10
64.85197600000004
 20
9.438264
 30
0.0
 11
64.85197600000004
 21
7.416264000000001
 31
0.0
  0
ARC
  5
44F
330
1F
100
AcDbEntity
  8
0
100
AcDbCircle
 10
65.50155600000005
 20
9.724764
 30
0.0
 40
0.709955
100
AcDbArc
 50
203.8000800000025
 51
272.0519180000003
  0
LINE
  5
450
330
1F
100
AcDbEntity
  8
0
100
AcDbLine
 10
63.30697599999996
 20
7.416264000000001
 30
0.0
 11
63.30697599999996
 21
15.612264
 31
0.0
  0
ARC
  5
451
330
1F
100
AcDbEntity
  8
0
100
AcDbCircle
 10
65.94088199999999
 20
10.136416
 30
0.0
 40
1.128907
100
AcDbArc
 50
276.7195760000022
 51
2.175193999999967
  0
ARC
  5
452
330
1F
100
AcDbEntity
  8
0
100
AcDbCircle
 10
69.20181500000001
 20
10.503572
 30
0.0
 40
1.488419
100
AcDbArc
 50
191.6342680000001
 51
270.699112999999
  0
ARC
  5
453
330
1F
100
AcDbEntity
  8
0
100
AcDbCircle
 10
70.168137
 20
10.503572
 30
0.0
 40
1.488419
100
AcDbArc
 50
269.300887000001
 51
348.3657319999999
  0
LINE
  5
454
330
1F
100
AcDbEntity
  8
0
100
AcDbLine
 10
72.30097599999999
 20
9.015264000000002
 30
0.0
 11
72.30097599999999
 21
17.211264
 31
0.0
  0
ARC
  5
455
330
1F
100
AcDbEntity
  8
0
100
AcDbCircle
 10
59.01534700000002
 20
10.472364
 30
0.0
 40
1.425319
100
AcDbArc
 50
269.7036710000015
 51
350.4651709999993
  0
ARC
  5
456
330
1F
100
AcDbEntity
  8
0
100
AcDbCircle
 10
58.16060400000003
 20
10.472364
 30
0.0
 40
1.425319
100
AcDbArc
 50
189.5348290000005
 51
270.2963289999985
  0
LINE
  5
457
330
1F
100
AcDbEntity
  8
0
100
AcDbLine
 10
61.10797600000001
 20
9.015264000000002
 30
0.0
 11
61.10797600000001
 21
17.211264
 31
0.0
  0
LINE
  5
458
330
1F
100
AcDbEntity
  8
0
100
AcDbLine
 10
62.65297599999997
 20
17.211264
 30
0.0
 11
62.65297599999997
 21
9.015264000000002
 31
0.0
  0
LINE
  5
459
330
1F
100
AcDbEntity
  8
0
100
AcDbLine
 10
53.85099200000002
 20
14.361264
 30
0.0
 11
53.86256500000002
 21
9.015264000000002
 31
0.0
  0
LINE
  5
45A
330
1F
100
AcDbEntity
  8
0
100
AcDbLine
 10
52.32045000000005
 20
9.015264000000002
 30
0.0
 11
52.32045000000005
 21
15.60367
 31
0.0
  0
LINE
  5
45B
330
1F
100
AcDbEntity
  8
0
100
AcDbLine
 10
43.65642300000002
 20
9.895061000000002
 30
0.0
 11
43.65642300000002
 21
8.185369000000001
 31
0.0
  0
LINE
  5
45C
330
1F
100
AcDbEntity
  8
0
100
AcDbLine
 10
49.57223399999998
 20
8.185369000000001
 30
0.0
 11
49.57223399999998
 21
11.742481
 31
0.0
  0
LINE
  5
45D
330
1F
100
AcDbEntity
  8
1
100
AcDbLine
 10
77.42861900000003
 20
4.999999999999999
 30
0.0
 11
77.42861900000003
 21
19.689837
 31
0.0
  0
LINE
  5
45E
330
1F
100
AcDbEntity
  8
0
100
AcDbLine
 10
44.45856700000002
 20
7.416263
 30
0.0
 11
48.77008999999998
 21
7.416263
 31
0.0
  0
ELLIPSE
  5
45F
330
1F
100
AcDbEntity
  8
0
100
AcDbEllipse
 10
44.45856700000002
 20
8.185369000000001
 30
0.0
 11
-0.8021437979128705
 21
1.540000000000000E-14
 31
0.0
210
0.0
220
0.0
230
1.0
 40
0.958812
 41
0.00000000000002
 42
1.570796326794914
  0
ELLIPSE
  5
460
330
1F
100
AcDbEntity
  8
0
100
AcDbEllipse
 10
48.77008999999998
 20
8.185369000000001
 30
0.0
 11
0.8021437979128704
 21
1.602000000000000E-13
 31
0.0
210
0.0
220
0.0
230
1.0
 40
0.958812
 41
4.712388980384497
 42
6.283185307179378
  0
LINE
  5
461
330
1F
100
AcDbEntity
  8
0
100
AcDbLine
 10
53.85099200000002
 20
9.015264000000002
 30
0.0
 11
53.86256500000002
 21
9.022759
 31
0.0
  0
LINE
  5
462
330
1F
100
AcDbEntity
  8
0
100
AcDbLine
 10
52.32045000000005
 20
9.015264000000002
 30
0.0
 11
53.86256500000002
 21
9.015264000000002
 31
0.0
  0
LINE
  5
463
330
1F
100
AcDbEntity
  8
0
100
AcDbLine
 10
58.153233
 20
9.047064000000002
 30
0.0
 11
59.00797599999999
 21
9.047064000000002
 31
0.0
  0
LINE
  5
464
330
1F
100
AcDbEntity
  8
0
100
AcDbLine
 10
64.85197600000004
 20
7.416264000000001
 30
0.0
 11
63.30697599999996
 21
7.416264000000001
 31
0.0
  0
LINE
  5
465
330
1F
100
AcDbEntity
  8
0
100
AcDbLine
 10
62.65297599999997
 20
9.015264000000002
 30
0.0
 11
61.10797600000001
 21
9.015264000000002
 31
0.0
  0
LINE
  5
466
330
1F
100
AcDbEntity
  8
0
100
AcDbLine
 10
65.53502200000003
 20
9.015264000000002
 30
0.0
 11
66.07297600000004
 21
9.015264000000002
 31
0.0
  0
LINE
  5
467
330
1F
100
AcDbEntity
  8
0
100
AcDbLine
 10
69.21997599999997
 20
9.015264000000002
 30
0.0
 11
70.14997600000004
 21
9.015264000000002
 31
0.0
  0
LINE
  5
468
330
1F
100
AcDbEntity
  8
0
100
AcDbLine
 10
73.84597599999995
 20
9.015264000000002
 30
0.0
 11
72.30097599999999
 21
9.015264000000002
 31
0.0
  0
ARC
  5
469
330
1F
100
AcDbEntity
  8
0
100
AcDbCircle
 10
59.01534700000002
 20
14.17837
 30
0.0
 40
1.425319
100
AcDbArc
 50
9.53482900000048
 51
90.29632899999848
  0
LINE
  5
46A
330
1F
100
AcDbEntity
  8
0
100
AcDbLine
 10
60.420976
 20
11.81167
 30
0.0
 11
58.29697599999997
 21
11.81167
 31
0.0
  0
LINE
  5
46B
330
1F
100
AcDbEntity
  8
0
100
AcDbLine
 10
58.97197600000004
 20
11.13667
 30
0.0
 11
60.420976
 21
11.13667
 31
0.0
  0
LINE
  5
46C
330
1F
100
AcDbEntity
  8
0
100
AcDbLine
 10
43.65642300000002
 20
13.461283
 30
0.0
 11
43.65642300000002
 21
16.260974
 31
0.0
  0
ELLIPSE
  5
46D
330
1F
100
AcDbEntity
  8
0
100
AcDbEllipse
 10
46.58926199999996
 20
15.17942
 30
0.0
 11
2.983077570132104
 21
2.996000000000000E-13
 31
0.0
210
0.0
220
0.0
230
1.0
 40
0.9588119999999999
 41
-1.562393163247347
 42
0.0084031635475457
  0
ELLIPSE
  5
46E
330
1F
100
AcDbEntity
  8
0
100
AcDbEllipse
 10
46.54608599999995
 20
15.509539
 30
0.0
 11
-4.072692107280919
 21
9.250000000000000E-14
 31
0.0
210
0.0
220
0.0
230
1.0
 40
0.958812
 41
1.587553347046634
 42
2.408388587343224
  0
LINE
  5
46F
330
1F
100
AcDbEntity
  8
0
100
AcDbLine
 10
43.65642300000002
 20
11.742481
 30
0.0
 11
43.65642300000002
 21
11.034514
 31
0.0
  0
LINE
  5
470
330
1F
100
AcDbEntity
  8
0
100
AcDbLine
 10
43.65642300000002
 20
13.461283
 30
0.0
 11
43.65642300000002
 21
12.896138
 31
0.0
  0
ELLIPSE
  5
471
330
1F
100
AcDbEntity
  8
0
100
AcDbEllipse
 10
46.20835399999999
 20
9.872487
 30
0.0
 11
2.960559210508897
 21
0.3570763225581005
 31
0.0
210
0.0
220
0.0
230
1.0
 40
0.820999
 41
1.335209029023201
 42
2.503032872947537
  0
ELLIPSE
  5
472
330
1F
100
AcDbEntity
  8
0
100
AcDbEllipse
 10
46.43885999999998
 20
8.937306
 30
0.0
 11
3.015746449176215
 21
0.7746519372140024
 31
0.0
210
0.0
220
0.0
230
1.0
 40
0.8467749999999999
 41
1.29973646820557
 42
2.479974117225238
  0
LINE
  5
473
330
1F
100
AcDbEntity
  8
0
100
AcDbLine
 10
50.77544999999998
 20
12.896138
 30
0.0
 11
50.47464600000001
 21
12.896138
 31
0.0
  0
LINE
  5
474
330
1F
100
AcDbEntity
  8
0
100
AcDbLine
 10
49.57223399999998
 20
12.896138
 30
0.0
 11
50.47464600000001
 21
12.896138
 31
0.0
  0
ELLIPSE
  5
475
330
1F
100
AcDbEntity
  8
0
100
AcDbEllipse
 10
49.57223399999998
 20
12.896138
 30
0.0
 11
1.203215696869352
 21
8.930000000000000E-14
 31
0.0
210
0.0
220
0.0
230
1.0
 40
0.9588119999999999
 41
4.712388980384611
 42
6.283185307179508
  0
LINE
  5
476
330
1F
100
AcDbEntity
  8
0
100
AcDbLine
 10
44.45856700000002
 20
17.030079
 30
0.0
 11
48.77008999999998
 21
17.030079
 31
0.0
  0
ELLIPSE
  5
477
330
1F
100
AcDbEntity
  8
0
100
AcDbEllipse
 10
44.45856700000002
 20
16.260974
 30
0.0
 11
0.8021437979128704
 21
3.800000000000000E-14
 31
0.0
210
0.0
220
0.0
230
1.0
 40
0.958812
 41
1.570796326794851
 42
3.141592653589743
  0
LINE
  5
478
330
1F
100
AcDbEntity
  8
0
100
AcDbLine
 10
49.57223399999998
 20
15.155385
 30
0.0
 11
49.57223399999998
 21
16.260974
 31
0.0
  0
ELLIPSE
  5
479
330
1F
100
AcDbEntity
  8
0
100
AcDbEllipse
 10
48.77008999999998
 20
16.260974
 30
0.0
 11
-0.8021437979128705
 21
3.800000000000000E-14
 31
0.0
210
0.0
220
0.0
230
1.0
 40
0.958812
 41
3.141592653589842
 42
4.712388980384734
  0
ARC
  5
47A
330
1F
100
AcDbEntity
  8
0
100
AcDbCircle
 10
54.75765000000001
 20
14.34127
 30
0.0
 40
1.377457
100
AcDbArc
 50
16.26506099999976
 51
130.5272989999999
  0
ARC
  5
47B
330
1F
100
AcDbEntity
  8
0
100
AcDbCircle
 10
58.16060400000003
 20
14.17837
 30
0.0
 40
1.425319
100
AcDbArc
 50
89.70367100000153
 51
170.4651709999995
  0
LINE
  5
47C
330
1F
100
AcDbEntity
  8
0
100
AcDbLine
 10
54.86990300000002
 20
12.93607
 30
0.0
 11
56.07997599999999
 21
12.93607
 31
0.0
  0
LINE
  5
47D
330
1F
100
AcDbEntity
  8
0
100
AcDbLine
 10
54.53756499999997
 20
12.93607
 30
0.0
 11
56.07997599999999
 21
12.93607
 31
0.0
  0
ARC
  5
47E
330
1F
100
AcDbEntity
  8
0
100
AcDbCircle
 10
54.188492
 20
14.361264
 30
0.0
 40
0.3375
100
AcDbArc
 50
0.0
 51
180.0
  0
LINE
  5
47F
330
1F
100
AcDbEntity
  8
0
100
AcDbLine
 10
54.52599199999997
 20
14.361264
 30
0.0
 11
54.53756499999997
 21
12.93607
 31
0.0
  0
ARC
  5
480
330
1F
100
AcDbEntity
  8
0
100
AcDbCircle
 10
58.63447599999995
 20
14.361264
 30
0.0
 40
0.3375
100
AcDbArc
 50
0.0
 51
180.0
  0
LINE
  5
481
330
1F
100
AcDbEntity
  8
0
100
AcDbLine
 10
58.29697599999997
 20
11.81167
 30
0.0
 11
58.29697599999997
 21
10.236264
 31
0.0
  0
LINE
  5
482
330
1F
100
AcDbEntity
  8
0
100
AcDbLine
 10
58.29697599999997
 20
12.71167
 30
0.0
 11
58.97197600000004
 21
12.71167
 31
0.0
  0
LINE
  5
483
330
1F
100
AcDbEntity
  8
0
100
AcDbLine
 10
58.97197600000004
 20
11.13667
 30
0.0
 11
58.97197600000004
 21
10.252764
 31
0.0
  0
LINE
  5
484
330
1F
100
AcDbEntity
  8
0
100
AcDbLine
 10
58.29697599999997
 20
11.81167
 30
0.0
 11
58.29697599999997
 21
10.252764
 31
0.0
  0
ARC
  5
485
330
1F
100
AcDbEntity
  8
0
100
AcDbCircle
 10
58.63447599999995
 20
10.252764
 30
0.0
 40
0.3375
100
AcDbArc
 50
180.0
 51
0.0
  0
LINE
  5
486
330
1F
100
AcDbEntity
  8
0
100
AcDbLine
 10
58.97197600000004
 20
14.361264
 30
0.0
 11
58.97197600000004
 21
12.71167
 31
0.0
  0
LINE
  5
487
330
1F
100
AcDbEntity
  8
0
100
AcDbLine
 10
58.29697599999997
 20
14.361264
 30
0.0
 11
58.29697599999997
 21
12.71167
 31
0.0
  0
LINE
  5
488
330
1F
100
AcDbEntity
  8
0
100
AcDbLine
 10
56.07997599999999
 20
12.93607
 30
0.0
 11
56.07997599999999
 21
14.72707
 31
0.0
  0
LINE
  5
489
330
1F
100
AcDbEntity
  8
0
100
AcDbLine
 10
56.75497599999994
 20
10.236264
 30
0.0
 11
56.75497599999994
 21
14.41447
 31
0.0
  0
LINE
  5
48A
330
1F
100
AcDbEntity
  8
0
100
AcDbLine
 10
53.86256500000002
 20
15.60367
 30
0.0
 11
53.86256500000002
 21
15.38827
 31
0.0
  0
LINE
  5
48B
330
1F
100
AcDbEntity
  8
0
100
AcDbLine
 10
52.32045000000005
 20
15.60367
 30
0.0
 11
53.86256500000002
 21
15.60367
 31
0.0
  0
LINE
  5
48C
330
1F
100
AcDbEntity
  8
0
100
AcDbLine
 10
58.153233
 20
15.60367
 30
0.0
 11
59.00797599999999
 21
15.60367
 31
0.0
  0
ARC
  5
48D
330
1F
100
AcDbEntity
  8
0
100
AcDbCircle
 10
69.20181500000001
 20
14.124104
 30
0.0
 40
1.488419
100
AcDbArc
 50
89.30088700000103
 51
168.3657319999999
  0
ARC
  5
48E
330
1F
100
AcDbEntity
  8
0
100
AcDbCircle
 10
65.711003
 20
14.207365
 30
0.0
 40
1.409039
100
AcDbArc
 50
15.47254999999916
 51
127.5645399999993
  0
LINE
  5
48F
330
1F
100
AcDbEntity
  8
0
100
AcDbLine
 10
60.420976
 20
11.13667
 30
0.0
 11
60.420976
 21
10.236264
 31
0.0
  0
LINE
  5
490
330
1F
100
AcDbEntity
  8
0
100
AcDbLine
 10
60.420976
 20
11.81167
 30
0.0
 11
60.420976
 21
14.41447
 31
0.0
  0
LINE
  5
491
330
1F
100
AcDbEntity
  8
0
100
AcDbLine
 10
67.06897600000002
 20
14.583264
 30
0.0
 11
67.06897600000002
 21
10.179264
 31
0.0
  0
LINE
  5
492
330
1F
100
AcDbEntity
  8
0
100
AcDbLine
 10
65.52697599999999
 20
14.361264
 30
0.0
 11
65.52697599999999
 21
10.252764
 31
0.0
  0
LINE
  5
493
330
1F
100
AcDbEntity
  8
0
100
AcDbLine
 10
64.85197600000004
 20
14.361264
 30
0.0
 11
64.85197600000004
 21
10.252764
 31
0.0
  0
ARC
  5
494
330
1F
100
AcDbEntity
  8
0
100
AcDbCircle
 10
65.18947600000001
 20
10.252764
 30
0.0
 40
0.3375
100
AcDbArc
 50
180.0
 51
0.0
  0
ARC
  5
495
330
1F
100
AcDbEntity
  8
0
100
AcDbCircle
 10
65.18947600000001
 20
14.361264
 30
0.0
 40
0.3375
100
AcDbArc
 50
0.0
 51
180.0
  0
LINE
  5
496
330
1F
100
AcDbEntity
  8
0
100
AcDbLine
 10
63.30697599999996
 20
15.612264
 30
0.0
 11
64.85197600000004
 21
15.612264
 31
0.0
  0
LINE
  5
497
330
1F
100
AcDbEntity
  8
0
100
AcDbLine
 10
61.10797600000001
 20
17.211264
 30
0.0
 11
62.65297599999997
 21
17.211264
 31
0.0
  0
LINE
  5
498
330
1F
100
AcDbEntity
  8
0
100
AcDbLine
 10
64.85197600000004
 20
15.612264
 30
0.0
 11
64.85197600000004
 21
15.324264
 31
0.0
  0
ARC
  5
499
330
1F
100
AcDbEntity
  8
0
100
AcDbCircle
 10
70.168137
 20
14.124104
 30
0.0
 40
1.488419
100
AcDbArc
 50
11.63426800000011
 51
90.69911299999899
  0
LINE
  5
49A
330
1F
100
AcDbEntity
  8
0
100
AcDbLine
 10
71.62597600000004
 20
14.424264
 30
0.0
 11
71.62597600000004
 21
10.203412
 31
0.0
  0
ARC
  5
49B
330
1F
100
AcDbEntity
  8
0
100
AcDbCircle
 10
69.684976
 20
14.361264
 30
0.0
 40
0.3375
100
AcDbArc
 50
0.0
 51
180.0
  0
ARC
  5
49C
330
1F
100
AcDbEntity
  8
0
100
AcDbCircle
 10
69.684976
 20
10.252764
 30
0.0
 40
0.3375
100
AcDbArc
 50
180.0
 51
0.0
  0
LINE
  5
49D
330
1F
100
AcDbEntity
  8
0
100
AcDbLine
 10
69.34747600000003
 20
14.361264
 30
0.0
 11
69.34747600000003
 21
10.252764
 31
0.0
  0
LINE
  5
49E
330
1F
100
AcDbEntity
  8
0
100
AcDbLine
 10
70.02247599999998
 20
14.361264
 30
0.0
 11
70.02247599999998
 21
10.252764
 31
0.0
  0
LINE
  5
49F
330
1F
100
AcDbEntity
  8
0
100
AcDbLine
 10
67.74397599999998
 20
10.203412
 30
0.0
 11
67.74397599999998
 21
14.424264
 31
0.0
  0
LINE
  5
4A0
330
1F
100
AcDbEntity
  8
0
100
AcDbLine
 10
69.21997599999997
 20
15.612412
 30
0.0
 11
70.14997600000004
 21
15.612412
 31
0.0
  0
LINE
  5
4A1
330
1F
100
AcDbEntity
  8
0
100
AcDbLine
 10
72.30097599999999
 20
17.211264
 30
0.0
 11
73.84597599999995
 21
17.211264
 31
0.0
  0
TEXT
  5
4A2
330
1F
100
AcDbEntity
  8
WY
100
AcDbText
 10
78.37616300000002
 20
11.60401
 30
0.0
 40
1.999999999999999
  1
17-05-2016
 41
1.000000000000001
 51
15.0
  7
ITALIC
100
AcDbText
  0
TEXT
  5
4A3
330
1F
100
AcDbEntity
  8
WY
100
AcDbText
 10
82.80753200000004
 20
16.149239
 30
0.0
 40
1.999999999999999
  1
Data
 41
1.0
 51
15.0
  7
ITALIC
100
AcDbText
  0
TEXT
  5
4A4
330
1F
100
AcDbEntity
  8
1
100
AcDbText
 10
151.38151
 20
9.064009000000002
 30
0.0
 40
5.0
  1
MT-TIP-...
 41
0.8
 51
15.0
  7
ITALIC
100
AcDbText
  0
LINE
  5
4A5
330
1F
100
AcDbEntity
  8
1
100
AcDbLine
 10
141.35299
 20
4.999999999999999
 30
0.0
 11
141.35299
 21
19.689837
 31
0.0
  0
TEXT
  5
4A6
330
1F
100
AcDbEntity
  8
WY
100
AcDbText
 10
143.544188
 20
16.599248
 30
0.0
 40
1.999999999999999
  1
Product type
 41
1.0
 51
15.0
  7
ITALIC
100
AcDbText
  0
LINE
  5
4A7
330
1F
100
AcDbEntity
  8
2
100
AcDbLine
 10
196.630407
 20
292.0
 30
0.0
 11
11.63040699999999
 21
292.0
 31
0.0
  0
LINE
  5
4A8
330
1F
100
AcDbEntity
  8
2
100
AcDbLine
 10
201.630407
 20
297.0
 30
0.0
 11
11.63040699999999
 21
297.0
 31
0.0
  0
LINE
  5
4A9
330
1F
100
AcDbEntity
  8
WYMIARY
 62
     6
100
AcDbLine
 10
11.63040699999999
 20
297.0
 30
0.0
 11
0.0
 21
297.0
 31
0.0
  0
TEXT
  5
4AA
330
1F
100
AcDbEntity
  8
1
100
AcDbText
 10
14.260741
 20
8.797457000000001
 30
0.0
 40
5.0
  1
1:1
 51
15.0
  7
ITALIC
100
AcDbText
  0
LINE
  5
4AB
330
1F
100
AcDbEntity
  8
WYMIARY
 62
     6
100
AcDbLine
 10
201.630407
 20
0.0
 30
0.0
 11
201.630407
 21
297.0
 31
0.0
  0
LINE
  5
4AC
330
1F
100
AcDbEntity
  8
WYMIARY
 62
     3
100
AcDbLine
 10
26.63040699999999
 20
19.689837
 30
0.0
 11
26.63040699999999
 21
4.999999999999999
 31
0.0
  0
LINE
  5
4AD
330
1F
100
AcDbEntity
  8
WYMIARY
 62
     3
100
AcDbLine
 10
41.63040699999999
 20
19.689837
 30
0.0
 11
41.63040699999999
 21
4.999999999999999
 31
0.0
  0
LINE
  5
4AE
330
1F
100
AcDbEntity
  8
WYMIARY
 62
     3
100
AcDbLine
 10
100.331943
 20
19.689837
 30
0.0
 11
100.331943
 21
4.999999999999999
 31
0.0
  0
TEXT
  5
4AF
330
1F
100
AcDbEntity
  8
WY
100
AcDbText
 10
101.520952
 20
16.599248
 30
0.0
 40
1.999999999999999
  1
Draw. No.
 41
1.0
 51
15.0
  7
ITALIC
100
AcDbText
  0
TEXT
  5
4B0
330
1F
100
AcDbEntity
  8
1
100
AcDbText
 10
105.893897
 20
9.064009000000002
 30
0.0
 40
3.999999999999996
  1
MT-TIP-01A
 41
0.7000000000000006
 51
15.0
  7
ITALIC
100
AcDbText
  0
LINE
  5
4B1
330
1F
100
AcDbEntity
  8
WYMIARY
 62
     6
100
AcDbLine
 10
201.630407
 20
0.0
 30
0.0
 11
201.630407
 21
297.0
 31
0.0
  0
LINE
  5
4B2
330
1F
100
AcDbEntity
  8
WYMIARY
 62
     6
100
AcDbLine
 10
201.630407
 20
0.0
 30
0.0
 11
201.630407
 21
297.0
 31
0.0
  0
LINE
  5
4B3
330
1F
100
AcDbEntity
  8
2
100
AcDbLine
 10
201.630407
 20
0.0
 30
0.0
 11
201.630407
 21
297.0
 31
0.0
  0
LINE
  5
4B4
330
1F
100
AcDbEntity
  8
WYMIARY
 62
     6
100
AcDbLine
 10
201.630407
 20
0.0
 30
0.0
 11
201.630407
 21
297.0
 31
0.0
  0
LINE
  5
4B5
330
1F
100
AcDbEntity
  8
2
100
AcDbLine
 10
201.630407
 20
0.0
 30
0.0
 11
201.630407
 21
297.0
 31
0.0
  0
TEXT
  5
4B6
330
1F
100
AcDbEntity
  8
1
100
AcDbText
 10
91.78129325768663
 20
274.4436562884334
 30
0.0
 40
5.0
  1
MT-TIP-...
 41
0.8
 51
15.0
  7
ITALIC
100
AcDbText
  0
LINE
  5
4B7
330
1F
100
AcDbEntity
  8
2
100
AcDbLine
 10
201.630407
 20
0.0
 30
0.0
 11
11.63040699999999
 21
0.0
 31
0.0
  0
LINE
  5
4B8
330
1F
100
AcDbEntity
  8
WYMIARY
 62
     6
100
AcDbLine
 10
11.63040699999999
 20
0.0
 30
0.0
 11
0.0
 21
0.0
 31
0.0
  0
LINE
  5
4B9
330
1F
100
AcDbEntity
  8
WYMIARY
 62
     6
100
AcDbLine
 10
201.630407
 20
0.0
 30
0.0
 11
201.630407
 21
297.0
 31
0.0
  0
LINE
  5
4BA
330
1F
100
AcDbEntity
  8
2
100
AcDbLine
 10
201.630407
 20
0.0
 30
0.0
 11
11.63040699999999
 21
0.0
 31
0.0
  0
TEXT
  5
506
330
1F
100
AcDbEntity
  8
1
100
AcDbText
 10
37.35235520790627
 20
263.9396729897511
 30
0.0
 40
5.0
  1
MT-TIP-... - przekaźnik czasowy do montażu 
 41
0.8
 51
15.0
  7
ITALIC
100
AcDbText
  0
TEXT
  5
77C
330
1F
100
AcDbEntity
  8
1
100
AcDbText
 10
55.53505435020089
 20
255.5099906079093
 30
0.0
 40
5.0
  1
na szynie 35mm wg PN-EN 60715
 41
0.8
 51
15.0
  7
ITALIC
100
AcDbText
  0
TEXT
  5
7A7
330
1F
100
AcDbEntity
  8
1
100
AcDbText
 10
42.70893762664724
 20
244.0178418213762
 30
0.0
 40
5.0
  1
MT-TIP-... - time relay, direct mounting
 41
0.8
 51
15.0
  7
ITALIC
100
AcDbText
  0
TEXT
  5
7A8
330
1F
100
AcDbEntity
  8
1
100
AcDbText
 10
41.49779941608686
 20
235.5881594395344
 30
0.0
 40
5.0
  1
on 35mm rail mount acc. to PN-EN 60715
 41
0.8
 51
15.0
  7
ITALIC
100
AcDbText
  0
SPLINE
  5
974
330
1F
100
AcDbEntity
  8
1
  6
CONTINUOUS
 62
     7
100
AcDbSpline
210
0.0
220
0.0
230
1.0
 70
     8
 71
     3
 72
    12
 73
     8
 74
     0
 42
0.000000001
 43
0.00000001
 40
0.0
 40
0.0
 40
0.0
 40
0.0
 40
0.2314052896442657
 40
0.4628117806188804
 40
0.6942125696395587
 40
0.9256089727570431
 40
1.0
 40
1.0
 40
1.0
 40
1.0
 10
55.50133079812977
 20
80.05222569713287
 30
0.0
 10
55.52342250512331
 20
80.05696506100632
 30
0.0
 10
55.56760603379857
 20
80.06644381335748
 30
0.0
 10
55.62322819426103
 20
80.10747934555174
 30
0.0
 10
55.66252884459155
 20
80.163024230437
 30
0.0
 10
55.67748055896058
 20
80.21416689075728
 30
0.0
 10
55.67846533456898
 20
80.24374044618921
 30
0.0
 10
55.67870490775559
 20
80.25093500995926
 30
0.0
  0
SPLINE
  5
975
330
1F
100
AcDbEntity
  8
1
  6
CONTINUOUS
 62
     7
100
AcDbSpline
210
0.0
220
0.0
230
1.0
 70
     8
 71
     3
 72
    11
 73
     7
 74
     0
 42
0.000000001
 43
0.00000001
 40
0.0
 40
0.0
 40
0.0
 40
0.0
 40
0.2578444455396915
 40
0.5156950309893856
 40
0.7735322155744457
 40
1.0
 40
1.0
 40
1.0
 40
1.0
 10
53.75511773453209
 20
85.47051934087565
 30
0.0
 10
53.73260841066579
 20
85.46831314756054
 30
0.0
 10
53.68758922693084
 20
85.46390070839547
 30
0.0
 10
53.62803881458765
 20
85.42935136705177
 30
0.0
 10
53.58325063123058
 20
85.38091611897849
 30
0.0
 10
53.56876240638243
 20
85.34108762659113
 30
0.0
 10
53.56198750958893
 20
85.32246326589873
 30
0.0
  0
LINE
  5
976
330
1F
100
AcDbEntity
  8
1
  6
CONTINUOUS
 62
     7
100
AcDbLine
 10
57.03496948407147
 20
71.67051950031808
 30
0.0
 11
53.75511773453209
 21
71.67051950031808
 31
0.0
  0
ELLIPSE
  5
977
330
1F
100
AcDbEntity
  8
1
  6
CONTINUOUS
 62
     7
100
AcDbEllipse
 10
55.87871335366631
 20
74.77925386137369
 30
0.0
 11
-0.141432126226178
 21
-0.141432126226178
 31
0.0
210
0.0
220
0.0
230
1.0
 40
0.9999238504775173
 41
5.497825219993049
 42
7.068545394366136
  0
ELLIPSE
  5
978
330
1F
100
AcDbEntity
  8
1
  6
CONTINUOUS
 62
     7
100
AcDbEllipse
 10
56.9612443867305
 20
74.77925386137369
 30
0.0
 11
0.141432126226178
 21
-0.141432126226178
 31
0.0
210
0.0
220
0.0
230
1.0
 40
0.9999238504775675
 41
5.497825219993075
 42
5.875268885290655
  0
LINE
  5
979
330
1F
100
AcDbEntity
  8
1
  6
CONTINUOUS
 62
     7
100
AcDbLine
 10
53.75511773453209
 20
85.47051934087565
 30
0.0
 11
57.03496948407147
 21
85.47051934087565
 31
0.0
  0
SPLINE
  5
97A
330
1F
100
AcDbEntity
  8
1
  6
CONTINUOUS
 62
     7
100
AcDbSpline
210
0.0
220
0.0
230
1.0
 70
     8
 71
     3
 72
    11
 73
     7
 74
     0
 42
0.000000001
 43
0.00000001
 40
0.0
 40
0.0
 40
0.0
 40
0.0
 40
0.2578457426048872
 40
0.5156939506675676
 40
0.7735358934216314
 40
1.0
 40
1.0
 40
1.0
 40
1.0
 10
53.56198750958893
 20
71.818575575295
 30
0.0
 10
53.56996319604602
 20
71.797411135853
 30
0.0
 10
53.58591464522172
 20
71.7550820545998
 30
0.0
 10
53.63474446106525
 20
71.706547411549
 30
0.0
 10
53.69314860356107
 20
71.67587343541004
 30
0.0
 10
53.73537325910067
 20
71.6722253599651
 30
0.0
 10
53.75511773453209
 20
71.67051950031808
 30
0.0
  0
LINE
  5
97B
330
1F
100
AcDbEntity
  8
1
  6
CONTINUOUS
 62
     7
100
AcDbLine
 10
55.67870490775559
 20
74.77923863129607
 30
0.0
 11
55.67870490775559
 21
76.89010377302682
 31
0.0
  0
LINE
  5
97C
330
1F
100
AcDbEntity
  8
1
  6
CONTINUOUS
 62
     7
100
AcDbLine
 10
56.96125902758095
 20
74.5792461887925
 30
0.0
 11
55.87869898007366
 21
74.5792461887925
 31
0.0
  0
ARC
  5
97D
330
1F
100
AcDbEntity
  8
1
  6
CONTINUOUS
 62
     7
100
AcDbCircle
 10
78.66997887019843
 20
78.57051937790577
 30
0.0
 40
26.00000000000002
100
AcDbArc
 50
164.9483229918422
 51
195.0516770081585
  0
ELLIPSE
  5
97E
330
1F
100
AcDbEntity
  8
1
  6
CONTINUOUS
 62
     7
100
AcDbEllipse
 10
55.87871335366631
 20
82.36178489443789
 30
0.0
 11
-0.141432126226178
 21
0.1414321262261637
 31
0.0
210
0.0
220
0.0
230
1.0
 40
0.9999238504775675
 41
5.497825219993025
 42
7.068545394366132
  0
ELLIPSE
  5
97F
330
1F
100
AcDbEntity
  8
1
  6
CONTINUOUS
 62
     7
100
AcDbEllipse
 10
56.9612443867305
 20
82.36178489443789
 30
0.0
 11
0.141432126226178
 21
0.1414321262261637
 31
0.0
210
0.0
220
0.0
230
1.0
 40
0.9999238504776681
 41
0.4079164218889326
 42
0.7853600871865253
  0
SPLINE
  5
980
330
1F
100
AcDbEntity
  8
1
  6
CONTINUOUS
 62
     7
100
AcDbSpline
210
0.0
220
0.0
230
1.0
 70
     8
 71
     3
 72
    12
 73
     8
 74
     0
 42
0.000000001
 43
0.00000001
 40
0.0
 40
0.0
 40
0.0
 40
0.0
 40
0.2314062091049486
 40
0.4628142037442006
 40
0.6942102196349594
 40
0.9256088459784282
 40
1.0
 40
1.0
 40
1.0
 40
1.0
 10
55.67870490775559
 20
76.89010377302682
 30
0.0
 10
55.67649468032786
 20
76.91258988262894
 30
0.0
 10
55.67207420841831
 20
76.9575622753364
 30
0.0
 10
55.63759155934511
 20
77.01746766243271
 30
0.0
 10
55.58684797793771
 20
77.06279806284435
 30
0.0
 10
55.53772448666521
 20
77.08343677170255
 30
0.0
 10
55.50845206130836
 20
77.0877611564193
 30
0.0
 10
55.50133079812977
 20
77.08881317316471
 30
0.0
  0
ARC
  5
981
330
1F
100
AcDbEntity
  8
1
  6
CONTINUOUS
 62
     7
100
AcDbCircle
 10
55.66997887019838
 20
78.57051937790578
 30
0.0
 40
1.491273132209259
100
AcDbArc
 50
96.49348161690375
 51
263.5065183830962
  0
LINE
  5
982
330
1F
100
AcDbEntity
  8
1
  6
CONTINUOUS
 62
     7
100
AcDbLine
 10
55.67870490775559
 20
80.25093500995926
 30
0.0
 11
55.67870490775559
 21
82.36179997706704
 31
0.0
  0
LINE
  5
983
330
1F
100
AcDbEntity
  8
1
  6
CONTINUOUS
 62
     7
100
AcDbLine
 10
55.87869898007366
 20
82.56179265240125
 30
0.0
 11
56.96125902758095
 21
82.56179265240125
 31
0.0
  0
ARC
  5
984
330
1F
100
AcDbEntity
  8
1
  6
CONTINUOUS
 62
     7
100
AcDbCircle
 10
125.3999619471362
 20
78.57051937790577
 30
0.0
 40
25.99999999999999
100
AcDbArc
 50
344.9483229918429
 51
15.05167700815782
  0
ELLIPSE
  5
985
330
1F
100
AcDbEntity
  8
1
  6
CONTINUOUS
 62
     7
100
AcDbEllipse
 10
147.1086964306041
 20
74.77925386137366
 30
0.0
 11
-0.1414321262261921
 21
-0.1414321262261637
 31
0.0
210
0.0
220
0.0
230
1.0
 40
0.9999238504775173
 41
0.4079164218890377
 42
0.7853600871867928
  0
LINE
  5
986
330
1F
100
AcDbEntity
  8
1
  6
CONTINUOUS
 62
     7
100
AcDbLine
 10
148.3912339113757
 20
82.36179997706704
 30
0.0
 11
148.3912339113757
 21
80.25093500995926
 31
0.0
  0
ARC
  5
987
330
1F
100
AcDbEntity
  8
1
  6
CONTINUOUS
 62
     7
100
AcDbCircle
 10
148.3999619471362
 20
78.57051937790577
 30
0.0
 40
1.491273132209245
100
AcDbArc
 50
276.4934816169038
 51
83.50651838309837
  0
LINE
  5
988
330
1F
100
AcDbEntity
  8
1
  6
CONTINUOUS
 62
     7
100
AcDbLine
 10
147.1086835168407
 20
82.56179265240125
 30
0.0
 11
148.1912454269931
 21
82.56179265240125
 31
0.0
  0
SPLINE
  5
989
330
1F
100
AcDbEntity
  8
1
  6
CONTINUOUS
 62
     7
100
AcDbSpline
210
0.0
220
0.0
230
1.0
 70
     8
 71
     3
 72
    12
 73
     8
 74
     0
 42
0.000000001
 43
0.00000001
 40
0.0
 40
0.0
 40
0.0
 40
0.0
 40
0.231405265861839
 40
0.4628165893038846
 40
0.6942170772067526
 40
0.9256080023238968
 40
1.0
 40
1.0
 40
1.0
 40
1.0
 10
148.5686098836467
 20
77.08881317316471
 30
0.0
 10
148.5465181729609
 20
77.08407361928417
 30
0.0
 10
148.5023341732865
 20
77.0745943874541
 30
0.0
 10
148.4467118131118
 20
77.03355993097658
 30
0.0
 10
148.4074061947277
 20
76.97801561270356
 30
0.0
 10
148.3924694854676
 20
76.92687087170403
 30
0.0
 10
148.391475686464
 20
76.89729829789441
 30
0.0
 10
148.3912339113757
 20
76.89010377302682
 30
0.0
  0
SPLINE
  5
98A
330
1F
100
AcDbEntity
  8
1
  6
CONTINUOUS
 62
     7
100
AcDbSpline
210
0.0
220
0.0
230
1.0
 70
     8
 71
     3
 72
    12
 73
     8
 74
     0
 42
0.000000001
 43
0.00000001
 40
0.0
 40
0.0
 40
0.0
 40
0.0
 40
0.2314049320153015
 40
0.462812110452376
 40
0.6942116412162272
 40
0.9256092263695735
 40
0.9999999999999999
 40
0.9999999999999999
 40
0.9999999999999999
 40
0.9999999999999999
 10
148.3912339113757
 20
80.25093500995926
 30
0.0
 10
148.39344417077
 20
80.22844895092268
 30
0.0
 10
148.397864711015
 20
80.18347661456052
 30
0.0
 10
148.4323471692448
 20
80.12357037246466
 30
0.0
 10
148.4830926538721
 20
80.07824139072629
 30
0.0
 10
148.5322161545231
 20
80.05760195957693
 30
0.0
 10
148.5614886151867
 20
80.0532776862831
 30
0.0
 10
148.5686098836467
 20
80.05222569713287
 30
0.0
  0
ELLIPSE
  5
98B
330
1F
100
AcDbEntity
  8
1
  6
CONTINUOUS
 62
     7
100
AcDbEllipse
 10
147.1086964306041
 20
82.36178489443786
 30
0.0
 11
-0.1414321262261921
 21
0.1414321262261637
 31
0.0
210
0.0
220
0.0
230
1.0
 40
0.9999238504776178
 41
5.497825219992857
 42
5.875268885290599
  0
SPLINE
  5
98C
330
1F
100
AcDbEntity
  8
1
  6
CONTINUOUS
 62
     7
100
AcDbSpline
210
0.0
220
0.0
230
1.0
 70
     8
 71
     3
 72
    11
 73
     7
 74
     0
 42
0.000000001
 43
0.00000001
 40
0.0
 40
0.0
 40
0.0
 40
0.0
 40
0.2578398762480821
 40
0.5156848503971324
 40
0.7735485144087602
 40
1.0
 40
1.0
 40
1.0
 40
1.0
 10
150.5079513095424
 20
85.32246326589873
 30
0.0
 10
150.4999769482427
 20
85.3436274932539
 30
0.0
 10
150.4840280679774
 20
85.38595636641443
 30
0.0
 10
150.4351986917657
 20
85.43449321662462
 30
0.0
 10
150.3767927214721
 20
85.46516387076971
 30
0.0
 10
150.3345678942466
 20
85.4688130787898
 30
0.0
 10
150.3148248098895
 20
85.47051934087565
 30
0.0
  0
LINE
  5
98D
330
1F
100
AcDbEntity
  8
1
  6
CONTINUOUS
 62
     7
100
AcDbLine
 10
147.0349674724147
 20
85.47051934087565
 30
0.0
 11
150.3148248098895
 21
85.47051934087565
 31
0.0
  0
SPLINE
  5
98E
330
1F
100
AcDbEntity
  8
1
  6
CONTINUOUS
 62
     7
100
AcDbSpline
210
0.0
220
0.0
230
1.0
 70
     8
 71
     3
 72
    11
 73
     7
 74
     0
 42
0.000000001
 43
0.00000001
 40
0.0
 40
0.0
 40
0.0
 40
0.0
 40
0.2578466915855939
 40
0.5156870117381829
 40
0.7735359534042663
 40
1.0
 40
1.0
 40
1.0
 40
1.0
 10
150.3148248098895
 20
71.67051950031808
 30
0.0
 10
150.3373343390038
 20
71.67272540289322
 30
0.0
 10
150.3823528410183
 20
71.6771371535353
 30
0.0
 10
150.4419001372684
 20
71.71169004425879
 30
0.0
 10
150.4866928962126
 20
71.76012051952979
 30
0.0
 10
150.501178065514
 20
71.79995093237133
 30
0.0
 10
150.5079513095424
 20
71.818575575295
 30
0.0
  0
LINE
  5
98F
330
1F
100
AcDbEntity
  8
1
  6
CONTINUOUS
 62
     7
100
AcDbLine
 10
150.3148248098895
 20
71.67051950031808
 30
0.0
 11
147.0349674724147
 21
71.67051950031808
 31
0.0
  0
LINE
  5
990
330
1F
100
AcDbEntity
  8
1
  6
CONTINUOUS
 62
     7
100
AcDbLine
 10
148.1912454269931
 20
74.5792461887925
 30
0.0
 11
147.1086835168407
 21
74.5792461887925
 31
0.0
  0
LINE
  5
991
330
1F
100
AcDbEntity
  8
1
  6
CONTINUOUS
 62
     7
100
AcDbLine
 10
148.3912339113757
 20
76.89010377302682
 30
0.0
 11
148.3912339113757
 21
74.77923863129607
 31
0.0
  0
ELLIPSE
  5
992
330
1F
100
AcDbEntity
  8
1
  6
CONTINUOUS
 62
     7
100
AcDbEllipse
 10
148.1912274636682
 20
82.36178489443786
 30
0.0
 11
0.1414321262261921
 21
0.1414321262261637
 31
0.0
210
0.0
220
0.0
230
1.0
 40
0.9999238504777183
 41
5.49782521999318
 42
7.068545394365994
  0
ELLIPSE
  5
993
330
1F
100
AcDbEntity
  8
1
  6
CONTINUOUS
 62
     7
100
AcDbEllipse
 10
148.1912274636682
 20
74.77925386137366
 30
0.0
 11
0.1414321262261921
 21
-0.1414321262261779
 31
0.0
210
0.0
220
0.0
230
1.0
 40
0.9999238504775173
 41
5.497825219993142
 42
7.068545394366086
  0
LINE
  5
9A2
330
1F
100
AcDbEntity
  8
1
  6
CONTINUOUS
 62
     7
100
AcDbLine
 10
123.5349720023677
 20
87.32051899218848
 30
0.0
 11
124.3349706433818
 21
87.32051899218848
 31
0.0
  0
ARC
  5
9A3
330
1F
100
AcDbEntity
  8
1
  6
CONTINUOUS
 62
     7
100
AcDbCircle
 10
124.3349704086673
 20
87.12051937790577
 30
0.0
 40
0.2000000000000171
100
AcDbArc
 50
0.0
 51
90.0
  0
LINE
  5
9A4
330
1F
100
AcDbEntity
  8
1
  6
CONTINUOUS
 62
     7
100
AcDbLine
 10
79.53497224078629
 20
70.02051950925878
 30
0.0
 11
79.53497224078629
 21
87.12051933193496
 31
0.0
  0
LINE
  5
9A5
330
1F
100
AcDbEntity
  8
1
  6
CONTINUOUS
 62
     7
100
AcDbLine
 10
124.5349740289256
 20
87.12051933193496
 30
0.0
 11
124.5349740289256
 21
70.02051950925878
 31
0.0
  0
LINE
  5
9A6
330
1F
100
AcDbEntity
  8
1
  6
CONTINUOUS
 62
     7
100
AcDbLine
 10
88.5349718533561
 20
69.82051938334396
 30
0.0
 11
80.53497054205391
 21
69.82051938334396
 31
0.0
  0
LINE
  5
9A7
330
1F
100
AcDbEntity
  8
1
  6
CONTINUOUS
 62
     7
100
AcDbLine
 10
88.5349718533561
 20
70.02051950925878
 30
0.0
 11
88.5349718533561
 21
69.82051938334396
 31
0.0
  0
LINE
  5
9A8
330
1F
100
AcDbEntity
  8
1
  6
CONTINUOUS
 62
     7
100
AcDbLine
 10
80.53497054205391
 20
69.82051938334396
 30
0.0
 11
79.73497190103981
 21
69.82051938334396
 31
0.0
  0
ARC
  5
9A9
330
1F
100
AcDbEntity
  8
1
  6
CONTINUOUS
 62
     7
100
AcDbCircle
 10
79.7349704086673
 20
70.02051937790577
 30
0.0
 40
0.2000000000000028
100
AcDbArc
 50
180.0
 51
270.0
  0
LINE
  5
9AA
330
1F
100
AcDbEntity
  8
1
  6
CONTINUOUS
 62
     7
100
AcDbLine
 10
124.3349706433818
 20
69.82051938334396
 30
0.0
 11
123.5349720023677
 21
69.82051938334396
 31
0.0
  0
ARC
  5
9AB
330
1F
100
AcDbEntity
  8
1
  6
CONTINUOUS
 62
     7
100
AcDbCircle
 10
124.3349704086673
 20
70.02051937790577
 30
0.0
 40
0.2000000000000171
100
AcDbArc
 50
270.0
 51
0.0
  0
LINE
  5
9AC
330
1F
100
AcDbEntity
  8
1
  6
CONTINUOUS
 62
     7
100
AcDbLine
 10
123.5349720023677
 20
69.82051938334396
 30
0.0
 11
115.5349706910655
 21
69.82051938334396
 31
0.0
  0
LINE
  5
9AD
330
1F
100
AcDbEntity
  8
1
  6
CONTINUOUS
 62
     7
100
AcDbLine
 10
115.5349706910655
 20
69.82051938334396
 30
0.0
 11
115.5349706910655
 21
70.02051950925878
 31
0.0
  0
LINE
  5
9AE
330
1F
100
AcDbEntity
  8
1
  6
CONTINUOUS
 62
     7
100
AcDbLine
 10
115.5349706910655
 20
87.32051899218848
 30
0.0
 11
123.5349720023677
 21
87.32051899218848
 31
0.0
  0
LINE
  5
9AF
330
1F
100
AcDbEntity
  8
1
  6
CONTINUOUS
 62
     7
100
AcDbLine
 10
115.5349706910655
 20
87.12051933193496
 30
0.0
 11
115.5349706910655
 21
87.32051899218848
 31
0.0
  0
LINE
  5
9B0
330
1F
100
AcDbEntity
  8
1
  6
CONTINUOUS
 62
     7
100
AcDbLine
 10
88.5349718533561
 20
86.62051924997857
 30
0.0
 11
88.5349718533561
 21
87.12051933193496
 31
0.0
  0
LINE
  5
9B1
330
1F
100
AcDbEntity
  8
1
  6
CONTINUOUS
 62
     7
100
AcDbLine
 10
90.33496879563782
 20
86.62051924997857
 30
0.0
 11
90.33496879563782
 21
87.12051933193496
 31
0.0
  0
LINE
  5
9B2
330
1F
100
AcDbEntity
  8
1
  6
CONTINUOUS
 62
     7
100
AcDbLine
 10
113.7349700234935
 20
86.62051924997857
 30
0.0
 11
113.7349700234935
 21
87.12051933193496
 31
0.0
  0
LINE
  5
9CC
330
1F
100
AcDbEntity
  8
1
  6
CONTINUOUS
 62
     7
100
AcDbLine
 10
113.7349700234935
 20
70.52051959121516
 30
0.0
 11
113.7349700234935
 21
70.02051950925878
 31
0.0
  0
LINE
  5
9CD
330
1F
100
AcDbEntity
  8
1
  6
CONTINUOUS
 62
     7
100
AcDbLine
 10
90.33496879563782
 20
86.62051924997857
 30
0.0
 11
88.5349718533561
 21
86.62051924997857
 31
0.0
  0
LINE
  5
9CE
330
1F
100
AcDbEntity
  8
1
  6
CONTINUOUS
 62
     7
100
AcDbLine
 10
90.33496879563782
 20
70.52051959121516
 30
0.0
 11
88.5349718533561
 21
70.52051959121516
 31
0.0
  0
LINE
  5
9D0
330
1F
100
AcDbEntity
  8
1
  6
CONTINUOUS
 62
     7
100
AcDbLine
 10
115.5349706910655
 20
86.62051924997857
 30
0.0
 11
115.5349706910655
 21
87.12051933193496
 31
0.0
  0
LINE
  5
9D3
330
1F
100
AcDbEntity
  8
1
  6
CONTINUOUS
 62
     7
100
AcDbLine
 10
90.33496879563782
 20
70.52051959121516
 30
0.0
 11
90.33496879563782
 21
70.02051950925878
 31
0.0
  0
LINE
  5
9D5
330
1F
100
AcDbEntity
  8
1
  6
CONTINUOUS
 62
     7
100
AcDbLine
 10
88.5349718533561
 20
70.52051959121516
 30
0.0
 11
88.5349718533561
 21
70.02051950925878
 31
0.0
  0
LINE
  5
9D6
330
1F
100
AcDbEntity
  8
1
  6
CONTINUOUS
 62
     7
100
AcDbLine
 10
115.5349706910655
 20
70.52051959121516
 30
0.0
 11
115.5349706910655
 21
70.02051950925878
 31
0.0
  0
LINE
  5
9D8
330
1F
100
AcDbEntity
  8
1
  6
CONTINUOUS
 62
     7
100
AcDbLine
 10
115.5349706910655
 20
70.52051959121516
 30
0.0
 11
113.7349700234935
 21
70.52051959121516
 31
0.0
  0
LINE
  5
9D9
330
1F
100
AcDbEntity
  8
1
  6
CONTINUOUS
 62
     7
100
AcDbLine
 10
115.5349706910655
 20
86.62051924997857
 30
0.0
 11
113.7349700234935
 21
86.62051924997857
 31
0.0
  0
LINE
  5
9DA
330
1F
100
AcDbEntity
  8
1
  6
CONTINUOUS
 62
     7
100
AcDbLine
 10
80.53497054205391
 20
87.32051899218848
 30
0.0
 11
88.5349718533561
 21
87.32051899218848
 31
0.0
  0
LINE
  5
9DB
330
1F
100
AcDbEntity
  8
1
  6
CONTINUOUS
 62
     7
100
AcDbLine
 10
88.5349718533561
 20
87.32051899218848
 30
0.0
 11
88.5349718533561
 21
87.12051933193496
 31
0.0
  0
ARC
  5
9DC
330
1F
100
AcDbEntity
  8
1
  6
CONTINUOUS
 62
     7
100
AcDbCircle
 10
79.7349704086673
 20
87.12051937790577
 30
0.0
 40
0.2000000000000171
100
AcDbArc
 50
90.0
 51
180.0
  0
LINE
  5
9DD
330
1F
100
AcDbEntity
  8
1
  6
CONTINUOUS
 62
     7
100
AcDbLine
 10
79.73497190103981
 20
87.32051899218848
 30
0.0
 11
80.53497054205391
 21
87.32051899218848
 31
0.0
  0
LINE
  5
9DE
330
1F
100
AcDbEntity
  8
1
  6
CONTINUOUS
 62
     7
100
AcDbLine
 10
90.33496879563782
 20
87.32051899218848
 30
0.0
 11
113.7349700234935
 21
87.32051899218848
 31
0.0
  0
LINE
  5
9DF
330
1F
100
AcDbEntity
  8
1
  6
CONTINUOUS
 62
     7
100
AcDbLine
 10
90.33496879563782
 20
87.12051933193496
 30
0.0
 11
90.33496879563782
 21
87.32051899218848
 31
0.0
  0
LINE
  5
9E0
330
1F
100
AcDbEntity
  8
1
  6
CONTINUOUS
 62
     7
100
AcDbLine
 10
113.7349700234935
 20
87.32051899218848
 30
0.0
 11
113.7349700234935
 21
87.12051933193496
 31
0.0
  0
LINE
  5
9E1
330
1F
100
AcDbEntity
  8
1
  6
CONTINUOUS
 62
     7
100
AcDbLine
 10
113.7349700234935
 20
69.82051938334396
 30
0.0
 11
90.33496879563782
 21
69.82051938334396
 31
0.0
  0
LINE
  5
9E2
330
1F
100
AcDbEntity
  8
1
  6
CONTINUOUS
 62
     7
100
AcDbLine
 10
113.7349700234935
 20
70.02051950925878
 30
0.0
 11
113.7349700234935
 21
69.82051938334396
 31
0.0
  0
LINE
  5
9E3
330
1F
100
AcDbEntity
  8
1
  6
CONTINUOUS
 62
     7
100
AcDbLine
 10
90.33496879563782
 20
69.82051938334396
 30
0.0
 11
90.33496879563782
 21
70.02051950925878
 31
0.0
  0
LINE
  5
9E4
330
1F
100
AcDbEntity
  8
1
  6
CONTINUOUS
 62
     7
100
AcDbLine
 10
113.7349700234935
 20
87.32051899218848
 30
0.0
 11
115.5349706910655
 21
87.32051899218848
 31
0.0
  0
LINE
  5
9E5
330
1F
100
AcDbEntity
  8
1
  6
CONTINUOUS
 62
     7
100
AcDbLine
 10
113.7349700234935
 20
69.82051938334396
 30
0.0
 11
115.5349706910655
 21
69.82051938334396
 31
0.0
  0
LINE
  5
9E6
330
1F
100
AcDbEntity
  8
1
  6
CONTINUOUS
 62
     7
100
AcDbLine
 10
88.5349718533561
 20
69.82051938334396
 30
0.0
 11
90.33496879563782
 21
69.82051938334396
 31
0.0
  0
LINE
  5
9E7
330
1F
100
AcDbEntity
  8
1
  6
CONTINUOUS
 62
     7
100
AcDbLine
 10
88.5349718533561
 20
87.32051899218848
 30
0.0
 11
90.33496879563782
 21
87.32051899218848
 31
0.0
  0
LINE
  5
9E8
330
1F
100
AcDbEntity
  8
1
  6
CONTINUOUS
 62
     7
100
AcDbLine
 10
124.7349699638889
 20
87.32051899218848
 30
0.0
 11
124.3349706433818
 21
87.32051899218848
 31
0.0
  0
LINE
  5
9E9
330
1F
100
AcDbEntity
  8
1
  6
CONTINUOUS
 62
     7
100
AcDbLine
 10
124.3349706433818
 20
69.82051938334396
 30
0.0
 11
124.7349699638889
 21
69.82051938334396
 31
0.0
  0
LINE
  5
9EA
330
1F
100
AcDbEntity
  8
1
  6
CONTINUOUS
 62
     7
100
AcDbLine
 10
79.33496885524247
 20
69.82051938334396
 30
0.0
 11
79.73497190103981
 21
69.82051938334396
 31
0.0
  0
LINE
  5
9EB
330
1F
100
AcDbEntity
  8
1
  6
CONTINUOUS
 62
     7
100
AcDbLine
 10
79.73497190103981
 20
87.32051899218848
 30
0.0
 11
79.33496885524247
 21
87.32051899218848
 31
0.0
  0
LINE
  5
9EC
330
1F
100
AcDbEntity
  8
1
  6
CONTINUOUS
 62
     7
100
AcDbLine
 10
72.04497062192414
 20
83.72051951968959
 30
0.0
 11
72.04497062192414
 21
73.42051932150414
 31
0.0
  0
LINE
  5
9ED
330
1F
100
AcDbEntity
  8
1
  6
CONTINUOUS
 62
     7
100
AcDbLine
 10
76.6449702583358
 20
73.42051932150414
 30
0.0
 11
76.6449702583358
 21
83.72051951968959
 31
0.0
  0
ARC
  5
9EE
330
1F
100
AcDbEntity
  8
1
  6
CONTINUOUS
 62
     7
100
AcDbCircle
 10
74.34497040866725
 20
73.42051937790578
 30
0.0
 40
2.299999999999997
100
AcDbArc
 50
180.0
 51
0.0
  0
ARC
  5
9EF
330
1F
100
AcDbEntity
  8
1
  6
CONTINUOUS
 62
     7
100
AcDbCircle
 10
74.34497040866725
 20
83.72051937790579
 30
0.0
 40
2.299999999999997
100
AcDbArc
 50
0.0
 51
180.0
  0
ARC
  5
9F0
330
1F
100
AcDbEntity
  8
1
  6
CONTINUOUS
 62
     7
100
AcDbCircle
 10
129.7249704086672
 20
73.42051937790578
 30
0.0
 40
2.300000000000011
100
AcDbArc
 50
180.0
 51
0.0
  0
ARC
  5
9F1
330
1F
100
AcDbEntity
  8
1
  6
CONTINUOUS
 62
     7
100
AcDbCircle
 10
129.7249704086672
 20
83.72051937790579
 30
0.0
 40
2.300000000000011
100
AcDbArc
 50
0.0
 51
180.0
  0
LINE
  5
9F2
330
1F
100
AcDbEntity
  8
1
  6
CONTINUOUS
 62
     7
100
AcDbLine
 10
132.0249681972072
 20
73.42051932150414
 30
0.0
 11
132.0249681972072
 21
83.72051951968959
 31
0.0
  0
LINE
  5
9F3
330
1F
100
AcDbEntity
  8
1
  6
CONTINUOUS
 62
     7
100
AcDbLine
 10
79.33496885524247
 20
69.82051938334396
 30
0.0
 11
70.76277785525772
 21
69.82051938334396
 31
0.0
  0
LINE
  5
9F4
330
1F
100
AcDbEntity
  8
1
  6
CONTINUOUS
 62
     7
100
AcDbLine
 10
70.76277785525772
 20
87.32051899218848
 30
0.0
 11
79.33496885524247
 21
87.32051899218848
 31
0.0
  0
LINE
  5
9F5
330
1F
100
AcDbEntity
  8
1
  6
CONTINUOUS
 62
     7
100
AcDbLine
 10
127.4249722860858
 20
83.72051951968959
 30
0.0
 11
127.4249722860858
 21
73.42051932150414
 31
0.0
  0
LINE
  5
9F6
330
1F
100
AcDbEntity
  8
1
  6
CONTINUOUS
 62
     7
100
AcDbLine
 10
124.7349699638889
 20
87.32051899218848
 30
0.0
 11
133.3071609638736
 21
87.32051899218848
 31
0.0
  0
LINE
  5
9F7
330
1F
100
AcDbEntity
  8
1
  6
CONTINUOUS
 62
     7
100
AcDbLine
 10
133.3071609638736
 20
69.82051938334396
 30
0.0
 11
124.7349699638889
 21
69.82051938334396
 31
0.0
  0
LINE
  5
9F8
330
1F
100
AcDbEntity
  8
1
  6
CONTINUOUS
 62
     7
100
AcDbLine
 10
132.004970838885
 20
83.72051951968959
 30
0.0
 11
132.004970838885
 21
73.42051932150414
 31
0.0
  0
ARC
  5
9F9
330
1F
100
AcDbEntity
  8
1
  6
CONTINUOUS
 62
     7
100
AcDbCircle
 10
74.34497040866725
 20
83.72051937790579
 30
0.0
 40
2.280000000000001
100
AcDbArc
 50
0.0
 51
180.0
  0
LINE
  5
9FA
330
1F
100
AcDbEntity
  8
1
  6
CONTINUOUS
 62
     7
100
AcDbLine
 10
76.62496917472336
 20
83.72051951968959
 30
0.0
 11
76.62496917472336
 21
73.42051932150414
 31
0.0
  0
ARC
  5
9FB
330
1F
100
AcDbEntity
  8
1
  6
CONTINUOUS
 62
     7
100
AcDbCircle
 10
129.7249704086672
 20
73.42051937790578
 30
0.0
 40
2.280000000000001
100
AcDbArc
 50
180.0
 51
0.0
  0
ARC
  5
9FC
330
1F
100
AcDbEntity
  8
1
  6
CONTINUOUS
 62
     7
100
AcDbCircle
 10
129.7249704086672
 20
83.72051937790579
 30
0.0
 40
2.280000000000001
100
AcDbArc
 50
0.0
 51
180.0
  0
ARC
  5
9FD
330
1F
100
AcDbEntity
  8
1
  6
CONTINUOUS
 62
     7
100
AcDbCircle
 10
74.34497040866725
 20
73.42051937790578
 30
0.0
 40
2.280000000000001
100
AcDbArc
 50
180.0
 51
0.0
  0
LINE
  5
9FE
330
1F
100
AcDbEntity
  8
1
  6
CONTINUOUS
 62
     7
100
AcDbLine
 10
127.444969644408
 20
73.42051932150414
 30
0.0
 11
127.444969644408
 21
83.72051951968959
 31
0.0
  0
LINE
  5
9FF
330
1F
100
AcDbEntity
  8
1
  6
CONTINUOUS
 62
     7
100
AcDbLine
 10
72.06497170553658
 20
73.42051932150414
 30
0.0
 11
72.06497170553658
 21
83.72051951968959
 31
0.0
  0
LINE
  5
A00
330
1F
100
AcDbEntity
  8
1
  6
CONTINUOUS
 62
     7
100
AcDbLine
 10
135.534973969321
 20
69.82051938334396
 30
0.0
 11
133.3071609638736
 21
69.82051938334396
 31
0.0
  0
LINE
  5
A01
330
1F
100
AcDbEntity
  8
1
  6
CONTINUOUS
 62
     7
100
AcDbLine
 10
68.53496857510063
 20
87.32051899218848
 30
0.0
 11
70.76277785525772
 21
87.32051899218848
 31
0.0
  0
LINE
  5
A02
330
1F
100
AcDbEntity
  8
1
  6
CONTINUOUS
 62
     7
100
AcDbLine
 10
70.76277785525772
 20
69.82051938334396
 30
0.0
 11
68.53496857510063
 21
69.82051938334396
 31
0.0
  0
LINE
  5
A03
330
1F
100
AcDbEntity
  8
1
  6
CONTINUOUS
 62
     7
100
AcDbLine
 10
133.3071609638736
 20
87.32051899218848
 30
0.0
 11
135.534973969321
 21
87.32051899218848
 31
0.0
  0
ARC
  5
A04
330
1F
100
AcDbEntity
  8
1
  6
CONTINUOUS
 62
     7
100
AcDbCircle
 10
68.5349704086673
 20
70.02051937790577
 30
0.0
 40
0.2000000000000028
100
AcDbArc
 50
180.0
 51
270.0
  0
LINE
  5
A05
330
1F
100
AcDbEntity
  8
1
  6
CONTINUOUS
 62
     7
100
AcDbLine
 10
68.33496891484711
 20
70.02051950925878
 30
0.0
 11
68.33496891484711
 21
87.12051933193496
 31
0.0
  0
ARC
  5
A06
330
1F
100
AcDbEntity
  8
1
  6
CONTINUOUS
 62
     7
100
AcDbCircle
 10
68.5349704086673
 20
87.12051937790577
 30
0.0
 40
0.2000000000000171
100
AcDbArc
 50
90.0
 51
180.0
  0
LINE
  5
A07
330
1F
100
AcDbEntity
  8
1
  6
CONTINUOUS
 62
     7
100
AcDbLine
 10
135.7349699042842
 20
87.12051933193496
 30
0.0
 11
135.7349699042842
 21
70.02051950925878
 31
0.0
  0
ARC
  5
A08
330
1F
100
AcDbEntity
  8
1
  6
CONTINUOUS
 62
     7
100
AcDbCircle
 10
135.5349704086673
 20
70.02051937790577
 30
0.0
 40
0.2000000000000028
100
AcDbArc
 50
270.0
 51
0.0000000000040711
  0
ARC
  5
A09
330
1F
100
AcDbEntity
  8
1
  6
CONTINUOUS
 62
     7
100
AcDbCircle
 10
135.5349704086673
 20
87.12051937790577
 30
0.0
 40
0.2000000000000171
100
AcDbArc
 50
0.0
 51
90.0
  0
LINE
  5
A0A
330
1F
100
AcDbEntity
  8
1
  6
CONTINUOUS
 62
     7
100
AcDbLine
 10
68.53496857510063
 20
87.32051899218848
 30
0.0
 11
68.13496925459359
 21
87.32051899218848
 31
0.0
  0
LINE
  5
A0B
330
1F
100
AcDbEntity
  8
1
  6
CONTINUOUS
 62
     7
100
AcDbLine
 10
68.13496925459359
 20
69.82051938334396
 30
0.0
 11
68.53496857510063
 21
69.82051938334396
 31
0.0
  0
LINE
  5
A0C
330
1F
100
AcDbEntity
  8
1
  6
CONTINUOUS
 62
     7
100
AcDbLine
 10
135.934973289828
 20
87.32051899218848
 30
0.0
 11
135.534973969321
 21
87.32051899218848
 31
0.0
  0
LINE
  5
A0D
330
1F
100
AcDbEntity
  8
1
  6
CONTINUOUS
 62
     7
100
AcDbLine
 10
135.534973969321
 20
69.82051938334396
 30
0.0
 11
135.934973289828
 21
69.82051938334396
 31
0.0
  0
LINE
  5
A0E
330
1F
100
AcDbEntity
  8
1
  6
CONTINUOUS
 62
     7
100
AcDbLine
 10
138.7249698542163
 20
83.72051951968959
 30
0.0
 11
138.7249698542163
 21
73.42051932150414
 31
0.0
  0
LINE
  5
A0F
330
1F
100
AcDbEntity
  8
1
  6
CONTINUOUS
 62
     7
100
AcDbLine
 10
68.13496925459359
 20
69.82051938334396
 30
0.0
 11
59.46278028712723
 21
69.82051938334396
 31
0.0
  0
LINE
  5
A10
330
1F
100
AcDbEntity
  8
1
  6
CONTINUOUS
 62
     7
100
AcDbLine
 10
144.6071585320041
 20
69.82051938334396
 30
0.0
 11
135.934973289828
 21
69.82051938334396
 31
0.0
  0
LINE
  5
A11
330
1F
100
AcDbEntity
  8
1
  6
CONTINUOUS
 62
     7
100
AcDbLine
 10
60.74497119114849
 20
83.72051951968959
 30
0.0
 11
60.74497119114849
 21
73.42051932150414
 31
0.0
  0
LINE
  5
A12
330
1F
100
AcDbEntity
  8
1
  6
CONTINUOUS
 62
     7
100
AcDbLine
 10
143.3249732159183
 20
73.42051932150414
 30
0.0
 11
143.3249732159183
 21
83.72051951968959
 31
0.0
  0
LINE
  5
A13
330
1F
100
AcDbEntity
  8
1
  6
CONTINUOUS
 62
     7
100
AcDbLine
 10
135.934973289828
 20
87.32051899218848
 30
0.0
 11
144.6071585320041
 21
87.32051899218848
 31
0.0
  0
LINE
  5
A14
330
1F
100
AcDbEntity
  8
1
  6
CONTINUOUS
 62
     7
100
AcDbLine
 10
59.46278028712723
 20
87.32051899218848
 30
0.0
 11
68.13496925459359
 21
87.32051899218848
 31
0.0
  0
ARC
  5
A15
330
1F
100
AcDbEntity
  8
1
  6
CONTINUOUS
 62
     7
100
AcDbCircle
 10
63.0449704086673
 20
83.72051937790579
 30
0.0
 40
2.299999999999997
100
AcDbArc
 50
0.0
 51
180.0
  0
ARC
  5
A16
330
1F
100
AcDbEntity
  8
1
  6
CONTINUOUS
 62
     7
100
AcDbCircle
 10
63.0449704086673
 20
73.42051937790578
 30
0.0
 40
2.299999999999997
100
AcDbArc
 50
180.0
 51
0.0
  0
ARC
  5
A17
330
1F
100
AcDbEntity
  8
1
  6
CONTINUOUS
 62
     7
100
AcDbCircle
 10
141.0249704086673
 20
73.42051937790578
 30
0.0
 40
2.300000000000011
100
AcDbArc
 50
180.0
 51
0.0
  0
LINE
  5
A18
330
1F
100
AcDbEntity
  8
1
  6
CONTINUOUS
 62
     7
100
AcDbLine
 10
65.34496896491501
 20
73.42051932150414
 30
0.0
 11
65.34496896491501
 21
83.72051951968959
 31
0.0
  0
ARC
  5
A19
330
1F
100
AcDbEntity
  8
1
  6
CONTINUOUS
 62
     7
100
AcDbCircle
 10
141.0249704086673
 20
83.72051937790579
 30
0.0
 40
2.300000000000011
100
AcDbArc
 50
0.0
 51
180.0
  0
LINE
  5
A1A
330
1F
100
AcDbEntity
  8
1
  6
CONTINUOUS
 62
     7
100
AcDbLine
 10
144.6071585320041
 20
87.32051899218848
 30
0.0
 11
146.8349715374515
 21
87.32051899218848
 31
0.0
  0
LINE
  5
A1B
330
1F
100
AcDbEntity
  8
1
  6
CONTINUOUS
 62
     7
100
AcDbLine
 10
57.23497100697014
 20
87.32051899218848
 30
0.0
 11
59.46278028712723
 21
87.32051899218848
 31
0.0
  0
LINE
  5
A1C
330
1F
100
AcDbEntity
  8
1
  6
CONTINUOUS
 62
     7
100
AcDbLine
 10
146.8349715374515
 20
69.82051938334396
 30
0.0
 11
144.6071585320041
 21
69.82051938334396
 31
0.0
  0
LINE
  5
A1D
330
1F
100
AcDbEntity
  8
1
  6
CONTINUOUS
 62
     7
100
AcDbLine
 10
59.46278028712723
 20
69.82051938334396
 30
0.0
 11
57.23497100697014
 21
69.82051938334396
 31
0.0
  0
CIRCLE
  5
A1E
330
1F
100
AcDbEntity
  8
1
  6
CONTINUOUS
 62
     7
100
AcDbCircle
 10
141.0249704086673
 20
73.57051937790571
 30
0.0
 40
2.0
  0
CIRCLE
  5
A1F
330
1F
100
AcDbEntity
  8
1
  6
CONTINUOUS
 62
     7
100
AcDbCircle
 10
141.0249704086673
 20
78.57051937790573
 30
0.0
 40
2.0
  0
CIRCLE
  5
A20
330
1F
100
AcDbEntity
  8
1
  6
CONTINUOUS
 62
     7
100
AcDbCircle
 10
141.0249704086673
 20
83.57051937790573
 30
0.0
 40
2.0
  0
CIRCLE
  5
A21
330
1F
100
AcDbEntity
  8
1
  6
CONTINUOUS
 62
     7
100
AcDbCircle
 10
63.0449704086673
 20
83.57051937790578
 30
0.0
 40
2.0
  0
CIRCLE
  5
A22
330
1F
100
AcDbEntity
  8
1
  6
CONTINUOUS
 62
     7
100
AcDbCircle
 10
63.0449704086673
 20
78.57051937790577
 30
0.0
 40
2.0
  0
CIRCLE
  5
A23
330
1F
100
AcDbEntity
  8
1
  6
CONTINUOUS
 62
     7
100
AcDbCircle
 10
63.0449704086673
 20
73.57051937790577
 30
0.0
 40
2.0
  0
ARC
  5
A24
330
1F
100
AcDbEntity
  8
1
  6
CONTINUOUS
 62
     7
100
AcDbCircle
 10
141.0249704086673
 20
83.57051937790578
 30
0.0
 40
1.950000000000004
100
AcDbArc
 50
277.3658858289646
 51
82.63411417103703
  0
SPLINE
  5
A25
330
1F
100
AcDbEntity
  8
1
  6
CONTINUOUS
 62
     7
100
AcDbSpline
210
0.0
220
0.0
230
1.0
 70
    24
 71
     3
 72
    12
 73
     8
 74
     0
 42
0.000000001
 43
0.00000001
 40
0.0
 40
0.0
 40
0.0
 40
0.0
 40
0.2122371898709193
 40
0.4244497527435658
 40
0.6373701641428486
 40
0.851992846576244
 40
1.0
 40
1.0
 40
1.0
 40
1.0
 10
141.2749683164165
 20
81.63661121884279
 30
0.0
 10
141.2749683164165
 20
81.63991445349087
 30
0.0
 10
141.2749683164165
 20
81.64652053949534
 30
0.0
 10
141.2749683164165
 20
81.69799120168628
 30
0.0
 10
141.2749683164165
 20
81.77386938819562
 30
0.0
 10
141.2749683164165
 20
81.85918304755525
 30
0.0
 10
141.2749683164165
 20
81.91626899426966
 30
0.0
 10
141.2749683164165
 20
81.93956858972005
 30
0.0
  0
SPLINE
  5
A26
330
1F
100
AcDbEntity
  8
1
  6
CONTINUOUS
 62
     7
100
AcDbSpline
210
0.0
220
0.0
230
1.0
 70
    24
 71
     3
 72
    12
 73
     8
 74
     0
 42
0.000000001
 43
0.00000001
 40
0.0
 40
0.0
 40
0.0
 40
0.0
 40
0.2174893416902898
 40
0.4350312893227674
 40
0.651157269686286
 40
0.8652446873714951
 40
0.9999999999999999
 40
0.9999999999999999
 40
0.9999999999999999
 40
0.9999999999999999
 10
141.2749683164165
 20
85.20147002795628
 30
0.0
 10
141.2749683164165
 20
85.23580829349456
 30
0.0
 10
141.2749683164165
 20
85.30449313025082
 30
0.0
 10
141.2749683164165
 20
85.395885212997
 30
0.0
 10
141.2749683164165
 20
85.46429676798152
 30
0.0
 10
141.2749683164165
 20
85.49957567990162
 30
0.0
 10
141.2749683164165
 20
85.5030751242461
 30
0.0
 10
141.2749683164165
 20
85.50442693317225
 30
0.0
  0
ARC
  5
A27
330
1F
100
AcDbEntity
  8
1
  6
CONTINUOUS
 62
     7
100
AcDbCircle
 10
63.0449704086673
 20
73.57051937790577
 30
0.0
 40
1.949999999999997
100
AcDbArc
 50
97.36588582896299
 51
262.634114171037
  0
SPLINE
  5
A28
330
1F
100
AcDbEntity
  8
1
  6
CONTINUOUS
 62
     7
100
AcDbSpline
210
0.0
220
0.0
230
1.0
 70
    24
 71
     3
 72
    12
 73
     8
 74
     0
 42
0.000000001
 43
0.00000001
 40
0.0
 40
0.0
 40
0.0
 40
0.0
 40
0.212237036514729
 40
0.424449768351559
 40
0.6373693729297251
 40
0.8519928956316548
 40
1.0
 40
1.0
 40
1.0
 40
1.0
 10
62.79497050271485
 20
75.50442738952032
 30
0.0
 10
62.79497050271485
 20
75.50112427610892
 30
0.0
 10
62.79497050271485
 20
75.49451842754769
 30
0.0
 10
62.79497050271485
 20
75.44304733855112
 30
0.0
 10
62.79497050271485
 20
75.36716959444428
 30
0.0
 10
62.79497050271485
 20
75.28185566885686
 30
0.0
 10
62.79497050271485
 20
75.22476960382527
 30
0.0
 10
62.79497050271485
 20
75.20147001864305
 30
0.0
  0
SPLINE
  5
A29
330
1F
100
AcDbEntity
  8
1
  6
CONTINUOUS
 62
     7
100
AcDbSpline
210
0.0
220
0.0
230
1.0
 70
    24
 71
     3
 72
    12
 73
     8
 74
     0
 42
0.000000001
 43
0.00000001
 40
0.0
 40
0.0
 40
0.0
 40
0.0
 40
0.2174892113777237
 40
0.4350318923521845
 40
0.651157743220019
 40
0.8652446626796783
 40
0.9999999999999999
 40
0.9999999999999999
 40
0.9999999999999999
 40
0.9999999999999999
 10
62.79497050271485
 20
71.93956881323746
 30
0.0
 10
62.79497050271485
 20
71.90523055680106
 30
0.0
 10
62.79497050271485
 20
71.83654560188779
 30
0.0
 10
62.79497050271485
 20
71.7451532843103
 30
0.0
 10
62.79497050271485
 20
71.67674142847953
 30
0.0
 10
62.79497050271485
 20
71.64146343436536
 30
0.0
 10
62.79497050271485
 20
71.63796345863841
 30
0.0
 10
62.79497050271485
 20
71.63661144236019
 30
0.0
  0
SPLINE
  5
A2A
330
1F
100
AcDbEntity
  8
1
  6
CONTINUOUS
 62
     7
100
AcDbSpline
210
0.0
220
0.0
230
1.0
 70
    24
 71
     3
 72
    12
 73
     8
 74
     0
 42
0.000000001
 43
0.00000001
 40
0.0
 40
0.0
 40
0.0
 40
0.0
 40
0.2174883810624026
 40
0.435032069059379
 40
0.6511574079342919
 40
0.8652444684518374
 40
1.0
 40
1.0
 40
1.0
 40
1.0
 10
62.79497050271485
 20
81.93956858972005
 30
0.0
 10
62.79497050271485
 20
81.9052305151934
 30
0.0
 10
62.79497050271485
 20
81.83654563402474
 30
0.0
 10
62.79497050271485
 20
81.74515312794193
 30
0.0
 10
62.79497050271485
 20
81.67674165791628
 30
0.0
 10
62.79497050271485
 20
81.64146386426941
 30
0.0
 10
62.79497050271485
 20
81.63796341766644
 30
0.0
 10
62.79497050271485
 20
81.63661121884279
 30
0.0
  0
ARC
  5
A2B
330
1F
100
AcDbEntity
  8
1
  6
CONTINUOUS
 62
     7
100
AcDbCircle
 10
63.0449704086673
 20
83.57051937790578
 30
0.0
 40
1.950000000000008
100
AcDbArc
 50
97.36588582896634
 51
262.6341141710354
  0
SPLINE
  5
A2C
330
1F
100
AcDbEntity
  8
1
  6
CONTINUOUS
 62
     7
100
AcDbSpline
210
0.0
220
0.0
230
1.0
 70
    24
 71
     3
 72
    12
 73
     8
 74
     0
 42
0.000000001
 43
0.00000001
 40
0.0
 40
0.0
 40
0.0
 40
0.0
 40
0.2122368442309593
 40
0.4244503507129908
 40
0.6373692759714374
 40
0.8519928560582865
 40
0.9999999999999999
 40
0.9999999999999999
 40
0.9999999999999999
 40
0.9999999999999999
 10
62.79497050271485
 20
85.50442693317225
 30
0.0
 10
62.79497050271485
 20
85.50112417113178
 30
0.0
 10
62.79497050271485
 20
85.49451901022539
 30
0.0
 10
62.79497050271485
 20
85.4430467071596
 30
0.0
 10
62.79497050271485
 20
85.36716964791839
 30
0.0
 10
62.79497050271485
 20
85.28185565327442
 30
0.0
 10
62.79497050271485
 20
85.22476960592255
 30
0.0
 10
62.79497050271485
 20
85.20147002795628
 30
0.0
  0
SPLINE
  5
A2D
330
1F
100
AcDbEntity
  8
1
  6
CONTINUOUS
 62
     7
100
AcDbSpline
210
0.0
220
0.0
230
1.0
 70
    24
 71
     3
 72
    12
 73
     8
 74
     0
 42
0.000000001
 43
0.00000001
 40
0.0
 40
0.0
 40
0.0
 40
0.0
 40
0.2174893416902898
 40
0.4350312893227674
 40
0.651157269686286
 40
0.8652446873714951
 40
0.9999999999999999
 40
0.9999999999999999
 40
0.9999999999999999
 40
0.9999999999999999
 10
63.29497151599381
 20
85.20147002795628
 30
0.0
 10
63.29497151599381
 20
85.23580829349456
 30
0.0
 10
63.29497151599381
 20
85.30449313025082
 30
0.0
 10
63.29497151599381
 20
85.395885212997
 30
0.0
 10
63.29497151599381
 20
85.46429676798152
 30
0.0
 10
63.29497151599381
 20
85.49957567990162
 30
0.0
 10
63.29497151599381
 20
85.5030751242461
 30
0.0
 10
63.29497151599381
 20
85.50442693317225
 30
0.0
  0
ARC
  5
A2E
330
1F
100
AcDbEntity
  8
1
  6
CONTINUOUS
 62
     7
100
AcDbCircle
 10
63.0449704086673
 20
83.57051937790578
 30
0.0
 40
1.950000000000008
100
AcDbArc
 50
277.3658858289646
 51
82.63411417103538
  0
SPLINE
  5
A2F
330
1F
100
AcDbEntity
  8
1
  6
CONTINUOUS
 62
     7
100
AcDbSpline
210
0.0
220
0.0
230
1.0
 70
    24
 71
     3
 72
    12
 73
     8
 74
     0
 42
0.000000001
 43
0.00000001
 40
0.0
 40
0.0
 40
0.0
 40
0.0
 40
0.2122371898709193
 40
0.4244497527435658
 40
0.6373701641428486
 40
0.851992846576244
 40
1.0
 40
1.0
 40
1.0
 40
1.0
 10
63.29497151599381
 20
81.63661121884279
 30
0.0
 10
63.29497151599381
 20
81.63991445349087
 30
0.0
 10
63.29497151599381
 20
81.64652053949534
 30
0.0
 10
63.29497151599381
 20
81.69799120168628
 30
0.0
 10
63.29497151599381
 20
81.77386938819562
 30
0.0
 10
63.29497151599381
 20
81.85918304755525
 30
0.0
 10
63.29497151599381
 20
81.91626899426966
 30
0.0
 10
63.29497151599381
 20
81.93956858972005
 30
0.0
  0
ARC
  5
A30
330
1F
100
AcDbEntity
  8
1
  6
CONTINUOUS
 62
     7
100
AcDbCircle
 10
141.0249704086673
 20
73.57051937790577
 30
0.0
 40
1.950000000000022
100
AcDbArc
 50
97.36588582896795
 51
262.6341141710321
  0
SPLINE
  5
A31
330
1F
100
AcDbEntity
  8
1
  6
CONTINUOUS
 62
     7
100
AcDbSpline
210
0.0
220
0.0
230
1.0
 70
    24
 71
     3
 72
    12
 73
     8
 74
     0
 42
0.000000001
 43
0.00000001
 40
0.0
 40
0.0
 40
0.0
 40
0.0
 40
0.2174892113777237
 40
0.4350318923521845
 40
0.651157743220019
 40
0.8652446626796783
 40
0.9999999999999999
 40
0.9999999999999999
 40
0.9999999999999999
 40
0.9999999999999999
 10
140.7749673031375
 20
71.93956881323746
 30
0.0
 10
140.7749673031375
 20
71.90523055680106
 30
0.0
 10
140.7749673031375
 20
71.83654560188779
 30
0.0
 10
140.7749673031375
 20
71.7451532843103
 30
0.0
 10
140.7749673031375
 20
71.67674142847953
 30
0.0
 10
140.7749673031375
 20
71.64146343436536
 30
0.0
 10
140.7749673031375
 20
71.63796345863841
 30
0.0
 10
140.7749673031375
 20
71.63661144236019
 30
0.0
  0
SPLINE
  5
A32
330
1F
100
AcDbEntity
  8
1
  6
CONTINUOUS
 62
     7
100
AcDbSpline
210
0.0
220
0.0
230
1.0
 70
    24
 71
     3
 72
    12
 73
     8
 74
     0
 42
0.000000001
 43
0.00000001
 40
0.0
 40
0.0
 40
0.0
 40
0.0
 40
0.212237036514729
 40
0.424449768351559
 40
0.6373693729297251
 40
0.8519928956316548
 40
1.0
 40
1.0
 40
1.0
 40
1.0
 10
140.7749673031375
 20
75.50442738952032
 30
0.0
 10
140.7749673031375
 20
75.50112427610892
 30
0.0
 10
140.7749673031375
 20
75.49451842754769
 30
0.0
 10
140.7749673031375
 20
75.44304733855112
 30
0.0
 10
140.7749673031375
 20
75.36716959444428
 30
0.0
 10
140.7749673031375
 20
75.28185566885686
 30
0.0
 10
140.7749673031375
 20
75.22476960382527
 30
0.0
 10
140.7749673031375
 20
75.20147001864305
 30
0.0
  0
ARC
  5
A33
330
1F
100
AcDbEntity
  8
1
  6
CONTINUOUS
 62
     7
100
AcDbCircle
 10
141.0249704086673
 20
78.57051937790577
 30
0.0
 40
1.949999999999997
100
AcDbArc
 50
277.3658858289613
 51
82.63411417103868
  0
SPLINE
  5
A34
330
1F
100
AcDbEntity
  8
1
  6
CONTINUOUS
 62
     7
100
AcDbSpline
210
0.0
220
0.0
230
1.0
 70
    24
 71
     3
 72
    12
 73
     8
 74
     0
 42
0.000000001
 43
0.00000001
 40
0.0
 40
0.0
 40
0.0
 40
0.0
 40
0.2174892113777237
 40
0.4350318923521845
 40
0.651157743220019
 40
0.8652446626796783
 40
0.9999999999999999
 40
0.9999999999999999
 40
0.9999999999999999
 40
0.9999999999999999
 10
141.2749683164165
 20
80.20146990688436
 30
0.0
 10
141.2749683164165
 20
80.23580816332074
 30
0.0
 10
141.2749683164165
 20
80.30449311823399
 30
0.0
 10
141.2749683164165
 20
80.39588543581148
 30
0.0
 10
141.2749683164165
 20
80.46429729164227
 30
0.0
 10
141.2749683164165
 20
80.49957528575645
 30
0.0
 10
141.2749683164165
 20
80.50307526148337
 30
0.0
 10
141.2749683164165
 20
80.50442727776162
 30
0.0
  0
SPLINE
  5
A35
330
1F
100
AcDbEntity
  8
1
  6
CONTINUOUS
 62
     7
100
AcDbSpline
210
0.0
220
0.0
230
1.0
 70
    24
 71
     3
 72
    12
 73
     8
 74
     0
 42
0.000000001
 43
0.00000001
 40
0.0
 40
0.0
 40
0.0
 40
0.0
 40
0.2122369877172917
 40
0.4244498319135306
 40
0.6373696132391202
 40
0.8519929007166123
 40
1.0
 40
1.0
 40
1.0
 40
1.0
 10
141.2749683164165
 20
76.63661138880914
 30
0.0
 10
141.2749683164165
 20
76.63991444607603
 30
0.0
 10
141.2749683164165
 20
76.64652018486272
 30
0.0
 10
141.2749683164165
 20
76.697991464682
 30
0.0
 10
141.2749683164165
 20
76.77386926021077
 30
0.0
 10
141.2749683164165
 20
76.85918313928529
 30
0.0
 10
141.2749683164165
 20
76.91626917274884
 30
0.0
 10
141.2749683164165
 20
76.93956875968641
 30
0.0
  0
ARC
  5
A36
330
1F
100
AcDbEntity
  8
1
  6
CONTINUOUS
 62
     7
100
AcDbCircle
 10
141.0249704086673
 20
83.57051937790578
 30
0.0
 40
1.950000000000011
100
AcDbArc
 50
97.36588582896631
 51
262.6341141710354
  0
SPLINE
  5
A37
330
1F
100
AcDbEntity
  8
1
  6
CONTINUOUS
 62
     7
100
AcDbSpline
210
0.0
220
0.0
230
1.0
 70
    24
 71
     3
 72
    12
 73
     8
 74
     0
 42
0.000000001
 43
0.00000001
 40
0.0
 40
0.0
 40
0.0
 40
0.0
 40
0.2174883810624026
 40
0.435032069059379
 40
0.6511574079342919
 40
0.8652444684518374
 40
1.0
 40
1.0
 40
1.0
 40
1.0
 10
140.7749673031375
 20
81.93956858972005
 30
0.0
 10
140.7749673031375
 20
81.9052305151934
 30
0.0
 10
140.7749673031375
 20
81.83654563402474
 30
0.0
 10
140.7749673031375
 20
81.74515312794193
 30
0.0
 10
140.7749673031375
 20
81.67674165791628
 30
0.0
 10
140.7749673031375
 20
81.64146386426941
 30
0.0
 10
140.7749673031375
 20
81.63796341766644
 30
0.0
 10
140.7749673031375
 20
81.63661121884279
 30
0.0
  0
SPLINE
  5
A38
330
1F
100
AcDbEntity
  8
1
  6
CONTINUOUS
 62
     7
100
AcDbSpline
210
0.0
220
0.0
230
1.0
 70
    24
 71
     3
 72
    12
 73
     8
 74
     0
 42
0.000000001
 43
0.00000001
 40
0.0
 40
0.0
 40
0.0
 40
0.0
 40
0.2122368442309593
 40
0.4244503507129908
 40
0.6373692759714374
 40
0.8519928560582865
 40
0.9999999999999999
 40
0.9999999999999999
 40
0.9999999999999999
 40
0.9999999999999999
 10
140.7749673031375
 20
85.50442693317225
 30
0.0
 10
140.7749673031375
 20
85.50112417113178
 30
0.0
 10
140.7749673031375
 20
85.49451901022539
 30
0.0
 10
140.7749673031375
 20
85.4430467071596
 30
0.0
 10
140.7749673031375
 20
85.36716964791839
 30
0.0
 10
140.7749673031375
 20
85.28185565327442
 30
0.0
 10
140.7749673031375
 20
85.22476960592255
 30
0.0
 10
140.7749673031375
 20
85.20147002795628
 30
0.0
  0
ARC
  5
A39
330
1F
100
AcDbEntity
  8
1
  6
CONTINUOUS
 62
     7
100
AcDbCircle
 10
141.0249704086673
 20
73.57051937790577
 30
0.0
 40
1.949999999999993
100
AcDbArc
 50
277.3658858289613
 51
82.63411417103868
  0
SPLINE
  5
A3A
330
1F
100
AcDbEntity
  8
1
  6
CONTINUOUS
 62
     7
100
AcDbSpline
210
0.0
220
0.0
230
1.0
 70
    24
 71
     3
 72
    12
 73
     8
 74
     0
 42
0.000000001
 43
0.00000001
 40
0.0
 40
0.0
 40
0.0
 40
0.0
 40
0.2174887674562618
 40
0.4350319231705672
 40
0.6511574894580763
 40
0.8652446361078382
 40
1.0
 40
1.0
 40
1.0
 40
1.0
 10
141.2749683164165
 20
75.20147001864305
 30
0.0
 10
141.2749683164165
 20
75.2358081815757
 30
0.0
 10
141.2749683164165
 20
75.30449309451838
 30
0.0
 10
141.2749683164165
 20
75.39588554450955
 30
0.0
 10
141.2749683164165
 20
75.46429708331758
 30
0.0
 10
141.2749683164165
 20
75.49957544076074
 30
0.0
 10
141.2749683164165
 20
75.5030753858097
 30
0.0
 10
141.2749683164165
 20
75.50442738952032
 30
0.0
  0
SPLINE
  5
A3B
330
1F
100
AcDbEntity
  8
1
  6
CONTINUOUS
 62
     7
100
AcDbSpline
210
0.0
220
0.0
230
1.0
 70
    24
 71
     3
 72
    12
 73
     8
 74
     0
 42
0.000000001
 43
0.00000001
 40
0.0
 40
0.0
 40
0.0
 40
0.0
 40
0.2122369203330565
 40
0.4244498583039364
 40
0.6373694296050338
 40
0.8519929187635905
 40
1.0
 40
1.0
 40
1.0
 40
1.0
 10
141.2749683164165
 20
71.63661144236019
 30
0.0
 10
141.2749683164165
 20
71.63991444050006
 30
0.0
 10
141.2749683164165
 20
71.6465200635474
 30
0.0
 10
141.2749683164165
 20
71.69799154924269
 30
0.0
 10
141.2749683164165
 20
71.7738692144446
 30
0.0
 10
141.2749683164165
 20
71.85918316675755
 30
0.0
 10
141.2749683164165
 20
71.91626922913748
 30
0.0
 10
141.2749683164165
 20
71.93956881323746
 30
0.0
  0
ARC
  5
A3C
330
1F
100
AcDbEntity
  8
1
  6
CONTINUOUS
 62
     7
100
AcDbCircle
 10
63.0449704086673
 20
78.57051937790577
 30
0.0
 40
1.950000000000013
100
AcDbArc
 50
277.3658858289663
 51
82.63411417103538
  0
SPLINE
  5
A3D
330
1F
100
AcDbEntity
  8
1
  6
CONTINUOUS
 62
     7
100
AcDbSpline
210
0.0
220
0.0
230
1.0
 70
    24
 71
     3
 72
    12
 73
     8
 74
     0
 42
0.000000001
 43
0.00000001
 40
0.0
 40
0.0
 40
0.0
 40
0.0
 40
0.2122369877172917
 40
0.4244498319135306
 40
0.6373696132391202
 40
0.8519929007166123
 40
1.0
 40
1.0
 40
1.0
 40
1.0
 10
63.29497151599381
 20
76.63661138880914
 30
0.0
 10
63.29497151599381
 20
76.63991444607603
 30
0.0
 10
63.29497151599381
 20
76.64652018486272
 30
0.0
 10
63.29497151599381
 20
76.697991464682
 30
0.0
 10
63.29497151599381
 20
76.77386926021077
 30
0.0
 10
63.29497151599381
 20
76.85918313928529
 30
0.0
 10
63.29497151599381
 20
76.91626917274884
 30
0.0
 10
63.29497151599381
 20
76.93956875968641
 30
0.0
  0
SPLINE
  5
A3E
330
1F
100
AcDbEntity
  8
1
  6
CONTINUOUS
 62
     7
100
AcDbSpline
210
0.0
220
0.0
230
1.0
 70
    24
 71
     3
 72
    12
 73
     8
 74
     0
 42
0.000000001
 43
0.00000001
 40
0.0
 40
0.0
 40
0.0
 40
0.0
 40
0.2174892113777237
 40
0.4350318923521845
 40
0.651157743220019
 40
0.8652446626796783
 40
0.9999999999999999
 40
0.9999999999999999
 40
0.9999999999999999
 40
0.9999999999999999
 10
63.29497151599381
 20
80.20146990688436
 30
0.0
 10
63.29497151599381
 20
80.23580816332074
 30
0.0
 10
63.29497151599381
 20
80.30449311823399
 30
0.0
 10
63.29497151599381
 20
80.39588543581148
 30
0.0
 10
63.29497151599381
 20
80.46429729164227
 30
0.0
 10
63.29497151599381
 20
80.49957528575645
 30
0.0
 10
63.29497151599381
 20
80.50307526148337
 30
0.0
 10
63.29497151599381
 20
80.50442727776162
 30
0.0
  0
ARC
  5
A3F
330
1F
100
AcDbEntity
  8
1
  6
CONTINUOUS
 62
     7
100
AcDbCircle
 10
63.0449704086673
 20
78.57051937790577
 30
0.0
 40
1.950000000000002
100
AcDbArc
 50
97.36588582896465
 51
262.634114171037
  0
SPLINE
  5
A40
330
1F
100
AcDbEntity
  8
1
  6
CONTINUOUS
 62
     7
100
AcDbSpline
210
0.0
220
0.0
230
1.0
 70
    24
 71
     3
 72
    12
 73
     8
 74
     0
 42
0.000000001
 43
0.00000001
 40
0.0
 40
0.0
 40
0.0
 40
0.0
 40
0.2122369203330565
 40
0.4244498583039364
 40
0.6373694296050338
 40
0.8519929187635905
 40
1.0
 40
1.0
 40
1.0
 40
1.0
 10
62.79497050271485
 20
80.50442727776162
 30
0.0
 10
62.79497050271485
 20
80.50112427962173
 30
0.0
 10
62.79497050271485
 20
80.4945186565744
 30
0.0
 10
62.79497050271485
 20
80.44304717087911
 30
0.0
 10
62.79497050271485
 20
80.3671695056772
 30
0.0
 10
62.79497050271485
 20
80.28185555336424
 30
0.0
 10
62.79497050271485
 20
80.22476949098429
 30
0.0
 10
62.79497050271485
 20
80.20146990688436
 30
0.0
  0
SPLINE
  5
A41
330
1F
100
AcDbEntity
  8
1
  6
CONTINUOUS
 62
     7
100
AcDbSpline
210
0.0
220
0.0
230
1.0
 70
    24
 71
     3
 72
    12
 73
     8
 74
     0
 42
0.000000001
 43
0.00000001
 40
0.0
 40
0.0
 40
0.0
 40
0.0
 40
0.2174888913176344
 40
0.4350318332702497
 40
0.6511575653023457
 40
0.8652446215901701
 40
1.0
 40
1.0
 40
1.0
 40
1.0
 10
62.79497050271485
 20
76.93956875968641
 30
0.0
 10
62.79497050271485
 20
76.90523056988256
 30
0.0
 10
62.79497050271485
 20
76.83654565650124
 30
0.0
 10
62.79497050271485
 20
76.74515329278395
 30
0.0
 10
62.79497050271485
 20
76.67674158482286
 30
0.0
 10
62.79497050271485
 20
76.64146344258901
 30
0.0
 10
62.79497050271485
 20
76.63796342210097
 30
0.0
 10
62.79497050271485
 20
76.63661138880914
 30
0.0
  0
ARC
  5
A42
330
1F
100
AcDbEntity
  8
1
  6
CONTINUOUS
 62
     7
100
AcDbCircle
 10
63.0449704086673
 20
73.57051937790577
 30
0.0
 40
1.950000000000019
100
AcDbArc
 50
277.3658858289679
 51
82.63411417103372
  0
SPLINE
  5
A43
330
1F
100
AcDbEntity
  8
1
  6
CONTINUOUS
 62
     7
100
AcDbSpline
210
0.0
220
0.0
230
1.0
 70
    24
 71
     3
 72
    12
 73
     8
 74
     0
 42
0.000000001
 43
0.00000001
 40
0.0
 40
0.0
 40
0.0
 40
0.0
 40
0.2122369203330565
 40
0.4244498583039364
 40
0.6373694296050338
 40
0.8519929187635905
 40
1.0
 40
1.0
 40
1.0
 40
1.0
 10
63.29497151599381
 20
71.63661144236019
 30
0.0
 10
63.29497151599381
 20
71.63991444050006
 30
0.0
 10
63.29497151599381
 20
71.6465200635474
 30
0.0
 10
63.29497151599381
 20
71.69799154924269
 30
0.0
 10
63.29497151599381
 20
71.7738692144446
 30
0.0
 10
63.29497151599381
 20
71.85918316675755
 30
0.0
 10
63.29497151599381
 20
71.91626922913748
 30
0.0
 10
63.29497151599381
 20
71.93956881323746
 30
0.0
  0
SPLINE
  5
A44
330
1F
100
AcDbEntity
  8
1
  6
CONTINUOUS
 62
     7
100
AcDbSpline
210
0.0
220
0.0
230
1.0
 70
    24
 71
     3
 72
    12
 73
     8
 74
     0
 42
0.000000001
 43
0.00000001
 40
0.0
 40
0.0
 40
0.0
 40
0.0
 40
0.2174887674562618
 40
0.4350319231705672
 40
0.6511574894580763
 40
0.8652446361078382
 40
1.0
 40
1.0
 40
1.0
 40
1.0
 10
63.29497151599381
 20
75.20147001864305
 30
0.0
 10
63.29497151599381
 20
75.2358081815757
 30
0.0
 10
63.29497151599381
 20
75.30449309451838
 30
0.0
 10
63.29497151599381
 20
75.39588554450955
 30
0.0
 10
63.29497151599381
 20
75.46429708331758
 30
0.0
 10
63.29497151599381
 20
75.49957544076074
 30
0.0
 10
63.29497151599381
 20
75.5030753858097
 30
0.0
 10
63.29497151599381
 20
75.50442738952032
 30
0.0
  0
ARC
  5
A45
330
1F
100
AcDbEntity
  8
1
  6
CONTINUOUS
 62
     7
100
AcDbCircle
 10
141.0249704086673
 20
78.57051937790577
 30
0.0
 40
1.950000000000019
100
AcDbArc
 50
97.36588582896795
 51
262.6341141710321
  0
SPLINE
  5
A46
330
1F
100
AcDbEntity
  8
1
  6
CONTINUOUS
 62
     7
100
AcDbSpline
210
0.0
220
0.0
230
1.0
 70
    24
 71
     3
 72
    12
 73
     8
 74
     0
 42
0.000000001
 43
0.00000001
 40
0.0
 40
0.0
 40
0.0
 40
0.0
 40
0.2174888913176344
 40
0.4350318332702497
 40
0.6511575653023457
 40
0.8652446215901701
 40
1.0
 40
1.0
 40
1.0
 40
1.0
 10
140.7749673031375
 20
76.93956875968641
 30
0.0
 10
140.7749673031375
 20
76.90523056988256
 30
0.0
 10
140.7749673031375
 20
76.83654565650124
 30
0.0
 10
140.7749673031375
 20
76.74515329278395
 30
0.0
 10
140.7749673031375
 20
76.67674158482286
 30
0.0
 10
140.7749673031375
 20
76.64146344258901
 30
0.0
 10
140.7749673031375
 20
76.63796342210097
 30
0.0
 10
140.7749673031375
 20
76.63661138880914
 30
0.0
  0
SPLINE
  5
A47
330
1F
100
AcDbEntity
  8
1
  6
CONTINUOUS
 62
     7
100
AcDbSpline
210
0.0
220
0.0
230
1.0
 70
    24
 71
     3
 72
    12
 73
     8
 74
     0
 42
0.000000001
 43
0.00000001
 40
0.0
 40
0.0
 40
0.0
 40
0.0
 40
0.2122369203330565
 40
0.4244498583039364
 40
0.6373694296050338
 40
0.8519929187635905
 40
1.0
 40
1.0
 40
1.0
 40
1.0
 10
140.7749673031375
 20
80.50442727776162
 30
0.0
 10
140.7749673031375
 20
80.50112427962173
 30
0.0
 10
140.7749673031375
 20
80.4945186565744
 30
0.0
 10
140.7749673031375
 20
80.44304717087911
 30
0.0
 10
140.7749673031375
 20
80.3671695056772
 30
0.0
 10
140.7749673031375
 20
80.28185555336424
 30
0.0
 10
140.7749673031375
 20
80.22476949098429
 30
0.0
 10
140.7749673031375
 20
80.20146990688436
 30
0.0
  0
LINE
  5
A48
330
1F
100
AcDbEntity
  8
1
  6
CONTINUOUS
 62
     7
100
AcDbLine
 10
140.7749673031375
 20
81.93956858972005
 30
0.0
 11
140.7749673031375
 21
85.20147002795628
 31
0.0
  0
LINE
  5
A49
330
1F
100
AcDbEntity
  8
1
  6
CONTINUOUS
 62
     7
100
AcDbLine
 10
141.2749683164165
 20
85.20147002795628
 30
0.0
 11
141.2749683164165
 21
81.93956858972005
 31
0.0
  0
LINE
  5
A4A
330
1F
100
AcDbEntity
  8
1
  6
CONTINUOUS
 62
     7
100
AcDbLine
 10
62.79497050271485
 20
85.20147002795628
 30
0.0
 11
62.79497050271485
 21
81.93956858972005
 31
0.0
  0
LINE
  5
A4B
330
1F
100
AcDbEntity
  8
1
  6
CONTINUOUS
 62
     7
100
AcDbLine
 10
140.7749673031375
 20
76.93956875968641
 30
0.0
 11
140.7749673031375
 21
80.20146990688436
 31
0.0
  0
LINE
  5
A4C
330
1F
100
AcDbEntity
  8
1
  6
CONTINUOUS
 62
     7
100
AcDbLine
 10
62.79497050271485
 20
80.20146990688436
 30
0.0
 11
62.79497050271485
 21
76.93956875968641
 31
0.0
  0
LINE
  5
A4D
330
1F
100
AcDbEntity
  8
1
  6
CONTINUOUS
 62
     7
100
AcDbLine
 10
63.29497151599381
 20
76.93956875968641
 30
0.0
 11
63.29497151599381
 21
80.20146990688436
 31
0.0
  0
LINE
  5
A4E
330
1F
100
AcDbEntity
  8
1
  6
CONTINUOUS
 62
     7
100
AcDbLine
 10
141.2749683164165
 20
75.20147001864305
 30
0.0
 11
141.2749683164165
 21
71.93956881323746
 31
0.0
  0
LINE
  5
A4F
330
1F
100
AcDbEntity
  8
1
  6
CONTINUOUS
 62
     7
100
AcDbLine
 10
62.79497050271485
 20
75.20147001864305
 30
0.0
 11
62.79497050271485
 21
71.93956881323746
 31
0.0
  0
LINE
  5
A50
330
1F
100
AcDbEntity
  8
1
  6
CONTINUOUS
 62
     7
100
AcDbLine
 10
63.29497151599381
 20
71.93956881323746
 30
0.0
 11
63.29497151599381
 21
75.20147001864305
 31
0.0
  0
LINE
  5
A51
330
1F
100
AcDbEntity
  8
1
  6
CONTINUOUS
 62
     7
100
AcDbLine
 10
63.29497151599381
 20
81.93956858972005
 30
0.0
 11
63.29497151599381
 21
85.20147002795628
 31
0.0
  0
LINE
  5
A52
330
1F
100
AcDbEntity
  8
1
  6
CONTINUOUS
 62
     7
100
AcDbLine
 10
140.7749673031375
 20
71.93956881323746
 30
0.0
 11
140.7749673031375
 21
75.20147001864305
 31
0.0
  0
LINE
  5
A53
330
1F
100
AcDbEntity
  8
1
  6
CONTINUOUS
 62
     7
100
AcDbLine
 10
141.2749683164165
 20
80.20146990688436
 30
0.0
 11
141.2749683164165
 21
76.93956875968641
 31
0.0
  0
ARC
  5
A54
330
1F
100
AcDbEntity
  8
1
  6
CONTINUOUS
 62
     7
100
AcDbCircle
 10
63.0449704086673
 20
78.57051937790577
 30
0.0
 40
1.950000000000008
100
AcDbArc
 50
82.63411417103538
 51
97.36588582896465
  0
ARC
  5
A55
330
1F
100
AcDbEntity
  8
1
  6
CONTINUOUS
 62
     7
100
AcDbCircle
 10
63.0449704086673
 20
78.57051937790577
 30
0.0
 40
1.949999999999994
100
AcDbArc
 50
262.6341141710369
 51
277.3658858289664
  0
ARC
  5
A56
330
1F
100
AcDbEntity
  8
1
  6
CONTINUOUS
 62
     7
100
AcDbCircle
 10
141.0249704086672
 20
73.57051937790577
 30
0.0
 40
1.950000000000008
100
AcDbArc
 50
82.63411417103538
 51
97.36588582896465
  0
ARC
  5
A57
330
1F
100
AcDbEntity
  8
1
  6
CONTINUOUS
 62
     7
100
AcDbCircle
 10
141.0249704086672
 20
73.57051937790577
 30
0.0
 40
1.949999999999994
100
AcDbArc
 50
262.6341141710353
 51
277.3658858289647
  0
ARC
  5
A58
330
1F
100
AcDbEntity
  8
1
  6
CONTINUOUS
 62
     7
100
AcDbCircle
 10
63.0449704086673
 20
83.57051937790578
 30
0.0
 40
1.950000000000008
100
AcDbArc
 50
262.6341141710354
 51
277.3658858289646
  0
ARC
  5
A59
330
1F
100
AcDbEntity
  8
1
  6
CONTINUOUS
 62
     7
100
AcDbCircle
 10
63.0449704086673
 20
83.57051937790578
 30
0.0
 40
1.949999999999994
100
AcDbArc
 50
82.6341141710353
 51
97.3658858289647
  0
ARC
  5
A5A
330
1F
100
AcDbEntity
  8
1
  6
CONTINUOUS
 62
     7
100
AcDbCircle
 10
141.0249704086673
 20
83.57051937790578
 30
0.0
 40
1.949999999999997
100
AcDbArc
 50
82.63411417103703
 51
97.36588582896634
  0
ARC
  5
A5B
330
1F
100
AcDbEntity
  8
1
  6
CONTINUOUS
 62
     7
100
AcDbCircle
 10
141.0249704086673
 20
83.57051937790578
 30
0.0
 40
1.950000000000011
100
AcDbArc
 50
262.6341141710354
 51
277.3658858289646
  0
ARC
  5
A5C
330
1F
100
AcDbEntity
  8
1
  6
CONTINUOUS
 62
     7
100
AcDbCircle
 10
63.04497040866735
 20
73.57051937790577
 30
0.0
 40
1.949999999999994
100
AcDbArc
 50
262.6341141710353
 51
277.3658858289647
  0
ARC
  5
A5D
330
1F
100
AcDbEntity
  8
1
  6
CONTINUOUS
 62
     7
100
AcDbCircle
 10
63.04497040866735
 20
73.57051937790577
 30
0.0
 40
1.950000000000008
100
AcDbArc
 50
82.63411417103538
 51
97.36588582896465
  0
ARC
  5
A5E
330
1F
100
AcDbEntity
  8
1
  6
CONTINUOUS
 62
     7
100
AcDbCircle
 10
141.0249704086672
 20
78.57051937790577
 30
0.0
 40
1.949999999999997
100
AcDbArc
 50
262.6341141710353
 51
277.3658858289647
  0
ARC
  5
A5F
330
1F
100
AcDbEntity
  8
1
  6
CONTINUOUS
 62
     7
100
AcDbCircle
 10
141.0249704086672
 20
78.57051937790577
 30
0.0
 40
1.950000000000011
100
AcDbArc
 50
82.63411417103538
 51
97.36588582896465
  0
ARC
  5
A60
330
1F
100
AcDbEntity
  8
1
  6
CONTINUOUS
 62
     7
100
AcDbCircle
 10
57.23497040866724
 20
70.02051937790577
 30
0.0
 40
0.2000000000000028
100
AcDbArc
 50
180.0
 51
270.0
  0
ARC
  5
A61
330
1F
100
AcDbEntity
  8
1
  6
CONTINUOUS
 62
     7
100
AcDbCircle
 10
57.23497040866724
 20
87.12051937790577
 30
0.0
 40
0.2000000000000171
100
AcDbArc
 50
90.0
 51
180.0
  0
LINE
  5
A62
330
1F
100
AcDbEntity
  8
1
  6
CONTINUOUS
 62
     7
100
AcDbLine
 10
57.03496948407147
 20
70.02051950925878
 30
0.0
 11
57.03496948407147
 21
87.12051933193496
 31
0.0
  0
ARC
  5
A63
330
1F
100
AcDbEntity
  8
1
  6
CONTINUOUS
 62
     7
100
AcDbCircle
 10
146.8349704086673
 20
70.02051937790577
 30
0.0
 40
0.2000000000000028
100
AcDbArc
 50
270.0
 51
0.0
  0
LINE
  5
A64
330
1F
100
AcDbEntity
  8
1
  6
CONTINUOUS
 62
     7
100
AcDbLine
 10
147.0349674724147
 20
87.12051933193496
 30
0.0
 11
147.0349674724147
 21
70.02051950925878
 31
0.0
  0
ARC
  5
A65
330
1F
100
AcDbEntity
  8
1
  6
CONTINUOUS
 62
     7
100
AcDbCircle
 10
146.8349704086673
 20
87.12051937790577
 30
0.0
 40
0.2000000000000171
100
AcDbArc
 50
0.0
 51
90.0
  0
LINE
  5
A66
330
1F
100
AcDbEntity
  8
1
  6
CONTINUOUS
 62
     7
100
AcDbLine
 10
52.66997978613827
 20
134.3996958139664
 30
0.0
 11
52.69617416487191
 21
131.3979518863684
 31
0.0
  0
ARC
  5
A67
330
1F
100
AcDbEntity
  8
1
  6
CONTINUOUS
 62
     7
100
AcDbCircle
 10
52.89616708924783
 20
131.3996965024001
 30
0.0
 40
0.200000000000021
100
AcDbArc
 50
180.499999999998
 51
270.0
  0
LINE
  5
A68
330
1F
100
AcDbEntity
  8
1
  6
CONTINUOUS
 62
     7
100
AcDbLine
 10
151.3737683795497
 20
131.3979518863684
 30
0.0
 11
151.3999646209285
 21
134.3996958139664
 31
0.0
  0
ARC
  5
A69
330
1F
100
AcDbEntity
  8
1
  6
CONTINUOUS
 62
     7
100
AcDbCircle
 10
151.1737737280867
 20
131.3996965024001
 30
0.0
 40
0.1999999999999886
100
AcDbArc
 50
270.0
 51
359.5000000000019
  0
LWPOLYLINE
  5
A72
330
1F
100
AcDbEntity
  8
1
  6
CONTINUOUS
 62
     7
100
AcDbPolyline
 90
        3
 70
   128
 43
0.0
 10
53.57268281803582
 20
132.7979513707883
 10
53.57001178489182
 20
133.1979264769084
 10
53.56198750958893
 20
134.3996958139664
  0
SPLINE
  5
A73
330
1F
100
AcDbEntity
  8
1
  6
CONTINUOUS
 62
     7
100
AcDbSpline
210
0.0
220
0.0
230
1.0
 70
    24
 71
     3
 72
    11
 73
     7
 74
     0
 42
0.000000001
 43
0.00000001
 40
0.0
 40
0.0
 40
0.0
 40
0.0
 40
0.2578457426048872
 40
0.5156939506675676
 40
0.7735358934216314
 40
1.0
 40
1.0
 40
1.0
 40
1.0
 10
53.56198750958893
 20
134.3996958139664
 30
0.0
 10
53.56996319604602
 20
134.3996958139664
 30
0.0
 10
53.58591464522172
 20
134.3996958139664
 30
0.0
 10
53.63474446106525
 20
134.3996958139665
 30
0.0
 10
53.69314860356107
 20
134.3996958139664
 30
0.0
 10
53.73537325910067
 20
134.3996958139664
 30
0.0
 10
53.75511773453209
 20
134.3996958139664
 30
0.0
  0
ARC
  5
A74
330
1F
100
AcDbEntity
  8
1
  6
CONTINUOUS
 62
     7
100
AcDbCircle
 10
84.93420934828558
 20
133.6742709670138
 30
0.0
 40
0.2000000000000048
100
AcDbArc
 50
184.9999999999967
 51
264.2894068625125
  0
LINE
  5
A75
330
1F
100
AcDbEntity
  8
1
  6
CONTINUOUS
 62
     7
100
AcDbLine
 10
86.46057002768967
 20
133.3206375393397
 30
0.0
 11
84.91431005821678
 21
133.475263163758
 31
0.0
  0
ARC
  5
A76
330
1F
100
AcDbEntity
  8
1
  6
CONTINUOUS
 62
     7
100
AcDbCircle
 10
84.48671263539492
 20
134.1996965024001
 30
0.0
 40
0.2000000000000038
100
AcDbArc
 50
4.999999999996783
 51
90.0
  0
LINE
  5
A77
330
1F
100
AcDbEntity
  8
1
  6
CONTINUOUS
 62
     7
100
AcDbLine
 10
84.73497085795853
 20
133.6568394008405
 30
0.0
 11
84.68594976292107
 21
134.2171267870194
 31
0.0
  0
LINE
  5
A78
330
1F
100
AcDbEntity
  8
1
  6
CONTINUOUS
 62
     7
100
AcDbLine
 10
57.03496948407147
 20
134.3996958139664
 30
0.0
 11
53.75511773453209
 21
134.3996958139664
 31
0.0
  0
LINE
  5
A79
330
1F
100
AcDbEntity
  8
1
  6
CONTINUOUS
 62
     7
100
AcDbLine
 10
86.66038714871857
 20
133.3006550821788
 30
0.0
 11
86.65405788050148
 21
132.5754863473899
 31
0.0
  0
LWPOLYLINE
  5
A7A
330
1F
100
AcDbEntity
  8
1
  6
CONTINUOUS
 62
     7
100
AcDbPolyline
 90
        9
 70
   128
 43
0.0
 10
86.46057002768967
 20
133.3206375393397
 10
86.49955146537278
 20
133.3167390230424
 10
86.5370390616462
 20
133.3129913810021
 10
86.57158367858383
 20
133.3095361742503
 10
86.60186283812973
 20
133.3065075132376
 10
86.62671424971077
 20
133.3040227446086
 10
86.64517678842995
 20
133.3021768632657
 10
86.65655009971115
 20
133.3010387870795
 10
86.66038714871857
 20
133.3006550821788
  0
LINE
  5
A7B
330
1F
100
AcDbEntity
  8
1
  6
CONTINUOUS
 62
     7
100
AcDbLine
 10
57.03496948407147
 20
132.5996970090396
 30
0.0
 11
53.76583539472077
 21
132.5996970090396
 31
0.0
  0
ARC
  5
A7C
330
1F
100
AcDbEntity
  8
1
  6
CONTINUOUS
 62
     7
100
AcDbCircle
 10
53.76927634891288
 20
132.7962676354859
 30
0.0
 40
0.1966007409631889
100
AcDbArc
 50
179.5092993775012
 51
268.997144066276
  0
ARC
  5
A7D
330
1F
100
AcDbEntity
  8
1
  6
CONTINUOUS
 62
     7
100
AcDbCircle
 10
86.45406684651996
 20
132.5772318584292
 30
0.0
 40
0.2000000000000068
100
AcDbArc
 50
310.9143832200399
 51
359.500000000002
  0
LINE
  5
A7E
330
1F
100
AcDbEntity
  8
1
  6
CONTINUOUS
 62
     7
100
AcDbLine
 10
86.58505432830307
 20
132.4260947558409
 30
0.0
 11
85.22635900006745
 21
131.2485602948195
 31
0.0
  0
ARC
  5
A7F
330
1F
100
AcDbEntity
  8
1
  6
CONTINUOUS
 62
     7
100
AcDbCircle
 10
85.09537220494795
 20
131.3996965024001
 30
0.0
 40
0.1999999999999998
100
AcDbArc
 50
270.0
 51
310.9143832200399
  0
LINE
  5
A80
330
1F
100
AcDbEntity
  8
1
  6
CONTINUOUS
 62
     7
100
AcDbLine
 10
85.09537034259293
 20
131.1996956619746
 30
0.0
 11
84.33497153745148
 21
131.1996956619746
 31
0.0
  0
LINE
  5
A81
330
1F
100
AcDbEntity
  8
1
  6
CONTINUOUS
 62
     7
100
AcDbLine
 10
53.19710277543518
 20
132.7979513707883
 30
0.0
 11
53.57268281803582
 21
132.7979513707883
 31
0.0
  0
LWPOLYLINE
  5
A82
330
1F
100
AcDbEntity
  8
1
  6
CONTINUOUS
 62
     7
100
AcDbPolyline
 90
        3
 70
   128
 43
0.0
 10
53.20708841608021
 20
131.3979518863684
 10
53.20423484371159
 20
131.7979251298434
 10
53.19710277543518
 20
132.7979513707883
  0
LINE
  5
A83
330
1F
100
AcDbEntity
  8
1
  6
CONTINUOUS
 62
     7
100
AcDbLine
 10
53.56198750958893
 20
134.3996958139664
 30
0.0
 11
52.66997978613827
 21
134.3996958139664
 31
0.0
  0
LINE
  5
A84
330
1F
100
AcDbEntity
  8
1
  6
CONTINUOUS
 62
     7
100
AcDbLine
 10
57.03496948407147
 20
131.1996956619746
 30
0.0
 11
53.40314671919796
 21
131.1996956619746
 31
0.0
  0
ARC
  5
A85
330
1F
100
AcDbEntity
  8
1
  6
CONTINUOUS
 62
     7
100
AcDbCircle
 10
53.40511151345876
 20
131.3977091604912
 30
0.0
 40
0.198023246138565
100
AcDbArc
 50
179.9297700037711
 51
269.4314997449447
  0
LINE
  5
A86
330
1F
100
AcDbEntity
  8
1
  6
CONTINUOUS
 62
     7
100
AcDbLine
 10
53.40314671919796
 20
131.1996956619746
 30
0.0
 11
52.89616637454483
 21
131.1996956619746
 31
0.0
  0
LWPOLYLINE
  5
A87
330
1F
100
AcDbEntity
  8
1
  6
CONTINUOUS
 62
     7
100
AcDbPolyline
 90
        3
 70
   128
 43
0.0
 10
150.5079513095424
 20
134.3996958139664
 10
150.5052840016887
 20
133.9997207078463
 10
150.4972597263858
 20
132.7979513707883
  0
SPLINE
  5
A88
330
1F
100
AcDbEntity
  8
1
  6
CONTINUOUS
 62
     7
100
AcDbSpline
210
0.0
220
0.0
230
1.0
 70
    24
 71
     3
 72
    11
 73
     7
 74
     0
 42
0.000000001
 43
0.00000001
 40
0.0
 40
0.0
 40
0.0
 40
0.0
 40
0.2578466915855939
 40
0.5156870117381829
 40
0.7735359534042663
 40
1.0
 40
1.0
 40
1.0
 40
1.0
 10
150.3148248098895
 20
134.3996958139664
 30
0.0
 10
150.3373343390038
 20
134.3996958139664
 30
0.0
 10
150.3823528410183
 20
134.3996958139664
 30
0.0
 10
150.4419001372684
 20
134.3996958139664
 30
0.0
 10
150.4866928962126
 20
134.3996958139664
 30
0.0
 10
150.501178065514
 20
134.3996958139664
 30
0.0
 10
150.5079513095424
 20
134.3996958139664
 30
0.0
  0
LINE
  5
A89
330
1F
100
AcDbEntity
  8
1
  6
CONTINUOUS
 62
     7
100
AcDbLine
 10
119.1556324862048
 20
133.475263163758
 30
0.0
 11
117.6093687914417
 21
133.3206375393397
 31
0.0
  0
ARC
  5
A8A
330
1F
100
AcDbEntity
  8
1
  6
CONTINUOUS
 62
     7
100
AcDbCircle
 10
119.1357314690489
 20
133.6742709670138
 30
0.0
 40
0.2000000000000205
100
AcDbArc
 50
275.7105931375029
 51
354.9999999999965
  0
LINE
  5
A8B
330
1F
100
AcDbEntity
  8
1
  6
CONTINUOUS
 62
     7
100
AcDbLine
 10
119.3839927815006
 20
134.2171267870194
 30
0.0
 11
119.3349679611728
 21
133.6568394008405
 31
0.0
  0
ARC
  5
A8C
330
1F
100
AcDbEntity
  8
1
  6
CONTINUOUS
 62
     7
100
AcDbCircle
 10
119.5832281819396
 20
134.1996965024001
 30
0.0
 40
0.2000000000000205
100
AcDbArc
 50
90.0
 51
174.9999999999951
  0
LINE
  5
A8D
330
1F
100
AcDbEntity
  8
1
  6
CONTINUOUS
 62
     7
100
AcDbLine
 10
150.3148248098895
 20
134.3996958139664
 30
0.0
 11
147.0349674724147
 21
134.3996958139664
 31
0.0
  0
LINE
  5
A8E
330
1F
100
AcDbEntity
  8
1
  6
CONTINUOUS
 62
     7
100
AcDbLine
 10
117.4158846639201
 20
132.5754863473899
 30
0.0
 11
117.4095516704128
 21
133.3006550821788
 31
0.0
  0
LWPOLYLINE
  5
A8F
330
1F
100
AcDbEntity
  8
1
  6
CONTINUOUS
 62
     7
100
AcDbPolyline
 90
        9
 70
   128
 43
0.0
 10
117.4095516704128
 20
133.3006550821788
 10
117.4133961700008
 20
133.3010387870795
 10
117.4247657559917
 20
133.3021768632657
 10
117.4432282947108
 20
133.3040227446086
 10
117.4680759810016
 20
133.3065075132376
 10
117.4983551405475
 20
133.3095361742503
 10
117.5329034827754
 20
133.3129913810021
 10
117.5703873537585
 20
133.3167390230424
 10
117.6093687914417
 20
133.3206375393397
  0
ARC
  5
A90
330
1F
100
AcDbEntity
  8
1
  6
CONTINUOUS
 62
     7
100
AcDbCircle
 10
150.3006644262165
 20
132.7962694239035
 30
0.0
 40
0.1966024948824878
100
AcDbArc
 50
271.0022768632589
 51
0.4901750279341184
  0
LINE
  5
A91
330
1F
100
AcDbEntity
  8
1
  6
CONTINUOUS
 62
     7
100
AcDbLine
 10
150.3041034244106
 20
132.5996970090396
 30
0.0
 11
147.0349674724147
 21
132.5996970090396
 31
0.0
  0
LINE
  5
A92
330
1F
100
AcDbEntity
  8
1
  6
CONTINUOUS
 62
     7
100
AcDbLine
 10
118.8435798190639
 20
131.2485602948195
 30
0.0
 11
117.4848844908283
 21
132.4260947558409
 31
0.0
  0
ARC
  5
A93
330
1F
100
AcDbEntity
  8
1
  6
CONTINUOUS
 62
     7
100
AcDbCircle
 10
117.6158739708145
 20
132.5772318584292
 30
0.0
 40
0.2000000000000352
100
AcDbArc
 50
180.499999999998
 51
229.0856167799884
  0
LINE
  5
A94
330
1F
100
AcDbEntity
  8
1
  6
CONTINUOUS
 62
     7
100
AcDbLine
 10
119.7349672816798
 20
131.1996956619746
 30
0.0
 11
118.9745684765384
 21
131.1996956619746
 31
0.0
  0
ARC
  5
A95
330
1F
100
AcDbEntity
  8
1
  6
CONTINUOUS
 62
     7
100
AcDbCircle
 10
118.9745686123866
 20
131.3996965024001
 30
0.0
 40
0.2000000000000091
100
AcDbArc
 50
229.0856167799778
 51
270.0
  0
LWPOLYLINE
  5
A96
330
1F
100
AcDbEntity
  8
1
  6
CONTINUOUS
 62
     7
100
AcDbPolyline
 90
        3
 70
   128
 43
0.0
 10
150.8728360436961
 20
132.7979513707883
 10
150.8699824713275
 20
132.3979762646682
 10
150.8628522656963
 20
131.3979518863684
  0
LINE
  5
A97
330
1F
100
AcDbEntity
  8
1
  6
CONTINUOUS
 62
     7
100
AcDbLine
 10
150.4972597263858
 20
132.7979513707883
 30
0.0
 11
150.8728360436961
 21
132.7979513707883
 31
0.0
  0
LINE
  5
A98
330
1F
100
AcDbEntity
  8
1
  6
CONTINUOUS
 62
     7
100
AcDbLine
 10
151.3999646209285
 20
134.3996958139664
 30
0.0
 11
150.5079513095424
 21
134.3996958139664
 31
0.0
  0
LINE
  5
A99
330
1F
100
AcDbEntity
  8
1
  6
CONTINUOUS
 62
     7
100
AcDbLine
 10
150.6667976878688
 20
131.1996956619746
 30
0.0
 11
147.0349674724147
 21
131.1996956619746
 31
0.0
  0
ARC
  5
A9A
330
1F
100
AcDbEntity
  8
1
  6
CONTINUOUS
 62
     7
100
AcDbCircle
 10
150.6648252876007
 20
131.3977129611586
 30
0.0
 40
0.1980271222306144
100
AcDbArc
 50
270.5706899047229
 51
0.0691289622914541
  0
LINE
  5
A9B
330
1F
100
AcDbEntity
  8
1
  6
CONTINUOUS
 62
     7
100
AcDbLine
 10
151.1737724445865
 20
131.1996956619746
 30
0.0
 11
150.6667976878688
 21
131.1996956619746
 31
0.0
  0
LINE
  5
A9C
330
1F
100
AcDbEntity
  8
1
  6
CONTINUOUS
 62
     7
100
AcDbLine
 10
144.7820832632587
 20
158.2966582182175
 30
0.0
 11
147.0098962687061
 21
154.2775850075609
 31
0.0
  0
LINE
  5
A9D
330
1F
100
AcDbEntity
  8
1
  6
CONTINUOUS
 62
     7
100
AcDbLine
 10
135.934973289828
 20
158.399696488244
 30
0.0
 11
144.6071585320041
 21
158.399696488244
 31
0.0
  0
ARC
  5
A9E
330
1F
100
AcDbEntity
  8
1
  6
CONTINUOUS
 62
     7
100
AcDbCircle
 10
57.23497040866724
 20
154.180622670852
 30
0.0
 40
0.1999999999999919
100
AcDbArc
 50
150.9999999999982
 51
180.0
  0
LINE
  5
A9F
330
1F
100
AcDbEntity
  8
1
  6
CONTINUOUS
 62
     7
100
AcDbLine
 10
119.7349672816798
 20
130.8996980342395
 30
0.0
 11
119.7349672816798
 21
134.3996958139664
 31
0.0
  0
ARC
  5
AA0
330
1F
100
AcDbEntity
  8
1
  6
CONTINUOUS
 62
     7
100
AcDbCircle
 10
133.3071614053831
 20
178.1996965024001
 30
0.0
 40
0.2000000000000171
100
AcDbArc
 50
28.99999999999473
 51
90.0
  0
ARC
  5
AA1
330
1F
100
AcDbEntity
  8
1
  6
CONTINUOUS
 62
     7
100
AcDbCircle
 10
59.4627794119514
 20
158.1996965024001
 30
0.0
 40
0.1999999999999919
100
AcDbArc
 50
90.0
 51
151.0000000000053
  0
ARC
  5
AA2
330
1F
100
AcDbEntity
  8
1
  6
CONTINUOUS
 62
     7
100
AcDbCircle
 10
68.5349704086673
 20
174.180622670852
 30
0.0
 40
0.2000000000000056
100
AcDbArc
 50
150.9999999999982
 51
180.0
  0
LINE
  5
AA3
102
{ACAD_REACTORS
102
}
330
1F
100
AcDbEntity
  8
1
  6
CONTINUOUS
 62
     7
100
AcDbLine
 10
124.5349740289256
 20
193.2996963414676
 30
0.0
 11
124.5349740289256
 21
189.5996970388419
 31
0.0
  0
LINE
  5
AA4
330
1F
100
AcDbEntity
  8
1
  6
CONTINUOUS
 62
     7
100
AcDbLine
 10
124.5349740289256
 20
189.5996970388419
 30
0.0
 11
124.3349706433818
 21
189.5996970388419
 31
0.0
  0
LINE
  5
AA5
330
1F
100
AcDbEntity
  8
1
  6
CONTINUOUS
 62
     7
100
AcDbLine
 10
147.0349674724147
 20
130.8996980342395
 30
0.0
 11
119.7349672816798
 21
130.8996980342395
 31
0.0
  0
LINE
  5
AA6
330
1F
100
AcDbEntity
  8
1
  6
CONTINUOUS
 62
     7
100
AcDbLine
 10
133.4820856951282
 20
178.2966587025053
 30
0.0
 11
135.709891249995
 21
174.2775845605261
 31
0.0
  0
LINE
  5
AA7
330
1F
100
AcDbEntity
  8
1
  6
CONTINUOUS
 62
     7
100
AcDbLine
 10
119.7349672816798
 20
134.3996958139664
 30
0.0
 11
84.33497153745148
 21
134.3996958139664
 31
0.0
  0
ARC
  5
AA8
330
1F
100
AcDbEntity
  8
1
  6
CONTINUOUS
 62
     7
100
AcDbCircle
 10
68.13497040866727
 20
158.5996965024001
 30
0.0
 40
0.2000000000000171
100
AcDbArc
 50
270.0
 51
0.0
  0
LINE
  5
AA9
330
1F
100
AcDbEntity
  8
1
  6
CONTINUOUS
 62
     7
100
AcDbLine
 10
124.7349699638889
 20
178.3996965068704
 30
0.0
 11
133.3071609638736
 21
178.3996965068704
 31
0.0
  0
LINE
  5
AAA
330
1F
100
AcDbEntity
  8
1
  6
CONTINUOUS
 62
     7
100
AcDbLine
 10
59.46278028712723
 20
158.399696488244
 30
0.0
 11
68.13496925459359
 21
158.399696488244
 31
0.0
  0
LINE
  5
AAB
330
1F
100
AcDbEntity
  8
1
  6
CONTINUOUS
 62
     7
100
AcDbLine
 10
147.0349674724147
 20
154.18062222035
 30
0.0
 11
147.0349674724147
 21
130.8996980342395
 31
0.0
  0
ARC
  5
AAC
330
1F
100
AcDbEntity
  8
1
  6
CONTINUOUS
 62
     7
100
AcDbCircle
 10
135.5349704086673
 20
174.1806226708519
 30
0.0
 40
0.200000000000007
100
AcDbArc
 50
0.0
 51
29.00000000001688
  0
LINE
  5
AAD
330
1F
100
AcDbEntity
  8
1
  6
CONTINUOUS
 62
     7
100
AcDbLine
 10
68.36004756913636
 20
174.2775845605261
 30
0.0
 11
70.58785684929344
 21
178.2966587025053
 31
0.0
  0
ARC
  5
AAE
330
1F
100
AcDbEntity
  8
1
  6
CONTINUOUS
 62
     7
100
AcDbCircle
 10
144.6071614053832
 20
158.1996965024001
 30
0.0
 40
0.2000000000000043
100
AcDbArc
 50
28.99999999999473
 51
90.0
  0
ARC
  5
AAF
330
1F
100
AcDbEntity
  8
1
  6
CONTINUOUS
 62
     7
100
AcDbCircle
 10
146.8349704086673
 20
154.180622670852
 30
0.0
 40
0.1999999999999794
100
AcDbArc
 50
0.0
 51
28.99999999999473
  0
LINE
  5
AB0
330
1F
100
AcDbEntity
  8
1
  6
CONTINUOUS
 62
     7
100
AcDbLine
 10
135.7349699042842
 20
174.1806227046377
 30
0.0
 11
135.7349699042842
 21
158.5996966141588
 31
0.0
  0
LINE
  5
AB1
330
1F
100
AcDbEntity
  8
1
  6
CONTINUOUS
 62
     7
100
AcDbLine
 10
57.03496948407147
 20
131.099697694493
 30
0.0
 11
57.03496948407147
 21
154.18062222035
 31
0.0
  0
LINE
  5
AB2
330
1F
100
AcDbEntity
  8
1
  6
CONTINUOUS
 62
     7
100
AcDbLine
 10
57.06004627571556
 20
154.2775850075609
 30
0.0
 11
59.28785555587265
 21
158.2966582182175
 31
0.0
  0
ARC
  5
AB3
330
1F
100
AcDbEntity
  8
1
  6
CONTINUOUS
 62
     7
100
AcDbCircle
 10
79.33497040866726
 20
178.5996965024001
 30
0.0
 40
0.2000000000000028
100
AcDbArc
 50
270.0
 51
0.0
  0
LINE
  5
AB4
330
1F
100
AcDbEntity
  8
1
  6
CONTINUOUS
 62
     7
100
AcDbLine
 10
70.76277785525772
 20
178.3996965068704
 30
0.0
 11
79.33496885524247
 21
178.3996965068704
 31
0.0
  0
LINE
  5
AB5
330
1F
100
AcDbEntity
  8
1
  6
CONTINUOUS
 62
     7
100
AcDbLine
 10
84.33497153745148
 20
130.8996980342395
 30
0.0
 11
57.23497100697014
 21
130.8996980342395
 31
0.0
  0
LINE
  5
AB6
330
1F
100
AcDbEntity
  8
1
  6
CONTINUOUS
 62
     7
100
AcDbLine
 10
79.53497224078629
 20
178.599696167124
 30
0.0
 11
79.53497224078629
 21
189.5896964970357
 31
0.0
  0
LINE
  5
AB7
330
1F
100
AcDbEntity
  8
1
  6
CONTINUOUS
 62
     7
100
AcDbLine
 10
79.53497224078629
 20
189.5896964970357
 30
0.0
 11
79.73497190103981
 21
189.5896964970357
 31
0.0
  0
ARC
  5
AB8
330
1F
100
AcDbEntity
  8
1
  6
CONTINUOUS
 62
     7
100
AcDbCircle
 10
135.9349704086673
 20
158.5996965024001
 30
0.0
 40
0.2000000000000171
100
AcDbArc
 50
180.0
 51
270.0
  0
LINE
  5
AB9
330
1F
100
AcDbEntity
  8
1
  6
CONTINUOUS
 62
     7
100
AcDbLine
 10
68.33496891484711
 20
158.5996966141588
 30
0.0
 11
68.33496891484711
 21
174.1806227046377
 31
0.0
  0
LINE
  5
ABA
330
1F
100
AcDbEntity
  8
1
  6
CONTINUOUS
 62
     7
100
AcDbLine
 10
124.5349740289256
 20
189.5896964970357
 30
0.0
 11
124.5349740289256
 21
178.599696167124
 31
0.0
  0
LINE
  5
ABB
330
1F
100
AcDbEntity
  8
1
  6
CONTINUOUS
 62
     7
100
AcDbLine
 10
124.3349706433818
 20
189.5896964970357
 30
0.0
 11
124.5349740289256
 21
189.5896964970357
 31
0.0
  0
ARC
  5
ABC
330
1F
100
AcDbEntity
  8
1
  6
CONTINUOUS
 62
     7
100
AcDbCircle
 10
124.7349704086672
 20
178.5996965024001
 30
0.0
 40
0.1999999999999886
100
AcDbArc
 50
180.0
 51
270.0
  0
ARC
  5
ABD
330
1F
100
AcDbEntity
  8
1
  6
CONTINUOUS
 62
     7
100
AcDbCircle
 10
70.76277941195136
 20
178.1996965024001
 30
0.0
 40
0.2000000000000171
100
AcDbArc
 50
90.0
 51
150.9999999999982
  0
LINE
  5
ABE
330
1F
100
AcDbEntity
  8
1
  6
CONTINUOUS
 62
     7
100
AcDbLine
 10
84.33497153745148
 20
134.3996958139664
 30
0.0
 11
84.33497153745148
 21
130.8996980342395
 31
0.0
  0
ARC
  5
ABF
102
{ACAD_REACTORS
102
}
330
1F
100
AcDbEntity
  8
1
  6
CONTINUOUS
 62
     7
100
AcDbCircle
 10
80.5349704086673
 20
193.2996965024001
 30
0.0
 40
1.0
100
AcDbArc
 50
90.0
 51
180.0
  0
LINE
  5
AC0
330
1F
100
AcDbEntity
  8
1
  6
CONTINUOUS
 62
     7
100
AcDbLine
 10
145.1349725626514
 20
135.2296960803992
 30
0.0
 11
145.1349725626514
 21
136.0996966514117
 31
0.0
  0
LINE
  5
AC1
330
1F
100
AcDbEntity
  8
1
  6
CONTINUOUS
 62
     7
100
AcDbLine
 10
145.1349725626514
 20
136.0996966514117
 30
0.0
 11
139.6349688671634
 21
136.0996966514117
 31
0.0
  0
LINE
  5
AC2
330
1F
100
AcDbEntity
  8
1
  6
CONTINUOUS
 62
     7
100
AcDbLine
 10
139.6349688671634
 20
136.0996966514117
 30
0.0
 11
139.6349688671634
 21
135.2296960803992
 31
0.0
  0
LINE
  5
AC3
330
1F
100
AcDbEntity
  8
1
  6
CONTINUOUS
 62
     7
100
AcDbLine
 10
82.43496917710755
 20
135.2296960803992
 30
0.0
 11
82.43496917710755
 21
136.0996966514117
 31
0.0
  0
LINE
  5
AC4
330
1F
100
AcDbEntity
  8
1
  6
CONTINUOUS
 62
     7
100
AcDbLine
 10
82.43496917710755
 20
136.0996966514117
 30
0.0
 11
76.93496920690987
 21
136.0996966514117
 31
0.0
  0
LINE
  5
AC5
330
1F
100
AcDbEntity
  8
1
  6
CONTINUOUS
 62
     7
100
AcDbLine
 10
76.93496920690987
 20
136.0996966514117
 30
0.0
 11
76.93496920690987
 21
135.2296960803992
 31
0.0
  0
LINE
  5
AC6
330
1F
100
AcDbEntity
  8
1
  6
CONTINUOUS
 62
     7
100
AcDbLine
 10
121.4349737070605
 20
136.0996966514117
 30
0.0
 11
121.4349737070605
 21
135.2296960803992
 31
0.0
  0
LINE
  5
AC7
330
1F
100
AcDbEntity
  8
1
  6
CONTINUOUS
 62
     7
100
AcDbLine
 10
121.4349737070605
 20
135.2296960803992
 30
0.0
 11
126.9349699519679
 21
135.2296960803992
 31
0.0
  0
LINE
  5
AC8
330
1F
100
AcDbEntity
  8
1
  6
CONTINUOUS
 62
     7
100
AcDbLine
 10
126.9349699519679
 20
135.2296960803992
 30
0.0
 11
126.9349699519679
 21
136.0996966514117
 31
0.0
  0
LINE
  5
AC9
330
1F
100
AcDbEntity
  8
1
  6
CONTINUOUS
 62
     7
100
AcDbLine
 10
126.9349699519679
 20
136.0996966514117
 30
0.0
 11
121.4349737070605
 21
136.0996966514117
 31
0.0
  0
LINE
  5
ACA
330
1F
100
AcDbEntity
  8
1
  6
CONTINUOUS
 62
     7
100
AcDbLine
 10
58.63497049138996
 20
136.0996966514117
 30
0.0
 11
58.63497049138996
 21
135.2296960803992
 31
0.0
  0
LINE
  5
ACB
330
1F
100
AcDbEntity
  8
1
  6
CONTINUOUS
 62
     7
100
AcDbLine
 10
58.63497049138996
 20
135.2296960803992
 30
0.0
 11
64.13496859894249
 21
135.2296960803992
 31
0.0
  0
LINE
  5
ACC
330
1F
100
AcDbEntity
  8
1
  6
CONTINUOUS
 62
     7
100
AcDbLine
 10
64.13496859894249
 20
135.2296960803992
 30
0.0
 11
64.13496859894249
 21
136.0996966514117
 31
0.0
  0
LINE
  5
ACD
330
1F
100
AcDbEntity
  8
1
  6
CONTINUOUS
 62
     7
100
AcDbLine
 10
64.13496859894249
 20
136.0996966514117
 30
0.0
 11
58.63497049138996
 21
136.0996966514117
 31
0.0
  0
LINE
  5
ACE
330
1F
100
AcDbEntity
  8
1
  6
CONTINUOUS
 62
     7
100
AcDbLine
 10
139.6349688671634
 20
135.2296960803992
 30
0.0
 11
145.1349725626514
 21
135.2296960803992
 31
0.0
  0
LINE
  5
ACF
330
1F
100
AcDbEntity
  8
1
  6
CONTINUOUS
 62
     7
100
AcDbLine
 10
76.93496920690987
 20
135.2296960803992
 30
0.0
 11
82.43496917710755
 21
135.2296960803992
 31
0.0
  0
LINE
  5
AD0
330
1F
100
AcDbEntity
  8
1
  6
CONTINUOUS
 62
     7
100
AcDbLine
 10
124.3349706433818
 20
189.5896964970357
 30
0.0
 11
79.73497190103981
 21
189.5896964970357
 31
0.0
  0
LINE
  5
AD1
330
1F
100
AcDbEntity
  8
1
  6
CONTINUOUS
 62
     7
100
AcDbLine
 10
88.5349718533561
 20
194.0996968451268
 30
0.0
 11
88.5349718533561
 21
191.1496971997744
 31
0.0
  0
LINE
  5
AD2
330
1F
100
AcDbEntity
  8
1
  6
CONTINUOUS
 62
     7
100
AcDbLine
 10
88.5349718533561
 20
191.1496971997744
 30
0.0
 11
90.33496879563782
 21
191.1496971997744
 31
0.0
  0
LINE
  5
AD3
330
1F
100
AcDbEntity
  8
1
  6
CONTINUOUS
 62
     7
100
AcDbLine
 10
90.33496879563782
 20
191.1496971997744
 30
0.0
 11
90.33496879563782
 21
194.0996968451268
 31
0.0
  0
LINE
  5
AD4
330
1F
100
AcDbEntity
  8
1
  6
CONTINUOUS
 62
     7
100
AcDbLine
 10
113.7349700234935
 20
194.0996968451268
 30
0.0
 11
113.7349700234935
 21
191.1496971997744
 31
0.0
  0
LINE
  5
AD5
330
1F
100
AcDbEntity
  8
1
  6
CONTINUOUS
 62
     7
100
AcDbLine
 10
113.7349700234935
 20
191.1496971997744
 30
0.0
 11
115.5349706910655
 21
191.1496971997744
 31
0.0
  0
LINE
  5
AD6
330
1F
100
AcDbEntity
  8
1
  6
CONTINUOUS
 62
     7
100
AcDbLine
 10
115.5349706910655
 20
191.1496971997744
 30
0.0
 11
115.5349706910655
 21
194.0996968451268
 31
0.0
  0
LINE
  5
AD7
330
1F
100
AcDbEntity
  8
1
  6
CONTINUOUS
 62
     7
100
AcDbLine
 10
79.73497190103981
 20
189.5996970388419
 30
0.0
 11
124.3349706433818
 21
189.5996970388419
 31
0.0
  0
LINE
  5
AD8
330
1F
100
AcDbEntity
  8
1
  6
CONTINUOUS
 62
     7
100
AcDbLine
 10
79.53497224078629
 20
189.5996970388419
 30
0.0
 11
79.53497224078629
 21
193.2996963414676
 31
0.0
  0
LINE
  5
AD9
330
1F
100
AcDbEntity
  8
1
  6
CONTINUOUS
 62
     7
100
AcDbLine
 10
79.73497190103981
 20
189.5996970388419
 30
0.0
 11
79.53497224078629
 21
189.5996970388419
 31
0.0
  0
LINE
  5
ADA
330
1F
100
AcDbEntity
  8
1
  6
CONTINUOUS
 62
     7
100
AcDbLine
 10
115.5349706910655
 20
194.2996965053803
 30
0.0
 11
123.5349720023677
 21
194.2996965053803
 31
0.0
  0
LINE
  5
ADB
330
1F
100
AcDbEntity
  8
1
  6
CONTINUOUS
 62
     7
100
AcDbLine
 10
115.5349706910655
 20
194.0996968451268
 30
0.0
 11
115.5349706910655
 21
194.2996965053803
 31
0.0
  0
ARC
  5
ADC
330
1F
100
AcDbEntity
  8
1
  6
CONTINUOUS
 62
     7
100
AcDbCircle
 10
57.23497040866724
 20
131.0996965024001
 30
0.0
 40
0.1999999999999886
100
AcDbArc
 50
180.0
 51
270.0
  0
LINE
  5
ADD
330
1F
100
AcDbEntity
  8
1
  6
CONTINUOUS
 62
     7
100
AcDbLine
 10
90.33496879563782
 20
194.2996965053803
 30
0.0
 11
113.7349700234935
 21
194.2996965053803
 31
0.0
  0
LINE
  5
ADE
330
1F
100
AcDbEntity
  8
1
  6
CONTINUOUS
 62
     7
100
AcDbLine
 10
90.33496879563782
 20
194.0996968451268
 30
0.0
 11
90.33496879563782
 21
194.2996965053803
 31
0.0
  0
LINE
  5
ADF
330
1F
100
AcDbEntity
  8
1
  6
CONTINUOUS
 62
     7
100
AcDbLine
 10
113.7349700234935
 20
194.2996965053803
 30
0.0
 11
113.7349700234935
 21
194.0996968451268
 31
0.0
  0
LINE
  5
AE0
330
1F
100
AcDbEntity
  8
1
  6
CONTINUOUS
 62
     7
100
AcDbLine
 10
80.53497054205391
 20
194.2996965053803
 30
0.0
 11
88.5349718533561
 21
194.2996965053803
 31
0.0
  0
LINE
  5
AE1
330
1F
100
AcDbEntity
  8
1
  6
CONTINUOUS
 62
     7
100
AcDbLine
 10
88.5349718533561
 20
194.2996965053803
 30
0.0
 11
88.5349718533561
 21
194.0996968451268
 31
0.0
  0
ARC
  5
AE2
330
1F
100
AcDbEntity
  8
1
  6
CONTINUOUS
 62
     7
100
AcDbCircle
 10
123.5349704086673
 20
193.2996965024001
 30
0.0
 40
1.0
100
AcDbArc
 50
0.0
 51
90.0
  0
LINE
  5
AE3
330
1F
100
AcDbEntity
  8
1
  6
CONTINUOUS
 62
     7
100
AcDbLine
 10
124.0349730156467
 20
189.5896964970357
 30
0.0
 11
124.0349730156467
 21
189.5996970388419
 31
0.0
  0
LINE
  5
AE4
330
1F
100
AcDbEntity
  8
1
  6
CONTINUOUS
 62
     7
100
AcDbLine
 10
80.03496952877495
 20
189.5896964970357
 30
0.0
 11
80.03496952877495
 21
189.5996970388419
 31
0.0
  0
LINE
  5
AE5
330
1F
100
AcDbEntity
  8
1
  6
CONTINUOUS
 62
     7
100
AcDbLine
 10
115.5349706910655
 20
194.2996965053803
 30
0.0
 11
113.7349700234935
 21
194.2996965053803
 31
0.0
  0
LINE
  5
AE6
330
1F
100
AcDbEntity
  8
1
  6
CONTINUOUS
 62
     7
100
AcDbLine
 10
90.33496879563782
 20
194.2996965053803
 30
0.0
 11
88.5349718533561
 21
194.2996965053803
 31
0.0
  0
LINE
  5
AEB
330
1F
100
AcDbEntity
  8
OSIE
100
AcDbLine
 10
102.0349694095656
 20
124.8270828693702
 30
0.0
 11
102.0349694095656
 21
199.4956276190042
 31
0.0
  0
LINE
  5
AEC
330
1F
100
AcDbEntity
  8
OSIE
100
AcDbLine
 10
50.07767958294502
 20
78.57051937790561
 30
0.0
 11
153.8113115907513
 21
78.57051937790561
 31
0.0
  0
LINE
  5
AEF
330
1F
100
AcDbEntity
  8
OSIE
100
AcDbLine
 10
141.0249704086673
 20
87.21204652350774
 30
0.0
 11
141.0249704086673
 21
79.92899223230384
 31
0.0
  0
LINE
  5
AF0
330
1F
100
AcDbEntity
  8
OSIE
100
AcDbLine
 10
141.0249704086672
 20
82.21204652350772
 30
0.0
 11
141.0249704086672
 21
74.92899223230383
 31
0.0
  0
LINE
  5
AF1
330
1F
100
AcDbEntity
  8
OSIE
100
AcDbLine
 10
141.0249704086673
 20
77.21204652350772
 30
0.0
 11
141.0249704086673
 21
69.92899223230383
 31
0.0
  0
LINE
  5
AF2
330
1F
100
AcDbEntity
  8
OSIE
100
AcDbLine
 10
63.0449704086673
 20
87.21204652350774
 30
0.0
 11
63.0449704086673
 21
79.92899223230384
 31
0.0
  0
LINE
  5
AF3
330
1F
100
AcDbEntity
  8
OSIE
100
AcDbLine
 10
63.0449704086673
 20
82.21204652350772
 30
0.0
 11
63.0449704086673
 21
74.92899223230383
 31
0.0
  0
LINE
  5
AF4
330
1F
100
AcDbEntity
  8
OSIE
100
AcDbLine
 10
63.0449704086673
 20
77.21204652350772
 30
0.0
 11
63.0449704086673
 21
69.92899223230383
 31
0.0
  0
LINE
  5
AF5
330
1F
100
AcDbEntity
  8
OSIE
100
AcDbLine
 10
74.34497040866725
 20
86.88626562859436
 30
0.0
 11
74.34497040866725
 21
70.23653501107884
 31
0.0
  0
LINE
  5
AF6
330
1F
100
AcDbEntity
  8
OSIE
100
AcDbLine
 10
60.11092607559575
 20
73.57051937790578
 30
0.0
 11
65.97901474173885
 21
73.57051937790578
 31
0.0
  0
LINE
  5
AF7
330
1F
100
AcDbEntity
  8
OSIE
100
AcDbLine
 10
60.11092607559575
 20
83.57051937790578
 30
0.0
 11
65.97901474173885
 21
83.57051937790578
 31
0.0
  0
LINE
  5
AF8
330
1F
100
AcDbEntity
  8
OSIE
100
AcDbLine
 10
138.0909260755958
 20
83.57051937790578
 30
0.0
 11
143.9590147417389
 21
83.57051937790578
 31
0.0
  0
LINE
  5
AF9
330
1F
100
AcDbEntity
  8
OSIE
100
AcDbLine
 10
138.0909260755958
 20
73.57051937790578
 30
0.0
 11
143.9590147417389
 21
73.57051937790578
 31
0.0
  0
LINE
  5
B05
330
1F
100
AcDbEntity
  8
OSIE
100
AcDbLine
 10
129.7049709892165
 20
86.88626562859436
 30
0.0
 11
129.7049709892165
 21
70.23653501107884
 31
0.0
  0
DIMENSION
  5
B09
330
1F
100
AcDbEntity
  8
WY
100
AcDbDimension
  2
*D30
 10
151.3999646209285
 20
107.641677154455
 30
0.0
 11
102.0349722035334
 21
109.641677154455
 31
0.0
 70
    32
  3
ISO-25
100
AcDbAlignedDimension
 13
52.66997978613827
 23
134.3996958139664
 33
0.0
 14
151.3999646209285
 24
134.3996958139664
 34
0.0
100
AcDbRotatedDimension
1001
ACAD
1000
DSTYLE
1002
{
1070
   287
1070
     5
1070
   271
1070
     1
1070
   143
1040
0.0393700787401575
1070
    41
1040
2.0
1070
    44
1040
1.0
1070
    42
1040
1.0
1070
   147
1040
1.0
1070
    77
1070
     3
1070
   174
1070
     1
1070
   279
1070
     2
1070
    74
1070
     1
1070
   140
1040
2.0
1002
}
  0
DIMENSION
  5
B18
330
1F
100
AcDbEntity
  8
WY
100
AcDbDimension
  2
*D31
 10
119.7349672816798
 20
119.2636100342161
 30
0.0
 11
102.0349694095657
 21
121.2636100342161
 31
0.0
 70
    32
  3
ISO-25
100
AcDbAlignedDimension
 13
84.33497153745148
 23
130.8996980342395
 33
0.0
 14
119.7349672816798
 24
130.8996980342395
 34
0.0
100
AcDbRotatedDimension
1001
ACAD
1000
DSTYLE
1002
{
1070
   287
1070
     5
1070
   143
1040
0.0393700787401575
1070
    41
1040
2.0
1070
    44
1040
1.0
1070
    42
1040
1.0
1070
   147
1040
1.0
1070
    77
1070
     3
1070
   174
1070
     1
1070
   279
1070
     2
1070
    74
1070
     1
1070
   140
1040
2.0
1002
}
  0
DIMENSION
  5
B27
330
1F
100
AcDbEntity
  8
WY
100
AcDbDimension
  2
*D32
 10
147.0349674724147
 20
113.7166507728346
 30
0.0
 11
102.034968940541
 21
115.7166507728346
 31
0.0
 70
    32
  3
ISO-25
100
AcDbAlignedDimension
 13
57.03497040866725
 23
131.0996965024001
 33
0.0
 14
147.0349674724147
 24
130.8996980342395
 34
0.0
100
AcDbRotatedDimension
1001
ACAD
1000
DSTYLE
1002
{
1070
   287
1070
     5
1070
   143
1040
0.0393700787401575
1070
    41
1040
2.0
1070
    44
1040
1.0
1070
    42
1040
1.0
1070
   147
1040
1.0
1070
    77
1070
     3
1070
   174
1070
     1
1070
   279
1070
     2
1070
    74
1070
     1
1070
   140
1040
2.0
1002
}
  0
DIMENSION
  5
B36
330
1F
100
AcDbEntity
  8
WY
100
AcDbDimension
  2
*D33
 10
160.1343538693603
 20
134.3996958139664
 30
0.0
 11
158.1343538693603
 21
156.3996961604184
 31
0.0
 70
    32
  3
ISO-25
100
AcDbAlignedDimension
 13
133.3071609638736
 23
178.3996965068704
 33
0.0
 14
151.3999646209285
 24
134.3996958139664
 34
0.0
 50
90.0
100
AcDbRotatedDimension
1001
ACAD
1000
DSTYLE
1002
{
1070
   287
1070
     5
1070
   143
1040
0.0393700787401575
1070
    41
1040
2.0
1070
    44
1040
1.0
1070
    42
1040
1.0
1070
   147
1040
1.0
1070
    77
1070
     3
1070
   174
1070
     1
1070
   279
1070
     2
1070
    74
1070
     1
1070
   140
1040
2.0
1002
}
  0
DIMENSION
  5
B5C
330
1F
100
AcDbEntity
  8
WY
100
AcDbDimension
  2
*D35
 10
160.1343538693603
 20
134.3996958139664
 30
0.0
 11
160.1343538693603
 21
123.8996980342395
 31
0.0
 70
   160
  3
ISO-25
100
AcDbAlignedDimension
 13
147.0349674724147
 23
130.8996980342395
 33
0.0
 14
151.3999646209285
 24
134.3996958139664
 34
0.0
 50
90.0
100
AcDbRotatedDimension
1001
ACAD
1000
DSTYLE
1002
{
1070
   287
1070
     0
1070
   289
1070
     0
1070
   143
1040
0.0393700787401575
1070
    41
1040
2.0
1070
    44
1040
1.0
1070
    42
1040
1.0
1070
   147
1040
1.0
1070
    77
1070
     3
1070
   174
1070
     1
1070
   279
1070
     0
1070
    74
1070
     0
1070
   140
1040
2.0
1002
}
  0
DIMENSION
  5
B6E
330
1F
100
AcDbEntity
  8
WY
100
AcDbDimension
  2
*D36
 10
165.4921762219647
 20
130.8996980342395
 30
0.0
 11
163.4921762219647
 21
162.6546983870989
 31
0.0
 70
    32
  3
ISO-25
100
AcDbAlignedDimension
 13
119.6349730394885
 23
194.4096987399584
 33
0.0
 14
147.0349674724147
 24
130.8996980342395
 34
0.0
 50
90.0
100
AcDbRotatedDimension
1001
ACAD
1000
DSTYLE
1002
{
1070
   287
1070
     5
1070
   271
1070
     1
1070
   143
1040
0.0393700787401575
1070
    41
1040
2.0
1070
    44
1040
1.0
1070
    42
1040
1.0
1070
   147
1040
1.0
1070
    77
1070
     3
1070
   174
1070
     1
1070
   279
1070
     2
1070
    74
1070
     1
1070
   140
1040
2.0
1002
}
  0
DIMENSION
  5
B8C
330
1F
100
AcDbEntity
  8
WY
100
AcDbDimension
  2
*D38
 10
164.2534726632975
 20
69.82051937790577
 30
0.0
 11
162.2534726632975
 21
78.57051937790578
 31
0.0
 70
    32
  3
ISO-25
100
AcDbAlignedDimension
 13
146.8349704086673
 23
87.32051937790578
 33
0.0
 14
146.8349704086673
 24
69.82051937790577
 34
0.0
 50
90.0
100
AcDbRotatedDimension
1001
ACAD
1000
DSTYLE
1002
{
1070
   287
1070
     5
1070
   143
1040
0.0393700787401575
1070
    41
1040
2.0
1070
    44
1040
1.0
1070
    42
1040
1.0
1070
   147
1040
1.0
1070
    77
1070
     3
1070
   174
1070
     1
1070
   279
1070
     2
1070
    74
1070
     1
1070
   140
1040
2.0
1002
}
  0
LINE
  5
1049
330
1F
100
AcDbEntity
  8
1
  6
CONTINUOUS
 62
     7
100
AcDbLine
 10
91.93497259692404
 20
194.3096970471865
 30
0.0
 11
91.93497259692404
 21
194.4096987399584
 31
0.0
  0
LINE
  5
104A
330
1F
100
AcDbEntity
  8
1
  6
CONTINUOUS
 62
     7
100
AcDbLine
 10
87.03497253880951
 20
194.4096987399584
 30
0.0
 11
87.03497253880951
 21
194.3096970471865
 31
0.0
  0
LINE
  5
104B
330
1F
100
AcDbEntity
  8
1
  6
CONTINUOUS
 62
     7
100
AcDbLine
 10
112.9349713824794
 20
194.3096970471865
 30
0.0
 11
112.9349713824794
 21
194.4096987399584
 31
0.0
  0
LINE
  5
104C
330
1F
100
AcDbEntity
  8
1
  6
CONTINUOUS
 62
     7
100
AcDbLine
 10
108.0349741183326
 20
194.4096987399584
 30
0.0
 11
108.0349741183326
 21
194.3096970471865
 31
0.0
  0
LINE
  5
104D
330
1F
100
AcDbEntity
  8
1
  6
CONTINUOUS
 62
     7
100
AcDbLine
 10
98.63497332261059
 20
194.3096970471865
 30
0.0
 11
98.63497332261059
 21
194.4096987399584
 31
0.0
  0
LINE
  5
104E
330
1F
100
AcDbEntity
  8
1
  6
CONTINUOUS
 62
     7
100
AcDbLine
 10
93.73497233317349
 20
194.4096987399584
 30
0.0
 11
93.73497233317349
 21
194.3096970471865
 31
0.0
  0
LINE
  5
104F
330
1F
100
AcDbEntity
  8
1
  6
CONTINUOUS
 62
     7
100
AcDbLine
 10
119.6349730394885
 20
194.3096970471865
 30
0.0
 11
119.6349730394885
 21
194.4096987399584
 31
0.0
  0
LINE
  5
1050
330
1F
100
AcDbEntity
  8
1
  6
CONTINUOUS
 62
     7
100
AcDbLine
 10
114.7349720500514
 20
194.4096987399584
 30
0.0
 11
114.7349720500514
 21
194.3096970471865
 31
0.0
  0
LINE
  5
1051
330
1F
100
AcDbEntity
  8
1
  6
CONTINUOUS
 62
     7
100
AcDbLine
 10
87.03497253880951
 20
194.4096987399584
 30
0.0
 11
91.93497259692404
 21
194.4096987399584
 31
0.0
  0
LINE
  5
1052
330
1F
100
AcDbEntity
  8
1
  6
CONTINUOUS
 62
     7
100
AcDbLine
 10
108.0349741183326
 20
194.4096987399584
 30
0.0
 11
112.9349713824794
 21
194.4096987399584
 31
0.0
  0
LINE
  5
1053
330
1F
100
AcDbEntity
  8
1
  6
CONTINUOUS
 62
     7
100
AcDbLine
 10
93.73497233317349
 20
194.4096987399584
 30
0.0
 11
98.63497332261059
 21
194.4096987399584
 31
0.0
  0
LINE
  5
1054
330
1F
100
AcDbEntity
  8
1
  6
CONTINUOUS
 62
     7
100
AcDbLine
 10
114.7349720500514
 20
194.4096987399584
 30
0.0
 11
119.6349730394885
 21
194.4096987399584
 31
0.0
  0
LINE
  5
1055
330
1F
100
AcDbEntity
  8
1
  6
CONTINUOUS
 62
     7
100
AcDbLine
 10
88.7349724449322
 20
76.77051945151678
 30
0.0
 11
87.6476654462621
 21
76.84734518201938
 31
0.0
  0
LINE
  5
1056
330
1F
100
AcDbEntity
  8
1
  6
CONTINUOUS
 62
     7
100
AcDbLine
 10
88.7349724449322
 20
76.07051970930686
 30
0.0
 11
88.7349724449322
 21
76.77051945151678
 31
0.0
  0
LINE
  5
1057
330
1F
100
AcDbEntity
  8
1
  6
CONTINUOUS
 62
     7
100
AcDbLine
 10
88.7349724449322
 20
76.07051970930686
 30
0.0
 11
87.6476654462621
 21
75.99369397880426
 31
0.0
  0
LINE
  5
1058
330
1F
100
AcDbEntity
  8
1
  6
CONTINUOUS
 62
     7
100
AcDbLine
 10
87.6476654462621
 20
75.99369397880426
 30
0.0
 11
87.6476654462621
 21
76.84734518201938
 31
0.0
  0
LINE
  5
1059
330
1F
100
AcDbEntity
  8
1
  6
CONTINUOUS
 62
     7
100
AcDbLine
 10
88.7349724449322
 20
76.07051970930686
 30
0.0
 11
88.88497312144492
 21
76.07051970930686
 31
0.0
  0
LINE
  5
105A
330
1F
100
AcDbEntity
  8
1
  6
CONTINUOUS
 62
     7
100
AcDbLine
 10
87.6476654462621
 20
75.99369397880426
 30
0.0
 11
88.98060784266445
 21
75.99369397880426
 31
0.0
  0
LINE
  5
105B
330
1F
100
AcDbEntity
  8
1
  6
CONTINUOUS
 62
     7
100
AcDbLine
 10
88.88497312144492
 20
76.07051970930686
 30
0.0
 11
88.98060784266445
 21
75.99369397880426
 31
0.0
  0
LINE
  5
105C
330
1F
100
AcDbEntity
  8
1
  6
CONTINUOUS
 62
     7
100
AcDbLine
 10
89.19617921636555
 20
75.73343867929569
 30
0.0
 11
89.11935348586294
 21
74.64613168062559
 31
0.0
  0
LINE
  5
105D
330
1F
100
AcDbEntity
  8
1
  6
CONTINUOUS
 62
     7
100
AcDbLine
 10
89.11935348586294
 20
75.88223515571943
 30
0.0
 11
89.11935348586294
 21
74.64613168062559
 31
0.0
  0
LINE
  5
105E
330
1F
100
AcDbEntity
  8
1
  6
CONTINUOUS
 62
     7
100
AcDbLine
 10
89.19617921636555
 20
75.82051920266738
 30
0.0
 11
89.19617921636555
 21
75.73343867929569
 31
0.0
  0
LINE
  5
105F
330
1F
100
AcDbEntity
  8
1
  6
CONTINUOUS
 62
     7
100
AcDbLine
 10
89.19617921636555
 20
75.82051920266738
 30
0.0
 11
89.11935348586294
 21
75.88223515571943
 31
0.0
  0
LINE
  5
1060
330
1F
100
AcDbEntity
  8
1
  6
CONTINUOUS
 62
     7
100
AcDbLine
 10
89.19617921636555
 20
75.73343867929569
 30
0.0
 11
89.78488870487664
 21
75.73343867929569
 31
0.0
  0
LINE
  5
1061
330
1F
100
AcDbEntity
  8
1
  6
CONTINUOUS
 62
     7
100
AcDbLine
 10
89.78488870487664
 20
75.73343867929569
 30
0.0
 11
89.86171443537924
 21
74.64613168062559
 31
0.0
  0
LINE
  5
1062
330
1F
100
AcDbEntity
  8
1
  6
CONTINUOUS
 62
     7
100
AcDbLine
 10
89.11935348586294
 20
74.64613168062559
 30
0.0
 11
89.86171443537924
 21
74.64613168062559
 31
0.0
  0
LINE
  5
1063
330
1F
100
AcDbEntity
  8
1
  6
CONTINUOUS
 62
     7
100
AcDbLine
 10
89.86171443537924
 20
75.88452248396268
 30
0.0
 11
89.86171443537924
 21
74.64613168062559
 31
0.0
  0
LINE
  5
1064
330
1F
100
AcDbEntity
  8
1
  6
CONTINUOUS
 62
     7
100
AcDbLine
 10
89.78488870487664
 20
75.82051920266738
 30
0.0
 11
89.78488870487664
 21
75.73343867929569
 31
0.0
  0
LINE
  5
1065
330
1F
100
AcDbEntity
  8
1
  6
CONTINUOUS
 62
     7
100
AcDbLine
 10
89.78488870487664
 20
75.82051920266738
 30
0.0
 11
89.86171443537924
 21
75.88452248396268
 31
0.0
  0
LINE
  5
1066
330
1F
100
AcDbEntity
  8
1
  6
CONTINUOUS
 62
     7
100
AcDbLine
 10
90.23497269080136
 20
76.07051970930686
 30
0.0
 11
91.32228062079403
 21
75.99369397880426
 31
0.0
  0
LINE
  5
1067
330
1F
100
AcDbEntity
  8
1
  6
CONTINUOUS
 62
     7
100
AcDbLine
 10
89.99275617824051
 20
75.99369397880426
 30
0.0
 11
91.32228062079403
 21
75.99369397880426
 31
0.0
  0
LINE
  5
1068
330
1F
100
AcDbEntity
  8
1
  6
CONTINUOUS
 62
     7
100
AcDbLine
 10
90.08497294561121
 20
76.07051970930686
 30
0.0
 11
90.23497269080136
 21
76.07051970930686
 31
0.0
  0
LINE
  5
1069
330
1F
100
AcDbEntity
  8
1
  6
CONTINUOUS
 62
     7
100
AcDbLine
 10
90.08497294561121
 20
76.07051970930686
 30
0.0
 11
89.99275617824051
 21
75.99369397880426
 31
0.0
  0
LINE
  5
106A
330
1F
100
AcDbEntity
  8
1
  6
CONTINUOUS
 62
     7
100
AcDbLine
 10
90.23497269080136
 20
76.07051970930686
 30
0.0
 11
90.23497269080136
 21
76.77051945151678
 31
0.0
  0
LINE
  5
106B
330
1F
100
AcDbEntity
  8
1
  6
CONTINUOUS
 62
     7
100
AcDbLine
 10
90.23497269080136
 20
76.77051945151678
 30
0.0
 11
91.32228062079403
 21
76.84734518201938
 31
0.0
  0
LINE
  5
106C
330
1F
100
AcDbEntity
  8
1
  6
CONTINUOUS
 62
     7
100
AcDbLine
 10
91.32228062079403
 20
75.99369397880426
 30
0.0
 11
91.32228062079403
 21
76.84734518201938
 31
0.0
  0
LINE
  5
106D
330
1F
100
AcDbEntity
  8
1
  6
CONTINUOUS
 62
     7
100
AcDbLine
 10
89.99275617824051
 20
76.84734518201938
 30
0.0
 11
91.32228062079403
 21
76.84734518201938
 31
0.0
  0
LINE
  5
106E
330
1F
100
AcDbEntity
  8
1
  6
CONTINUOUS
 62
     7
100
AcDbLine
 10
90.08497294561121
 20
76.77051945151678
 30
0.0
 11
90.23497269080136
 21
76.77051945151678
 31
0.0
  0
LINE
  5
106F
330
1F
100
AcDbEntity
  8
1
  6
CONTINUOUS
 62
     7
100
AcDbLine
 10
90.08497294561121
 20
76.77051945151678
 30
0.0
 11
89.99275617824051
 21
76.84734518201938
 31
0.0
  0
LINE
  5
1070
330
1F
100
AcDbEntity
  8
1
  6
CONTINUOUS
 62
     7
100
AcDbLine
 10
88.7349724449322
 20
76.77051945151678
 30
0.0
 11
88.88497312144492
 21
76.77051945151678
 31
0.0
  0
LINE
  5
1071
330
1F
100
AcDbEntity
  8
1
  6
CONTINUOUS
 62
     7
100
AcDbLine
 10
87.6476654462621
 20
76.84734518201938
 30
0.0
 11
88.98060784266445
 21
76.84734518201938
 31
0.0
  0
LINE
  5
1072
330
1F
100
AcDbEntity
  8
1
  6
CONTINUOUS
 62
     7
100
AcDbLine
 10
88.88497312144492
 20
76.77051945151678
 30
0.0
 11
88.98060784266445
 21
76.84734518201938
 31
0.0
  0
LINE
  5
1073
330
1F
100
AcDbEntity
  8
1
  6
CONTINUOUS
 62
     7
100
AcDbLine
 10
89.86171443537924
 20
78.84138038875452
 30
0.0
 11
89.86171443537924
 21
76.95651574553838
 31
0.0
  0
ARC
  5
1074
330
1F
100
AcDbEntity
  8
1
  6
CONTINUOUS
 62
     7
100
AcDbCircle
 10
89.48497289151592
 20
76.42051938357906
 30
0.0
 40
2.449999999999998
100
AcDbArc
 50
98.58244008711335
 51
81.15442004995887
  0
LINE
  5
1075
330
1F
100
AcDbEntity
  8
1
  6
CONTINUOUS
 62
     7
100
AcDbLine
 10
89.11935348586294
 20
78.84308470906606
 30
0.0
 11
89.11935348586294
 21
76.95880307378164
 31
0.0
  0
LINE
  5
1076
330
1F
100
AcDbEntity
  8
1
  6
CONTINUOUS
 62
     7
100
AcDbLine
 10
89.86171443537924
 20
75.88452248396268
 30
0.0
 11
89.99275617824051
 21
75.99369397880426
 31
0.0
  0
LINE
  5
1077
330
1F
100
AcDbEntity
  8
1
  6
CONTINUOUS
 62
     7
100
AcDbLine
 10
88.98060784266445
 20
75.99369397880426
 30
0.0
 11
89.11935348586294
 21
75.88223515571943
 31
0.0
  0
LINE
  5
1078
330
1F
100
AcDbEntity
  8
1
  6
CONTINUOUS
 62
     7
100
AcDbLine
 10
89.11935348586294
 20
76.95880307378164
 30
0.0
 11
88.98060784266445
 21
76.84734518201938
 31
0.0
  0
LINE
  5
1079
330
1F
100
AcDbEntity
  8
1
  6
CONTINUOUS
 62
     7
100
AcDbLine
 10
89.99275617824051
 20
76.84734518201938
 30
0.0
 11
89.86171443537924
 21
76.95651574553838
 31
0.0
  0
LINE
  5
107A
330
1F
100
AcDbEntity
  8
1
  6
CONTINUOUS
 62
     7
100
AcDbLine
 10
89.16300457493517
 20
78.84927148492923
 30
0.0
 11
89.16300457493517
 21
77.92051936061969
 31
0.0
  0
LINE
  5
107B
330
1F
100
AcDbEntity
  8
1
  6
CONTINUOUS
 62
     7
100
AcDbLine
 10
89.16300457493517
 20
77.92051936061969
 30
0.0
 11
89.19617921636555
 21
77.44686639429918
 31
0.0
  0
LINE
  5
107C
330
1F
100
AcDbEntity
  8
1
  6
CONTINUOUS
 62
     7
100
AcDbLine
 10
89.19617921636555
 20
77.44686639429918
 30
0.0
 11
89.19617921636555
 21
77.02051902683368
 31
0.0
  0
ARC
  5
107D
330
1F
100
AcDbEntity
  8
1
  6
CONTINUOUS
 62
     7
100
AcDbCircle
 10
89.48497289151592
 20
76.42051938357906
 30
0.0
 40
2.450000000000139
100
AcDbArc
 50
97.55140120917265
 51
98.58244008711286
  0
LINE
  5
107E
330
1F
100
AcDbEntity
  8
1
  6
CONTINUOUS
 62
     7
100
AcDbLine
 10
89.19617921636555
 20
77.02051902683368
 30
0.0
 11
89.11935348586294
 21
76.95880307378164
 31
0.0
  0
LINE
  5
107F
330
1F
100
AcDbEntity
  8
1
  6
CONTINUOUS
 62
     7
100
AcDbLine
 10
89.78488870487664
 20
77.44686639429918
 30
0.0
 11
89.78488870487664
 21
77.02051902683368
 31
0.0
  0
LINE
  5
1080
330
1F
100
AcDbEntity
  8
1
  6
CONTINUOUS
 62
     7
100
AcDbLine
 10
89.81806334630701
 20
77.92051936061969
 30
0.0
 11
89.78488870487664
 21
77.44686639429918
 31
0.0
  0
LINE
  5
1081
330
1F
100
AcDbEntity
  8
1
  6
CONTINUOUS
 62
     7
100
AcDbLine
 10
89.81806334630701
 20
77.92051936061969
 30
0.0
 11
89.81806334630701
 21
78.84777112426153
 31
0.0
  0
ARC
  5
1082
330
1F
100
AcDbEntity
  8
1
  6
CONTINUOUS
 62
     7
100
AcDbCircle
 10
89.48497289151592
 20
76.42051938357906
 30
0.0
 40
2.450000000000152
100
AcDbArc
 50
81.15442004995944
 51
82.1861405013523
  0
LINE
  5
1083
330
1F
100
AcDbEntity
  8
1
  6
CONTINUOUS
 62
     7
100
AcDbLine
 10
89.78488870487664
 20
77.02051902683368
 30
0.0
 11
89.86171443537924
 21
76.95651574553838
 31
0.0
  0
LINE
  5
1084
330
1F
100
AcDbEntity
  8
1
  6
CONTINUOUS
 62
     7
100
AcDbLine
 10
95.89617901072953
 20
78.23343908907762
 30
0.0
 11
95.8193542115495
 21
77.14613115908494
 31
0.0
  0
LINE
  5
1085
330
1F
100
AcDbEntity
  8
1
  6
CONTINUOUS
 62
     7
100
AcDbLine
 10
95.8193542115495
 20
78.38223556550136
 30
0.0
 11
95.8193542115495
 21
77.14613115908494
 31
0.0
  0
LINE
  5
1086
330
1F
100
AcDbEntity
  8
1
  6
CONTINUOUS
 62
     7
100
AcDbLine
 10
95.89617901072953
 20
78.32051961244932
 30
0.0
 11
95.89617901072953
 21
78.23343908907762
 31
0.0
  0
LINE
  5
1087
330
1F
100
AcDbEntity
  8
1
  6
CONTINUOUS
 62
     7
100
AcDbLine
 10
95.89617901072953
 20
78.32051961244932
 30
0.0
 11
95.8193542115495
 21
78.38223556550136
 31
0.0
  0
LINE
  5
1088
330
1F
100
AcDbEntity
  8
1
  6
CONTINUOUS
 62
     7
100
AcDbLine
 10
96.56171329842064
 20
81.34137986721387
 30
0.0
 11
96.56171329842064
 21
79.45651615532032
 31
0.0
  0
ARC
  5
1089
330
1F
100
AcDbEntity
  8
1
  6
CONTINUOUS
 62
     7
100
AcDbCircle
 10
96.18497289151591
 20
78.92051938357905
 30
0.0
 40
2.450000000000012
100
AcDbArc
 50
98.58244008711196
 51
81.15442004995893
  0
LINE
  5
108A
330
1F
100
AcDbEntity
  8
1
  6
CONTINUOUS
 62
     7
100
AcDbLine
 10
95.8193542115495
 20
81.343085118848
 30
0.0
 11
95.8193542115495
 21
79.45880348356357
 31
0.0
  0
LINE
  5
108B
330
1F
100
AcDbEntity
  8
1
  6
CONTINUOUS
 62
     7
100
AcDbLine
 10
95.8193542115495
 20
79.45880348356357
 30
0.0
 11
95.68060763702843
 21
79.34734466047874
 31
0.0
  0
LINE
  5
108C
330
1F
100
AcDbEntity
  8
1
  6
CONTINUOUS
 62
     7
100
AcDbLine
 10
94.34766524062607
 20
79.34734466047874
 30
0.0
 11
95.68060763702843
 21
79.34734466047874
 31
0.0
  0
LINE
  5
108D
330
1F
100
AcDbEntity
  8
1
  6
CONTINUOUS
 62
     7
100
AcDbLine
 10
94.34766524062607
 20
78.49369345726362
 30
0.0
 11
94.34766524062607
 21
79.34734466047874
 31
0.0
  0
LINE
  5
108E
330
1F
100
AcDbEntity
  8
1
  6
CONTINUOUS
 62
     7
100
AcDbLine
 10
94.34766524062607
 20
78.49369345726362
 30
0.0
 11
95.68060763702843
 21
78.49369345726362
 31
0.0
  0
LINE
  5
108F
330
1F
100
AcDbEntity
  8
1
  6
CONTINUOUS
 62
     7
100
AcDbLine
 10
95.8193542115495
 20
77.14613115908494
 30
0.0
 11
96.56171329842064
 21
77.14613115908494
 31
0.0
  0
LINE
  5
1090
330
1F
100
AcDbEntity
  8
1
  6
CONTINUOUS
 62
     7
100
AcDbLine
 10
96.56171329842064
 20
78.38452289374462
 30
0.0
 11
96.56171329842064
 21
77.14613115908494
 31
0.0
  0
LINE
  5
1091
330
1F
100
AcDbEntity
  8
1
  6
CONTINUOUS
 62
     7
100
AcDbLine
 10
96.69275597260449
 20
78.49369345726362
 30
0.0
 11
98.02228041515801
 21
78.49369345726362
 31
0.0
  0
LINE
  5
1092
330
1F
100
AcDbEntity
  8
1
  6
CONTINUOUS
 62
     7
100
AcDbLine
 10
98.02228041515801
 20
78.49369345726362
 30
0.0
 11
98.02228041515801
 21
79.34734466047874
 31
0.0
  0
LINE
  5
1093
330
1F
100
AcDbEntity
  8
1
  6
CONTINUOUS
 62
     7
100
AcDbLine
 10
96.69275597260449
 20
79.34734466047874
 30
0.0
 11
98.02228041515801
 21
79.34734466047874
 31
0.0
  0
LINE
  5
1094
330
1F
100
AcDbEntity
  8
1
  6
CONTINUOUS
 62
     7
100
AcDbLine
 10
96.69275597260449
 20
79.34734466047874
 30
0.0
 11
96.56171329842064
 21
79.45651615532032
 31
0.0
  0
LINE
  5
1095
330
1F
100
AcDbEntity
  8
1
  6
CONTINUOUS
 62
     7
100
AcDbLine
 10
96.56171329842064
 20
78.38452289374462
 30
0.0
 11
96.69275597260449
 21
78.49369345726362
 31
0.0
  0
LINE
  5
1096
330
1F
100
AcDbEntity
  8
1
  6
CONTINUOUS
 62
     7
100
AcDbLine
 10
95.68060763702843
 20
78.49369345726362
 30
0.0
 11
95.8193542115495
 21
78.38223556550136
 31
0.0
  0
LINE
  5
1097
330
1F
100
AcDbEntity
  8
1
  6
CONTINUOUS
 62
     7
100
AcDbLine
 10
96.93497248516533
 20
79.27051892997613
 30
0.0
 11
98.02228041515801
 21
79.34734466047874
 31
0.0
  0
LINE
  5
1098
330
1F
100
AcDbEntity
  8
1
  6
CONTINUOUS
 62
     7
100
AcDbLine
 10
96.78497367129776
 20
79.27051892997613
 30
0.0
 11
96.93497248516533
 21
79.27051892997613
 31
0.0
  0
LINE
  5
1099
330
1F
100
AcDbEntity
  8
1
  6
CONTINUOUS
 62
     7
100
AcDbLine
 10
96.78497367129776
 20
79.27051892997613
 30
0.0
 11
96.69275597260449
 21
79.34734466047874
 31
0.0
  0
LINE
  5
109A
330
1F
100
AcDbEntity
  8
1
  6
CONTINUOUS
 62
     7
100
AcDbLine
 10
95.43497317061875
 20
78.57051918776622
 30
0.0
 11
94.34766524062607
 21
78.49369345726362
 31
0.0
  0
LINE
  5
109B
330
1F
100
AcDbEntity
  8
1
  6
CONTINUOUS
 62
     7
100
AcDbLine
 10
95.43497317061875
 20
78.57051918776622
 30
0.0
 11
95.58497198448632
 21
78.57051918776622
 31
0.0
  0
LINE
  5
109C
330
1F
100
AcDbEntity
  8
1
  6
CONTINUOUS
 62
     7
100
AcDbLine
 10
95.58497198448632
 20
78.57051918776622
 30
0.0
 11
95.68060763702843
 21
78.49369345726362
 31
0.0
  0
LINE
  5
109D
330
1F
100
AcDbEntity
  8
1
  6
CONTINUOUS
 62
     7
100
AcDbLine
 10
96.48488849924061
 20
78.23343908907762
 30
0.0
 11
96.56171329842064
 21
77.14613115908494
 31
0.0
  0
LINE
  5
109E
330
1F
100
AcDbEntity
  8
1
  6
CONTINUOUS
 62
     7
100
AcDbLine
 10
96.48488849924061
 20
78.32051961244932
 30
0.0
 11
96.48488849924061
 21
78.23343908907762
 31
0.0
  0
LINE
  5
109F
330
1F
100
AcDbEntity
  8
1
  6
CONTINUOUS
 62
     7
100
AcDbLine
 10
96.48488849924061
 20
78.32051961244932
 30
0.0
 11
96.56171329842064
 21
78.38452289374462
 31
0.0
  0
LINE
  5
10A0
330
1F
100
AcDbEntity
  8
1
  6
CONTINUOUS
 62
     7
100
AcDbLine
 10
95.89617901072953
 20
78.23343908907762
 30
0.0
 11
96.48488849924061
 21
78.23343908907762
 31
0.0
  0
LINE
  5
10A1
330
1F
100
AcDbEntity
  8
1
  6
CONTINUOUS
 62
     7
100
AcDbLine
 10
96.48488849924061
 20
79.94686680408111
 30
0.0
 11
96.48488849924061
 21
79.52051943661561
 31
0.0
  0
LINE
  5
10A2
330
1F
100
AcDbEntity
  8
1
  6
CONTINUOUS
 62
     7
100
AcDbLine
 10
96.51806407199356
 20
80.42051977040163
 30
0.0
 11
96.48488849924061
 21
79.94686680408111
 31
0.0
  0
LINE
  5
10A3
330
1F
100
AcDbEntity
  8
1
  6
CONTINUOUS
 62
     7
100
AcDbLine
 10
96.51806407199356
 20
80.42051977040163
 30
0.0
 11
96.51806407199356
 21
81.34777153404346
 31
0.0
  0
LINE
  5
10A4
330
1F
100
AcDbEntity
  8
1
  6
CONTINUOUS
 62
     7
100
AcDbLine
 10
96.48488849924061
 20
79.52051943661561
 30
0.0
 11
96.56171329842064
 21
79.45651615532032
 31
0.0
  0
ARC
  5
10A5
330
1F
100
AcDbEntity
  8
1
  6
CONTINUOUS
 62
     7
100
AcDbCircle
 10
96.18497289151591
 20
78.92051938357905
 30
0.0
 40
2.450000000000152
100
AcDbArc
 50
81.15442004995944
 51
82.1861405013523
  0
LINE
  5
10A6
330
1F
100
AcDbEntity
  8
1
  6
CONTINUOUS
 62
     7
100
AcDbLine
 10
96.93497248516533
 20
78.57051918776622
 30
0.0
 11
98.02228041515801
 21
78.49369345726362
 31
0.0
  0
LINE
  5
10A7
330
1F
100
AcDbEntity
  8
1
  6
CONTINUOUS
 62
     7
100
AcDbLine
 10
96.93497248516533
 20
78.57051918776622
 30
0.0
 11
96.93497248516533
 21
79.27051892997613
 31
0.0
  0
LINE
  5
10A8
330
1F
100
AcDbEntity
  8
1
  6
CONTINUOUS
 62
     7
100
AcDbLine
 10
96.78497367129776
 20
78.57051918776622
 30
0.0
 11
96.93497248516533
 21
78.57051918776622
 31
0.0
  0
LINE
  5
10A9
330
1F
100
AcDbEntity
  8
1
  6
CONTINUOUS
 62
     7
100
AcDbLine
 10
96.78497367129776
 20
78.57051918776622
 30
0.0
 11
96.69275597260449
 21
78.49369345726362
 31
0.0
  0
LINE
  5
10AA
330
1F
100
AcDbEntity
  8
1
  6
CONTINUOUS
 62
     7
100
AcDbLine
 10
95.86300530062172
 20
81.34927096338859
 30
0.0
 11
95.86300530062172
 21
80.42051977040163
 31
0.0
  0
LINE
  5
10AB
330
1F
100
AcDbEntity
  8
1
  6
CONTINUOUS
 62
     7
100
AcDbLine
 10
95.86300530062172
 20
80.42051977040163
 30
0.0
 11
95.89617901072953
 21
79.94686680408111
 31
0.0
  0
LINE
  5
10AC
330
1F
100
AcDbEntity
  8
1
  6
CONTINUOUS
 62
     7
100
AcDbLine
 10
95.89617901072953
 20
79.94686680408111
 30
0.0
 11
95.89617901072953
 21
79.52051943661561
 31
0.0
  0
LINE
  5
10AD
330
1F
100
AcDbEntity
  8
1
  6
CONTINUOUS
 62
     7
100
AcDbLine
 10
95.89617901072953
 20
79.52051943661561
 30
0.0
 11
95.8193542115495
 21
79.45880348356357
 31
0.0
  0
ARC
  5
10AE
330
1F
100
AcDbEntity
  8
1
  6
CONTINUOUS
 62
     7
100
AcDbCircle
 10
96.18497289151591
 20
78.92051938357905
 30
0.0
 40
2.450000000000153
100
AcDbArc
 50
97.55140120917261
 51
98.58244008711281
  0
LINE
  5
10AF
330
1F
100
AcDbEntity
  8
1
  6
CONTINUOUS
 62
     7
100
AcDbLine
 10
95.43497317061875
 20
79.27051892997613
 30
0.0
 11
94.34766524062607
 21
79.34734466047874
 31
0.0
  0
LINE
  5
10B0
330
1F
100
AcDbEntity
  8
1
  6
CONTINUOUS
 62
     7
100
AcDbLine
 10
95.43497317061875
 20
78.57051918776622
 30
0.0
 11
95.43497317061875
 21
79.27051892997613
 31
0.0
  0
LINE
  5
10B1
330
1F
100
AcDbEntity
  8
1
  6
CONTINUOUS
 62
     7
100
AcDbLine
 10
95.43497317061875
 20
79.27051892997613
 30
0.0
 11
95.58497198448632
 21
79.27051892997613
 31
0.0
  0
LINE
  5
10B2
330
1F
100
AcDbEntity
  8
1
  6
CONTINUOUS
 62
     7
100
AcDbLine
 10
95.58497198448632
 20
79.27051892997613
 30
0.0
 11
95.68060763702843
 21
79.34734466047874
 31
0.0
  0
CIRCLE
  5
10B3
330
1F
100
AcDbEntity
  8
1
  6
CONTINUOUS
 62
     7
100
AcDbCircle
 10
96.18497289151591
 20
78.92051938357905
 30
0.0
 40
2.549999999999997
  0
CIRCLE
  5
10B4
330
1F
100
AcDbEntity
  8
1
  6
CONTINUOUS
 62
     7
100
AcDbCircle
 10
89.48497289151592
 20
76.42051938357906
 30
0.0
 40
2.549999999999997
  0
LINE
  5
10B5
330
1F
100
AcDbEntity
  8
1
  6
CONTINUOUS
 62
     7
100
AcDbLine
 10
81.81497283802483
 20
83.77051873626104
 30
0.0
 11
81.81497283802483
 21
81.72051942469469
 31
0.0
  0
LINE
  5
10B6
330
1F
100
AcDbEntity
  8
1
  6
CONTINUOUS
 62
     7
100
AcDbLine
 10
85.01497299001667
 20
83.77051873626104
 30
0.0
 11
81.81497283802483
 21
83.77051873626104
 31
0.0
  0
LINE
  5
10B7
330
1F
100
AcDbEntity
  8
1
  6
CONTINUOUS
 62
     7
100
AcDbLine
 10
85.01497299001667
 20
81.72051942469469
 30
0.0
 11
85.01497299001667
 21
83.77051873626104
 31
0.0
  0
LINE
  5
10B8
330
1F
100
AcDbEntity
  8
1
  6
CONTINUOUS
 62
     7
100
AcDbLine
 10
81.81497283802483
 20
81.72051942469469
 30
0.0
 11
85.01497299001667
 21
81.72051942469469
 31
0.0
  0
LINE
  5
10B9
330
1F
100
AcDbEntity
  8
1
  6
CONTINUOUS
 62
     7
100
AcDbLine
 10
89.16300457493517
 20
77.92051936061969
 30
0.0
 11
89.81806334630701
 21
77.92051936061969
 31
0.0
  0
LINE
  5
10BA
330
1F
100
AcDbEntity
  8
1
  6
CONTINUOUS
 62
     7
100
AcDbLine
 10
89.19617921636555
 20
77.44686639429918
 30
0.0
 11
89.78488870487664
 21
77.44686639429918
 31
0.0
  0
LINE
  5
10BB
330
1F
100
AcDbEntity
  8
1
  6
CONTINUOUS
 62
     7
100
AcDbLine
 10
95.86300530062172
 20
80.42051977040163
 30
0.0
 11
96.51806407199356
 21
80.42051977040163
 31
0.0
  0
LINE
  5
10BC
330
1F
100
AcDbEntity
  8
1
  6
CONTINUOUS
 62
     7
100
AcDbLine
 10
95.89617901072953
 20
79.94686680408111
 30
0.0
 11
96.48488849924061
 21
79.94686680408111
 31
0.0
  0
LINE
  5
10BD
330
1F
100
AcDbEntity
  8
1
  6
CONTINUOUS
 62
     7
100
AcDbLine
 10
110.1961789332435
 20
75.73343867929569
 30
0.0
 11
110.1193522714183
 21
74.64613168062559
 31
0.0
  0
LINE
  5
10BE
330
1F
100
AcDbEntity
  8
1
  6
CONTINUOUS
 62
     7
100
AcDbLine
 10
110.1193522714183
 20
75.88223515571943
 30
0.0
 11
110.1193522714183
 21
74.64613168062559
 31
0.0
  0
LINE
  5
10BF
330
1F
100
AcDbEntity
  8
1
  6
CONTINUOUS
 62
     7
100
AcDbLine
 10
110.1961789332435
 20
75.82051920266738
 30
0.0
 11
110.1193522714183
 21
75.88223515571943
 31
0.0
  0
LINE
  5
10C0
330
1F
100
AcDbEntity
  8
1
  6
CONTINUOUS
 62
     7
100
AcDbLine
 10
110.1961789332435
 20
75.82051920266738
 30
0.0
 11
110.1961789332435
 21
75.73343867929569
 31
0.0
  0
LINE
  5
10C1
330
1F
100
AcDbEntity
  8
1
  6
CONTINUOUS
 62
     7
100
AcDbLine
 10
110.1961789332435
 20
75.73343867929569
 30
0.0
 11
110.7848902843997
 21
75.73343867929569
 31
0.0
  0
LINE
  5
10C2
330
1F
100
AcDbEntity
  8
1
  6
CONTINUOUS
 62
     7
100
AcDbLine
 10
110.7848902843997
 20
75.73343867929569
 30
0.0
 11
110.8617132209346
 21
74.64613168062559
 31
0.0
  0
LINE
  5
10C3
330
1F
100
AcDbEntity
  8
1
  6
CONTINUOUS
 62
     7
100
AcDbLine
 10
110.1193522714183
 20
74.64613168062559
 30
0.0
 11
110.8617132209346
 21
74.64613168062559
 31
0.0
  0
LINE
  5
10C4
330
1F
100
AcDbEntity
  8
1
  6
CONTINUOUS
 62
     7
100
AcDbLine
 10
117.4848882161185
 20
79.94686680408111
 30
0.0
 11
117.4848882161185
 21
79.52051943661561
 31
0.0
  0
LINE
  5
10C5
330
1F
100
AcDbEntity
  8
1
  6
CONTINUOUS
 62
     7
100
AcDbLine
 10
117.5180619262264
 20
80.42051977040163
 30
0.0
 11
117.4848882161185
 21
79.94686680408111
 31
0.0
  0
LINE
  5
10C6
330
1F
100
AcDbEntity
  8
1
  6
CONTINUOUS
 62
     7
100
AcDbLine
 10
117.5180619262264
 20
80.42051977040163
 30
0.0
 11
117.5180619262264
 21
81.34777153404346
 31
0.0
  0
LINE
  5
10C7
330
1F
100
AcDbEntity
  8
1
  6
CONTINUOUS
 62
     7
100
AcDbLine
 10
117.5617148779437
 20
81.34137986721387
 30
0.0
 11
117.5617148779437
 21
79.45651615532032
 31
0.0
  0
LINE
  5
10C8
330
1F
100
AcDbEntity
  8
1
  6
CONTINUOUS
 62
     7
100
AcDbLine
 10
117.4848882161185
 20
79.52051943661561
 30
0.0
 11
117.5617148779437
 21
79.45651615532032
 31
0.0
  0
ARC
  5
10C9
330
1F
100
AcDbEntity
  8
1
  6
CONTINUOUS
 62
     7
100
AcDbCircle
 10
117.1849728915159
 20
78.9205193835792
 30
0.0
 40
2.45
100
AcDbArc
 50
81.15442004995887
 51
82.18614050135182
  0
LINE
  5
10CA
330
1F
100
AcDbEntity
  8
1
  6
CONTINUOUS
 62
     7
100
AcDbLine
 10
116.8630031548545
 20
81.34927096338859
 30
0.0
 11
116.8630031548545
 21
80.42051977040163
 31
0.0
  0
LINE
  5
10CB
330
1F
100
AcDbEntity
  8
1
  6
CONTINUOUS
 62
     7
100
AcDbLine
 10
116.8630031548545
 20
80.42051977040163
 30
0.0
 11
116.8961805902526
 21
79.94686680408111
 31
0.0
  0
LINE
  5
10CC
330
1F
100
AcDbEntity
  8
1
  6
CONTINUOUS
 62
     7
100
AcDbLine
 10
116.8961805902526
 20
79.94686680408111
 30
0.0
 11
116.8961805902526
 21
79.52051943661561
 31
0.0
  0
LINE
  5
10CD
330
1F
100
AcDbEntity
  8
1
  6
CONTINUOUS
 62
     7
100
AcDbLine
 10
116.8961805902526
 20
79.52051943661561
 30
0.0
 11
116.8193539284274
 21
79.45880348356357
 31
0.0
  0
LINE
  5
10CE
330
1F
100
AcDbEntity
  8
1
  6
CONTINUOUS
 62
     7
100
AcDbLine
 10
116.8193539284274
 20
81.343085118848
 30
0.0
 11
116.8193539284274
 21
79.45880348356357
 31
0.0
  0
ARC
  5
10CF
330
1F
100
AcDbEntity
  8
1
  6
CONTINUOUS
 62
     7
100
AcDbCircle
 10
117.1849728915159
 20
78.9205193835792
 30
0.0
 40
2.450000000000006
100
AcDbArc
 50
97.55140120917305
 51
98.58244008711198
  0
LINE
  5
10D0
330
1F
100
AcDbEntity
  8
1
  6
CONTINUOUS
 62
     7
100
AcDbLine
 10
116.4349747501418
 20
79.27051892997613
 30
0.0
 11
115.3476668201492
 21
79.34734466047874
 31
0.0
  0
LINE
  5
10D1
330
1F
100
AcDbEntity
  8
1
  6
CONTINUOUS
 62
     7
100
AcDbLine
 10
116.4349747501418
 20
78.57051918776622
 30
0.0
 11
116.4349747501418
 21
79.27051892997613
 31
0.0
  0
LINE
  5
10D2
330
1F
100
AcDbEntity
  8
1
  6
CONTINUOUS
 62
     7
100
AcDbLine
 10
116.4349747501418
 20
78.57051918776622
 30
0.0
 11
115.3476668201492
 21
78.49369345726362
 31
0.0
  0
LINE
  5
10D3
330
1F
100
AcDbEntity
  8
1
  6
CONTINUOUS
 62
     7
100
AcDbLine
 10
115.3476668201492
 20
78.49369345726362
 30
0.0
 11
115.3476668201492
 21
79.34734466047874
 31
0.0
  0
LINE
  5
10D4
330
1F
100
AcDbEntity
  8
1
  6
CONTINUOUS
 62
     7
100
AcDbLine
 10
109.7349730931327
 20
76.77051945151678
 30
0.0
 11
108.64766516314
 21
76.84734518201938
 31
0.0
  0
LINE
  5
10D5
330
1F
100
AcDbEntity
  8
1
  6
CONTINUOUS
 62
     7
100
AcDbLine
 10
109.7349730931327
 20
76.07051970930686
 30
0.0
 11
109.7349730931327
 21
76.77051945151678
 31
0.0
  0
LINE
  5
10D6
330
1F
100
AcDbEntity
  8
1
  6
CONTINUOUS
 62
     7
100
AcDbLine
 10
109.7349730931327
 20
76.07051970930686
 30
0.0
 11
108.64766516314
 21
75.99369397880426
 31
0.0
  0
LINE
  5
10D7
330
1F
100
AcDbEntity
  8
1
  6
CONTINUOUS
 62
     7
100
AcDbLine
 10
108.64766516314
 20
75.99369397880426
 30
0.0
 11
108.64766516314
 21
76.84734518201938
 31
0.0
  0
LINE
  5
10D8
330
1F
100
AcDbEntity
  8
1
  6
CONTINUOUS
 62
     7
100
AcDbLine
 10
109.7349730931327
 20
76.07051970930686
 30
0.0
 11
109.8849719070003
 21
76.07051970930686
 31
0.0
  0
LINE
  5
10D9
330
1F
100
AcDbEntity
  8
1
  6
CONTINUOUS
 62
     7
100
AcDbLine
 10
108.64766516314
 20
75.99369397880426
 30
0.0
 11
109.9806075595424
 21
75.99369397880426
 31
0.0
  0
LINE
  5
10DA
330
1F
100
AcDbEntity
  8
1
  6
CONTINUOUS
 62
     7
100
AcDbLine
 10
109.8849719070003
 20
76.07051970930686
 30
0.0
 11
109.9806075595424
 21
75.99369397880426
 31
0.0
  0
LINE
  5
10DB
330
1F
100
AcDbEntity
  8
1
  6
CONTINUOUS
 62
     7
100
AcDbLine
 10
110.8617132209346
 20
75.88452248396268
 30
0.0
 11
110.8617132209346
 21
74.64613168062559
 31
0.0
  0
LINE
  5
10DC
330
1F
100
AcDbEntity
  8
1
  6
CONTINUOUS
 62
     7
100
AcDbLine
 10
110.7848902843997
 20
75.82051920266738
 30
0.0
 11
110.7848902843997
 21
75.73343867929569
 31
0.0
  0
LINE
  5
10DD
330
1F
100
AcDbEntity
  8
1
  6
CONTINUOUS
 62
     7
100
AcDbLine
 10
110.7848902843997
 20
75.82051920266738
 30
0.0
 11
110.8617132209346
 21
75.88452248396268
 31
0.0
  0
LINE
  5
10DE
330
1F
100
AcDbEntity
  8
1
  6
CONTINUOUS
 62
     7
100
AcDbLine
 10
111.2349724076793
 20
76.07051970930686
 30
0.0
 11
112.322280337672
 21
75.99369397880426
 31
0.0
  0
LINE
  5
10DF
330
1F
100
AcDbEntity
  8
1
  6
CONTINUOUS
 62
     7
100
AcDbLine
 10
110.9927577577636
 20
75.99369397880426
 30
0.0
 11
112.322280337672
 21
75.99369397880426
 31
0.0
  0
LINE
  5
10E0
330
1F
100
AcDbEntity
  8
1
  6
CONTINUOUS
 62
     7
100
AcDbLine
 10
111.0849735938117
 20
76.07051970930686
 30
0.0
 11
111.2349724076793
 21
76.07051970930686
 31
0.0
  0
LINE
  5
10E1
330
1F
100
AcDbEntity
  8
1
  6
CONTINUOUS
 62
     7
100
AcDbLine
 10
111.0849735938117
 20
76.07051970930686
 30
0.0
 11
110.9927577577636
 21
75.99369397880426
 31
0.0
  0
LINE
  5
10E2
330
1F
100
AcDbEntity
  8
1
  6
CONTINUOUS
 62
     7
100
AcDbLine
 10
111.2349724076793
 20
76.07051970930686
 30
0.0
 11
111.2349724076793
 21
76.77051945151678
 31
0.0
  0
LINE
  5
10E3
330
1F
100
AcDbEntity
  8
1
  6
CONTINUOUS
 62
     7
100
AcDbLine
 10
111.2349724076793
 20
76.77051945151678
 30
0.0
 11
112.322280337672
 21
76.84734518201938
 31
0.0
  0
LINE
  5
10E4
330
1F
100
AcDbEntity
  8
1
  6
CONTINUOUS
 62
     7
100
AcDbLine
 10
112.322280337672
 20
75.99369397880426
 30
0.0
 11
112.322280337672
 21
76.84734518201938
 31
0.0
  0
LINE
  5
10E5
330
1F
100
AcDbEntity
  8
1
  6
CONTINUOUS
 62
     7
100
AcDbLine
 10
110.9927577577636
 20
76.84734518201938
 30
0.0
 11
112.322280337672
 21
76.84734518201938
 31
0.0
  0
LINE
  5
10E6
330
1F
100
AcDbEntity
  8
1
  6
CONTINUOUS
 62
     7
100
AcDbLine
 10
111.0849735938117
 20
76.77051945151678
 30
0.0
 11
111.2349724076793
 21
76.77051945151678
 31
0.0
  0
LINE
  5
10E7
330
1F
100
AcDbEntity
  8
1
  6
CONTINUOUS
 62
     7
100
AcDbLine
 10
111.0849735938117
 20
76.77051945151678
 30
0.0
 11
110.9927577577636
 21
76.84734518201938
 31
0.0
  0
LINE
  5
10E8
330
1F
100
AcDbEntity
  8
1
  6
CONTINUOUS
 62
     7
100
AcDbLine
 10
109.7349730931327
 20
76.77051945151678
 30
0.0
 11
109.8849719070003
 21
76.77051945151678
 31
0.0
  0
LINE
  5
10E9
330
1F
100
AcDbEntity
  8
1
  6
CONTINUOUS
 62
     7
100
AcDbLine
 10
108.64766516314
 20
76.84734518201938
 30
0.0
 11
109.9806075595424
 21
76.84734518201938
 31
0.0
  0
LINE
  5
10EA
330
1F
100
AcDbEntity
  8
1
  6
CONTINUOUS
 62
     7
100
AcDbLine
 10
109.8849719070003
 20
76.77051945151678
 30
0.0
 11
109.9806075595424
 21
76.84734518201938
 31
0.0
  0
LINE
  5
10EB
330
1F
100
AcDbEntity
  8
1
  6
CONTINUOUS
 62
     7
100
AcDbLine
 10
110.8617132209346
 20
78.84138038875452
 30
0.0
 11
110.8617132209346
 21
76.95651574553838
 31
0.0
  0
ARC
  5
10EC
330
1F
100
AcDbEntity
  8
1
  6
CONTINUOUS
 62
     7
100
AcDbCircle
 10
110.484972891516
 20
76.4205193835792
 30
0.0
 40
2.45000000000001
100
AcDbArc
 50
98.58244008711462
 51
81.15442004996025
  0
LINE
  5
10ED
330
1F
100
AcDbEntity
  8
1
  6
CONTINUOUS
 62
     7
100
AcDbLine
 10
110.1193522714183
 20
78.84308470906606
 30
0.0
 11
110.1193522714183
 21
76.95880307378164
 31
0.0
  0
LINE
  5
10EE
330
1F
100
AcDbEntity
  8
1
  6
CONTINUOUS
 62
     7
100
AcDbLine
 10
110.8617132209346
 20
75.88452248396268
 30
0.0
 11
110.9927577577636
 21
75.99369397880426
 31
0.0
  0
LINE
  5
10EF
330
1F
100
AcDbEntity
  8
1
  6
CONTINUOUS
 62
     7
100
AcDbLine
 10
109.9806075595424
 20
75.99369397880426
 30
0.0
 11
110.1193522714183
 21
75.88223515571943
 31
0.0
  0
LINE
  5
10F0
330
1F
100
AcDbEntity
  8
1
  6
CONTINUOUS
 62
     7
100
AcDbLine
 10
110.1193522714183
 20
76.95880307378164
 30
0.0
 11
109.9806075595424
 21
76.84734518201938
 31
0.0
  0
LINE
  5
10F1
330
1F
100
AcDbEntity
  8
1
  6
CONTINUOUS
 62
     7
100
AcDbLine
 10
110.9927577577636
 20
76.84734518201938
 30
0.0
 11
110.8617132209346
 21
76.95651574553838
 31
0.0
  0
LINE
  5
10F2
330
1F
100
AcDbEntity
  8
1
  6
CONTINUOUS
 62
     7
100
AcDbLine
 10
110.1630052231357
 20
78.84927148492923
 30
0.0
 11
110.1630052231357
 21
77.92051936061969
 31
0.0
  0
LINE
  5
10F3
330
1F
100
AcDbEntity
  8
1
  6
CONTINUOUS
 62
     7
100
AcDbLine
 10
110.1630052231357
 20
77.92051936061969
 30
0.0
 11
110.1961789332435
 21
77.44686639429918
 31
0.0
  0
LINE
  5
10F4
330
1F
100
AcDbEntity
  8
1
  6
CONTINUOUS
 62
     7
100
AcDbLine
 10
110.1961789332435
 20
77.44686639429918
 30
0.0
 11
110.1961789332435
 21
77.02051902683368
 31
0.0
  0
ARC
  5
10F5
330
1F
100
AcDbEntity
  8
1
  6
CONTINUOUS
 62
     7
100
AcDbCircle
 10
110.484972891516
 20
76.4205193835792
 30
0.0
 40
2.45000000000001
100
AcDbArc
 50
97.55140120917437
 51
98.58244008711462
  0
LINE
  5
10F6
330
1F
100
AcDbEntity
  8
1
  6
CONTINUOUS
 62
     7
100
AcDbLine
 10
110.1961789332435
 20
77.02051902683368
 30
0.0
 11
110.1193522714183
 21
76.95880307378164
 31
0.0
  0
LINE
  5
10F7
330
1F
100
AcDbEntity
  8
1
  6
CONTINUOUS
 62
     7
100
AcDbLine
 10
110.7848902843997
 20
77.44686639429918
 30
0.0
 11
110.7848902843997
 21
77.02051902683368
 31
0.0
  0
LINE
  5
10F8
330
1F
100
AcDbEntity
  8
1
  6
CONTINUOUS
 62
     7
100
AcDbLine
 10
110.8180639945075
 20
77.92051936061969
 30
0.0
 11
110.7848902843997
 21
77.44686639429918
 31
0.0
  0
LINE
  5
10F9
330
1F
100
AcDbEntity
  8
1
  6
CONTINUOUS
 62
     7
100
AcDbLine
 10
110.8180639945075
 20
77.92051936061969
 30
0.0
 11
110.8180639945075
 21
78.84777112426153
 31
0.0
  0
ARC
  5
10FA
330
1F
100
AcDbEntity
  8
1
  6
CONTINUOUS
 62
     7
100
AcDbCircle
 10
110.484972891516
 20
76.4205193835792
 30
0.0
 40
2.45000000000001
100
AcDbArc
 50
81.15442004996025
 51
82.18614050135317
  0
LINE
  5
10FB
330
1F
100
AcDbEntity
  8
1
  6
CONTINUOUS
 62
     7
100
AcDbLine
 10
110.7848902843997
 20
77.02051902683368
 30
0.0
 11
110.8617132209346
 21
76.95651574553838
 31
0.0
  0
LINE
  5
10FC
330
1F
100
AcDbEntity
  8
1
  6
CONTINUOUS
 62
     7
100
AcDbLine
 10
117.9349740646884
 20
78.57051918776622
 30
0.0
 11
119.0222819946811
 21
78.49369345726362
 31
0.0
  0
LINE
  5
10FD
330
1F
100
AcDbEntity
  8
1
  6
CONTINUOUS
 62
     7
100
AcDbLine
 10
117.9349740646884
 20
78.57051918776622
 30
0.0
 11
117.9349740646884
 21
79.27051892997613
 31
0.0
  0
LINE
  5
10FE
330
1F
100
AcDbEntity
  8
1
  6
CONTINUOUS
 62
     7
100
AcDbLine
 10
117.9349740646884
 20
79.27051892997613
 30
0.0
 11
119.0222819946811
 21
79.34734466047874
 31
0.0
  0
LINE
  5
10FF
330
1F
100
AcDbEntity
  8
1
  6
CONTINUOUS
 62
     7
100
AcDbLine
 10
119.0222819946811
 20
78.49369345726362
 30
0.0
 11
119.0222819946811
 21
79.34734466047874
 31
0.0
  0
LINE
  5
1100
330
1F
100
AcDbEntity
  8
1
  6
CONTINUOUS
 62
     7
100
AcDbLine
 10
117.6927556894824
 20
78.49369345726362
 30
0.0
 11
119.0222819946811
 21
78.49369345726362
 31
0.0
  0
LINE
  5
1101
330
1F
100
AcDbEntity
  8
1
  6
CONTINUOUS
 62
     7
100
AcDbLine
 10
117.7849715255306
 20
78.57051918776622
 30
0.0
 11
117.9349740646884
 21
78.57051918776622
 31
0.0
  0
LINE
  5
1102
330
1F
100
AcDbEntity
  8
1
  6
CONTINUOUS
 62
     7
100
AcDbLine
 10
117.7849715255306
 20
78.57051918776622
 30
0.0
 11
117.6927556894824
 21
78.49369345726362
 31
0.0
  0
LINE
  5
1103
330
1F
100
AcDbEntity
  8
1
  6
CONTINUOUS
 62
     7
100
AcDbLine
 10
117.5617148779437
 20
78.38452289374462
 30
0.0
 11
117.5617148779437
 21
77.14613115908494
 31
0.0
  0
LINE
  5
1104
330
1F
100
AcDbEntity
  8
1
  6
CONTINUOUS
 62
     7
100
AcDbLine
 10
117.4848882161185
 20
78.23343908907762
 30
0.0
 11
117.5617148779437
 21
77.14613115908494
 31
0.0
  0
LINE
  5
1105
330
1F
100
AcDbEntity
  8
1
  6
CONTINUOUS
 62
     7
100
AcDbLine
 10
117.4848882161185
 20
78.32051961244932
 30
0.0
 11
117.4848882161185
 21
78.23343908907762
 31
0.0
  0
LINE
  5
1106
330
1F
100
AcDbEntity
  8
1
  6
CONTINUOUS
 62
     7
100
AcDbLine
 10
117.4848882161185
 20
78.32051961244932
 30
0.0
 11
117.5617148779437
 21
78.38452289374462
 31
0.0
  0
LINE
  5
1107
330
1F
100
AcDbEntity
  8
1
  6
CONTINUOUS
 62
     7
100
AcDbLine
 10
116.8961805902526
 20
78.23343908907762
 30
0.0
 11
116.8193539284274
 21
77.14613115908494
 31
0.0
  0
LINE
  5
1108
330
1F
100
AcDbEntity
  8
1
  6
CONTINUOUS
 62
     7
100
AcDbLine
 10
116.8961805902526
 20
78.23343908907762
 30
0.0
 11
117.4848882161185
 21
78.23343908907762
 31
0.0
  0
LINE
  5
1109
330
1F
100
AcDbEntity
  8
1
  6
CONTINUOUS
 62
     7
100
AcDbLine
 10
116.8193539284274
 20
77.14613115908494
 30
0.0
 11
117.5617148779437
 21
77.14613115908494
 31
0.0
  0
LINE
  5
110A
330
1F
100
AcDbEntity
  8
1
  6
CONTINUOUS
 62
     7
100
AcDbLine
 10
116.8193539284274
 20
78.38223556550136
 30
0.0
 11
116.8193539284274
 21
77.14613115908494
 31
0.0
  0
LINE
  5
110B
330
1F
100
AcDbEntity
  8
1
  6
CONTINUOUS
 62
     7
100
AcDbLine
 10
116.8961805902526
 20
78.32051961244932
 30
0.0
 11
116.8961805902526
 21
78.23343908907762
 31
0.0
  0
LINE
  5
110C
330
1F
100
AcDbEntity
  8
1
  6
CONTINUOUS
 62
     7
100
AcDbLine
 10
116.8961805902526
 20
78.32051961244932
 30
0.0
 11
116.8193539284274
 21
78.38223556550136
 31
0.0
  0
LINE
  5
110D
330
1F
100
AcDbEntity
  8
1
  6
CONTINUOUS
 62
     7
100
AcDbLine
 10
116.4349747501418
 20
78.57051918776622
 30
0.0
 11
116.5849735640094
 21
78.57051918776622
 31
0.0
  0
LINE
  5
110E
330
1F
100
AcDbEntity
  8
1
  6
CONTINUOUS
 62
     7
100
AcDbLine
 10
115.3476668201492
 20
78.49369345726362
 30
0.0
 11
116.6806092165515
 21
78.49369345726362
 31
0.0
  0
LINE
  5
110F
330
1F
100
AcDbEntity
  8
1
  6
CONTINUOUS
 62
     7
100
AcDbLine
 10
116.5849735640094
 20
78.57051918776622
 30
0.0
 11
116.6806092165515
 21
78.49369345726362
 31
0.0
  0
LINE
  5
1110
330
1F
100
AcDbEntity
  8
1
  6
CONTINUOUS
 62
     7
100
AcDbLine
 10
116.4349747501418
 20
79.27051892997613
 30
0.0
 11
116.5849735640094
 21
79.27051892997613
 31
0.0
  0
LINE
  5
1111
330
1F
100
AcDbEntity
  8
1
  6
CONTINUOUS
 62
     7
100
AcDbLine
 10
115.3476668201492
 20
79.34734466047874
 30
0.0
 11
116.6806092165515
 21
79.34734466047874
 31
0.0
  0
LINE
  5
1112
330
1F
100
AcDbEntity
  8
1
  6
CONTINUOUS
 62
     7
100
AcDbLine
 10
116.5849735640094
 20
79.27051892997613
 30
0.0
 11
116.6806092165515
 21
79.34734466047874
 31
0.0
  0
LINE
  5
1113
330
1F
100
AcDbEntity
  8
1
  6
CONTINUOUS
 62
     7
100
AcDbLine
 10
117.6927556894824
 20
79.34734466047874
 30
0.0
 11
119.0222819946811
 21
79.34734466047874
 31
0.0
  0
LINE
  5
1114
330
1F
100
AcDbEntity
  8
1
  6
CONTINUOUS
 62
     7
100
AcDbLine
 10
117.5617148779437
 20
78.38452289374462
 30
0.0
 11
117.6927556894824
 21
78.49369345726362
 31
0.0
  0
LINE
  5
1115
330
1F
100
AcDbEntity
  8
1
  6
CONTINUOUS
 62
     7
100
AcDbLine
 10
116.6806092165515
 20
78.49369345726362
 30
0.0
 11
116.8193539284274
 21
78.38223556550136
 31
0.0
  0
LINE
  5
1116
330
1F
100
AcDbEntity
  8
1
  6
CONTINUOUS
 62
     7
100
AcDbLine
 10
117.6927556894824
 20
79.34734466047874
 30
0.0
 11
117.5617148779437
 21
79.45651615532032
 31
0.0
  0
LINE
  5
1117
330
1F
100
AcDbEntity
  8
1
  6
CONTINUOUS
 62
     7
100
AcDbLine
 10
116.8193539284274
 20
79.45880348356357
 30
0.0
 11
116.6806092165515
 21
79.34734466047874
 31
0.0
  0
ARC
  5
1118
330
1F
100
AcDbEntity
  8
1
  6
CONTINUOUS
 62
     7
100
AcDbCircle
 10
117.1849728915159
 20
78.9205193835792
 30
0.0
 40
2.450000000000006
100
AcDbArc
 50
98.58244008711198
 51
81.15442004995887
  0
LINE
  5
1119
330
1F
100
AcDbEntity
  8
1
  6
CONTINUOUS
 62
     7
100
AcDbLine
 10
117.7849715255306
 20
79.27051892997613
 30
0.0
 11
117.9349740646884
 21
79.27051892997613
 31
0.0
  0
LINE
  5
111A
330
1F
100
AcDbEntity
  8
1
  6
CONTINUOUS
 62
     7
100
AcDbLine
 10
117.7849715255306
 20
79.27051892997613
 30
0.0
 11
117.6927556894824
 21
79.34734466047874
 31
0.0
  0
CIRCLE
  5
111B
330
1F
100
AcDbEntity
  8
1
  6
CONTINUOUS
 62
     7
100
AcDbCircle
 10
117.1849728915159
 20
78.9205193835792
 30
0.0
 40
2.549999999999997
  0
CIRCLE
  5
111C
330
1F
100
AcDbEntity
  8
1
  6
CONTINUOUS
 62
     7
100
AcDbCircle
 10
110.484972891516
 20
76.4205193835792
 30
0.0
 40
2.549999999999997
  0
LINE
  5
111D
330
1F
100
AcDbEntity
  8
1
  6
CONTINUOUS
 62
     7
100
AcDbLine
 10
106.0949733160541
 20
83.77051873626104
 30
0.0
 11
102.8949731640622
 21
83.77051873626104
 31
0.0
  0
LINE
  5
111E
330
1F
100
AcDbEntity
  8
1
  6
CONTINUOUS
 62
     7
100
AcDbLine
 10
102.8949731640622
 20
83.77051873626104
 30
0.0
 11
102.8949731640622
 21
81.72051942469469
 31
0.0
  0
LINE
  5
111F
330
1F
100
AcDbEntity
  8
1
  6
CONTINUOUS
 62
     7
100
AcDbLine
 10
106.0949733160541
 20
81.72051942469469
 30
0.0
 11
106.0949733160541
 21
83.77051873626104
 31
0.0
  0
LINE
  5
1120
330
1F
100
AcDbEntity
  8
1
  6
CONTINUOUS
 62
     7
100
AcDbLine
 10
102.8949731640622
 20
81.72051942469469
 30
0.0
 11
106.0949733160541
 21
81.72051942469469
 31
0.0
  0
LINE
  5
1121
330
1F
100
AcDbEntity
  8
1
  6
CONTINUOUS
 62
     7
100
AcDbLine
 10
116.8630031548545
 20
80.42051977040163
 30
0.0
 11
117.5180619262264
 21
80.42051977040163
 31
0.0
  0
LINE
  5
1122
330
1F
100
AcDbEntity
  8
1
  6
CONTINUOUS
 62
     7
100
AcDbLine
 10
116.8961805902526
 20
79.94686680408111
 30
0.0
 11
117.4848882161185
 21
79.94686680408111
 31
0.0
  0
LINE
  5
1123
330
1F
100
AcDbEntity
  8
1
  6
CONTINUOUS
 62
     7
100
AcDbLine
 10
110.1630052231357
 20
77.92051936061969
 30
0.0
 11
110.8180639945075
 21
77.92051936061969
 31
0.0
  0
LINE
  5
1124
330
1F
100
AcDbEntity
  8
1
  6
CONTINUOUS
 62
     7
100
AcDbLine
 10
110.1961789332435
 20
77.44686639429918
 30
0.0
 11
110.7848902843997
 21
77.44686639429918
 31
0.0
  0
LINE
  5
1125
330
1F
100
AcDbEntity
  8
OSIE
100
AcDbLine
 10
89.48497289151592
 20
79.91231460470965
 30
0.0
 11
89.48497289151592
 21
72.92872416244849
 31
0.0
  0
LINE
  5
1126
330
1F
100
AcDbEntity
  8
OSIE
100
AcDbLine
 10
96.18497289151591
 20
82.41231460470964
 30
0.0
 11
96.18497289151591
 21
75.42872416244847
 31
0.0
  0
LINE
  5
1127
330
1F
100
AcDbEntity
  8
OSIE
100
AcDbLine
 10
110.484972891516
 20
79.91231460470979
 30
0.0
 11
110.484972891516
 21
72.92872416244863
 31
0.0
  0
LINE
  5
1128
330
1F
100
AcDbEntity
  8
OSIE
100
AcDbLine
 10
117.1849728915159
 20
82.41231460470979
 30
0.0
 11
117.1849728915159
 21
75.42872416244863
 31
0.0
  0
LINE
  5
1129
330
1F
100
AcDbEntity
  8
OSIE
100
AcDbLine
 10
85.99317767038534
 20
76.42051938357906
 30
0.0
 11
92.97676811264651
 21
76.42051938357906
 31
0.0
  0
LINE
  5
112A
330
1F
100
AcDbEntity
  8
OSIE
100
AcDbLine
 10
92.69317767038532
 20
78.92051938357906
 30
0.0
 11
99.6767681126465
 21
78.92051938357906
 31
0.0
  0
LINE
  5
112B
330
1F
100
AcDbEntity
  8
OSIE
100
AcDbLine
 10
106.9931776703854
 20
76.4205193835792
 30
0.0
 11
113.9767681126466
 21
76.4205193835792
 31
0.0
  0
LINE
  5
112C
330
1F
100
AcDbEntity
  8
OSIE
100
AcDbLine
 10
113.6931776703853
 20
78.9205193835792
 30
0.0
 11
120.6767681126465
 21
78.9205193835792
 31
0.0
  0
LINE
  5
112D
330
1F
100
AcDbEntity
  8
OSIE
100
AcDbLine
 10
101.0031780189276
 20
82.74551908047786
 30
0.0
 11
107.9867684611887
 21
82.74551908047786
 31
0.0
  0
LINE
  5
112E
330
1F
100
AcDbEntity
  8
OSIE
100
AcDbLine
 10
104.4949732400582
 20
84.72550352151
 30
0.0
 11
104.4949732400582
 21
80.76553463944572
 31
0.0
  0
LINE
  5
112F
330
1F
100
AcDbEntity
  8
OSIE
100
AcDbLine
 10
79.92317769289016
 20
82.74551908047786
 30
0.0
 11
86.90676813515134
 21
82.74551908047786
 31
0.0
  0
LINE
  5
1130
330
1F
100
AcDbEntity
  8
OSIE
100
AcDbLine
 10
83.41497291402075
 20
84.72550352151
 30
0.0
 11
83.41497291402075
 21
80.76553463944572
 31
0.0
  0
DIMENSION
  5
120A
102
{ACAD_REACTORS
102
}
102
{ACAD_XDICTIONARY
360
120B
102
}
330
1F
100
AcDbEntity
  8
WY
100
AcDbDimension
  2
*D39
 10
124.5349740289256
 20
208.6511776812183
 30
0.0
 11
102.0349722187965
 21
210.6511776812183
 31
0.0
 70
    32
  3
ISO-25
100
AcDbAlignedDimension
 13
79.5349704086673
 23
193.2996965024001
 33
0.0
 14
124.5349740289256
 24
193.2996963414676
 34
0.0
100
AcDbRotatedDimension
1001
ACAD
1000
DSTYLE
1002
{
1070
   287
1070
     5
1070
   143
1040
0.0393700787401575
1070
    41
1040
2.0
1070
    44
1040
1.0
1070
    42
1040
1.0
1070
   147
1040
1.0
1070
    77
1070
     3
1070
   174
1070
     1
1070
   279
1070
     2
1070
    74
1070
     1
1070
   140
1040
2.0
1002
}
  0
ENDSEC
  0
SECTION
  2
OBJECTS
  0
DICTIONARY
  5
C
330
0
100
AcDbDictionary
  3
ACAD_DETAILVIEWSTYLE
350
53C
  3
ACAD_GROUP
350
D
  3
ACAD_IMAGE_VARS
350
317
  3
ACAD_MLINESTYLE
350
17
  3
ACAD_SCALELIST
350
11DB
  3
ACAD_SECTIONVIEWSTYLE
350
53D
  3
ACDBVARIABLEDICTIONARY
350
537
  3
APPDATA
350
315
  3
DIMOFFSETDICTIONARY
350
646
  3
DWGPROPS
350
121E
  0
DICTIONARY
  5
5D0
330
2
100
AcDbDictionary
280
     1
  3
ACAD_LAYERSTATES
360
5D1
  0
DICTIONARY
  5
120B
330
120A
100
AcDbDictionary
280
     1
  0
DICTIONARY
  5
53C
102
{ACAD_REACTORS
330
C
102
}
330
C
100
AcDbDictionary
  0
DICTIONARY
  5
D
102
{ACAD_REACTORS
330
C
102
}
330
C
100
AcDbDictionary
  0
RASTERVARIABLES
  5
317
102
{ACAD_REACTORS
330
C
102
}
330
C
100
AcDbRasterVariables
 90
        0
 70
     1
 71
     1
 72
     1
  0
DICTIONARY
  5
17
102
{ACAD_REACTORS
330
C
102
}
330
C
100
AcDbDictionary
  3
STANDARD
350
18
  0
DICTIONARY
  5
11DB
102
{ACAD_REACTORS
330
C
102
}
330
C
100
AcDbDictionary
  0
DICTIONARY
  5
53D
102
{ACAD_REACTORS
330
C
102
}
330
C
100
AcDbDictionary
  0
DICTIONARY
  5
537
102
{ACAD_REACTORS
330
C
102
}
330
C
100
AcDbDictionary
  3
HPTRANSPARENCY
350
645
  0
DICTIONARY
  5
315
102
{ACAD_REACTORS
330
C
102
}
330
C
100
AcDbDictionary
  0
DICTIONARY
  5
646
102
{ACAD_REACTORS
330
C
102
}
330
C
100
AcDbDictionary
  3
DIMRAILANGLE
350
B5A
  3
DIMRAILFIRSTOFFSET
350
B58
  3
DIMRAILOFFSET
350
B59
  3
DIMRAILSENABLED
350
B5B
  0
XRECORD
  5
121E
102
{ACAD_REACTORS
330
C
102
}
330
C
100
AcDbXrecord
  1
DWGPROPS COOKIE
  2

  3

  4

  6

  7

  8
pikusl
  9

300
=
301
=
302
=
303
=
304
=
305
=
306
=
307
=
308
=
309
=
 40
0.0
 41
2457525.462618472
 42
2457526.25793853
  1

 90
        0
  0
DICTIONARY
  5
5D1
102
{ACAD_REACTORS
330
5D0
102
}
330
5D0
100
AcDbDictionary
  0
MLINESTYLE
  5
18
102
{ACAD_REACTORS
330
17
102
}
330
17
100
AcDbMlineStyle
  2
Standard
 70
     0
  3

 62
   256
 51
90.0
 52
90.0
 71
     2
 49
0.5
 62
   256
  6
BYLAYER
 49
-0.5
 62
   256
  6
BYLAYER
  0
DICTIONARYVAR
  5
645
102
{ACAD_REACTORS
330
537
102
}
330
537
100
DictionaryVariables
280
     0
  1
ByLayer
  0
DICTIONARYVAR
  5
B5A
102
{ACAD_REACTORS
330
646
102
}
330
646
100
DictionaryVariables
280
     0
  1
0.261799
  0
DICTIONARYVAR
  5
B58
102
{ACAD_REACTORS
330
646
102
}
330
646
100
DictionaryVariables
280
     0
  1
10.000000
  0
DICTIONARYVAR
  5
B59
102
{ACAD_REACTORS
330
646
102
}
330
646
100
DictionaryVariables
280
     0
  1
6.000000
  0
DICTIONARYVAR
  5
B5B
102
{ACAD_REACTORS
330
646
102
}
330
646
100
DictionaryVariables
280
     0
  1
1
  0
ENDSEC
  0
EOF
