  0
SECTION
  2
HEADER
  9
$ACADVER
  1
AC1014
  9
$ACADMAINTVER
 70
     9
  9
$DWGCODEPAGE
  3
ANSI_1250
  9
$INSBASE
 10
0.0
 20
0.0
 30
0.0
  9
$EXTMIN
 10
486.041244
 20
0.0
 30
0.0
  9
$EXTMAX
 10
687.671651
 20
297.0
 30
0.0
  9
$LIMMIN
 10
0.0
 20
0.0
  9
$LIMMAX
 10
420.0
 20
297.0
  9
$ORTHOMODE
 70
     0
  9
$REGENMODE
 70
     1
  9
$FILLMODE
 70
     1
  9
$QTEXTMODE
 70
     0
  9
$MIRRTEXT
 70
     1
  9
$DRAGMODE
 70
     2
  9
$LTSCALE
 40
6.0
  9
$OSMODE
 70
 13247
  9
$ATTMODE
 70
     1
  9
$TEXTSIZE
 40
0.2
  9
$TRACEWID
 40
0.05
  9
$TEXTSTYLE
  7
ITALIC
  9
$CLAYER
  8
WY
  9
$CELTYPE
  6
BYLAYER
  9
$CECOLOR
 62
   256
  9
$CELTSCALE
 40
1.0
  9
$DELOBJ
 70
     1
  9
$DISPSILH
 70
     0
  9
$DIMSCALE
 40
1.0
  9
$DIMASZ
 40
2.5
  9
$DIMEXO
 40
1.5
  9
$DIMDLI
 40
7.0
  9
$DIMRND
 40
0.0
  9
$DIMDLE
 40
0.0
  9
$DIMEXE
 40
1.5
  9
$DIMTP
 40
0.1
  9
$DIMTM
 40
0.0
  9
$DIMTXT
 40
1.5
  9
$DIMCEN
 40
-1.0
  9
$DIMTSZ
 40
0.0
  9
$DIMTOL
 70
     0
  9
$DIMLIM
 70
     0
  9
$DIMTIH
 70
     0
  9
$DIMTOH
 70
     1
  9
$DIMSE1
 70
     0
  9
$DIMSE2
 70
     0
  9
$DIMTAD
 70
     1
  9
$DIMZIN
 70
     8
  9
$DIMBLK
  1

  9
$DIMASO
 70
     1
  9
$DIMSHO
 70
     0
  9
$DIMPOST
  1

  9
$DIMAPOST
  1

  9
$DIMALT
 70
     0
  9
$DIMALTD
 70
     2
  9
$DIMALTF
 40
25.4
  9
$DIMLFAC
 40
1.0
  9
$DIMTOFL
 70
     0
  9
$DIMTVP
 40
0.0
  9
$DIMTIX
 70
     1
  9
$DIMSOXD
 70
     0
  9
$DIMSAH
 70
     0
  9
$DIMBLK1
  1

  9
$DIMBLK2
  1

  9
$DIMSTYLE
  2
STANDARD
  9
$DIMCLRD
 70
     0
  9
$DIMCLRE
 70
     0
  9
$DIMCLRT
 70
     0
  9
$DIMTFAC
 40
1.0
  9
$DIMGAP
 40
0.75
  9
$DIMJUST
 70
     0
  9
$DIMSD1
 70
     0
  9
$DIMSD2
 70
     0
  9
$DIMTOLJ
 70
     1
  9
$DIMTZIN
 70
     8
  9
$DIMALTZ
 70
     0
  9
$DIMALTTZ
 70
     0
  9
$DIMFIT
 70
     4
  9
$DIMUPT
 70
     0
  9
$DIMUNIT
 70
     2
  9
$DIMDEC
 70
     2
  9
$DIMTDEC
 70
     4
  9
$DIMALTU
 70
     2
  9
$DIMALTTD
 70
     2
  9
$DIMTXSTY
  7
STANDARD
  9
$DIMAUNIT
 70
     0
  9
$LUNITS
 70
     2
  9
$LUPREC
 70
     2
  9
$SKETCHINC
 40
0.1
  9
$FILLETRAD
 40
0.1
  9
$AUNITS
 70
     0
  9
$AUPREC
 70
     2
  9
$MENU
  1
ACAD
  9
$ELEVATION
 40
0.0
  9
$PELEVATION
 40
0.0
  9
$THICKNESS
 40
0.0
  9
$LIMCHECK
 70
     0
  9
$CHAMFERA
 40
0.0
  9
$CHAMFERB
 40
0.0
  9
$CHAMFERC
 40
0.0
  9
$CHAMFERD
 40
0.0
  9
$SKPOLY
 70
     0
  9
$TDCREATE
 40
2448721.39913669
  9
$TDUPDATE
 40
2457540.465863553
  9
$TDINDWG
 40
1.5821894792
  9
$TDUSRTIMER
 40
2457540.379475614
  9
$USRTIMER
 70
     1
  9
$ANGBASE
 50
0.0
  9
$ANGDIR
 70
     0
  9
$PDMODE
 70
     0
  9
$PDSIZE
 40
0.0
  9
$PLINEWID
 40
0.5
  9
$COORDS
 70
     1
  9
$SPLFRAME
 70
     0
  9
$SPLINETYPE
 70
     6
  9
$SPLINESEGS
 70
     8
  9
$ATTDIA
 70
     0
  9
$ATTREQ
 70
     1
  9
$HANDLING
 70
     1
  9
$HANDSEED
  5
1E8A4
  9
$SURFTAB1
 70
     6
  9
$SURFTAB2
 70
     6
  9
$SURFTYPE
 70
     6
  9
$SURFU
 70
     6
  9
$SURFV
 70
     6
  9
$UCSNAME
  2

  9
$UCSORG
 10
0.0
 20
0.0
 30
0.0
  9
$UCSXDIR
 10
1.0
 20
0.0
 30
0.0
  9
$UCSYDIR
 10
0.0
 20
1.0
 30
0.0
  9
$PUCSNAME
  2

  9
$PUCSORG
 10
0.0
 20
0.0
 30
0.0
  9
$PUCSXDIR
 10
1.0
 20
0.0
 30
0.0
  9
$PUCSYDIR
 10
0.0
 20
1.0
 30
0.0
  9
$USERI1
 70
     0
  9
$USERI2
 70
     0
  9
$USERI3
 70
     0
  9
$USERI4
 70
     0
  9
$USERI5
 70
     0
  9
$USERR1
 40
0.0
  9
$USERR2
 40
0.0
  9
$USERR3
 40
0.0
  9
$USERR4
 40
0.0
  9
$USERR5
 40
0.0
  9
$WORLDVIEW
 70
     1
  9
$SHADEDGE
 70
     3
  9
$SHADEDIF
 70
    70
  9
$TILEMODE
 70
     1
  9
$MAXACTVP
 70
    16
  9
$PINSBASE
 10
0.0
 20
0.0
 30
0.0
  9
$PLIMCHECK
 70
     0
  9
$PEXTMIN
 10
1.000000000000000E+20
 20
1.000000000000000E+20
 30
1.000000000000000E+20
  9
$PEXTMAX
 10
-1.000000000000000E+20
 20
-1.000000000000000E+20
 30
-1.000000000000000E+20
  9
$PLIMMIN
 10
0.0
 20
0.0
  9
$PLIMMAX
 10
0.0
 20
0.0
  9
$UNITMODE
 70
     0
  9
$VISRETAIN
 70
     0
  9
$PLINEGEN
 70
     0
  9
$PSLTSCALE
 70
     0
  9
$TREEDEPTH
 70
  3020
  9
$PICKSTYLE
 70
     1
  9
$CMLSTYLE
  2
STANDARD
  9
$CMLJUST
 70
     0
  9
$CMLSCALE
 40
1.0
  9
$PROXYGRAPHICS
 70
     1
  9
$MEASUREMENT
 70
     0
  0
ENDSEC
  0
SECTION
  2
CLASSES
  0
CLASS
  1
HATCH
  2
AcDbHatch
  3
ObjectDBX Classes
 90
        0
280
     0
281
     1
  0
CLASS
  1
LWPOLYLINE
  2
AcDbPolyline
  3
ObjectDBX Classes
 90
        0
280
     0
281
     1
  0
CLASS
  1
DICTIONARYVAR
  2
AcDbDictionaryVar
  3
ObjectDBX Classes
 90
        0
280
     0
281
     0
  0
CLASS
  1
XRECORD
  2
AcDbXrecord
  3
ObjectDBX Classes
 90
        0
280
     0
281
     0
  0
CLASS
  1
SCALE
  2
AcDbScale
  3
ObjectDBX Classes
 90
     1153
280
     0
281
     0
  0
CLASS
  1
VISUALSTYLE
  2
AcDbVisualStyle
  3
ObjectDBX Classes
 90
     4095
280
     0
281
     0
  0
CLASS
  1
MATERIAL
  2
AcDbMaterial
  3
ObjectDBX Classes
 90
     1153
280
     0
281
     0
  0
CLASS
  1
TABLESTYLE
  2
AcDbTableStyle
  3
ObjectDBX Classes
 90
     4095
280
     0
281
     0
  0
CLASS
  1
MLEADERSTYLE
  2
AcDbMLeaderStyle
  3
ACDB_MLEADERSTYLE_CLASS
 90
     4095
280
     0
281
     0
  0
CLASS
  1
SUN
  2
AcDbSun
  3
SCENEOE
 90
     1153
280
     0
281
     0
  0
CLASS
  1
RASTERVARIABLES
  2
AcDbRasterVariables
  3
ISM
 90
        0
280
     0
281
     0
  0
CLASS
  1
DIMASSOC
  2
AcDbDimAssoc
  3
"AcDbDimAssoc|Product Desc:     AcDim ARX App For Dimension|Company:          Autodesk, Inc.|WEB Address:      www.autodesk.com"
 90
        0
280
     0
281
     0
  0
CLASS
  1
ACDBDICTIONARYWDFLT
  2
AcDbDictionaryWithDefault
  3
ObjectDBX Classes
 90
        0
280
     0
281
     0
  0
ENDSEC
  0
SECTION
  2
TABLES
  0
TABLE
  2
VPORT
  5
8
330
0
100
AcDbSymbolTable
 70
     1
  0
VPORT
  5
F0F7
330
8
100
AcDbSymbolTableRecord
100
AcDbViewportTableRecord
  2
*ACTIVE
 70
     0
 10
0.0
 20
0.0
 11
1.0
 21
1.0
 12
395.7850931426333
 22
503.3540253583415
 13
0.0
 23
0.0
 14
1.0
 24
1.0
 15
5.0
 25
5.0
 16
0.0
 26
0.0
 36
1.0
 17
191.0713543573668
 27
-354.8540253583415
 37
0.0
 40
302.94
 41
2.811127379209371
 42
50.0
 43
0.0
 44
0.0
 50
0.0
 51
0.0
 71
    16
 72
   200
 73
     1
 74
     0
 75
     0
 76
     0
 77
     0
 78
     0
  0
ENDTAB
  0
TABLE
  2
LTYPE
  5
5
330
0
100
AcDbSymbolTable
 70
     5
  0
LTYPE
  5
12
330
5
100
AcDbSymbolTableRecord
100
AcDbLinetypeTableRecord
  2
BYBLOCK
 70
     0
  3

 72
    65
 73
     0
 40
0.0
  0
LTYPE
  5
13
330
5
100
AcDbSymbolTableRecord
100
AcDbLinetypeTableRecord
  2
BYLAYER
 70
     0
  3

 72
    65
 73
     0
 40
0.0
  0
LTYPE
  5
14
330
5
100
AcDbSymbolTableRecord
100
AcDbLinetypeTableRecord
  2
CONTINUOUS
 70
     0
  3
Solid line
 72
    65
 73
     0
 40
0.0
  0
LTYPE
  5
1D
330
5
100
AcDbSymbolTableRecord
100
AcDbLinetypeTableRecord
  2
CENTER
 70
     0
  3
____ _ ____ _ ____ _ ____ _ ____ _ ____ _ ____
 72
    65
 73
     4
 40
2.0
 49
1.25
 74
     0
 49
-0.25
 74
     0
 49
0.25
 74
     0
 49
-0.25
 74
     0
  0
LTYPE
  5
1E
330
5
100
AcDbSymbolTableRecord
100
AcDbLinetypeTableRecord
  2
HIDDEN
 70
     0
  3
_ _ _ _ _ _ _ _ _ _ _ _ _ _ _ _ _ _ _ _ _ _ _
 72
    65
 73
     2
 40
0.375
 49
0.25
 74
     0
 49
-0.125
 74
     0
  0
LTYPE
  5
8093
330
5
100
AcDbSymbolTableRecord
100
AcDbLinetypeTableRecord
  2
PHANTOM
 70
     0
  3
Phantom ______  __  __  ______  __  __  ______
 72
    65
 73
     6
 40
12.7
 49
6.35
 74
     0
 49
-1.27
 74
     0
 49
1.27
 74
     0
 49
-1.27
 74
     0
 49
1.27
 74
     0
 49
-1.27
 74
     0
  0
LTYPE
  5
1187C
330
5
100
AcDbSymbolTableRecord
100
AcDbLinetypeTableRecord
  2
CENTERX2
 70
     0
  3
Center (2x) ________  __  ________  __  _____
 72
    65
 73
     4
 40
20.32
 49
12.7
 74
     0
 49
-2.54
 74
     0
 49
2.54
 74
     0
 49
-2.54
 74
     0
  0
ENDTAB
  0
TABLE
  2
LAYER
  5
2
102
{ACAD_XDICTIONARY
360
13241
102
}
330
0
100
AcDbSymbolTable
 70
     8
  0
LAYER
  5
F
330
2
100
AcDbSymbolTableRecord
100
AcDbLayerTableRecord
  2
0
 70
     0
 62
     7
  6
CONTINUOUS
  0
LAYER
  5
21
330
2
100
AcDbSymbolTableRecord
100
AcDbLayerTableRecord
  2
1
 70
     0
 62
     3
  6
CONTINUOUS
  0
LAYER
  5
22
330
2
100
AcDbSymbolTableRecord
100
AcDbLayerTableRecord
  2
2
 70
     0
 62
     6
  6
CONTINUOUS
  0
LAYER
  5
23
330
2
100
AcDbSymbolTableRecord
100
AcDbLayerTableRecord
  2
3
 70
     0
 62
     4
  6
HIDDEN
  0
LAYER
  5
24
330
2
100
AcDbSymbolTableRecord
100
AcDbLayerTableRecord
  2
OSIE
 70
     0
 62
     2
  6
CENTER
  0
LAYER
  5
25
330
2
100
AcDbSymbolTableRecord
100
AcDbLayerTableRecord
  2
WY
 70
     0
 62
     1
  6
CONTINUOUS
  0
LAYER
  5
26
330
2
100
AcDbSymbolTableRecord
100
AcDbLayerTableRecord
  2
DEFPOINTS
 70
     0
 62
     7
  6
CONTINUOUS
  0
LAYER
  5
464
330
2
100
AcDbSymbolTableRecord
100
AcDbLayerTableRecord
  2
WYMIARY
 70
     0
 62
     1
  6
CONTINUOUS
  0
ENDTAB
  0
TABLE
  2
STYLE
  5
3
330
0
100
AcDbSymbolTable
 70
     4
  0
STYLE
  5
10
330
3
100
AcDbSymbolTableRecord
100
AcDbTextStyleTableRecord
  2
STANDARD
 70
     0
 40
0.0
 41
1.0
 50
0.0
 71
     0
 42
6.0
  3
txt
  4

  0
STYLE
  5
1C
330
3
100
AcDbSymbolTableRecord
100
AcDbTextStyleTableRecord
  2
ITALIC
 70
     0
 40
0.0
 41
1.0
 50
15.0
 71
     0
 42
0.2
  3
simplex
  4

  0
STYLE
  5
C512
330
3
100
AcDbSymbolTableRecord
100
AcDbTextStyleTableRecord
  2
SLDTEXTSTYLE2
 70
     0
 40
0.0
 41
0.7
 50
0.0
 71
     0
 42
0.2
  3
TXT
  4

  0
STYLE
  5
C513
330
3
100
AcDbSymbolTableRecord
100
AcDbTextStyleTableRecord
  2
SLDTEXTSTYLE6
 70
     0
 40
0.0
 41
0.605
 50
0.0
 71
     0
 42
0.2
  3
TXT
  4

  0
ENDTAB
  0
TABLE
  2
VIEW
  5
6
330
0
100
AcDbSymbolTable
 70
     0
  0
ENDTAB
  0
TABLE
  2
UCS
  5
7
330
0
100
AcDbSymbolTable
 70
     0
  0
ENDTAB
  0
TABLE
  2
APPID
  5
9
330
0
100
AcDbSymbolTable
 70
     7
  0
APPID
  5
11
330
9
100
AcDbSymbolTableRecord
100
AcDbRegAppTableRecord
  2
ACAD
 70
     0
  0
APPID
  5
14E88
330
9
100
AcDbSymbolTableRecord
100
AcDbRegAppTableRecord
  2
ACAD_DSTYLE_DIMRADIAL_EXTE
 70
     0
  0
APPID
  5
17475
330
9
100
AcDbSymbolTableRecord
100
AcDbRegAppTableRecord
  2
ACAD_DSTYLE_DIMRADIAL_EXT0
 70
     0
  0
APPID
  5
1C4D0
330
9
100
AcDbSymbolTableRecord
100
AcDbRegAppTableRecord
  2
ACAD_DSTYLE_DIMRADIAL_EXT1
 70
     0
  0
APPID
  5
1D830
330
9
100
AcDbSymbolTableRecord
100
AcDbRegAppTableRecord
  2
ACAD_DSTYLE_DIMRADIAL_EXT2
 70
     0
  0
APPID
  5
1DF7B
330
9
100
AcDbSymbolTableRecord
100
AcDbRegAppTableRecord
  2
ACAD_DSTYLE_DIMRADIAL_EXT3
 70
     0
  0
APPID
  5
1E554
330
9
100
AcDbSymbolTableRecord
100
AcDbRegAppTableRecord
  2
ACAD_DSTYLE_DIMRADIAL_EXT4
 70
     0
  0
ENDTAB
  0
TABLE
  2
DIMSTYLE
  5
A
330
0
100
AcDbSymbolTable
 70
     2
  0
DIMSTYLE
105
3B
102
{ACAD_REACTORS
330
1E81D
330
1E820
330
1E822
330
1E824
330
1E827
330
1E82A
330
1E82D
330
1E82E
330
1E82F
102
}
330
A
100
AcDbSymbolTableRecord
100
AcDbDimStyleTableRecord
  2
STANDARD
 70
     0
  3

  4

  5

  6

  7

 40
1.0
 41
3.5
 42
1.5
 43
7.0
 44
1.5
 45
0.0
 46
0.0
 47
0.1
 48
0.0
140
3.6
141
-1.0
142
0.0
143
25.4
144
1.0
145
0.0
146
1.0
147
1.5
 71
     0
 72
     0
 73
     0
 74
     0
 75
     0
 76
     0
 77
     1
 78
     0
170
     0
171
     2
172
     0
173
     0
174
     0
175
     0
176
     0
177
     0
178
     0
270
     2
271
     2
272
     4
273
     2
274
     2
340
10
275
     0
280
     0
281
     0
282
     0
283
     1
284
     0
285
     0
286
     0
287
     3
288
     0
  0
DIMSTYLE
105
1187D
330
A
100
AcDbSymbolTableRecord
100
AcDbDimStyleTableRecord
  2
ISO-25
 70
     0
  3

  4

  5

  6

  7

 40
1.0
 41
2.5
 42
0.625
 43
3.75
 44
1.25
 45
0.0
 46
0.0
 47
0.0
 48
0.0
140
2.5
141
2.5
142
0.0
143
0.03937007874016
144
1.0
145
0.0
146
1.0
147
0.625
 71
     0
 72
     0
 73
     0
 74
     0
 75
     0
 76
     0
 77
     1
 78
     8
170
     0
171
     3
172
     1
173
     0
174
     0
175
     0
176
     0
177
     0
178
     0
270
     2
271
     2
272
     2
273
     2
274
     3
340
10
275
     0
280
     0
281
     0
282
     0
283
     0
284
     8
285
     0
286
     0
287
     3
288
     0
  0
ENDTAB
  0
TABLE
  2
BLOCK_RECORD
  5
1
330
0
100
AcDbSymbolTable
 70
   198
  0
BLOCK_RECORD
  5
18
330
1
100
AcDbSymbolTableRecord
100
AcDbBlockTableRecord
  2
*MODEL_SPACE
  0
BLOCK_RECORD
  5
15
330
1
100
AcDbSymbolTableRecord
100
AcDbBlockTableRecord
  2
*PAPER_SPACE
  0
BLOCK_RECORD
  5
7EA0
330
1
100
AcDbSymbolTableRecord
100
AcDbBlockTableRecord
  2
A$C312173AA
  0
BLOCK_RECORD
  5
C4F7
330
1
100
AcDbSymbolTableRecord
100
AcDbBlockTableRecord
  2
_DOT
  0
BLOCK_RECORD
  5
13341
330
1
100
AcDbSymbolTableRecord
100
AcDbBlockTableRecord
  2
_NONE
  0
BLOCK_RECORD
  5
13346
330
1
100
AcDbSymbolTableRecord
100
AcDbBlockTableRecord
  2
_OBLIQUE
  0
BLOCK_RECORD
  5
1357A
330
1
100
AcDbSymbolTableRecord
100
AcDbBlockTableRecord
  2
SW_CENTERMARKSYMBOL_0
  0
BLOCK_RECORD
  5
13586
330
1
100
AcDbSymbolTableRecord
100
AcDbBlockTableRecord
  2
SW_CENTERMARKSYMBOL_1
  0
BLOCK_RECORD
  5
13592
330
1
100
AcDbSymbolTableRecord
100
AcDbBlockTableRecord
  2
SW_CENTERMARKSYMBOL_2
  0
BLOCK_RECORD
  5
140D3
330
1
100
AcDbSymbolTableRecord
100
AcDbBlockTableRecord
  2
SW_CENTERMARKSYMBOL_3
  0
BLOCK_RECORD
  5
140DF
330
1
100
AcDbSymbolTableRecord
100
AcDbBlockTableRecord
  2
SW_CENTERMARKSYMBOL_4
  0
BLOCK_RECORD
  5
140EB
330
1
100
AcDbSymbolTableRecord
100
AcDbBlockTableRecord
  2
SW_CENTERMARKSYMBOL_5
  0
BLOCK_RECORD
  5
140F7
330
1
100
AcDbSymbolTableRecord
100
AcDbBlockTableRecord
  2
SW_CENTERMARKSYMBOL_6
  0
BLOCK_RECORD
  5
14103
330
1
100
AcDbSymbolTableRecord
100
AcDbBlockTableRecord
  2
SW_CENTERMARKSYMBOL_7
  0
BLOCK_RECORD
  5
1410F
330
1
100
AcDbSymbolTableRecord
100
AcDbBlockTableRecord
  2
SW_CENTERMARKSYMBOL_8
  0
BLOCK_RECORD
  5
1411B
330
1
100
AcDbSymbolTableRecord
100
AcDbBlockTableRecord
  2
SW_CENTERMARKSYMBOL_9
  0
BLOCK_RECORD
  5
17418
330
1
100
AcDbSymbolTableRecord
100
AcDbBlockTableRecord
  2
_ARCHTICK
  0
BLOCK_RECORD
  5
1741C
330
1
100
AcDbSymbolTableRecord
100
AcDbBlockTableRecord
  2
_INTEGRAL
  0
BLOCK_RECORD
  5
1DF51
330
1
100
AcDbSymbolTableRecord
100
AcDbBlockTableRecord
  2
*D170
  0
BLOCK_RECORD
  5
1DF60
330
1
100
AcDbSymbolTableRecord
100
AcDbBlockTableRecord
  2
*D171
  0
BLOCK_RECORD
  5
1DF6F
330
1
100
AcDbSymbolTableRecord
100
AcDbBlockTableRecord
  2
*D172
  0
BLOCK_RECORD
  5
1DF7F
330
1
100
AcDbSymbolTableRecord
100
AcDbBlockTableRecord
  2
*D173
  0
BLOCK_RECORD
  5
1DF91
330
1
100
AcDbSymbolTableRecord
100
AcDbBlockTableRecord
  2
*D174
  0
BLOCK_RECORD
  5
1DFA0
330
1
100
AcDbSymbolTableRecord
100
AcDbBlockTableRecord
  2
*D175
  0
BLOCK_RECORD
  5
1DFB1
330
1
100
AcDbSymbolTableRecord
100
AcDbBlockTableRecord
  2
*D176
  0
BLOCK_RECORD
  5
1DFC5
330
1
100
AcDbSymbolTableRecord
100
AcDbBlockTableRecord
  2
*D177
  0
BLOCK_RECORD
  5
1DFD7
330
1
100
AcDbSymbolTableRecord
100
AcDbBlockTableRecord
  2
*D178
  0
BLOCK_RECORD
  5
1E526
330
1
100
AcDbSymbolTableRecord
100
AcDbBlockTableRecord
  2
*D180
  0
BLOCK_RECORD
  5
1E535
330
1
100
AcDbSymbolTableRecord
100
AcDbBlockTableRecord
  2
*D181
  0
BLOCK_RECORD
  5
1E544
330
1
100
AcDbSymbolTableRecord
100
AcDbBlockTableRecord
  2
*D182
  0
BLOCK_RECORD
  5
1E558
330
1
100
AcDbSymbolTableRecord
100
AcDbBlockTableRecord
  2
*D183
  0
BLOCK_RECORD
  5
1E56A
330
1
100
AcDbSymbolTableRecord
100
AcDbBlockTableRecord
  2
*D184
  0
BLOCK_RECORD
  5
1E57C
330
1
100
AcDbSymbolTableRecord
100
AcDbBlockTableRecord
  2
*D185
  0
BLOCK_RECORD
  5
1E58B
330
1
100
AcDbSymbolTableRecord
100
AcDbBlockTableRecord
  2
*D186
  0
BLOCK_RECORD
  5
1E597
330
1
100
AcDbSymbolTableRecord
100
AcDbBlockTableRecord
  2
*D187
  0
BLOCK_RECORD
  5
1E5A5
330
1
100
AcDbSymbolTableRecord
100
AcDbBlockTableRecord
  2
*D188
  0
BLOCK_RECORD
  5
1E830
330
1
100
AcDbSymbolTableRecord
100
AcDbBlockTableRecord
  2
*D189
  0
BLOCK_RECORD
  5
1E83C
330
1
100
AcDbSymbolTableRecord
100
AcDbBlockTableRecord
  2
*D190
  0
BLOCK_RECORD
  5
1E848
330
1
100
AcDbSymbolTableRecord
100
AcDbBlockTableRecord
  2
*D191
  0
BLOCK_RECORD
  5
1E854
330
1
100
AcDbSymbolTableRecord
100
AcDbBlockTableRecord
  2
*D192
  0
BLOCK_RECORD
  5
1E860
330
1
100
AcDbSymbolTableRecord
100
AcDbBlockTableRecord
  2
*D193
  0
BLOCK_RECORD
  5
1E86F
330
1
100
AcDbSymbolTableRecord
100
AcDbBlockTableRecord
  2
*D194
  0
BLOCK_RECORD
  5
1E87B
330
1
100
AcDbSymbolTableRecord
100
AcDbBlockTableRecord
  2
*D195
  0
BLOCK_RECORD
  5
1E887
330
1
100
AcDbSymbolTableRecord
100
AcDbBlockTableRecord
  2
*D196
  0
BLOCK_RECORD
  5
1E895
330
1
100
AcDbSymbolTableRecord
100
AcDbBlockTableRecord
  2
*D197
  0
ENDTAB
  0
ENDSEC
  0
SECTION
  2
BLOCKS
  0
BLOCK
  5
29
330
18
100
AcDbEntity
  8
0
100
AcDbBlockBegin
  2
*MODEL_SPACE
 70
     0
 10
0.0
 20
0.0
 30
0.0
  3
*MODEL_SPACE
  1

  0
ENDBLK
  5
2A
330
18
100
AcDbEntity
  8
0
100
AcDbBlockEnd
  0
BLOCK
  5
27
330
15
100
AcDbEntity
 67
     1
  8
0
100
AcDbBlockBegin
  2
*PAPER_SPACE
 70
     0
 10
0.0
 20
0.0
 30
0.0
  3
*PAPER_SPACE
  1

  0
ENDBLK
  5
28
330
15
100
AcDbEntity
 67
     1
  8
0
100
AcDbBlockEnd
  0
BLOCK
  5
7EAF
330
7EA0
100
AcDbEntity
  8
0
100
AcDbBlockBegin
  2
A$C312173AA
 70
     0
 10
0.0
 20
0.0
 30
0.0
  3
A$C312173AA
  1
A$C312173AA
  0
HATCH
  5
7EA1
330
7EA0
100
AcDbEntity
  8
1
100
AcDbHatch
 10
0.0
 20
0.0
 30
0.0
210
0.0
220
0.0
230
1.0
  2
SOLID
 70
     1
 71
     1
 91
        1
 92
        7
 72
     0
 73
     1
 93
        4
 10
2.724690422176706
 20
5.013136352600668
 10
5.058157912552363
 20
1.095673373491763
 10
5.076413282682712
 20
1.095673373491763
 10
7.382430158279476
 20
5.013136352600668
 97
        4
330
7EA6
330
7EAA
330
7EA5
330
7EA8
 75
     0
 76
     1
 47
0.057765
 98
        1
 10
5.461965
 20
4.283681
  0
HATCH
  5
7EA2
330
7EA0
100
AcDbEntity
  8
1
100
AcDbHatch
 10
0.0
 20
0.0
 30
0.0
210
0.0
220
0.0
230
1.0
  2
SOLID
 70
     1
 71
     1
 91
        1
 92
        7
 72
     0
 73
     1
 93
        4
 10
2.724690422176706
 20
5.013136352600668
 10
5.058157912552363
 20
1.095673373491763
 10
5.076413282682712
 20
1.095673373491763
 10
7.382430158279476
 20
5.013136352600668
 97
        4
330
7EA4
330
7EA9
330
7EA3
330
7EA7
 75
     0
 76
     1
 47
0.057765
 98
        1
 10
5.461965
 20
4.283681
  0
LINE
  5
7EA3
102
{ACAD_REACTORS
330
7EA2
102
}
330
7EA0
100
AcDbEntity
  8
1
100
AcDbLine
 10
7.376974
 20
1.095673
 30
0.0
 11
2.719445
 21
1.095673
 31
0.0
  0
LINE
  5
7EA4
102
{ACAD_REACTORS
330
7EA2
102
}
330
7EA0
100
AcDbEntity
  8
1
100
AcDbLine
 10
2.716507
 20
5.013136
 30
0.0
 11
7.38243
 21
5.013136
 31
0.0
  0
LINE
  5
7EA5
102
{ACAD_REACTORS
330
7EA1
102
}
330
7EA0
100
AcDbEntity
  8
1
100
AcDbLine
 10
7.376974
 20
1.095673
 30
0.0
 11
2.719445
 21
1.095673
 31
0.0
  0
LINE
  5
7EA6
102
{ACAD_REACTORS
330
7EA1
102
}
330
7EA0
100
AcDbEntity
  8
1
100
AcDbLine
 10
2.716507
 20
5.013136
 30
0.0
 11
7.38243
 21
5.013136
 31
0.0
  0
LINE
  5
7EA7
102
{ACAD_REACTORS
330
7EA2
102
}
330
7EA0
100
AcDbEntity
  8
1
100
AcDbLine
 10
7.38243
 20
5.013136
 30
0.0
 11
5.049469
 21
1.0499
 31
0.0
  0
LINE
  5
7EA8
102
{ACAD_REACTORS
330
7EA1
102
}
330
7EA0
100
AcDbEntity
  8
1
100
AcDbLine
 10
7.38243
 20
5.013136
 30
0.0
 11
5.049469
 21
1.0499
 31
0.0
  0
LINE
  5
7EA9
102
{ACAD_REACTORS
330
7EA2
102
}
330
7EA0
100
AcDbEntity
  8
1
100
AcDbLine
 10
5.048209
 20
1.112376
 30
0.0
 11
2.719445
 21
5.021942
 31
0.0
  0
LINE
  5
7EAA
102
{ACAD_REACTORS
330
7EA1
102
}
330
7EA0
100
AcDbEntity
  8
1
100
AcDbLine
 10
5.048209
 20
1.112376
 30
0.0
 11
2.719445
 21
5.021942
 31
0.0
  0
LINE
  5
7EAB
330
7EA0
100
AcDbEntity
  8
1
100
AcDbLine
 10
3.176777
 20
2.240563
 30
0.0
 11
1.859991
 21
0.714974
 31
0.0
  0
LINE
  5
7EAC
330
7EA0
100
AcDbEntity
  8
1
100
AcDbLine
 10
1.935572
 20
2.29404
 30
0.0
 11
0.618786
 21
0.768452
 31
0.0
  0
HATCH
  5
7EAD
330
7EA0
100
AcDbEntity
  8
1
100
AcDbHatch
 10
0.0
 20
0.0
 30
0.0
210
0.0
220
0.0
230
1.0
  2
SOLID
 70
     1
 71
     0
 91
        1
 92
        7
 72
     0
 73
     1
 93
        3
 10
2.13435432304297
 20
0.5079866047149438
 10
1.594971700028992
 20
0.9149117569309055
 10
1.241204476589189
 20
0.0000001052034975
 97
        0
 75
     0
 76
     1
 47
0.009825
 98
        1
 10
1.617082
 20
0.370646
  0
HATCH
  5
7EAE
330
7EA0
100
AcDbEntity
  8
1
100
AcDbHatch
 10
0.0
 20
0.0
 30
0.0
210
0.0
220
0.0
230
1.0
  2
SOLID
 70
     1
 71
     0
 91
        1
 92
        7
 72
     0
 73
     1
 93
        3
 10
0.8931496793437361
 20
0.5614642425206
 10
0.3537670563297865
 20
0.9683893947365334
 10
-0.0000001671100733
 20
0.0534777430091538
 97
        0
 75
     0
 76
     1
 47
0.009825
 98
        1
 10
0.375878
 20
0.424123
  0
ENDBLK
  5
7EB0
330
7EA0
100
AcDbEntity
  8
0
100
AcDbBlockEnd
  0
BLOCK
  5
C4FC
330
C4F7
100
AcDbEntity
  8
0
100
AcDbBlockBegin
  2
_DOT
 70
     0
 10
0.0
 20
0.0
 30
0.0
  3
_DOT
  1
_DOT
  0
LWPOLYLINE
  5
C4F8
330
C4F7
100
AcDbEntity
  8
0
  6
BYBLOCK
 62
     0
100
AcDbPolyline
 90
        2
 70
     1
 43
0.5
 10
-0.25
 20
0.0
 42
1.0
 10
0.25
 20
0.0
 42
1.0
  0
LINE
  5
C4F9
330
C4F7
100
AcDbEntity
  8
0
  6
BYBLOCK
 62
     0
100
AcDbLine
 10
-0.5
 20
0.0
 30
0.0
 11
-1.0
 21
0.0
 31
0.0
  0
ENDBLK
  5
C4FD
330
C4F7
100
AcDbEntity
  8
0
100
AcDbBlockEnd
  0
BLOCK
  5
13342
330
13341
100
AcDbEntity
  8
0
100
AcDbBlockBegin
  2
_NONE
 70
     0
 10
0.0
 20
0.0
 30
0.0
  3
_NONE
  1
_NONE
  0
ENDBLK
  5
13343
330
13341
100
AcDbEntity
  8
0
100
AcDbBlockEnd
  0
BLOCK
  5
13347
330
13346
100
AcDbEntity
  8
0
100
AcDbBlockBegin
  2
_OBLIQUE
 70
     0
 10
0.0
 20
0.0
 30
0.0
  3
_OBLIQUE
  1
_OBLIQUE
  0
LINE
  5
13349
330
13346
100
AcDbEntity
  8
0
  6
BYBLOCK
 62
     0
100
AcDbLine
 10
-0.5
 20
-0.5
 30
0.0
 11
0.5
 21
0.5
 31
0.0
  0
ENDBLK
  5
13348
330
13346
100
AcDbEntity
  8
0
100
AcDbBlockEnd
  0
BLOCK
  5
1357B
330
1357A
100
AcDbEntity
  8
0
100
AcDbBlockBegin
  2
SW_CENTERMARKSYMBOL_0
 70
     0
 10
0.0
 20
0.0
 30
0.0
  3
SW_CENTERMARKSYMBOL_0
  1
SW_CENTERMARKSYMBOL_0
  0
LINE
  5
1357C
330
1357A
100
AcDbEntity
  8
0
  6
CONTINUOUS
 62
     0
100
AcDbLine
 10
0.0
 20
0.0
 30
0.0
 11
0.0
 21
2.500000000000002
 31
0.0
  0
LINE
  5
1357D
330
1357A
100
AcDbEntity
  8
0
  6
CONTINUOUS
 62
     0
100
AcDbLine
 10
0.0
 20
0.0
 30
0.0
 11
-2.500000000000002
 21
0.0
 31
0.0
  0
LINE
  5
1357E
330
1357A
100
AcDbEntity
  8
0
  6
CONTINUOUS
 62
     0
100
AcDbLine
 10
0.0
 20
0.0
 30
0.0
 11
0.0
 21
-2.500000000000002
 31
0.0
  0
LINE
  5
1357F
330
1357A
100
AcDbEntity
  8
0
  6
CONTINUOUS
 62
     0
100
AcDbLine
 10
0.0
 20
0.0
 30
0.0
 11
2.500000000000002
 21
0.0
 31
0.0
  0
LINE
  5
13580
330
1357A
100
AcDbEntity
  8
0
  6
CONTINUOUS
 62
     0
100
AcDbLine
 10
0.0
 20
2.500000000000002
 30
0.0
 11
0.0
 21
3.099999999999992
 31
0.0
  0
LINE
  5
13581
330
1357A
100
AcDbEntity
  8
0
  6
CONTINUOUS
 62
     0
100
AcDbLine
 10
-2.500000000000002
 20
0.0
 30
0.0
 11
-3.100000000000005
 21
0.0
 31
0.0
  0
LINE
  5
13582
330
1357A
100
AcDbEntity
  8
0
  6
CONTINUOUS
 62
     0
100
AcDbLine
 10
0.0
 20
-2.500000000000002
 30
0.0
 11
0.0
 21
-3.099999999999992
 31
0.0
  0
LINE
  5
13583
330
1357A
100
AcDbEntity
  8
0
  6
CONTINUOUS
 62
     0
100
AcDbLine
 10
2.500000000000002
 20
0.0
 30
0.0
 11
3.099999999999992
 21
0.0
 31
0.0
  0
ENDBLK
  5
13584
330
1357A
100
AcDbEntity
  8
0
100
AcDbBlockEnd
  0
BLOCK
  5
13587
330
13586
100
AcDbEntity
  8
0
100
AcDbBlockBegin
  2
SW_CENTERMARKSYMBOL_1
 70
     0
 10
0.0
 20
0.0
 30
0.0
  3
SW_CENTERMARKSYMBOL_1
  1
SW_CENTERMARKSYMBOL_1
  0
LINE
  5
13588
330
13586
100
AcDbEntity
  8
0
  6
CONTINUOUS
 62
     0
100
AcDbLine
 10
0.0
 20
0.0
 30
0.0
 11
0.0
 21
2.500000000000002
 31
0.0
  0
LINE
  5
13589
330
13586
100
AcDbEntity
  8
0
  6
CONTINUOUS
 62
     0
100
AcDbLine
 10
0.0
 20
0.0
 30
0.0
 11
-2.500000000000002
 21
0.0
 31
0.0
  0
LINE
  5
1358A
330
13586
100
AcDbEntity
  8
0
  6
CONTINUOUS
 62
     0
100
AcDbLine
 10
0.0
 20
0.0
 30
0.0
 11
0.0
 21
-2.500000000000002
 31
0.0
  0
LINE
  5
1358B
330
13586
100
AcDbEntity
  8
0
  6
CONTINUOUS
 62
     0
100
AcDbLine
 10
0.0
 20
0.0
 30
0.0
 11
2.500000000000002
 21
0.0
 31
0.0
  0
LINE
  5
1358C
330
13586
100
AcDbEntity
  8
0
  6
CONTINUOUS
 62
     0
100
AcDbLine
 10
0.0
 20
2.500000000000002
 30
0.0
 11
0.0
 21
3.099999999999992
 31
0.0
  0
LINE
  5
1358D
330
13586
100
AcDbEntity
  8
0
  6
CONTINUOUS
 62
     0
100
AcDbLine
 10
-2.500000000000002
 20
0.0
 30
0.0
 11
-3.100000000000005
 21
0.0
 31
0.0
  0
LINE
  5
1358E
330
13586
100
AcDbEntity
  8
0
  6
CONTINUOUS
 62
     0
100
AcDbLine
 10
0.0
 20
-2.500000000000002
 30
0.0
 11
0.0
 21
-3.099999999999992
 31
0.0
  0
LINE
  5
1358F
330
13586
100
AcDbEntity
  8
0
  6
CONTINUOUS
 62
     0
100
AcDbLine
 10
2.500000000000002
 20
0.0
 30
0.0
 11
3.099999999999992
 21
0.0
 31
0.0
  0
ENDBLK
  5
13590
330
13586
100
AcDbEntity
  8
0
100
AcDbBlockEnd
  0
BLOCK
  5
13593
330
13592
100
AcDbEntity
  8
0
100
AcDbBlockBegin
  2
SW_CENTERMARKSYMBOL_2
 70
     0
 10
0.0
 20
0.0
 30
0.0
  3
SW_CENTERMARKSYMBOL_2
  1
SW_CENTERMARKSYMBOL_2
  0
LINE
  5
13594
330
13592
100
AcDbEntity
  8
0
  6
CONTINUOUS
 62
     0
100
AcDbLine
 10
0.0
 20
0.0
 30
0.0
 11
0.0
 21
2.500000000000002
 31
0.0
  0
LINE
  5
13595
330
13592
100
AcDbEntity
  8
0
  6
CONTINUOUS
 62
     0
100
AcDbLine
 10
0.0
 20
0.0
 30
0.0
 11
-2.500000000000002
 21
0.0
 31
0.0
  0
LINE
  5
13596
330
13592
100
AcDbEntity
  8
0
  6
CONTINUOUS
 62
     0
100
AcDbLine
 10
0.0
 20
0.0
 30
0.0
 11
0.0
 21
-2.500000000000002
 31
0.0
  0
LINE
  5
13597
330
13592
100
AcDbEntity
  8
0
  6
CONTINUOUS
 62
     0
100
AcDbLine
 10
0.0
 20
0.0
 30
0.0
 11
2.500000000000002
 21
0.0
 31
0.0
  0
LINE
  5
13598
330
13592
100
AcDbEntity
  8
0
  6
CONTINUOUS
 62
     0
100
AcDbLine
 10
0.0
 20
2.500000000000002
 30
0.0
 11
0.0
 21
3.049999999999997
 31
0.0
  0
LINE
  5
13599
330
13592
100
AcDbEntity
  8
0
  6
CONTINUOUS
 62
     0
100
AcDbLine
 10
-2.500000000000002
 20
0.0
 30
0.0
 11
-3.050000000000011
 21
0.0
 31
0.0
  0
LINE
  5
1359A
330
13592
100
AcDbEntity
  8
0
  6
CONTINUOUS
 62
     0
100
AcDbLine
 10
0.0
 20
-2.500000000000002
 30
0.0
 11
0.0
 21
-3.049999999999997
 31
0.0
  0
LINE
  5
1359B
330
13592
100
AcDbEntity
  8
0
  6
CONTINUOUS
 62
     0
100
AcDbLine
 10
2.500000000000002
 20
0.0
 30
0.0
 11
3.049999999999997
 21
0.0
 31
0.0
  0
ENDBLK
  5
1359C
330
13592
100
AcDbEntity
  8
0
100
AcDbBlockEnd
  0
BLOCK
  5
140D4
330
140D3
100
AcDbEntity
  8
0
100
AcDbBlockBegin
  2
SW_CENTERMARKSYMBOL_3
 70
     0
 10
0.0
 20
0.0
 30
0.0
  3
SW_CENTERMARKSYMBOL_3
  1
SW_CENTERMARKSYMBOL_3
  0
LINE
  5
140D5
330
140D3
100
AcDbEntity
  8
0
  6
CONTINUOUS
 62
     0
100
AcDbLine
 10
0.0
 20
0.0
 30
0.0
 11
0.0
 21
2.500000000000002
 31
0.0
  0
LINE
  5
140D6
330
140D3
100
AcDbEntity
  8
0
  6
CONTINUOUS
 62
     0
100
AcDbLine
 10
0.0
 20
0.0
 30
0.0
 11
-2.500000000000002
 21
0.0
 31
0.0
  0
LINE
  5
140D7
330
140D3
100
AcDbEntity
  8
0
  6
CONTINUOUS
 62
     0
100
AcDbLine
 10
0.0
 20
0.0
 30
0.0
 11
0.0
 21
-2.500000000000002
 31
0.0
  0
LINE
  5
140D8
330
140D3
100
AcDbEntity
  8
0
  6
CONTINUOUS
 62
     0
100
AcDbLine
 10
0.0
 20
0.0
 30
0.0
 11
2.500000000000002
 21
0.0
 31
0.0
  0
LINE
  5
140D9
330
140D3
100
AcDbEntity
  8
0
  6
CONTINUOUS
 62
     0
100
AcDbLine
 10
0.0
 20
2.500000000000002
 30
0.0
 11
0.0
 21
4.994484940947341
 31
0.0
  0
LINE
  5
140DA
330
140D3
100
AcDbEntity
  8
0
  6
CONTINUOUS
 62
     0
100
AcDbLine
 10
-2.500000000000002
 20
0.0
 30
0.0
 11
-4.994484940947341
 21
0.0
 31
0.0
  0
LINE
  5
140DB
330
140D3
100
AcDbEntity
  8
0
  6
CONTINUOUS
 62
     0
100
AcDbLine
 10
0.0
 20
-2.500000000000002
 30
0.0
 11
0.0
 21
-4.994484940947369
 31
0.0
  0
LINE
  5
140DC
330
140D3
100
AcDbEntity
  8
0
  6
CONTINUOUS
 62
     0
100
AcDbLine
 10
2.500000000000002
 20
0.0
 30
0.0
 11
4.994484940947369
 21
0.0
 31
0.0
  0
ENDBLK
  5
140DD
330
140D3
100
AcDbEntity
  8
0
100
AcDbBlockEnd
  0
BLOCK
  5
140E0
330
140DF
100
AcDbEntity
  8
0
100
AcDbBlockBegin
  2
SW_CENTERMARKSYMBOL_4
 70
     0
 10
0.0
 20
0.0
 30
0.0
  3
SW_CENTERMARKSYMBOL_4
  1
SW_CENTERMARKSYMBOL_4
  0
LINE
  5
140E1
330
140DF
100
AcDbEntity
  8
0
  6
CONTINUOUS
 62
     0
100
AcDbLine
 10
0.0
 20
0.0
 30
0.0
 11
0.0
 21
2.500000000000002
 31
0.0
  0
LINE
  5
140E2
330
140DF
100
AcDbEntity
  8
0
  6
CONTINUOUS
 62
     0
100
AcDbLine
 10
0.0
 20
0.0
 30
0.0
 11
-2.500000000000002
 21
0.0
 31
0.0
  0
LINE
  5
140E3
330
140DF
100
AcDbEntity
  8
0
  6
CONTINUOUS
 62
     0
100
AcDbLine
 10
0.0
 20
0.0
 30
0.0
 11
0.0
 21
-2.500000000000002
 31
0.0
  0
LINE
  5
140E4
330
140DF
100
AcDbEntity
  8
0
  6
CONTINUOUS
 62
     0
100
AcDbLine
 10
0.0
 20
0.0
 30
0.0
 11
2.500000000000002
 21
0.0
 31
0.0
  0
LINE
  5
140E5
330
140DF
100
AcDbEntity
  8
0
  6
CONTINUOUS
 62
     0
100
AcDbLine
 10
0.0
 20
5.000000000000004
 30
0.0
 11
0.0
 21
5.148285779730477
 31
0.0
  0
LINE
  5
140E6
330
140DF
100
AcDbEntity
  8
0
  6
CONTINUOUS
 62
     0
100
AcDbLine
 10
-5.000000000000004
 20
0.0
 30
0.0
 11
-5.14828577973045
 21
0.0
 31
0.0
  0
LINE
  5
140E7
330
140DF
100
AcDbEntity
  8
0
  6
CONTINUOUS
 62
     0
100
AcDbLine
 10
0.0
 20
-4.999999999999977
 30
0.0
 11
0.0
 21
-5.14828577973045
 31
0.0
  0
LINE
  5
140E8
330
140DF
100
AcDbEntity
  8
0
  6
CONTINUOUS
 62
     0
100
AcDbLine
 10
5.000000000000004
 20
0.0
 30
0.0
 11
5.148285779730477
 21
0.0
 31
0.0
  0
ENDBLK
  5
140E9
330
140DF
100
AcDbEntity
  8
0
100
AcDbBlockEnd
  0
BLOCK
  5
140EC
330
140EB
100
AcDbEntity
  8
0
100
AcDbBlockBegin
  2
SW_CENTERMARKSYMBOL_5
 70
     0
 10
0.0
 20
0.0
 30
0.0
  3
SW_CENTERMARKSYMBOL_5
  1
SW_CENTERMARKSYMBOL_5
  0
LINE
  5
140ED
330
140EB
100
AcDbEntity
  8
0
  6
CONTINUOUS
 62
     0
100
AcDbLine
 10
0.0
 20
0.0
 30
0.0
 11
0.0
 21
2.500000000000002
 31
0.0
  0
LINE
  5
140EE
330
140EB
100
AcDbEntity
  8
0
  6
CONTINUOUS
 62
     0
100
AcDbLine
 10
0.0
 20
0.0
 30
0.0
 11
-2.500000000000002
 21
0.0
 31
0.0
  0
LINE
  5
140EF
330
140EB
100
AcDbEntity
  8
0
  6
CONTINUOUS
 62
     0
100
AcDbLine
 10
0.0
 20
0.0
 30
0.0
 11
0.0
 21
-2.499999999999974
 31
0.0
  0
LINE
  5
140F0
330
140EB
100
AcDbEntity
  8
0
  6
CONTINUOUS
 62
     0
100
AcDbLine
 10
0.0
 20
0.0
 30
0.0
 11
2.500000000000002
 21
0.0
 31
0.0
  0
LINE
  5
140F1
330
140EB
100
AcDbEntity
  8
0
  6
CONTINUOUS
 62
     0
100
AcDbLine
 10
0.0
 20
2.500000000000002
 30
0.0
 11
0.0
 21
4.994484940947369
 31
0.0
  0
LINE
  5
140F2
330
140EB
100
AcDbEntity
  8
0
  6
CONTINUOUS
 62
     0
100
AcDbLine
 10
-2.500000000000002
 20
0.0
 30
0.0
 11
-4.994484940947341
 21
0.0
 31
0.0
  0
LINE
  5
140F3
330
140EB
100
AcDbEntity
  8
0
  6
CONTINUOUS
 62
     0
100
AcDbLine
 10
0.0
 20
-2.499999999999974
 30
0.0
 11
0.0
 21
-4.994484940947341
 31
0.0
  0
LINE
  5
140F4
330
140EB
100
AcDbEntity
  8
0
  6
CONTINUOUS
 62
     0
100
AcDbLine
 10
2.500000000000002
 20
0.0
 30
0.0
 11
4.994484940947369
 21
0.0
 31
0.0
  0
ENDBLK
  5
140F5
330
140EB
100
AcDbEntity
  8
0
100
AcDbBlockEnd
  0
BLOCK
  5
140F8
330
140F7
100
AcDbEntity
  8
0
100
AcDbBlockBegin
  2
SW_CENTERMARKSYMBOL_6
 70
     0
 10
0.0
 20
0.0
 30
0.0
  3
SW_CENTERMARKSYMBOL_6
  1
SW_CENTERMARKSYMBOL_6
  0
LINE
  5
140F9
330
140F7
100
AcDbEntity
  8
0
  6
CONTINUOUS
 62
     0
100
AcDbLine
 10
0.0
 20
0.0
 30
0.0
 11
0.0
 21
2.500000000000002
 31
0.0
  0
LINE
  5
140FA
330
140F7
100
AcDbEntity
  8
0
  6
CONTINUOUS
 62
     0
100
AcDbLine
 10
0.0
 20
0.0
 30
0.0
 11
-2.500000000000002
 21
0.0
 31
0.0
  0
LINE
  5
140FB
330
140F7
100
AcDbEntity
  8
0
  6
CONTINUOUS
 62
     0
100
AcDbLine
 10
0.0
 20
0.0
 30
0.0
 11
0.0
 21
-2.500000000000002
 31
0.0
  0
LINE
  5
140FC
330
140F7
100
AcDbEntity
  8
0
  6
CONTINUOUS
 62
     0
100
AcDbLine
 10
0.0
 20
0.0
 30
0.0
 11
2.500000000000002
 21
0.0
 31
0.0
  0
LINE
  5
140FD
330
140F7
100
AcDbEntity
  8
0
  6
CONTINUOUS
 62
     0
100
AcDbLine
 10
0.0
 20
5.000000000000004
 30
0.0
 11
0.0
 21
5.148285779730005
 31
0.0
  0
LINE
  5
140FE
330
140F7
100
AcDbEntity
  8
0
  6
CONTINUOUS
 62
     0
100
AcDbLine
 10
-5.000000000000004
 20
0.0
 30
0.0
 11
-5.148285779730005
 21
0.0
 31
0.0
  0
LINE
  5
140FF
330
140F7
100
AcDbEntity
  8
0
  6
CONTINUOUS
 62
     0
100
AcDbLine
 10
0.0
 20
-5.000000000000004
 30
0.0
 11
0.0
 21
-5.148285779730005
 31
0.0
  0
LINE
  5
14100
330
140F7
100
AcDbEntity
  8
0
  6
CONTINUOUS
 62
     0
100
AcDbLine
 10
5.000000000000004
 20
0.0
 30
0.0
 11
5.148285779730005
 21
0.0
 31
0.0
  0
ENDBLK
  5
14101
330
140F7
100
AcDbEntity
  8
0
100
AcDbBlockEnd
  0
BLOCK
  5
14104
330
14103
100
AcDbEntity
  8
0
100
AcDbBlockBegin
  2
SW_CENTERMARKSYMBOL_7
 70
     0
 10
0.0
 20
0.0
 30
0.0
  3
SW_CENTERMARKSYMBOL_7
  1
SW_CENTERMARKSYMBOL_7
  0
LINE
  5
14105
330
14103
100
AcDbEntity
  8
0
  6
CONTINUOUS
 62
     0
100
AcDbLine
 10
0.0
 20
0.0
 30
0.0
 11
0.0
 21
2.500000000000002
 31
0.0
  0
LINE
  5
14106
330
14103
100
AcDbEntity
  8
0
  6
CONTINUOUS
 62
     0
100
AcDbLine
 10
0.0
 20
0.0
 30
0.0
 11
-2.500000000000002
 21
0.0
 31
0.0
  0
LINE
  5
14107
330
14103
100
AcDbEntity
  8
0
  6
CONTINUOUS
 62
     0
100
AcDbLine
 10
0.0
 20
0.0
 30
0.0
 11
0.0
 21
-2.500000000000002
 31
0.0
  0
LINE
  5
14108
330
14103
100
AcDbEntity
  8
0
  6
CONTINUOUS
 62
     0
100
AcDbLine
 10
0.0
 20
0.0
 30
0.0
 11
2.500000000000002
 21
0.0
 31
0.0
  0
LINE
  5
14109
330
14103
100
AcDbEntity
  8
0
  6
CONTINUOUS
 62
     0
100
AcDbLine
 10
0.0
 20
2.500000000000002
 30
0.0
 11
0.0
 21
4.396509385747454
 31
0.0
  0
LINE
  5
1410A
330
14103
100
AcDbEntity
  8
0
  6
CONTINUOUS
 62
     0
100
AcDbLine
 10
-2.500000000000002
 20
0.0
 30
0.0
 11
-4.396509385747454
 21
0.0
 31
0.0
  0
LINE
  5
1410B
330
14103
100
AcDbEntity
  8
0
  6
CONTINUOUS
 62
     0
100
AcDbLine
 10
0.0
 20
-2.500000000000002
 30
0.0
 11
0.0
 21
-4.396509385747454
 31
0.0
  0
LINE
  5
1410C
330
14103
100
AcDbEntity
  8
0
  6
CONTINUOUS
 62
     0
100
AcDbLine
 10
2.500000000000002
 20
0.0
 30
0.0
 11
4.396509385747454
 21
0.0
 31
0.0
  0
ENDBLK
  5
1410D
330
14103
100
AcDbEntity
  8
0
100
AcDbBlockEnd
  0
BLOCK
  5
14110
330
1410F
100
AcDbEntity
  8
0
100
AcDbBlockBegin
  2
SW_CENTERMARKSYMBOL_8
 70
     0
 10
0.0
 20
0.0
 30
0.0
  3
SW_CENTERMARKSYMBOL_8
  1
SW_CENTERMARKSYMBOL_8
  0
LINE
  5
14111
330
1410F
100
AcDbEntity
  8
0
  6
CONTINUOUS
 62
     0
100
AcDbLine
 10
0.0
 20
0.0
 30
0.0
 11
0.0
 21
2.500000000000002
 31
0.0
  0
LINE
  5
14112
330
1410F
100
AcDbEntity
  8
0
  6
CONTINUOUS
 62
     0
100
AcDbLine
 10
0.0
 20
0.0
 30
0.0
 11
-2.499999999999988
 21
0.0
 31
0.0
  0
LINE
  5
14113
330
1410F
100
AcDbEntity
  8
0
  6
CONTINUOUS
 62
     0
100
AcDbLine
 10
0.0
 20
0.0
 30
0.0
 11
0.0
 21
-2.499999999999974
 31
0.0
  0
LINE
  5
14114
330
1410F
100
AcDbEntity
  8
0
  6
CONTINUOUS
 62
     0
100
AcDbLine
 10
0.0
 20
0.0
 30
0.0
 11
2.500000000000002
 21
0.0
 31
0.0
  0
LINE
  5
14115
330
1410F
100
AcDbEntity
  8
0
  6
CONTINUOUS
 62
     0
100
AcDbLine
 10
0.0
 20
2.500000000000002
 30
0.0
 11
0.0
 21
4.396509385855424
 31
0.0
  0
LINE
  5
14116
330
1410F
100
AcDbEntity
  8
0
  6
CONTINUOUS
 62
     0
100
AcDbLine
 10
-2.499999999999988
 20
0.0
 30
0.0
 11
-4.39650938585541
 21
0.0
 31
0.0
  0
LINE
  5
14117
330
1410F
100
AcDbEntity
  8
0
  6
CONTINUOUS
 62
     0
100
AcDbLine
 10
0.0
 20
-2.499999999999974
 30
0.0
 11
0.0
 21
-4.396509385855396
 31
0.0
  0
LINE
  5
14118
330
1410F
100
AcDbEntity
  8
0
  6
CONTINUOUS
 62
     0
100
AcDbLine
 10
2.500000000000002
 20
0.0
 30
0.0
 11
4.39650938585541
 21
0.0
 31
0.0
  0
ENDBLK
  5
14119
330
1410F
100
AcDbEntity
  8
0
100
AcDbBlockEnd
  0
BLOCK
  5
1411C
330
1411B
100
AcDbEntity
  8
0
100
AcDbBlockBegin
  2
SW_CENTERMARKSYMBOL_9
 70
     0
 10
0.0
 20
0.0
 30
0.0
  3
SW_CENTERMARKSYMBOL_9
  1
SW_CENTERMARKSYMBOL_9
  0
LINE
  5
1411D
330
1411B
100
AcDbEntity
  8
0
  6
CONTINUOUS
 62
     0
100
AcDbLine
 10
0.0
 20
0.0
 30
0.0
 11
0.0
 21
2.500000000000002
 31
0.0
  0
LINE
  5
1411E
330
1411B
100
AcDbEntity
  8
0
  6
CONTINUOUS
 62
     0
100
AcDbLine
 10
0.0
 20
0.0
 30
0.0
 11
-2.500000000000002
 21
0.0
 31
0.0
  0
LINE
  5
1411F
330
1411B
100
AcDbEntity
  8
0
  6
CONTINUOUS
 62
     0
100
AcDbLine
 10
0.0
 20
0.0
 30
0.0
 11
0.0
 21
-2.500000000000002
 31
0.0
  0
LINE
  5
14120
330
1411B
100
AcDbEntity
  8
0
  6
CONTINUOUS
 62
     0
100
AcDbLine
 10
0.0
 20
0.0
 30
0.0
 11
2.500000000000002
 21
0.0
 31
0.0
  0
LINE
  5
14121
330
1411B
100
AcDbEntity
  8
0
  6
CONTINUOUS
 62
     0
100
AcDbLine
 10
0.0
 20
2.500000000000002
 30
0.0
 11
0.0
 21
4.700000000000787
 31
0.0
  0
LINE
  5
14122
330
1411B
100
AcDbEntity
  8
0
  6
CONTINUOUS
 62
     0
100
AcDbLine
 10
-2.500000000000002
 20
0.0
 30
0.0
 11
-4.7000000000008
 21
0.0
 31
0.0
  0
LINE
  5
14123
330
1411B
100
AcDbEntity
  8
0
  6
CONTINUOUS
 62
     0
100
AcDbLine
 10
0.0
 20
-2.500000000000002
 30
0.0
 11
0.0
 21
-4.700000000000815
 31
0.0
  0
LINE
  5
14124
330
1411B
100
AcDbEntity
  8
0
  6
CONTINUOUS
 62
     0
100
AcDbLine
 10
2.500000000000002
 20
0.0
 30
0.0
 11
4.7000000000008
 21
0.0
 31
0.0
  0
ENDBLK
  5
14125
330
1411B
100
AcDbEntity
  8
0
100
AcDbBlockEnd
  0
BLOCK
  5
17419
330
17418
100
AcDbEntity
  8
0
100
AcDbBlockBegin
  2
_ARCHTICK
 70
     0
 10
0.0
 20
0.0
 30
0.0
  3
_ARCHTICK
  1
_ARCHTICK
  0
LWPOLYLINE
  5
1741B
330
17418
100
AcDbEntity
  8
0
  6
BYBLOCK
 62
     0
100
AcDbPolyline
 90
        2
 70
     0
 43
0.15
 10
-0.5
 20
-0.5
 10
0.5
 20
0.5
  0
ENDBLK
  5
1741A
330
17418
100
AcDbEntity
  8
0
100
AcDbBlockEnd
  0
BLOCK
  5
1741D
330
1741C
100
AcDbEntity
  8
0
100
AcDbBlockBegin
  2
_INTEGRAL
 70
     0
 10
0.0
 20
0.0
 30
0.0
  3
_INTEGRAL
  1
_INTEGRAL
  0
ARC
  5
1741F
330
1741C
100
AcDbEntity
  8
0
  6
BYBLOCK
 62
     0
100
AcDbCircle
 10
0.444888
 20
-0.091335
 30
0.0
 40
0.4541666700000001
100
AcDbArc
 50
102.0
 51
168.0
  0
ARC
  5
17420
330
1741C
100
AcDbEntity
  8
0
  6
BYBLOCK
 62
     0
100
AcDbCircle
 10
-0.444888
 20
0.091335
 30
0.0
 40
0.4541666700000001
100
AcDbArc
 50
281.9999999999999
 51
348.0
  0
ENDBLK
  5
1741E
330
1741C
100
AcDbEntity
  8
0
100
AcDbBlockEnd
  0
BLOCK
  5
1DF52
330
1DF51
100
AcDbEntity
  8
0
100
AcDbBlockBegin
  2
*D170
 70
     1
 10
0.0
 20
0.0
 30
0.0
  3
*D170
  1
*D170
  0
LINE
  5
1DF54
330
1DF51
100
AcDbEntity
  8
WY
 62
     0
100
AcDbLine
 10
580.6648390003526
 20
206.8580179869349
 30
0.0
 11
580.6648390003526
 21
189.8213494405715
 31
0.0
  0
LINE
  5
1DF55
330
1DF51
100
AcDbEntity
  8
WY
 62
     0
100
AcDbLine
 10
608.6648393989586
 20
206.8580179869349
 30
0.0
 11
608.6648393989586
 21
189.8213494405715
 31
0.0
  0
LINE
  5
1DF56
330
1DF51
100
AcDbEntity
  8
WY
 62
     0
100
AcDbLine
 10
583.1648390003526
 20
191.3213494405715
 30
0.0
 11
606.1648393989586
 21
191.3213494405715
 31
0.0
  0
SOLID
  5
1DF57
330
1DF51
100
AcDbEntity
  8
WY
 62
     0
100
AcDbTrace
 10
583.1648390003526
 20
191.7380161072381
 30
0.0
 11
583.1648390003526
 21
190.9046827739048
 31
0.0
 12
580.6648390003526
 22
191.3213494405715
 32
0.0
 13
580.6648390003526
 23
191.3213494405715
 33
0.0
  0
SOLID
  5
1DF58
330
1DF51
100
AcDbEntity
  8
WY
 62
     0
100
AcDbTrace
 10
606.1648393989586
 20
190.9046827739048
 30
0.0
 11
606.1648393989586
 21
191.7380161072381
 31
0.0
 12
608.6648393989586
 22
191.3213494405715
 32
0.0
 13
608.6648393989586
 23
191.3213494405715
 33
0.0
  0
MTEXT
  5
1DF59
330
1DF51
100
AcDbEntity
  8
WY
 62
     0
100
AcDbMText
 10
594.6648391996556
 20
192.8213494405715
 30
0.0
 40
1.5
 41
0.0
 71
     5
 72
     1
  1
\A1;28
  0
POINT
  5
1DF5A
330
1DF51
100
AcDbEntity
  8
DEFPOINTS
 62
     0
100
AcDbPoint
 10
580.6648390003526
 20
208.3580179869349
 30
0.0
  0
POINT
  5
1DF5B
330
1DF51
100
AcDbEntity
  8
DEFPOINTS
 62
     0
100
AcDbPoint
 10
608.6648393989586
 20
208.3580179869349
 30
0.0
  0
POINT
  5
1DF5C
330
1DF51
100
AcDbEntity
  8
DEFPOINTS
 62
     0
100
AcDbPoint
 10
608.6648393989586
 20
191.3213494405715
 30
0.0
  0
ENDBLK
  5
1DF53
330
1DF51
100
AcDbEntity
  8
0
100
AcDbBlockEnd
  0
BLOCK
  5
1DF61
330
1DF60
100
AcDbEntity
  8
0
100
AcDbBlockBegin
  2
*D171
 70
     1
 10
0.0
 20
0.0
 30
0.0
  3
*D171
  1
*D171
  0
LINE
  5
1DF63
330
1DF60
100
AcDbEntity
  8
WY
 62
     0
100
AcDbLine
 10
571.164839514966
 20
142.9092905960164
 30
0.0
 11
571.164839514966
 21
113.2127801561201
 31
0.0
  0
LINE
  5
1DF64
330
1DF60
100
AcDbEntity
  8
WY
 62
     0
100
AcDbLine
 10
618.164839514966
 20
142.9092905960165
 30
0.0
 11
618.164839514966
 21
113.2127801561201
 31
0.0
  0
LINE
  5
1DF65
330
1DF60
100
AcDbEntity
  8
WY
 62
     0
100
AcDbLine
 10
573.664839514966
 20
114.7127801561201
 30
0.0
 11
615.664839514966
 21
114.7127801561201
 31
0.0
  0
SOLID
  5
1DF66
330
1DF60
100
AcDbEntity
  8
WY
 62
     0
100
AcDbTrace
 10
573.664839514966
 20
115.1294468227867
 30
0.0
 11
573.664839514966
 21
114.2961134894534
 31
0.0
 12
571.164839514966
 22
114.7127801561201
 32
0.0
 13
571.164839514966
 23
114.7127801561201
 33
0.0
  0
SOLID
  5
1DF67
330
1DF60
100
AcDbEntity
  8
WY
 62
     0
100
AcDbTrace
 10
615.664839514966
 20
114.2961134894534
 30
0.0
 11
615.664839514966
 21
115.1294468227867
 31
0.0
 12
618.164839514966
 22
114.7127801561201
 32
0.0
 13
618.164839514966
 23
114.7127801561201
 33
0.0
  0
MTEXT
  5
1DF68
330
1DF60
100
AcDbEntity
  8
WY
 62
     0
100
AcDbMText
 10
594.664839514966
 20
116.2127801561201
 30
0.0
 40
1.5
 41
0.0
 71
     5
 72
     1
  1
\A1;47
  0
POINT
  5
1DF69
330
1DF60
100
AcDbEntity
  8
DEFPOINTS
 62
     0
100
AcDbPoint
 10
571.164839514966
 20
144.4092905960164
 30
0.0
  0
POINT
  5
1DF6A
330
1DF60
100
AcDbEntity
  8
DEFPOINTS
 62
     0
100
AcDbPoint
 10
618.164839514966
 20
144.4092905960165
 30
0.0
  0
POINT
  5
1DF6B
330
1DF60
100
AcDbEntity
  8
DEFPOINTS
 62
     0
100
AcDbPoint
 10
618.164839514966
 20
114.7127801561201
 30
0.0
  0
ENDBLK
  5
1DF62
330
1DF60
100
AcDbEntity
  8
0
100
AcDbBlockEnd
  0
BLOCK
  5
1DF70
330
1DF6F
100
AcDbEntity
  8
0
100
AcDbBlockBegin
  2
*D172
 70
     1
 10
0.0
 20
0.0
 30
0.0
  3
*D172
  1
*D172
  0
LINE
  5
1DF72
330
1DF6F
100
AcDbEntity
  8
WY
 62
     0
100
AcDbLine
 10
575.664839514966
 20
142.9092905960165
 30
0.0
 11
575.664839514966
 21
118.421774110041
 31
0.0
  0
LINE
  5
1DF73
330
1DF6F
100
AcDbEntity
  8
WY
 62
     0
100
AcDbLine
 10
613.664839514966
 20
142.9092905960165
 30
0.0
 11
613.664839514966
 21
118.421774110041
 31
0.0
  0
LINE
  5
1DF74
330
1DF6F
100
AcDbEntity
  8
WY
 62
     0
100
AcDbLine
 10
578.164839514966
 20
119.921774110041
 30
0.0
 11
611.164839514966
 21
119.921774110041
 31
0.0
  0
SOLID
  5
1DF75
330
1DF6F
100
AcDbEntity
  8
WY
 62
     0
100
AcDbTrace
 10
578.164839514966
 20
120.3384407767077
 30
0.0
 11
578.164839514966
 21
119.5051074433743
 31
0.0
 12
575.664839514966
 22
119.921774110041
 32
0.0
 13
575.664839514966
 23
119.921774110041
 33
0.0
  0
SOLID
  5
1DF76
330
1DF6F
100
AcDbEntity
  8
WY
 62
     0
100
AcDbTrace
 10
611.164839514966
 20
119.5051074433743
 30
0.0
 11
611.164839514966
 21
120.3384407767077
 31
0.0
 12
613.664839514966
 22
119.921774110041
 32
0.0
 13
613.664839514966
 23
119.921774110041
 33
0.0
  0
MTEXT
  5
1DF77
330
1DF6F
100
AcDbEntity
  8
WY
 62
     0
100
AcDbMText
 10
594.664839514966
 20
121.421774110041
 30
0.0
 40
1.5
 41
0.0
 71
     5
 72
     1
  1
\A1;38%%p0.1
  0
POINT
  5
1DF78
330
1DF6F
100
AcDbEntity
  8
DEFPOINTS
 62
     0
100
AcDbPoint
 10
575.664839514966
 20
144.4092905960165
 30
0.0
  0
POINT
  5
1DF79
330
1DF6F
100
AcDbEntity
  8
DEFPOINTS
 62
     0
100
AcDbPoint
 10
613.664839514966
 20
144.4092905960165
 30
0.0
  0
POINT
  5
1DF7A
330
1DF6F
100
AcDbEntity
  8
DEFPOINTS
 62
     0
100
AcDbPoint
 10
613.664839514966
 20
119.921774110041
 30
0.0
  0
ENDBLK
  5
1DF71
330
1DF6F
100
AcDbEntity
  8
0
100
AcDbBlockEnd
  0
BLOCK
  5
1DF80
330
1DF7F
100
AcDbEntity
  8
0
100
AcDbBlockBegin
  2
*D173
 70
     1
 10
0.0
 20
0.0
 30
0.0
  3
*D173
  1
*D173
  0
LINE
  5
1DF82
330
1DF7F
100
AcDbEntity
  8
WY
 62
     0
100
AcDbLine
 10
564.1544601985834
 20
153.7337259359385
 30
0.0
 11
569.4044601985834
 21
153.7337259359385
 31
0.0
  0
LINE
  5
1DF83
330
1DF7F
100
AcDbEntity
  8
WY
 62
     0
100
AcDbLine
 10
569.4044601985834
 20
153.7337259359385
 30
0.0
 11
573.2540197284819
 21
148.0000527654029
 31
0.0
  0
MTEXT
  5
1DF84
330
1DF7F
100
AcDbEntity
  8
WY
 62
     0
100
AcDbMText
 10
566.4044601985834
 20
155.2337259359385
 30
0.0
 40
1.5
 41
0.0
 71
     5
 72
     1
  1
\A1;%%c3.6
  0
SOLID
  5
1DF85
330
1DF7F
100
AcDbEntity
  8
WY
 62
     0
100
AcDbTrace
 10
572.908088883647
 20
147.7677965239304
 30
0.0
 11
573.5999505733168
 21
148.2323090068754
 31
0.0
 12
574.6475571773167
 22
145.9244676963934
 32
0.0
 13
574.6475571773167
 23
145.9244676963934
 33
0.0
  0
LINE
  5
1DF86
330
1DF7F
100
AcDbEntity
  8
WY
 62
     0
100
AcDbLine
 10
574.664839514966
 20
144.4092905960165
 30
0.0
 11
576.664839514966
 21
144.4092905960165
 31
0.0
  0
LINE
  5
1DF87
330
1DF7F
100
AcDbEntity
  8
WY
 62
     0
100
AcDbLine
 10
575.664839514966
 20
143.4092905960165
 30
0.0
 11
575.664839514966
 21
145.4092905960165
 31
0.0
  0
LINE
  5
1DF88
330
1DF7F
100
AcDbEntity
  8
WY
 62
     0
100
AcDbLine
 10
573.664839514966
 20
144.4092905960165
 30
0.0
 11
572.8398395149661
 21
144.4092905960165
 31
0.0
  0
LINE
  5
1DF89
330
1DF7F
100
AcDbEntity
  8
WY
 62
     0
100
AcDbLine
 10
577.664839514966
 20
144.4092905960165
 30
0.0
 11
578.489839514966
 21
144.4092905960165
 31
0.0
  0
LINE
  5
1DF8A
330
1DF7F
100
AcDbEntity
  8
WY
 62
     0
100
AcDbLine
 10
575.664839514966
 20
142.4092905960165
 30
0.0
 11
575.664839514966
 21
141.5842905960166
 31
0.0
  0
LINE
  5
1DF8B
330
1DF7F
100
AcDbEntity
  8
WY
 62
     0
100
AcDbLine
 10
575.664839514966
 20
146.4092905960165
 30
0.0
 11
575.664839514966
 21
147.2342905960165
 31
0.0
  0
POINT
  5
1DF8C
330
1DF7F
100
AcDbEntity
  8
DEFPOINTS
 62
     0
100
AcDbPoint
 10
574.6475571773167
 20
145.9244676963934
 30
0.0
  0
POINT
  5
1DF8D
330
1DF7F
100
AcDbEntity
  8
DEFPOINTS
 62
     0
100
AcDbPoint
 10
576.6821218526154
 20
142.8941134956396
 30
0.0
  0
ENDBLK
  5
1DF81
330
1DF7F
100
AcDbEntity
  8
0
100
AcDbBlockEnd
  0
BLOCK
  5
1DF92
330
1DF91
100
AcDbEntity
  8
0
100
AcDbBlockBegin
  2
*D174
 70
     1
 10
0.0
 20
0.0
 30
0.0
  3
*D174
  1
*D174
  0
LINE
  5
1DF94
330
1DF91
100
AcDbEntity
  8
WY
 62
     0
100
AcDbLine
 10
570.8107376703107
 20
220.3580162285978
 30
0.0
 11
559.7659675511843
 21
220.3580162285978
 31
0.0
  0
LINE
  5
1DF95
330
1DF91
100
AcDbEntity
  8
WY
 62
     0
100
AcDbLine
 10
579.1648390003526
 20
208.3580179869349
 30
0.0
 11
559.7659675511843
 21
208.3580179869349
 31
0.0
  0
LINE
  5
1DF96
330
1DF91
100
AcDbEntity
  8
WY
 62
     0
100
AcDbLine
 10
561.2659675511843
 20
217.8580162285978
 30
0.0
 11
561.2659675511843
 21
210.8580179869349
 31
0.0
  0
SOLID
  5
1DF97
330
1DF91
100
AcDbEntity
  8
WY
 62
     0
100
AcDbTrace
 10
561.6826342178509
 20
217.8580162285978
 30
0.0
 11
560.8493008845177
 21
217.8580162285978
 31
0.0
 12
561.2659675511843
 22
220.3580162285978
 32
0.0
 13
561.2659675511843
 23
220.3580162285978
 33
0.0
  0
SOLID
  5
1DF98
330
1DF91
100
AcDbEntity
  8
WY
 62
     0
100
AcDbTrace
 10
560.8493008845177
 20
210.8580179869349
 30
0.0
 11
561.6826342178509
 21
210.8580179869349
 31
0.0
 12
561.2659675511843
 22
208.3580179869349
 32
0.0
 13
561.2659675511843
 23
208.3580179869349
 33
0.0
  0
MTEXT
  5
1DF99
330
1DF91
100
AcDbEntity
  8
WY
 62
     0
100
AcDbMText
 10
559.7659675511843
 20
214.3580171077664
 30
0.0
 40
1.5
 41
0.0
 71
     5
 72
     1
  1
\A1;12
 11
0.0
 21
1.0
 31
0.0
  0
POINT
  5
1DF9A
330
1DF91
100
AcDbEntity
  8
DEFPOINTS
 62
     0
100
AcDbPoint
 10
572.3107376703107
 20
220.3580162285978
 30
0.0
  0
POINT
  5
1DF9B
330
1DF91
100
AcDbEntity
  8
DEFPOINTS
 62
     0
100
AcDbPoint
 10
580.6648390003526
 20
208.3580179869349
 30
0.0
  0
POINT
  5
1DF9C
330
1DF91
100
AcDbEntity
  8
DEFPOINTS
 62
     0
100
AcDbPoint
 10
561.2659675511843
 20
208.3580179869349
 30
0.0
  0
ENDBLK
  5
1DF93
330
1DF91
100
AcDbEntity
  8
0
100
AcDbBlockEnd
  0
BLOCK
  5
1DFA1
330
1DFA0
100
AcDbEntity
  8
0
100
AcDbBlockBegin
  2
*D175
 70
     1
 10
0.0
 20
0.0
 30
0.0
  3
*D175
  1
*D175
  0
LINE
  5
1DFA3
330
1DFA0
100
AcDbEntity
  8
WY
 62
     0
100
AcDbLine
 10
570.8107376703107
 20
220.3580162285978
 30
0.0
 11
563.6712247326383
 21
220.3580162285978
 31
0.0
  0
LINE
  5
1DFA4
330
1DFA0
100
AcDbEntity
  8
WY
 62
     0
100
AcDbLine
 10
571.1648376890504
 20
215.8580145596678
 30
0.0
 11
563.6712247326383
 21
215.8580145596678
 31
0.0
  0
LINE
  5
1DFA5
330
1DFA0
100
AcDbEntity
  8
WY
 62
     0
100
AcDbLine
 10
565.1712247326383
 20
220.3580162285978
 30
0.0
 11
565.1712247326383
 21
215.8580145596678
 31
0.0
  0
LINE
  5
1DFA6
330
1DFA0
100
AcDbEntity
  8
WY
 62
     0
100
AcDbLine
 10
565.1712247326383
 20
222.8580162285978
 30
0.0
 11
565.1712247326383
 21
225.3580162285978
 31
0.0
  0
LINE
  5
1DFA7
330
1DFA0
100
AcDbEntity
  8
WY
 62
     0
100
AcDbLine
 10
565.1712247326383
 20
213.3580145596678
 30
0.0
 11
565.1712247326383
 21
210.8580145596678
 31
0.0
  0
SOLID
  5
1DFA8
330
1DFA0
100
AcDbEntity
  8
WY
 62
     0
100
AcDbTrace
 10
564.7545580659717
 20
222.8580162285978
 30
0.0
 11
565.5878913993049
 21
222.8580162285978
 31
0.0
 12
565.1712247326383
 22
220.3580162285978
 32
0.0
 13
565.1712247326383
 23
220.3580162285978
 33
0.0
  0
SOLID
  5
1DFA9
330
1DFA0
100
AcDbEntity
  8
WY
 62
     0
100
AcDbTrace
 10
565.5878913993049
 20
213.3580145596678
 30
0.0
 11
564.7545580659717
 21
213.3580145596678
 31
0.0
 12
565.1712247326383
 22
215.8580145596678
 32
0.0
 13
565.1712247326383
 23
215.8580145596678
 33
0.0
  0
MTEXT
  5
1DFAA
330
1DFA0
100
AcDbEntity
  8
WY
 62
     0
100
AcDbMText
 10
563.6712247326383
 20
218.1080153941328
 30
0.0
 40
1.5
 41
0.0
 71
     5
 72
     1
  1
\A1;4.5
 11
0.0
 21
1.0
 31
0.0
  0
POINT
  5
1DFAB
330
1DFA0
100
AcDbEntity
  8
DEFPOINTS
 62
     0
100
AcDbPoint
 10
572.3107376703107
 20
220.3580162285978
 30
0.0
  0
POINT
  5
1DFAC
330
1DFA0
100
AcDbEntity
  8
DEFPOINTS
 62
     0
100
AcDbPoint
 10
572.6648376890504
 20
215.8580145596678
 30
0.0
  0
POINT
  5
1DFAD
330
1DFA0
100
AcDbEntity
  8
DEFPOINTS
 62
     0
100
AcDbPoint
 10
565.1712247326383
 20
215.8580145596678
 30
0.0
  0
ENDBLK
  5
1DFA2
330
1DFA0
100
AcDbEntity
  8
0
100
AcDbBlockEnd
  0
BLOCK
  5
1DFB2
330
1DFB1
100
AcDbEntity
  8
0
100
AcDbBlockBegin
  2
*D176
 70
     1
 10
0.0
 20
0.0
 30
0.0
  3
*D176
  1
*D176
  0
LINE
  5
1DFB4
330
1DFB1
100
AcDbEntity
  8
WY
 62
     0
100
AcDbLine
 10
570.8107376703107
 20
220.3580162285978
 30
0.0
 11
556.5274615958324
 21
220.3580162285978
 31
0.0
  0
LINE
  5
1DFB5
330
1DFB1
100
AcDbEntity
  8
WY
 62
     0
100
AcDbLine
 10
582.6730864354455
 20
199.0507564305479
 30
0.0
 11
556.5274615958324
 21
199.0507564305479
 31
0.0
  0
LINE
  5
1DFB6
330
1DFB1
100
AcDbEntity
  8
WY
 62
     0
100
AcDbLine
 10
558.0274615958324
 20
217.8580162285978
 30
0.0
 11
558.0274615958324
 21
201.5507564305479
 31
0.0
  0
SOLID
  5
1DFB7
330
1DFB1
100
AcDbEntity
  8
WY
 62
     0
100
AcDbTrace
 10
558.444128262499
 20
217.8580162285978
 30
0.0
 11
557.6107949291658
 21
217.8580162285978
 31
0.0
 12
558.0274615958324
 22
220.3580162285978
 32
0.0
 13
558.0274615958324
 23
220.3580162285978
 33
0.0
  0
SOLID
  5
1DFB8
330
1DFB1
100
AcDbEntity
  8
WY
 62
     0
100
AcDbTrace
 10
557.6107949291658
 20
201.5507564305479
 30
0.0
 11
558.444128262499
 21
201.5507564305479
 31
0.0
 12
558.0274615958324
 22
199.0507564305479
 32
0.0
 13
558.0274615958324
 23
199.0507564305479
 33
0.0
  0
MTEXT
  5
1DFB9
330
1DFB1
100
AcDbEntity
  8
WY
 62
     0
100
AcDbMText
 10
556.5274615958324
 20
209.7043863295729
 30
0.0
 40
1.5
 41
0.0
 71
     5
 72
     1
  1
\A1;21.3
 11
0.0
 21
1.0
 31
0.0
  0
POINT
  5
1DFBA
330
1DFB1
100
AcDbEntity
  8
DEFPOINTS
 62
     0
100
AcDbPoint
 10
572.3107376703107
 20
220.3580162285978
 30
0.0
  0
POINT
  5
1DFBB
330
1DFB1
100
AcDbEntity
  8
DEFPOINTS
 62
     0
100
AcDbPoint
 10
584.1730864354455
 20
199.0507564305479
 30
0.0
  0
POINT
  5
1DFBC
330
1DFB1
100
AcDbEntity
  8
DEFPOINTS
 62
     0
100
AcDbPoint
 10
558.0274615958324
 20
199.0507564305479
 30
0.0
  0
ENDBLK
  5
1DFB3
330
1DFB1
100
AcDbEntity
  8
0
100
AcDbBlockEnd
  0
BLOCK
  5
1DFC6
330
1DFC5
100
AcDbEntity
  8
0
100
AcDbBlockBegin
  2
*D177
 70
     1
 10
0.0
 20
0.0
 30
0.0
  3
*D177
  1
*D177
  0
LINE
  5
1DFC8
330
1DFC5
100
AcDbEntity
  8
WY
 62
     0
100
AcDbLine
 10
637.1277306885081
 20
163.4409577667189
 30
0.0
 11
623.6277306885081
 21
163.4409577667189
 31
0.0
  0
LINE
  5
1DFC9
330
1DFC5
100
AcDbEntity
  8
WY
 62
     0
100
AcDbLine
 10
623.6277306885081
 20
163.4409577667189
 30
0.0
 11
604.7143721526244
 21
151.0128910181919
 31
0.0
  0
LINE
  5
1DFCA
330
1DFC5
100
AcDbEntity
  8
WY
 62
     0
100
AcDbLine
 10
584.615306877308
 20
137.805690173841
 30
0.0
 11
582.5260070954729
 21
136.4328003670379
 31
0.0
  0
MTEXT
  5
1DFCB
330
1DFC5
100
AcDbEntity
  8
WY
 62
     0
100
AcDbMText
 10
630.7527306885081
 20
164.9409577667189
 30
0.0
 40
1.5
 41
0.0
 71
     5
 72
     1
  1
\A1;%%c19.05%%p0.05
  0
LINE
  5
1DFCC
330
1DFC5
100
AcDbEntity
  8
WY
 62
     0
100
AcDbLine
 10
586.704606659143
 20
139.1785799806442
 30
0.0
 11
602.6250723707893
 21
149.6400012113887
 31
0.0
  0
SOLID
  5
1DFCD
330
1DFC5
100
AcDbEntity
  8
WY
 62
     0
100
AcDbTrace
 10
584.8441218451085
 20
137.4574735435352
 30
0.0
 11
584.3864919095074
 21
138.1539068041469
 31
0.0
 12
586.704606659143
 22
139.1785799806442
 32
0.0
 13
586.704606659143
 23
139.1785799806442
 33
0.0
  0
SOLID
  5
1DFCE
330
1DFC5
100
AcDbEntity
  8
WY
 62
     0
100
AcDbTrace
 10
604.4855571848238
 20
151.3611076484977
 30
0.0
 11
604.9431871204249
 21
150.664674387886
 31
0.0
 12
602.6250723707893
 22
149.6400012113887
 32
0.0
 13
602.6250723707893
 23
149.6400012113887
 33
0.0
  0
POINT
  5
1DFCF
330
1DFC5
100
AcDbEntity
  8
DEFPOINTS
 62
     0
100
AcDbPoint
 10
602.6250723707893
 20
149.6400012113887
 30
0.0
  0
POINT
  5
1DFD0
330
1DFC5
100
AcDbEntity
  8
DEFPOINTS
 62
     0
100
AcDbPoint
 10
586.704606659143
 20
139.1785799806442
 30
0.0
  0
ENDBLK
  5
1DFC7
330
1DFC5
100
AcDbEntity
  8
0
100
AcDbBlockEnd
  0
BLOCK
  5
1DFD8
330
1DFD7
100
AcDbEntity
  8
0
100
AcDbBlockBegin
  2
*D178
 70
     1
 10
0.0
 20
0.0
 30
0.0
  3
*D178
  1
*D178
  0
LINE
  5
1DFDA
330
1DFD7
100
AcDbEntity
  8
WY
 62
     0
100
AcDbLine
 10
596.1648395149659
 20
160.3592905960165
 30
0.0
 11
630.9430018214483
 21
160.3592905960165
 31
0.0
  0
LINE
  5
1DFDB
330
1DFD7
100
AcDbEntity
  8
WY
 62
     0
100
AcDbLine
 10
596.1648395149662
 20
128.4592905960165
 30
0.0
 11
630.9430018214483
 21
128.4592905960165
 31
0.0
  0
LINE
  5
1DFDC
330
1DFD7
100
AcDbEntity
  8
WY
 62
     0
100
AcDbLine
 10
629.4430018214483
 20
157.8592905960165
 30
0.0
 11
629.4430018214483
 21
130.9592905960165
 31
0.0
  0
SOLID
  5
1DFDD
330
1DFD7
100
AcDbEntity
  8
WY
 62
     0
100
AcDbTrace
 10
629.859668488115
 20
157.8592905960165
 30
0.0
 11
629.0263351547817
 21
157.8592905960165
 31
0.0
 12
629.4430018214483
 22
160.3592905960165
 32
0.0
 13
629.4430018214483
 23
160.3592905960165
 33
0.0
  0
SOLID
  5
1DFDE
330
1DFD7
100
AcDbEntity
  8
WY
 62
     0
100
AcDbTrace
 10
629.0263351547817
 20
130.9592905960165
 30
0.0
 11
629.859668488115
 21
130.9592905960165
 31
0.0
 12
629.4430018214483
 22
128.4592905960165
 32
0.0
 13
629.4430018214483
 23
128.4592905960165
 33
0.0
  0
MTEXT
  5
1DFDF
330
1DFD7
100
AcDbEntity
  8
WY
 62
     0
100
AcDbMText
 10
627.9430018214483
 20
144.4092905960165
 30
0.0
 40
1.5
 41
0.0
 71
     5
 72
     1
  1
\A1;32-0.2
 11
0.0
 21
1.0
 31
0.0
  0
POINT
  5
1DFE0
330
1DFD7
100
AcDbEntity
  8
DEFPOINTS
 62
     0
100
AcDbPoint
 10
594.6648395149659
 20
160.3592905960165
 30
0.0
  0
POINT
  5
1DFE1
330
1DFD7
100
AcDbEntity
  8
DEFPOINTS
 62
     0
100
AcDbPoint
 10
594.6648395149662
 20
128.4592905960165
 30
0.0
  0
POINT
  5
1DFE2
330
1DFD7
100
AcDbEntity
  8
DEFPOINTS
 62
     0
100
AcDbPoint
 10
629.4430018214483
 20
128.4592905960165
 30
0.0
  0
ENDBLK
  5
1DFD9
330
1DFD7
100
AcDbEntity
  8
0
100
AcDbBlockEnd
  0
BLOCK
  5
1E527
330
1E526
100
AcDbEntity
  8
0
100
AcDbBlockBegin
  2
*D180
 70
     1
 10
0.0
 20
0.0
 30
0.0
  3
*D180
  1
*D180
  0
LINE
  5
1E529
330
1E526
100
AcDbEntity
  8
WY
 62
     0
100
AcDbLine
 10
764.2659060534406
 20
129.9469579431687
 30
0.0
 11
764.2659060534406
 21
110.5067131649193
 31
0.0
  0
LINE
  5
1E52A
330
1E526
100
AcDbEntity
  8
WY
 62
     0
100
AcDbLine
 10
802.2659060534406
 20
129.9469579431687
 30
0.0
 11
802.2659060534406
 21
110.5067131649193
 31
0.0
  0
LINE
  5
1E52B
330
1E526
100
AcDbEntity
  8
WY
 62
     0
100
AcDbLine
 10
766.7659060534406
 20
112.0067131649193
 30
0.0
 11
799.7659060534406
 21
112.0067131649193
 31
0.0
  0
SOLID
  5
1E52C
330
1E526
100
AcDbEntity
  8
WY
 62
     0
100
AcDbTrace
 10
766.7659060534406
 20
112.423379831586
 30
0.0
 11
766.7659060534406
 21
111.5900464982527
 31
0.0
 12
764.2659060534406
 22
112.0067131649193
 32
0.0
 13
764.2659060534406
 23
112.0067131649193
 33
0.0
  0
SOLID
  5
1E52D
330
1E526
100
AcDbEntity
  8
WY
 62
     0
100
AcDbTrace
 10
799.7659060534406
 20
111.5900464982527
 30
0.0
 11
799.7659060534406
 21
112.423379831586
 31
0.0
 12
802.2659060534406
 22
112.0067131649193
 32
0.0
 13
802.2659060534406
 23
112.0067131649193
 33
0.0
  0
MTEXT
  5
1E52E
330
1E526
100
AcDbEntity
  8
WY
 62
     0
100
AcDbMText
 10
783.2659060534406
 20
113.5067131649193
 30
0.0
 40
1.5
 41
0.0
 71
     5
 72
     1
  1
\A1;38%%p0.2
  0
POINT
  5
1E52F
330
1E526
100
AcDbEntity
  8
DEFPOINTS
 62
     0
100
AcDbPoint
 10
764.2659060534406
 20
131.4469579431687
 30
0.0
  0
POINT
  5
1E530
330
1E526
100
AcDbEntity
  8
DEFPOINTS
 62
     0
100
AcDbPoint
 10
802.2659060534406
 20
131.4469579431687
 30
0.0
  0
POINT
  5
1E531
330
1E526
100
AcDbEntity
  8
DEFPOINTS
 62
     0
100
AcDbPoint
 10
802.2659060534406
 20
112.0067131649193
 30
0.0
  0
ENDBLK
  5
1E528
330
1E526
100
AcDbEntity
  8
0
100
AcDbBlockEnd
  0
BLOCK
  5
1E536
330
1E535
100
AcDbEntity
  8
0
100
AcDbBlockBegin
  2
*D181
 70
     1
 10
0.0
 20
0.0
 30
0.0
  3
*D181
  1
*D181
  0
LINE
  5
1E538
330
1E535
100
AcDbEntity
  8
WY
 62
     0
100
AcDbLine
 10
759.7659060534406
 20
134.5761164558189
 30
0.0
 11
759.7659060534406
 21
106.9348315965164
 31
0.0
  0
LINE
  5
1E539
330
1E535
100
AcDbEntity
  8
WY
 62
     0
100
AcDbLine
 10
806.7659060534406
 20
134.5761164558189
 30
0.0
 11
806.7659060534406
 21
106.9348315965164
 31
0.0
  0
LINE
  5
1E53A
330
1E535
100
AcDbEntity
  8
WY
 62
     0
100
AcDbLine
 10
762.2659060534406
 20
108.4348315965164
 30
0.0
 11
804.2659060534406
 21
108.4348315965164
 31
0.0
  0
SOLID
  5
1E53B
330
1E535
100
AcDbEntity
  8
WY
 62
     0
100
AcDbTrace
 10
762.2659060534406
 20
108.8514982631831
 30
0.0
 11
762.2659060534406
 21
108.0181649298497
 31
0.0
 12
759.7659060534406
 22
108.4348315965164
 32
0.0
 13
759.7659060534406
 23
108.4348315965164
 33
0.0
  0
SOLID
  5
1E53C
330
1E535
100
AcDbEntity
  8
WY
 62
     0
100
AcDbTrace
 10
804.2659060534406
 20
108.0181649298497
 30
0.0
 11
804.2659060534406
 21
108.8514982631831
 31
0.0
 12
806.7659060534406
 22
108.4348315965164
 32
0.0
 13
806.7659060534406
 23
108.4348315965164
 33
0.0
  0
MTEXT
  5
1E53D
330
1E535
100
AcDbEntity
  8
WY
 62
     0
100
AcDbMText
 10
783.2659060534406
 20
109.9348315965164
 30
0.0
 40
1.5
 41
0.0
 71
     5
 72
     1
  1
\A1;47
  0
POINT
  5
1E53E
330
1E535
100
AcDbEntity
  8
DEFPOINTS
 62
     0
100
AcDbPoint
 10
759.7659060534406
 20
136.0761164558189
 30
0.0
  0
POINT
  5
1E53F
330
1E535
100
AcDbEntity
  8
DEFPOINTS
 62
     0
100
AcDbPoint
 10
806.7659060534406
 20
136.0761164558189
 30
0.0
  0
POINT
  5
1E540
330
1E535
100
AcDbEntity
  8
DEFPOINTS
 62
     0
100
AcDbPoint
 10
806.7659060534406
 20
108.4348315965164
 30
0.0
  0
ENDBLK
  5
1E537
330
1E535
100
AcDbEntity
  8
0
100
AcDbBlockEnd
  0
BLOCK
  5
1E545
330
1E544
100
AcDbEntity
  8
0
100
AcDbBlockBegin
  2
*D182
 70
     1
 10
0.0
 20
0.0
 30
0.0
  3
*D182
  1
*D182
  0
LINE
  5
1E547
330
1E544
100
AcDbEntity
  8
WY
 62
     0
100
AcDbLine
 10
784.7659060534405
 20
152.0261164558189
 30
0.0
 11
822.5469883107677
 21
152.0261164558189
 31
0.0
  0
LINE
  5
1E548
330
1E544
100
AcDbEntity
  8
WY
 62
     0
100
AcDbLine
 10
784.7659060534407
 20
120.1261164558189
 30
0.0
 11
822.5469883107677
 21
120.1261164558189
 31
0.0
  0
LINE
  5
1E549
330
1E544
100
AcDbEntity
  8
WY
 62
     0
100
AcDbLine
 10
821.0469883107677
 20
149.5261164558189
 30
0.0
 11
821.0469883107677
 21
122.6261164558189
 31
0.0
  0
SOLID
  5
1E54A
330
1E544
100
AcDbEntity
  8
WY
 62
     0
100
AcDbTrace
 10
821.4636549774343
 20
149.5261164558189
 30
0.0
 11
820.6303216441011
 21
149.5261164558189
 31
0.0
 12
821.0469883107677
 22
152.0261164558189
 32
0.0
 13
821.0469883107677
 23
152.0261164558189
 33
0.0
  0
SOLID
  5
1E54B
330
1E544
100
AcDbEntity
  8
WY
 62
     0
100
AcDbTrace
 10
820.6303216441011
 20
122.6261164558189
 30
0.0
 11
821.4636549774343
 21
122.6261164558189
 31
0.0
 12
821.0469883107677
 22
120.1261164558189
 32
0.0
 13
821.0469883107677
 23
120.1261164558189
 33
0.0
  0
MTEXT
  5
1E54C
330
1E544
100
AcDbEntity
  8
WY
 62
     0
100
AcDbMText
 10
819.4219883107677
 20
136.0761164558189
 30
0.0
 40
1.5
 41
0.0
 71
     5
 72
     1
  1
\A1;32-0,2
 11
0.0
 21
1.0
 31
0.0
  0
POINT
  5
1E54D
330
1E544
100
AcDbEntity
  8
DEFPOINTS
 62
     0
100
AcDbPoint
 10
783.2659060534405
 20
152.0261164558189
 30
0.0
  0
POINT
  5
1E54E
330
1E544
100
AcDbEntity
  8
DEFPOINTS
 62
     0
100
AcDbPoint
 10
783.2659060534407
 20
120.1261164558189
 30
0.0
  0
POINT
  5
1E54F
330
1E544
100
AcDbEntity
  8
DEFPOINTS
 62
     0
100
AcDbPoint
 10
821.0469883107677
 20
120.1261164558189
 30
0.0
  0
ENDBLK
  5
1E546
330
1E544
100
AcDbEntity
  8
0
100
AcDbBlockEnd
  0
BLOCK
  5
1E559
330
1E558
100
AcDbEntity
  8
0
100
AcDbBlockBegin
  2
*D183
 70
     1
 10
0.0
 20
0.0
 30
0.0
  3
*D183
  1
*D183
  0
LINE
  5
1E55B
330
1E558
100
AcDbEntity
  8
WY
 62
     0
100
AcDbLine
 10
812.6836138833526
 20
147.4799625352759
 30
0.0
 11
798.9336138833523
 21
147.4799625352759
 31
0.0
  0
LINE
  5
1E55C
330
1E558
100
AcDbEntity
  8
WY
 62
     0
100
AcDbLine
 10
798.9336138833523
 20
147.4799625352759
 30
0.0
 11
792.3414469299977
 21
142.6818096668251
 31
0.0
  0
LINE
  5
1E55D
330
1E558
100
AcDbEntity
  8
WY
 62
     0
100
AcDbLine
 10
774.1903651768836
 20
129.4704232448127
 30
0.0
 11
772.1690865852227
 21
127.9992220842322
 31
0.0
  0
MTEXT
  5
1E55E
330
1E558
100
AcDbEntity
  8
WY
 62
     0
100
AcDbMText
 10
806.1836138833526
 20
148.9799625352759
 30
0.0
 40
1.5
 41
0.0
 71
     5
 72
     1
  1
\A1;%%c17.45%%p0.05
  0
LINE
  5
1E55F
330
1E558
100
AcDbEntity
  8
WY
 62
     0
100
AcDbLine
 10
776.2116437685445
 20
130.9416244053932
 30
0.0
 11
790.3201683383368
 21
141.2106085062446
 31
0.0
  0
SOLID
  5
1E560
330
1E558
100
AcDbEntity
  8
WY
 62
     0
100
AcDbTrace
 10
774.4355653703136
 20
129.1335434795359
 30
0.0
 11
773.9451649834535
 21
129.8073030100895
 31
0.0
 12
776.2116437685445
 22
130.9416244053932
 32
0.0
 13
776.2116437685445
 23
130.9416244053932
 33
0.0
  0
SOLID
  5
1E561
330
1E558
100
AcDbEntity
  8
WY
 62
     0
100
AcDbTrace
 10
792.0962467365677
 20
143.0186894321019
 30
0.0
 11
792.5866471234277
 21
142.3449299015483
 31
0.0
 12
790.3201683383368
 22
141.2106085062446
 32
0.0
 13
790.3201683383368
 23
141.2106085062446
 33
0.0
  0
POINT
  5
1E562
330
1E558
100
AcDbEntity
  8
DEFPOINTS
 62
     0
100
AcDbPoint
 10
790.3201683383368
 20
141.2106085062446
 30
0.0
  0
POINT
  5
1E563
330
1E558
100
AcDbEntity
  8
DEFPOINTS
 62
     0
100
AcDbPoint
 10
776.2116437685445
 20
130.9416244053932
 30
0.0
  0
ENDBLK
  5
1E55A
330
1E558
100
AcDbEntity
  8
0
100
AcDbBlockEnd
  0
BLOCK
  5
1E56B
330
1E56A
100
AcDbEntity
  8
0
100
AcDbBlockBegin
  2
*D184
 70
     1
 10
0.0
 20
0.0
 30
0.0
  3
*D184
  1
*D184
  0
LINE
  5
1E56D
330
1E56A
100
AcDbEntity
  8
WY
 62
     0
100
AcDbLine
 10
752.5642196131138
 20
142.5362404343878
 30
0.0
 11
762.0642196131138
 21
142.5362404343878
 31
0.0
  0
LINE
  5
1E56E
330
1E56A
100
AcDbEntity
  8
WY
 62
     0
100
AcDbLine
 10
762.0642196131138
 20
142.5362404343878
 30
0.0
 11
762.870698162684
 21
140.1698946546922
 31
0.0
  0
MTEXT
  5
1E56F
330
1E56A
100
AcDbEntity
  8
WY
 62
     0
100
AcDbMText
 10
756.9392196131138
 20
144.0362404343878
 30
0.0
 40
1.5
 41
0.0
 71
     5
 72
     1
  1
\A1;%%c3.6+0.1
  0
SOLID
  5
1E570
330
1E56A
100
AcDbEntity
  8
WY
 62
     0
100
AcDbTrace
 10
762.4763071994014
 20
140.0354815630972
 30
0.0
 11
763.2650891259666
 21
140.3043077462873
 31
0.0
 12
763.6771767122543
 22
137.8035488749967
 32
0.0
 13
763.6771767122543
 23
137.8035488749967
 33
0.0
  0
LINE
  5
1E571
330
1E56A
100
AcDbEntity
  8
WY
 62
     0
100
AcDbLine
 10
763.2659060534406
 20
136.0761164558189
 30
0.0
 11
765.2659060534406
 21
136.0761164558189
 31
0.0
  0
LINE
  5
1E572
330
1E56A
100
AcDbEntity
  8
WY
 62
     0
100
AcDbLine
 10
764.2659060534406
 20
135.0761164558189
 30
0.0
 11
764.2659060534406
 21
137.0761164558189
 31
0.0
  0
LINE
  5
1E573
330
1E56A
100
AcDbEntity
  8
WY
 62
     0
100
AcDbLine
 10
762.2659060534406
 20
136.0761164558189
 30
0.0
 11
761.4409060534407
 21
136.0761164558189
 31
0.0
  0
LINE
  5
1E574
330
1E56A
100
AcDbEntity
  8
WY
 62
     0
100
AcDbLine
 10
766.2659060534406
 20
136.0761164558189
 30
0.0
 11
767.0909060534406
 21
136.0761164558189
 31
0.0
  0
LINE
  5
1E575
330
1E56A
100
AcDbEntity
  8
WY
 62
     0
100
AcDbLine
 10
764.2659060534406
 20
134.0761164558189
 30
0.0
 11
764.2659060534406
 21
133.2511164558189
 31
0.0
  0
LINE
  5
1E576
330
1E56A
100
AcDbEntity
  8
WY
 62
     0
100
AcDbLine
 10
764.2659060534406
 20
138.0761164558189
 30
0.0
 11
764.2659060534406
 21
138.9011164558189
 31
0.0
  0
POINT
  5
1E577
330
1E56A
100
AcDbEntity
  8
DEFPOINTS
 62
     0
100
AcDbPoint
 10
763.6771767122543
 20
137.8035488749967
 30
0.0
  0
POINT
  5
1E578
330
1E56A
100
AcDbEntity
  8
DEFPOINTS
 62
     0
100
AcDbPoint
 10
764.8546353946269
 20
134.3486840366412
 30
0.0
  0
ENDBLK
  5
1E56C
330
1E56A
100
AcDbEntity
  8
0
100
AcDbBlockEnd
  0
BLOCK
  5
1E57D
330
1E57C
100
AcDbEntity
  8
0
100
AcDbBlockBegin
  2
*D185
 70
     1
 10
0.0
 20
0.0
 30
0.0
  3
*D185
  1
*D185
  0
LINE
  5
1E57F
330
1E57C
100
AcDbEntity
  8
WY
 62
     0
100
AcDbLine
 10
769.3159060714943
 20
199.9163408828272
 30
0.0
 11
769.3159060714943
 21
184.8804509619454
 31
0.0
  0
LINE
  5
1E580
330
1E57C
100
AcDbEntity
  8
WY
 62
     0
100
AcDbLine
 10
797.2159061743123
 20
199.9163408828272
 30
0.0
 11
797.2159061743123
 21
184.8804509619454
 31
0.0
  0
LINE
  5
1E581
330
1E57C
100
AcDbEntity
  8
WY
 62
     0
100
AcDbLine
 10
771.8159060714943
 20
186.3804509619454
 30
0.0
 11
794.7159061743123
 21
186.3804509619454
 31
0.0
  0
SOLID
  5
1E582
330
1E57C
100
AcDbEntity
  8
WY
 62
     0
100
AcDbTrace
 10
771.8159060714943
 20
186.797117628612
 30
0.0
 11
771.8159060714943
 21
185.9637842952787
 31
0.0
 12
769.3159060714943
 22
186.3804509619454
 32
0.0
 13
769.3159060714943
 23
186.3804509619454
 33
0.0
  0
SOLID
  5
1E583
330
1E57C
100
AcDbEntity
  8
WY
 62
     0
100
AcDbTrace
 10
794.7159061743123
 20
185.9637842952787
 30
0.0
 11
794.7159061743123
 21
186.797117628612
 31
0.0
 12
797.2159061743123
 22
186.3804509619454
 32
0.0
 13
797.2159061743123
 23
186.3804509619454
 33
0.0
  0
MTEXT
  5
1E584
330
1E57C
100
AcDbEntity
  8
WY
 62
     0
100
AcDbMText
 10
783.2659061229033
 20
187.8804509619454
 30
0.0
 40
1.5
 41
0.0
 71
     5
 72
     1
  1
\A1;28
  0
POINT
  5
1E585
330
1E57C
100
AcDbEntity
  8
DEFPOINTS
 62
     0
100
AcDbPoint
 10
769.3159060714943
 20
201.4163408828272
 30
0.0
  0
POINT
  5
1E586
330
1E57C
100
AcDbEntity
  8
DEFPOINTS
 62
     0
100
AcDbPoint
 10
797.2159061743123
 20
201.4163408828272
 30
0.0
  0
POINT
  5
1E587
330
1E57C
100
AcDbEntity
  8
DEFPOINTS
 62
     0
100
AcDbPoint
 10
797.2159061743123
 20
186.3804509619454
 30
0.0
  0
ENDBLK
  5
1E57E
330
1E57C
100
AcDbEntity
  8
0
100
AcDbBlockEnd
  0
BLOCK
  5
1E58C
330
1E58B
100
AcDbEntity
  8
0
100
AcDbBlockBegin
  2
*D186
 70
     1
 10
0.0
 20
0.0
 30
0.0
  3
*D186
  1
*D186
  0
LINE
  5
1E58E
330
1E58B
100
AcDbEntity
  8
WY
 62
     0
100
AcDbLine
 10
759.4118038950664
 20
213.4163428497804
 30
0.0
 11
748.3670337759401
 21
213.4163428497804
 31
0.0
  0
LINE
  5
1E58F
330
1E58B
100
AcDbEntity
  8
WY
 62
     0
100
AcDbLine
 10
767.8159060714943
 20
201.4163408828272
 30
0.0
 11
748.3670337759401
 21
201.4163408828272
 31
0.0
  0
LINE
  5
1E590
330
1E58B
100
AcDbEntity
  8
WY
 62
     0
100
AcDbLine
 10
749.8670337759401
 20
210.9163428497804
 30
0.0
 11
749.8670337759401
 21
203.9163408828272
 31
0.0
  0
SOLID
  5
1E591
330
1E58B
100
AcDbEntity
  8
WY
 62
     0
100
AcDbTrace
 10
750.2837004426067
 20
210.9163428497804
 30
0.0
 11
749.4503671092734
 21
210.9163428497804
 31
0.0
 12
749.8670337759401
 22
213.4163428497804
 32
0.0
 13
749.8670337759401
 23
213.4163428497804
 33
0.0
  0
SOLID
  5
1E592
330
1E58B
100
AcDbEntity
  8
WY
 62
     0
100
AcDbTrace
 10
749.4503671092734
 20
203.9163408828272
 30
0.0
 11
750.2837004426067
 21
203.9163408828272
 31
0.0
 12
749.8670337759401
 22
201.4163408828272
 32
0.0
 13
749.8670337759401
 23
201.4163408828272
 33
0.0
  0
MTEXT
  5
1E593
330
1E58B
100
AcDbEntity
  8
WY
 62
     0
100
AcDbMText
 10
748.3670337759401
 20
207.4163418663038
 30
0.0
 40
1.5
 41
0.0
 71
     5
 72
     1
  1
\A1;12
 11
0.0
 21
1.0
 31
0.0
  0
POINT
  5
1E594
330
1E58B
100
AcDbEntity
  8
DEFPOINTS
 62
     0
100
AcDbPoint
 10
760.9118038950664
 20
213.4163428497804
 30
0.0
  0
POINT
  5
1E595
330
1E58B
100
AcDbEntity
  8
DEFPOINTS
 62
     0
100
AcDbPoint
 10
769.3159060714943
 20
201.4163408828272
 30
0.0
  0
POINT
  5
1E596
330
1E58B
100
AcDbEntity
  8
DEFPOINTS
 62
     0
100
AcDbPoint
 10
749.8670337759401
 20
201.4163408828272
 30
0.0
  0
ENDBLK
  5
1E58D
330
1E58B
100
AcDbEntity
  8
0
100
AcDbBlockEnd
  0
BLOCK
  5
1E598
330
1E597
100
AcDbEntity
  8
0
100
AcDbBlockBegin
  2
*D187
 70
     1
 10
0.0
 20
0.0
 30
0.0
  3
*D187
  1
*D187
  0
LINE
  5
1E59A
330
1E597
100
AcDbEntity
  8
WY
 62
     0
100
AcDbLine
 10
759.4118038950664
 20
213.4163428497804
 30
0.0
 11
752.272290957394
 21
213.4163428497804
 31
0.0
  0
LINE
  5
1E59B
330
1E597
100
AcDbEntity
  8
WY
 62
     0
100
AcDbLine
 10
759.7659039138061
 20
208.9163411808504
 30
0.0
 11
752.272290957394
 21
208.9163411808504
 31
0.0
  0
LINE
  5
1E59C
330
1E597
100
AcDbEntity
  8
WY
 62
     0
100
AcDbLine
 10
753.772290957394
 20
213.4163428497804
 30
0.0
 11
753.772290957394
 21
208.9163411808504
 31
0.0
  0
LINE
  5
1E59D
330
1E597
100
AcDbEntity
  8
WY
 62
     0
100
AcDbLine
 10
753.772290957394
 20
215.9163428497804
 30
0.0
 11
753.772290957394
 21
218.4163428497804
 31
0.0
  0
LINE
  5
1E59E
330
1E597
100
AcDbEntity
  8
WY
 62
     0
100
AcDbLine
 10
753.772290957394
 20
206.4163411808504
 30
0.0
 11
753.772290957394
 21
203.9163411808504
 31
0.0
  0
SOLID
  5
1E59F
330
1E597
100
AcDbEntity
  8
WY
 62
     0
100
AcDbTrace
 10
753.3556242907274
 20
215.9163428497804
 30
0.0
 11
754.1889576240607
 21
215.9163428497804
 31
0.0
 12
753.772290957394
 22
213.4163428497804
 32
0.0
 13
753.772290957394
 23
213.4163428497804
 33
0.0
  0
SOLID
  5
1E5A0
330
1E597
100
AcDbEntity
  8
WY
 62
     0
100
AcDbTrace
 10
754.1889576240607
 20
206.4163411808504
 30
0.0
 11
753.3556242907274
 21
206.4163411808504
 31
0.0
 12
753.772290957394
 22
208.9163411808504
 32
0.0
 13
753.772290957394
 23
208.9163411808504
 33
0.0
  0
MTEXT
  5
1E5A1
330
1E597
100
AcDbEntity
  8
WY
 62
     0
100
AcDbMText
 10
752.272290957394
 20
211.1663420153154
 30
0.0
 40
1.5
 41
0.0
 71
     5
 72
     1
  1
\A1;4.5
 11
0.0
 21
1.0
 31
0.0
  0
POINT
  5
1E5A2
330
1E597
100
AcDbEntity
  8
DEFPOINTS
 62
     0
100
AcDbPoint
 10
760.9118038950664
 20
213.4163428497804
 30
0.0
  0
POINT
  5
1E5A3
330
1E597
100
AcDbEntity
  8
DEFPOINTS
 62
     0
100
AcDbPoint
 10
761.2659039138061
 20
208.9163411808504
 30
0.0
  0
POINT
  5
1E5A4
330
1E597
100
AcDbEntity
  8
DEFPOINTS
 62
     0
100
AcDbPoint
 10
753.772290957394
 20
208.9163411808504
 30
0.0
  0
ENDBLK
  5
1E599
330
1E597
100
AcDbEntity
  8
0
100
AcDbBlockEnd
  0
BLOCK
  5
1E5A6
330
1E5A5
100
AcDbEntity
  8
0
100
AcDbBlockBegin
  2
*D188
 70
     1
 10
0.0
 20
0.0
 30
0.0
  3
*D188
  1
*D188
  0
LINE
  5
1E5A8
330
1E5A5
100
AcDbEntity
  8
WY
 62
     0
100
AcDbLine
 10
759.4118038950664
 20
213.4163428497804
 30
0.0
 11
745.1285278205881
 21
213.4163428497804
 31
0.0
  0
LINE
  5
1E5A9
330
1E5A5
100
AcDbEntity
  8
WY
 62
     0
100
AcDbLine
 10
772.6968400938613
 20
192.1094742072119
 30
0.0
 11
745.1285278205881
 21
192.1094742072119
 31
0.0
  0
LINE
  5
1E5AA
330
1E5A5
100
AcDbEntity
  8
WY
 62
     0
100
AcDbLine
 10
746.6285278205881
 20
210.9163428497804
 30
0.0
 11
746.6285278205881
 21
194.6094742072119
 31
0.0
  0
SOLID
  5
1E5AB
330
1E5A5
100
AcDbEntity
  8
WY
 62
     0
100
AcDbTrace
 10
747.0451944872548
 20
210.9163428497804
 30
0.0
 11
746.2118611539215
 21
210.9163428497804
 31
0.0
 12
746.6285278205881
 22
213.4163428497804
 32
0.0
 13
746.6285278205881
 23
213.4163428497804
 33
0.0
  0
SOLID
  5
1E5AC
330
1E5A5
100
AcDbEntity
  8
WY
 62
     0
100
AcDbTrace
 10
746.2118611539215
 20
194.6094742072119
 30
0.0
 11
747.0451944872548
 21
194.6094742072119
 31
0.0
 12
746.6285278205881
 22
192.1094742072119
 32
0.0
 13
746.6285278205881
 23
192.1094742072119
 33
0.0
  0
MTEXT
  5
1E5AD
330
1E5A5
100
AcDbEntity
  8
WY
 62
     0
100
AcDbMText
 10
745.1285278205881
 20
202.7629085284962
 30
0.0
 40
1.5
 41
0.0
 71
     5
 72
     1
  1
\A1;21.3
 11
0.0
 21
1.0
 31
0.0
  0
POINT
  5
1E5AE
330
1E5A5
100
AcDbEntity
  8
DEFPOINTS
 62
     0
100
AcDbPoint
 10
760.9118038950664
 20
213.4163428497804
 30
0.0
  0
POINT
  5
1E5AF
330
1E5A5
100
AcDbEntity
  8
DEFPOINTS
 62
     0
100
AcDbPoint
 10
774.1968400938613
 20
192.1094742072119
 30
0.0
  0
POINT
  5
1E5B0
330
1E5A5
100
AcDbEntity
  8
DEFPOINTS
 62
     0
100
AcDbPoint
 10
746.6285278205881
 20
192.1094742072119
 30
0.0
  0
ENDBLK
  5
1E5A7
330
1E5A5
100
AcDbEntity
  8
0
100
AcDbBlockEnd
  0
BLOCK
  5
1E831
330
1E830
100
AcDbEntity
  8
0
100
AcDbBlockBegin
  2
*D189
 70
     1
 10
0.0
 20
0.0
 30
0.0
  3
*D189
  1
*D189
  0
LINE
  5
1E833
330
1E830
100
AcDbEntity
  8
WY
 62
     0
100
AcDbLine
 10
574.5529227395814
 20
143.8467210770555
 30
0.0
 11
574.5529227395814
 21
124.4064762988061
 31
0.0
  0
LINE
  5
1E834
330
1E830
100
AcDbEntity
  8
WY
 62
     0
100
AcDbLine
 10
612.5529227395814
 20
143.8467210770555
 30
0.0
 11
612.5529227395814
 21
124.4064762988061
 31
0.0
  0
LINE
  5
1E835
330
1E830
100
AcDbEntity
  8
WY
 62
     0
100
AcDbLine
 10
577.0529227395814
 20
125.9064762988061
 30
0.0
 11
610.0529227395814
 21
125.9064762988061
 31
0.0
  0
SOLID
  5
1E836
330
1E830
100
AcDbEntity
  8
WY
 62
     0
100
AcDbTrace
 10
577.0529227395814
 20
126.3231429654727
 30
0.0
 11
577.0529227395814
 21
125.4898096321394
 31
0.0
 12
574.5529227395814
 22
125.9064762988061
 32
0.0
 13
574.5529227395814
 23
125.9064762988061
 33
0.0
  0
SOLID
  5
1E837
330
1E830
100
AcDbEntity
  8
WY
 62
     0
100
AcDbTrace
 10
610.0529227395814
 20
125.4898096321394
 30
0.0
 11
610.0529227395814
 21
126.3231429654727
 31
0.0
 12
612.5529227395814
 22
125.9064762988061
 32
0.0
 13
612.5529227395814
 23
125.9064762988061
 33
0.0
  0
MTEXT
  5
1E838
330
1E830
100
AcDbEntity
  8
WY
 62
     0
100
AcDbMText
 10
593.5529227395814
 20
127.4064762988061
 30
0.0
 40
1.5
 41
0.0
 71
     5
 72
     1
  1
\A1;38%%p0.2
  0
POINT
  5
1E839
330
1E830
100
AcDbEntity
  8
DEFPOINTS
 62
     0
100
AcDbPoint
 10
574.5529227395814
 20
145.3467210770555
 30
0.0
  0
POINT
  5
1E83A
330
1E830
100
AcDbEntity
  8
DEFPOINTS
 62
     0
100
AcDbPoint
 10
612.5529227395814
 20
145.3467210770555
 30
0.0
  0
POINT
  5
1E83B
330
1E830
100
AcDbEntity
  8
DEFPOINTS
 62
     0
100
AcDbPoint
 10
612.5529227395814
 20
125.9064762988061
 30
0.0
  0
ENDBLK
  5
1E832
330
1E830
100
AcDbEntity
  8
0
100
AcDbBlockEnd
  0
BLOCK
  5
1E83D
330
1E83C
100
AcDbEntity
  8
0
100
AcDbBlockBegin
  2
*D190
 70
     1
 10
0.0
 20
0.0
 30
0.0
  3
*D190
  1
*D190
  0
LINE
  5
1E83F
330
1E83C
100
AcDbEntity
  8
WY
 62
     0
100
AcDbLine
 10
570.0529227395814
 20
148.4758795897056
 30
0.0
 11
570.0529227395814
 21
120.8345947304031
 31
0.0
  0
LINE
  5
1E840
330
1E83C
100
AcDbEntity
  8
WY
 62
     0
100
AcDbLine
 10
617.0529227395814
 20
148.4758795897056
 30
0.0
 11
617.0529227395814
 21
120.8345947304031
 31
0.0
  0
LINE
  5
1E841
330
1E83C
100
AcDbEntity
  8
WY
 62
     0
100
AcDbLine
 10
572.5529227395814
 20
122.3345947304031
 30
0.0
 11
614.5529227395814
 21
122.3345947304031
 31
0.0
  0
SOLID
  5
1E842
330
1E83C
100
AcDbEntity
  8
WY
 62
     0
100
AcDbTrace
 10
572.5529227395814
 20
122.7512613970698
 30
0.0
 11
572.5529227395814
 21
121.9179280637365
 31
0.0
 12
570.0529227395814
 22
122.3345947304031
 32
0.0
 13
570.0529227395814
 23
122.3345947304031
 33
0.0
  0
SOLID
  5
1E843
330
1E83C
100
AcDbEntity
  8
WY
 62
     0
100
AcDbTrace
 10
614.5529227395814
 20
121.9179280637365
 30
0.0
 11
614.5529227395814
 21
122.7512613970698
 31
0.0
 12
617.0529227395814
 22
122.3345947304031
 32
0.0
 13
617.0529227395814
 23
122.3345947304031
 33
0.0
  0
MTEXT
  5
1E844
330
1E83C
100
AcDbEntity
  8
WY
 62
     0
100
AcDbMText
 10
593.5529227395814
 20
123.8345947304031
 30
0.0
 40
1.5
 41
0.0
 71
     5
 72
     1
  1
\A1;47
  0
POINT
  5
1E845
330
1E83C
100
AcDbEntity
  8
DEFPOINTS
 62
     0
100
AcDbPoint
 10
570.0529227395814
 20
149.9758795897056
 30
0.0
  0
POINT
  5
1E846
330
1E83C
100
AcDbEntity
  8
DEFPOINTS
 62
     0
100
AcDbPoint
 10
617.0529227395814
 20
149.9758795897056
 30
0.0
  0
POINT
  5
1E847
330
1E83C
100
AcDbEntity
  8
DEFPOINTS
 62
     0
100
AcDbPoint
 10
617.0529227395814
 20
122.3345947304031
 30
0.0
  0
ENDBLK
  5
1E83E
330
1E83C
100
AcDbEntity
  8
0
100
AcDbBlockEnd
  0
BLOCK
  5
1E849
330
1E848
100
AcDbEntity
  8
0
100
AcDbBlockBegin
  2
*D191
 70
     1
 10
0.0
 20
0.0
 30
0.0
  3
*D191
  1
*D191
  0
LINE
  5
1E84B
330
1E848
100
AcDbEntity
  8
WY
 62
     0
100
AcDbLine
 10
595.0529227395813
 20
165.9258795897056
 30
0.0
 11
632.8340049969084
 21
165.9258795897056
 31
0.0
  0
LINE
  5
1E84C
330
1E848
100
AcDbEntity
  8
WY
 62
     0
100
AcDbLine
 10
595.0529227395815
 20
134.0258795897057
 30
0.0
 11
632.8340049969084
 21
134.0258795897057
 31
0.0
  0
LINE
  5
1E84D
330
1E848
100
AcDbEntity
  8
WY
 62
     0
100
AcDbLine
 10
631.3340049969084
 20
163.4258795897056
 30
0.0
 11
631.3340049969084
 21
136.5258795897057
 31
0.0
  0
SOLID
  5
1E84E
330
1E848
100
AcDbEntity
  8
WY
 62
     0
100
AcDbTrace
 10
631.7506716635751
 20
163.4258795897056
 30
0.0
 11
630.9173383302418
 21
163.4258795897056
 31
0.0
 12
631.3340049969084
 22
165.9258795897056
 32
0.0
 13
631.3340049969084
 23
165.9258795897056
 33
0.0
  0
SOLID
  5
1E84F
330
1E848
100
AcDbEntity
  8
WY
 62
     0
100
AcDbTrace
 10
630.9173383302418
 20
136.5258795897057
 30
0.0
 11
631.7506716635751
 21
136.5258795897057
 31
0.0
 12
631.3340049969084
 22
134.0258795897057
 32
0.0
 13
631.3340049969084
 23
134.0258795897057
 33
0.0
  0
MTEXT
  5
1E850
330
1E848
100
AcDbEntity
  8
WY
 62
     0
100
AcDbMText
 10
629.7090049969084
 20
149.9758795897056
 30
0.0
 40
1.5
 41
0.0
 71
     5
 72
     1
  1
\A1;32-0,2
 11
0.0
 21
1.0
 31
0.0
  0
POINT
  5
1E851
330
1E848
100
AcDbEntity
  8
DEFPOINTS
 62
     0
100
AcDbPoint
 10
593.5529227395813
 20
165.9258795897056
 30
0.0
  0
POINT
  5
1E852
330
1E848
100
AcDbEntity
  8
DEFPOINTS
 62
     0
100
AcDbPoint
 10
593.5529227395815
 20
134.0258795897057
 30
0.0
  0
POINT
  5
1E853
330
1E848
100
AcDbEntity
  8
DEFPOINTS
 62
     0
100
AcDbPoint
 10
631.3340049969084
 20
134.0258795897057
 30
0.0
  0
ENDBLK
  5
1E84A
330
1E848
100
AcDbEntity
  8
0
100
AcDbBlockEnd
  0
BLOCK
  5
1E855
330
1E854
100
AcDbEntity
  8
0
100
AcDbBlockBegin
  2
*D192
 70
     1
 10
0.0
 20
0.0
 30
0.0
  3
*D192
  1
*D192
  0
LINE
  5
1E857
330
1E854
100
AcDbEntity
  8
WY
 62
     0
100
AcDbLine
 10
622.9706305694933
 20
161.3797256691626
 30
0.0
 11
609.2206305694931
 21
161.3797256691626
 31
0.0
  0
LINE
  5
1E858
330
1E854
100
AcDbEntity
  8
WY
 62
     0
100
AcDbLine
 10
609.2206305694931
 20
161.3797256691626
 30
0.0
 11
602.6284636161384
 21
156.5815728007118
 31
0.0
  0
LINE
  5
1E859
330
1E854
100
AcDbEntity
  8
WY
 62
     0
100
AcDbLine
 10
584.4773818630243
 20
143.3701863786994
 30
0.0
 11
582.4561032713634
 21
141.8989852181189
 31
0.0
  0
MTEXT
  5
1E85A
330
1E854
100
AcDbEntity
  8
WY
 62
     0
100
AcDbMText
 10
616.4706305694933
 20
162.8797256691626
 30
0.0
 40
1.5
 41
0.0
 71
     5
 72
     1
  1
\A1;%%c17.45%%p0.05
  0
LINE
  5
1E85B
330
1E854
100
AcDbEntity
  8
WY
 62
     0
100
AcDbLine
 10
586.4986604546853
 20
144.8413875392799
 30
0.0
 11
600.6071850244775
 21
155.1103716401313
 31
0.0
  0
SOLID
  5
1E85C
330
1E854
100
AcDbEntity
  8
WY
 62
     0
100
AcDbTrace
 10
584.7225820564544
 20
143.0333066134226
 30
0.0
 11
584.2321816695943
 21
143.7070661439762
 31
0.0
 12
586.4986604546853
 22
144.8413875392799
 32
0.0
 13
586.4986604546853
 23
144.8413875392799
 33
0.0
  0
SOLID
  5
1E85D
330
1E854
100
AcDbEntity
  8
WY
 62
     0
100
AcDbTrace
 10
602.3832634227084
 20
156.9184525659886
 30
0.0
 11
602.8736638095685
 21
156.244693035435
 31
0.0
 12
600.6071850244775
 22
155.1103716401313
 32
0.0
 13
600.6071850244775
 23
155.1103716401313
 33
0.0
  0
POINT
  5
1E85E
330
1E854
100
AcDbEntity
  8
DEFPOINTS
 62
     0
100
AcDbPoint
 10
600.6071850244775
 20
155.1103716401313
 30
0.0
  0
POINT
  5
1E85F
330
1E854
100
AcDbEntity
  8
DEFPOINTS
 62
     0
100
AcDbPoint
 10
586.4986604546853
 20
144.8413875392799
 30
0.0
  0
ENDBLK
  5
1E856
330
1E854
100
AcDbEntity
  8
0
100
AcDbBlockEnd
  0
BLOCK
  5
1E861
330
1E860
100
AcDbEntity
  8
0
100
AcDbBlockBegin
  2
*D193
 70
     1
 10
0.0
 20
0.0
 30
0.0
  3
*D193
  1
*D193
  0
LINE
  5
1E863
330
1E860
100
AcDbEntity
  8
WY
 62
     0
100
AcDbLine
 10
562.8512362992545
 20
156.4360035682745
 30
0.0
 11
572.3512362992545
 21
156.4360035682745
 31
0.0
  0
LINE
  5
1E864
330
1E860
100
AcDbEntity
  8
WY
 62
     0
100
AcDbLine
 10
572.3512362992545
 20
156.4360035682745
 30
0.0
 11
573.1577148488248
 21
154.069657788579
 31
0.0
  0
MTEXT
  5
1E865
330
1E860
100
AcDbEntity
  8
WY
 62
     0
100
AcDbMText
 10
567.2262362992545
 20
157.9360035682745
 30
0.0
 40
1.5
 41
0.0
 71
     5
 72
     1
  1
\A1;%%c3.6+0.1
  0
SOLID
  5
1E866
330
1E860
100
AcDbEntity
  8
WY
 62
     0
100
AcDbTrace
 10
572.7633238855421
 20
153.9352446969839
 30
0.0
 11
573.5521058121074
 21
154.204070880174
 31
0.0
 12
573.9641933983951
 22
151.7033120088834
 32
0.0
 13
573.9641933983951
 23
151.7033120088834
 33
0.0
  0
LINE
  5
1E867
330
1E860
100
AcDbEntity
  8
WY
 62
     0
100
AcDbLine
 10
573.5529227395814
 20
149.9758795897056
 30
0.0
 11
575.5529227395814
 21
149.9758795897056
 31
0.0
  0
LINE
  5
1E868
330
1E860
100
AcDbEntity
  8
WY
 62
     0
100
AcDbLine
 10
574.5529227395814
 20
148.9758795897056
 30
0.0
 11
574.5529227395814
 21
150.9758795897056
 31
0.0
  0
LINE
  5
1E869
330
1E860
100
AcDbEntity
  8
WY
 62
     0
100
AcDbLine
 10
572.5529227395814
 20
149.9758795897056
 30
0.0
 11
571.7279227395815
 21
149.9758795897056
 31
0.0
  0
LINE
  5
1E86A
330
1E860
100
AcDbEntity
  8
WY
 62
     0
100
AcDbLine
 10
576.5529227395814
 20
149.9758795897056
 30
0.0
 11
577.3779227395813
 21
149.9758795897056
 31
0.0
  0
LINE
  5
1E86B
330
1E860
100
AcDbEntity
  8
WY
 62
     0
100
AcDbLine
 10
574.5529227395814
 20
147.9758795897056
 30
0.0
 11
574.5529227395814
 21
147.1508795897057
 31
0.0
  0
LINE
  5
1E86C
330
1E860
100
AcDbEntity
  8
WY
 62
     0
100
AcDbLine
 10
574.5529227395814
 20
151.9758795897056
 30
0.0
 11
574.5529227395814
 21
152.8008795897056
 31
0.0
  0
POINT
  5
1E86D
330
1E860
100
AcDbEntity
  8
DEFPOINTS
 62
     0
100
AcDbPoint
 10
573.9641933983951
 20
151.7033120088834
 30
0.0
  0
POINT
  5
1E86E
330
1E860
100
AcDbEntity
  8
DEFPOINTS
 62
     0
100
AcDbPoint
 10
575.1416520807677
 20
148.2484471705279
 30
0.0
  0
ENDBLK
  5
1E862
330
1E860
100
AcDbEntity
  8
0
100
AcDbBlockEnd
  0
BLOCK
  5
1E870
330
1E86F
100
AcDbEntity
  8
0
100
AcDbBlockBegin
  2
*D194
 70
     1
 10
0.0
 20
0.0
 30
0.0
  3
*D194
  1
*D194
  0
LINE
  5
1E872
330
1E86F
100
AcDbEntity
  8
WY
 62
     0
100
AcDbLine
 10
579.602922757635
 20
213.8161040167139
 30
0.0
 11
579.602922757635
 21
198.7802140958321
 31
0.0
  0
LINE
  5
1E873
330
1E86F
100
AcDbEntity
  8
WY
 62
     0
100
AcDbLine
 10
607.502922860453
 20
213.8161040167139
 30
0.0
 11
607.502922860453
 21
198.7802140958321
 31
0.0
  0
LINE
  5
1E874
330
1E86F
100
AcDbEntity
  8
WY
 62
     0
100
AcDbLine
 10
582.102922757635
 20
200.2802140958321
 30
0.0
 11
605.002922860453
 21
200.2802140958321
 31
0.0
  0
SOLID
  5
1E875
330
1E86F
100
AcDbEntity
  8
WY
 62
     0
100
AcDbTrace
 10
582.102922757635
 20
200.6968807624988
 30
0.0
 11
582.102922757635
 21
199.8635474291654
 31
0.0
 12
579.602922757635
 22
200.2802140958321
 32
0.0
 13
579.602922757635
 23
200.2802140958321
 33
0.0
  0
SOLID
  5
1E876
330
1E86F
100
AcDbEntity
  8
WY
 62
     0
100
AcDbTrace
 10
605.002922860453
 20
199.8635474291654
 30
0.0
 11
605.002922860453
 21
200.6968807624988
 31
0.0
 12
607.502922860453
 22
200.2802140958321
 32
0.0
 13
607.502922860453
 23
200.2802140958321
 33
0.0
  0
MTEXT
  5
1E877
330
1E86F
100
AcDbEntity
  8
WY
 62
     0
100
AcDbMText
 10
593.552922809044
 20
201.7802140958321
 30
0.0
 40
1.5
 41
0.0
 71
     5
 72
     1
  1
\A1;28
  0
POINT
  5
1E878
330
1E86F
100
AcDbEntity
  8
DEFPOINTS
 62
     0
100
AcDbPoint
 10
579.602922757635
 20
215.3161040167139
 30
0.0
  0
POINT
  5
1E879
330
1E86F
100
AcDbEntity
  8
DEFPOINTS
 62
     0
100
AcDbPoint
 10
607.502922860453
 20
215.3161040167139
 30
0.0
  0
POINT
  5
1E87A
330
1E86F
100
AcDbEntity
  8
DEFPOINTS
 62
     0
100
AcDbPoint
 10
607.502922860453
 20
200.2802140958321
 30
0.0
  0
ENDBLK
  5
1E871
330
1E86F
100
AcDbEntity
  8
0
100
AcDbBlockEnd
  0
BLOCK
  5
1E87C
330
1E87B
100
AcDbEntity
  8
0
100
AcDbBlockBegin
  2
*D195
 70
     1
 10
0.0
 20
0.0
 30
0.0
  3
*D195
  1
*D195
  0
LINE
  5
1E87E
330
1E87B
100
AcDbEntity
  8
WY
 62
     0
100
AcDbLine
 10
569.6988205812072
 20
227.3161059836672
 30
0.0
 11
558.6540504620808
 21
227.3161059836672
 31
0.0
  0
LINE
  5
1E87F
330
1E87B
100
AcDbEntity
  8
WY
 62
     0
100
AcDbLine
 10
578.102922757635
 20
215.3161040167139
 30
0.0
 11
558.6540504620808
 21
215.3161040167139
 31
0.0
  0
LINE
  5
1E880
330
1E87B
100
AcDbEntity
  8
WY
 62
     0
100
AcDbLine
 10
560.1540504620808
 20
224.8161059836672
 30
0.0
 11
560.1540504620808
 21
217.8161040167139
 31
0.0
  0
SOLID
  5
1E881
330
1E87B
100
AcDbEntity
  8
WY
 62
     0
100
AcDbTrace
 10
560.5707171287474
 20
224.8161059836672
 30
0.0
 11
559.7373837954142
 21
224.8161059836672
 31
0.0
 12
560.1540504620808
 22
227.3161059836672
 32
0.0
 13
560.1540504620808
 23
227.3161059836672
 33
0.0
  0
SOLID
  5
1E882
330
1E87B
100
AcDbEntity
  8
WY
 62
     0
100
AcDbTrace
 10
559.7373837954142
 20
217.8161040167139
 30
0.0
 11
560.5707171287474
 21
217.8161040167139
 31
0.0
 12
560.1540504620808
 22
215.3161040167139
 32
0.0
 13
560.1540504620808
 23
215.3161040167139
 33
0.0
  0
MTEXT
  5
1E883
330
1E87B
100
AcDbEntity
  8
WY
 62
     0
100
AcDbMText
 10
558.6540504620808
 20
221.3161050001905
 30
0.0
 40
1.5
 41
0.0
 71
     5
 72
     1
  1
\A1;12
 11
0.0
 21
1.0
 31
0.0
  0
POINT
  5
1E884
330
1E87B
100
AcDbEntity
  8
DEFPOINTS
 62
     0
100
AcDbPoint
 10
571.1988205812072
 20
227.3161059836672
 30
0.0
  0
POINT
  5
1E885
330
1E87B
100
AcDbEntity
  8
DEFPOINTS
 62
     0
100
AcDbPoint
 10
579.602922757635
 20
215.3161040167139
 30
0.0
  0
POINT
  5
1E886
330
1E87B
100
AcDbEntity
  8
DEFPOINTS
 62
     0
100
AcDbPoint
 10
560.1540504620808
 20
215.3161040167139
 30
0.0
  0
ENDBLK
  5
1E87D
330
1E87B
100
AcDbEntity
  8
0
100
AcDbBlockEnd
  0
BLOCK
  5
1E888
330
1E887
100
AcDbEntity
  8
0
100
AcDbBlockBegin
  2
*D196
 70
     1
 10
0.0
 20
0.0
 30
0.0
  3
*D196
  1
*D196
  0
LINE
  5
1E88A
330
1E887
100
AcDbEntity
  8
WY
 62
     0
100
AcDbLine
 10
569.6988205812072
 20
227.3161059836672
 30
0.0
 11
562.5593076435348
 21
227.3161059836672
 31
0.0
  0
LINE
  5
1E88B
330
1E887
100
AcDbEntity
  8
WY
 62
     0
100
AcDbLine
 10
570.0529205999469
 20
222.8161043147371
 30
0.0
 11
562.5593076435348
 21
222.8161043147371
 31
0.0
  0
LINE
  5
1E88C
330
1E887
100
AcDbEntity
  8
WY
 62
     0
100
AcDbLine
 10
564.0593076435348
 20
227.3161059836672
 30
0.0
 11
564.0593076435348
 21
222.8161043147371
 31
0.0
  0
LINE
  5
1E88D
330
1E887
100
AcDbEntity
  8
WY
 62
     0
100
AcDbLine
 10
564.0593076435348
 20
229.8161059836672
 30
0.0
 11
564.0593076435348
 21
232.3161059836672
 31
0.0
  0
LINE
  5
1E88E
330
1E887
100
AcDbEntity
  8
WY
 62
     0
100
AcDbLine
 10
564.0593076435348
 20
220.3161043147371
 30
0.0
 11
564.0593076435348
 21
217.8161043147371
 31
0.0
  0
SOLID
  5
1E88F
330
1E887
100
AcDbEntity
  8
WY
 62
     0
100
AcDbTrace
 10
563.6426409768682
 20
229.8161059836672
 30
0.0
 11
564.4759743102014
 21
229.8161059836672
 31
0.0
 12
564.0593076435348
 22
227.3161059836672
 32
0.0
 13
564.0593076435348
 23
227.3161059836672
 33
0.0
  0
SOLID
  5
1E890
330
1E887
100
AcDbEntity
  8
WY
 62
     0
100
AcDbTrace
 10
564.4759743102014
 20
220.3161043147371
 30
0.0
 11
563.6426409768682
 21
220.3161043147371
 31
0.0
 12
564.0593076435348
 22
222.8161043147371
 32
0.0
 13
564.0593076435348
 23
222.8161043147371
 33
0.0
  0
MTEXT
  5
1E891
330
1E887
100
AcDbEntity
  8
WY
 62
     0
100
AcDbMText
 10
562.5593076435348
 20
225.0661051492021
 30
0.0
 40
1.5
 41
0.0
 71
     5
 72
     1
  1
\A1;4.5
 11
0.0
 21
1.0
 31
0.0
  0
POINT
  5
1E892
330
1E887
100
AcDbEntity
  8
DEFPOINTS
 62
     0
100
AcDbPoint
 10
571.1988205812072
 20
227.3161059836672
 30
0.0
  0
POINT
  5
1E893
330
1E887
100
AcDbEntity
  8
DEFPOINTS
 62
     0
100
AcDbPoint
 10
571.5529205999469
 20
222.8161043147371
 30
0.0
  0
POINT
  5
1E894
330
1E887
100
AcDbEntity
  8
DEFPOINTS
 62
     0
100
AcDbPoint
 10
564.0593076435348
 20
222.8161043147371
 30
0.0
  0
ENDBLK
  5
1E889
330
1E887
100
AcDbEntity
  8
0
100
AcDbBlockEnd
  0
BLOCK
  5
1E896
330
1E895
100
AcDbEntity
  8
0
100
AcDbBlockBegin
  2
*D197
 70
     1
 10
0.0
 20
0.0
 30
0.0
  3
*D197
  1
*D197
  0
LINE
  5
1E898
330
1E895
100
AcDbEntity
  8
WY
 62
     0
100
AcDbLine
 10
569.6988205812072
 20
227.3161059836672
 30
0.0
 11
555.4155445067289
 21
227.3161059836672
 31
0.0
  0
LINE
  5
1E899
330
1E895
100
AcDbEntity
  8
WY
 62
     0
100
AcDbLine
 10
582.983856780002
 20
206.0092373410986
 30
0.0
 11
555.4155445067289
 21
206.0092373410986
 31
0.0
  0
LINE
  5
1E89A
330
1E895
100
AcDbEntity
  8
WY
 62
     0
100
AcDbLine
 10
556.9155445067289
 20
224.8161059836672
 30
0.0
 11
556.9155445067289
 21
208.5092373410986
 31
0.0
  0
SOLID
  5
1E89B
330
1E895
100
AcDbEntity
  8
WY
 62
     0
100
AcDbTrace
 10
557.3322111733955
 20
224.8161059836672
 30
0.0
 11
556.4988778400623
 21
224.8161059836672
 31
0.0
 12
556.9155445067289
 22
227.3161059836672
 32
0.0
 13
556.9155445067289
 23
227.3161059836672
 33
0.0
  0
SOLID
  5
1E89C
330
1E895
100
AcDbEntity
  8
WY
 62
     0
100
AcDbTrace
 10
556.4988778400623
 20
208.5092373410986
 30
0.0
 11
557.3322111733955
 21
208.5092373410986
 31
0.0
 12
556.9155445067289
 22
206.0092373410986
 32
0.0
 13
556.9155445067289
 23
206.0092373410986
 33
0.0
  0
MTEXT
  5
1E89D
330
1E895
100
AcDbEntity
  8
WY
 62
     0
100
AcDbMText
 10
555.4155445067289
 20
216.6626716623829
 30
0.0
 40
1.5
 41
0.0
 71
     5
 72
     1
  1
\A1;21.3
 11
0.0
 21
1.0
 31
0.0
  0
POINT
  5
1E89E
330
1E895
100
AcDbEntity
  8
DEFPOINTS
 62
     0
100
AcDbPoint
 10
571.1988205812072
 20
227.3161059836672
 30
0.0
  0
POINT
  5
1E89F
330
1E895
100
AcDbEntity
  8
DEFPOINTS
 62
     0
100
AcDbPoint
 10
584.483856780002
 20
206.0092373410986
 30
0.0
  0
POINT
  5
1E8A0
330
1E895
100
AcDbEntity
  8
DEFPOINTS
 62
     0
100
AcDbPoint
 10
556.9155445067289
 20
206.0092373410986
 30
0.0
  0
ENDBLK
  5
1E897
330
1E895
100
AcDbEntity
  8
0
100
AcDbBlockEnd
  0
ENDSEC
  0
SECTION
  2
ENTITIES
  0
LINE
  5
2D2D
330
18
100
AcDbEntity
  8
WYMIARY
 62
     6
100
AcDbLine
 10
486.041244
 20
0.0
 30
0.0
 11
486.041244
 21
297.0
 31
0.0
  0
LINE
  5
2D2E
330
18
100
AcDbEntity
  8
WYMIARY
 62
     6
100
AcDbLine
 10
497.671651
 20
292.0
 30
0.0
 11
497.671651
 21
5.0
 31
0.0
  0
LINE
  5
2D34
330
18
100
AcDbEntity
  8
2
100
AcDbLine
 10
682.671651
 20
5.0
 30
0.0
 11
682.671651
 21
292.0
 31
0.0
  0
LINE
  5
2D35
330
18
100
AcDbEntity
  8
2
100
AcDbLine
 10
687.671651
 20
0.0
 30
0.0
 11
687.671651
 21
297.0
 31
0.0
  0
LINE
  5
2D36
330
18
100
AcDbEntity
  8
WY
  6
CONTINUOUS
 62
     3
100
AcDbLine
 10
682.671651
 20
19.689837
 30
0.0
 11
497.671651
 21
19.689837
 31
0.0
  0
LINE
  5
2D38
330
18
100
AcDbEntity
  8
2
100
AcDbLine
 10
497.671651
 20
5.0
 30
0.0
 11
682.671651
 21
5.0
 31
0.0
  0
LINE
  5
2D39
330
18
100
AcDbEntity
  8
2
 62
     6
100
AcDbLine
 10
497.671651
 20
0.0
 30
0.0
 11
687.671651
 21
0.0
 31
0.0
  0
LINE
  5
2D3A
330
18
100
AcDbEntity
  8
0
100
AcDbLine
 10
529.697667
 20
11.742481
 30
0.0
 11
528.795256
 21
11.742481
 31
0.0
  0
ELLIPSE
  5
2D3B
330
18
100
AcDbEntity
  8
0
100
AcDbEllipse
 10
529.697667
 20
11.742481
 30
0.0
 11
-1.203215696869327
 21
1.967000000000000E-13
 31
0.0
210
0.0
220
0.0
230
1.0
 40
0.958812
 41
-1.570796326794739
 42
0.0000000000001705
  0
TEXT
  5
2D3D
330
18
100
AcDbEntity
  8
1
100
AcDbText
 10
515.607578
 20
8.797457
 30
0.0
 40
5.0
  1
A4
 51
15.0
  7
ITALIC
100
AcDbText
  0
LINE
  5
2D40
330
18
100
AcDbEntity
  8
WYMIARY
 62
     6
100
AcDbLine
 10
497.671651
 20
0.0
 30
0.0
 11
486.041244
 21
0.0
 31
0.0
  0
TEXT
  5
2D42
330
18
100
AcDbEntity
  8
WY
100
AcDbText
 10
502.936765
 20
16.373844
 30
0.0
 40
2.0
  1
Skala
 51
15.0
  7
ITALIC
100
AcDbText
  0
TEXT
  5
2D43
330
18
100
AcDbEntity
  8
WY
100
AcDbText
 10
515.042219
 20
16.329369
 30
0.0
 40
2.0
  1
Format
 51
15.0
  7
ITALIC
100
AcDbText
  0
LINE
  5
2D44
330
18
100
AcDbEntity
  8
0
100
AcDbLine
 10
528.494452
 20
11.742481
 30
0.0
 11
528.795256
 21
11.742481
 31
0.0
  0
LINE
  5
2D45
330
18
100
AcDbEntity
  8
0
100
AcDbLine
 10
559.88722
 20
17.211264
 30
0.0
 11
559.88722
 21
9.015264
 31
0.0
  0
LINE
  5
2D46
330
18
100
AcDbEntity
  8
0
100
AcDbLine
 10
550.89322
 20
9.438264
 30
0.0
 11
550.89322
 21
7.416264
 31
0.0
  0
ARC
  5
2D47
330
18
100
AcDbEntity
  8
0
100
AcDbCircle
 10
551.5428
 20
9.724764
 30
0.0
 40
0.709955
100
AcDbArc
 50
203.80008
 51
272.051918
  0
LINE
  5
2D48
330
18
100
AcDbEntity
  8
0
100
AcDbLine
 10
549.34822
 20
7.416264
 30
0.0
 11
549.34822
 21
15.612264
 31
0.0
  0
ARC
  5
2D49
330
18
100
AcDbEntity
  8
0
100
AcDbCircle
 10
551.982126
 20
10.136416
 30
0.0
 40
1.128907
100
AcDbArc
 50
276.719576
 51
2.175194
  0
ARC
  5
2D4A
330
18
100
AcDbEntity
  8
0
100
AcDbCircle
 10
555.243059
 20
10.503572
 30
0.0
 40
1.488419
100
AcDbArc
 50
191.634268
 51
270.699113
  0
ARC
  5
2D4B
330
18
100
AcDbEntity
  8
0
100
AcDbCircle
 10
556.209381
 20
10.503572
 30
0.0
 40
1.488419
100
AcDbArc
 50
269.300887
 51
348.365732
  0
LINE
  5
2D4C
330
18
100
AcDbEntity
  8
0
100
AcDbLine
 10
558.34222
 20
9.015264
 30
0.0
 11
558.34222
 21
17.211264
 31
0.0
  0
ARC
  5
2D4D
330
18
100
AcDbEntity
  8
0
100
AcDbCircle
 10
545.056591
 20
10.472364
 30
0.0
 40
1.425319
100
AcDbArc
 50
269.703671
 51
350.465171
  0
ARC
  5
2D4E
330
18
100
AcDbEntity
  8
0
100
AcDbCircle
 10
544.201848
 20
10.472364
 30
0.0
 40
1.425319
100
AcDbArc
 50
189.534829
 51
270.2963290000001
  0
LINE
  5
2D4F
330
18
100
AcDbEntity
  8
0
100
AcDbLine
 10
547.14922
 20
9.015264
 30
0.0
 11
547.14922
 21
17.211264
 31
0.0
  0
LINE
  5
2D50
330
18
100
AcDbEntity
  8
0
100
AcDbLine
 10
548.69422
 20
17.211264
 30
0.0
 11
548.69422
 21
9.015264
 31
0.0
  0
LINE
  5
2D51
330
18
100
AcDbEntity
  8
0
100
AcDbLine
 10
539.892236
 20
14.361264
 30
0.0
 11
539.903809
 21
9.015264
 31
0.0
  0
LINE
  5
2D52
330
18
100
AcDbEntity
  8
0
100
AcDbLine
 10
538.361694
 20
9.015264
 30
0.0
 11
538.361694
 21
15.60367
 31
0.0
  0
LINE
  5
2D53
330
18
100
AcDbEntity
  8
0
100
AcDbLine
 10
529.697667
 20
9.895061
 30
0.0
 11
529.697667
 21
8.185369
 31
0.0
  0
LINE
  5
2D54
330
18
100
AcDbEntity
  8
0
100
AcDbLine
 10
535.613478
 20
8.185369
 30
0.0
 11
535.613478
 21
11.742481
 31
0.0
  0
LINE
  5
2D55
330
18
100
AcDbEntity
  8
1
100
AcDbLine
 10
563.469863
 20
5.0
 30
0.0
 11
563.469863
 21
19.689837
 31
0.0
  0
LINE
  5
2D56
330
18
100
AcDbEntity
  8
0
100
AcDbLine
 10
530.499811
 20
7.416263
 30
0.0
 11
534.811334
 21
7.416263
 31
0.0
  0
ELLIPSE
  5
2D57
330
18
100
AcDbEntity
  8
0
100
AcDbEllipse
 10
530.499811
 20
8.185369
 30
0.0
 11
-0.8021437979128705
 21
1.540000000000000E-14
 31
0.0
210
0.0
220
0.0
230
1.0
 40
0.958812
 41
0.00000000000002
 42
1.570796326794914
  0
ELLIPSE
  5
2D58
330
18
100
AcDbEntity
  8
0
100
AcDbEllipse
 10
534.811334
 20
8.185369
 30
0.0
 11
0.8021437979128704
 21
1.602000000000000E-13
 31
0.0
210
0.0
220
0.0
230
1.0
 40
0.958812
 41
4.712388980384497
 42
6.283185307179378
  0
LINE
  5
2D59
330
18
100
AcDbEntity
  8
0
100
AcDbLine
 10
539.892236
 20
9.015264
 30
0.0
 11
539.903809
 21
9.022759
 31
0.0
  0
LINE
  5
2D5A
330
18
100
AcDbEntity
  8
0
100
AcDbLine
 10
538.361694
 20
9.015264
 30
0.0
 11
539.903809
 21
9.015264
 31
0.0
  0
LINE
  5
2D5B
330
18
100
AcDbEntity
  8
0
100
AcDbLine
 10
544.194477
 20
9.047064
 30
0.0
 11
545.04922
 21
9.047064
 31
0.0
  0
LINE
  5
2D5C
330
18
100
AcDbEntity
  8
0
100
AcDbLine
 10
550.89322
 20
7.416264
 30
0.0
 11
549.34822
 21
7.416264
 31
0.0
  0
LINE
  5
2D5D
330
18
100
AcDbEntity
  8
0
100
AcDbLine
 10
548.69422
 20
9.015264
 30
0.0
 11
547.14922
 21
9.015264
 31
0.0
  0
LINE
  5
2D5E
330
18
100
AcDbEntity
  8
0
100
AcDbLine
 10
551.576266
 20
9.015264
 30
0.0
 11
552.11422
 21
9.015264
 31
0.0
  0
LINE
  5
2D5F
330
18
100
AcDbEntity
  8
0
100
AcDbLine
 10
555.26122
 20
9.015264
 30
0.0
 11
556.19122
 21
9.015264
 31
0.0
  0
LINE
  5
2D60
330
18
100
AcDbEntity
  8
0
100
AcDbLine
 10
559.88722
 20
9.015264
 30
0.0
 11
558.34222
 21
9.015264
 31
0.0
  0
ARC
  5
2D61
330
18
100
AcDbEntity
  8
0
100
AcDbCircle
 10
545.056591
 20
14.17837
 30
0.0
 40
1.425319
100
AcDbArc
 50
9.534829000000002
 51
90.296329
  0
LINE
  5
2D62
330
18
100
AcDbEntity
  8
0
100
AcDbLine
 10
546.46222
 20
11.81167
 30
0.0
 11
544.33822
 21
11.81167
 31
0.0
  0
LINE
  5
2D63
330
18
100
AcDbEntity
  8
0
100
AcDbLine
 10
545.01322
 20
11.13667
 30
0.0
 11
546.46222
 21
11.13667
 31
0.0
  0
LINE
  5
2D64
330
18
100
AcDbEntity
  8
0
100
AcDbLine
 10
529.697667
 20
13.461283
 30
0.0
 11
529.697667
 21
16.260974
 31
0.0
  0
ELLIPSE
  5
2D65
330
18
100
AcDbEntity
  8
0
100
AcDbEllipse
 10
532.630506
 20
15.17942
 30
0.0
 11
2.983077570132104
 21
2.996000000000000E-13
 31
0.0
210
0.0
220
0.0
230
1.0
 40
0.9588119999999999
 41
-1.562393163247347
 42
0.0084031635475457
  0
ELLIPSE
  5
2D66
330
18
100
AcDbEntity
  8
0
100
AcDbEllipse
 10
532.58733
 20
15.509539
 30
0.0
 11
-4.072692107280919
 21
9.250000000000000E-14
 31
0.0
210
0.0
220
0.0
230
1.0
 40
0.958812
 41
1.587553347046634
 42
2.408388587343224
  0
LINE
  5
2D67
330
18
100
AcDbEntity
  8
0
100
AcDbLine
 10
529.697667
 20
11.742481
 30
0.0
 11
529.697667
 21
11.034514
 31
0.0
  0
LINE
  5
2D68
330
18
100
AcDbEntity
  8
0
100
AcDbLine
 10
529.697667
 20
13.461283
 30
0.0
 11
529.697667
 21
12.896138
 31
0.0
  0
ELLIPSE
  5
2D69
330
18
100
AcDbEntity
  8
0
100
AcDbEllipse
 10
532.249598
 20
9.872487
 30
0.0
 11
2.960559210508897
 21
0.3570763225581005
 31
0.0
210
0.0
220
0.0
230
1.0
 40
0.820999
 41
1.335209029023201
 42
2.503032872947537
  0
ELLIPSE
  5
2D6A
330
18
100
AcDbEntity
  8
0
100
AcDbEllipse
 10
532.480104
 20
8.937306
 30
0.0
 11
3.015746449176215
 21
0.7746519372140024
 31
0.0
210
0.0
220
0.0
230
1.0
 40
0.8467750000000003
 41
1.29973646820557
 42
2.479974117225238
  0
LINE
  5
2D6B
330
18
100
AcDbEntity
  8
0
100
AcDbLine
 10
536.816694
 20
12.896138
 30
0.0
 11
536.51589
 21
12.896138
 31
0.0
  0
LINE
  5
2D6C
330
18
100
AcDbEntity
  8
0
100
AcDbLine
 10
535.613478
 20
12.896138
 30
0.0
 11
536.51589
 21
12.896138
 31
0.0
  0
ELLIPSE
  5
2D6D
330
18
100
AcDbEntity
  8
0
100
AcDbEllipse
 10
535.613478
 20
12.896138
 30
0.0
 11
1.203215696869352
 21
8.930000000000000E-14
 31
0.0
210
0.0
220
0.0
230
1.0
 40
0.9588119999999999
 41
4.712388980384611
 42
6.283185307179508
  0
LINE
  5
2D6E
330
18
100
AcDbEntity
  8
0
100
AcDbLine
 10
530.499811
 20
17.030079
 30
0.0
 11
534.811334
 21
17.030079
 31
0.0
  0
ELLIPSE
  5
2D6F
330
18
100
AcDbEntity
  8
0
100
AcDbEllipse
 10
530.499811
 20
16.260974
 30
0.0
 11
0.8021437979128704
 21
3.800000000000000E-14
 31
0.0
210
0.0
220
0.0
230
1.0
 40
0.958812
 41
1.570796326794851
 42
3.141592653589743
  0
LINE
  5
2D70
330
18
100
AcDbEntity
  8
0
100
AcDbLine
 10
535.613478
 20
15.155385
 30
0.0
 11
535.613478
 21
16.260974
 31
0.0
  0
ELLIPSE
  5
2D71
330
18
100
AcDbEntity
  8
0
100
AcDbEllipse
 10
534.811334
 20
16.260974
 30
0.0
 11
-0.8021437979128705
 21
3.800000000000000E-14
 31
0.0
210
0.0
220
0.0
230
1.0
 40
0.958812
 41
3.141592653589842
 42
4.712388980384734
  0
ARC
  5
2D72
330
18
100
AcDbEntity
  8
0
100
AcDbCircle
 10
540.798894
 20
14.34127
 30
0.0
 40
1.377457
100
AcDbArc
 50
16.265061
 51
130.527299
  0
ARC
  5
2D73
330
18
100
AcDbEntity
  8
0
100
AcDbCircle
 10
544.201848
 20
14.17837
 30
0.0
 40
1.425319
100
AcDbArc
 50
89.703671
 51
170.465171
  0
LINE
  5
2D74
330
18
100
AcDbEntity
  8
0
100
AcDbLine
 10
540.911147
 20
12.93607
 30
0.0
 11
542.12122
 21
12.93607
 31
0.0
  0
LINE
  5
2D75
330
18
100
AcDbEntity
  8
0
100
AcDbLine
 10
540.578809
 20
12.93607
 30
0.0
 11
542.12122
 21
12.93607
 31
0.0
  0
ARC
  5
2D76
330
18
100
AcDbEntity
  8
0
100
AcDbCircle
 10
540.229736
 20
14.361264
 30
0.0
 40
0.3375
100
AcDbArc
 50
360.0
 51
180.0
  0
LINE
  5
2D77
330
18
100
AcDbEntity
  8
0
100
AcDbLine
 10
540.567236
 20
14.361264
 30
0.0
 11
540.578809
 21
12.93607
 31
0.0
  0
ARC
  5
2D78
330
18
100
AcDbEntity
  8
0
100
AcDbCircle
 10
544.67572
 20
14.361264
 30
0.0
 40
0.3375
100
AcDbArc
 50
360.0
 51
180.0
  0
LINE
  5
2D79
330
18
100
AcDbEntity
  8
0
100
AcDbLine
 10
544.33822
 20
11.81167
 30
0.0
 11
544.33822
 21
10.236264
 31
0.0
  0
LINE
  5
2D7A
330
18
100
AcDbEntity
  8
0
100
AcDbLine
 10
544.33822
 20
12.71167
 30
0.0
 11
545.01322
 21
12.71167
 31
0.0
  0
LINE
  5
2D7B
330
18
100
AcDbEntity
  8
0
100
AcDbLine
 10
545.01322
 20
11.13667
 30
0.0
 11
545.01322
 21
10.252764
 31
0.0
  0
LINE
  5
2D7C
330
18
100
AcDbEntity
  8
0
100
AcDbLine
 10
544.33822
 20
11.81167
 30
0.0
 11
544.33822
 21
10.252764
 31
0.0
  0
ARC
  5
2D7D
330
18
100
AcDbEntity
  8
0
100
AcDbCircle
 10
544.67572
 20
10.252764
 30
0.0
 40
0.3375
100
AcDbArc
 50
180.0
 51
0.0
  0
LINE
  5
2D7E
330
18
100
AcDbEntity
  8
0
100
AcDbLine
 10
545.01322
 20
14.361264
 30
0.0
 11
545.01322
 21
12.71167
 31
0.0
  0
LINE
  5
2D7F
330
18
100
AcDbEntity
  8
0
100
AcDbLine
 10
544.33822
 20
14.361264
 30
0.0
 11
544.33822
 21
12.71167
 31
0.0
  0
LINE
  5
2D80
330
18
100
AcDbEntity
  8
0
100
AcDbLine
 10
542.12122
 20
12.93607
 30
0.0
 11
542.12122
 21
14.72707
 31
0.0
  0
LINE
  5
2D81
330
18
100
AcDbEntity
  8
0
100
AcDbLine
 10
542.79622
 20
10.236264
 30
0.0
 11
542.79622
 21
14.41447
 31
0.0
  0
LINE
  5
2D82
330
18
100
AcDbEntity
  8
0
100
AcDbLine
 10
539.903809
 20
15.60367
 30
0.0
 11
539.903809
 21
15.38827
 31
0.0
  0
LINE
  5
2D83
330
18
100
AcDbEntity
  8
0
100
AcDbLine
 10
538.361694
 20
15.60367
 30
0.0
 11
539.903809
 21
15.60367
 31
0.0
  0
LINE
  5
2D84
330
18
100
AcDbEntity
  8
0
100
AcDbLine
 10
544.194477
 20
15.60367
 30
0.0
 11
545.04922
 21
15.60367
 31
0.0
  0
ARC
  5
2D85
330
18
100
AcDbEntity
  8
0
100
AcDbCircle
 10
555.243059
 20
14.124104
 30
0.0
 40
1.488419
100
AcDbArc
 50
89.300887
 51
168.365732
  0
ARC
  5
2D86
330
18
100
AcDbEntity
  8
0
100
AcDbCircle
 10
551.752247
 20
14.207365
 30
0.0
 40
1.409039
100
AcDbArc
 50
15.47255
 51
127.56454
  0
LINE
  5
2D87
330
18
100
AcDbEntity
  8
0
100
AcDbLine
 10
546.46222
 20
11.13667
 30
0.0
 11
546.46222
 21
10.236264
 31
0.0
  0
LINE
  5
2D88
330
18
100
AcDbEntity
  8
0
100
AcDbLine
 10
546.46222
 20
11.81167
 30
0.0
 11
546.46222
 21
14.41447
 31
0.0
  0
LINE
  5
2D89
330
18
100
AcDbEntity
  8
0
100
AcDbLine
 10
553.11022
 20
14.583264
 30
0.0
 11
553.11022
 21
10.179264
 31
0.0
  0
LINE
  5
2D8A
330
18
100
AcDbEntity
  8
0
100
AcDbLine
 10
551.56822
 20
14.361264
 30
0.0
 11
551.56822
 21
10.252764
 31
0.0
  0
LINE
  5
2D8B
330
18
100
AcDbEntity
  8
0
100
AcDbLine
 10
550.89322
 20
14.361264
 30
0.0
 11
550.89322
 21
10.252764
 31
0.0
  0
ARC
  5
2D8C
330
18
100
AcDbEntity
  8
0
100
AcDbCircle
 10
551.23072
 20
10.252764
 30
0.0
 40
0.3375
100
AcDbArc
 50
180.0
 51
0.0
  0
ARC
  5
2D8D
330
18
100
AcDbEntity
  8
0
100
AcDbCircle
 10
551.23072
 20
14.361264
 30
0.0
 40
0.3375
100
AcDbArc
 50
360.0
 51
180.0
  0
LINE
  5
2D8E
330
18
100
AcDbEntity
  8
0
100
AcDbLine
 10
549.34822
 20
15.612264
 30
0.0
 11
550.89322
 21
15.612264
 31
0.0
  0
LINE
  5
2D8F
330
18
100
AcDbEntity
  8
0
100
AcDbLine
 10
547.14922
 20
17.211264
 30
0.0
 11
548.69422
 21
17.211264
 31
0.0
  0
LINE
  5
2D90
330
18
100
AcDbEntity
  8
0
100
AcDbLine
 10
550.89322
 20
15.612264
 30
0.0
 11
550.89322
 21
15.324264
 31
0.0
  0
ARC
  5
2D91
330
18
100
AcDbEntity
  8
0
100
AcDbCircle
 10
556.209381
 20
14.124104
 30
0.0
 40
1.488419
100
AcDbArc
 50
11.634268
 51
90.699113
  0
LINE
  5
2D92
330
18
100
AcDbEntity
  8
0
100
AcDbLine
 10
557.66722
 20
14.424264
 30
0.0
 11
557.66722
 21
10.203412
 31
0.0
  0
ARC
  5
2D93
330
18
100
AcDbEntity
  8
0
100
AcDbCircle
 10
555.72622
 20
14.361264
 30
0.0
 40
0.3375
100
AcDbArc
 50
360.0
 51
180.0
  0
ARC
  5
2D94
330
18
100
AcDbEntity
  8
0
100
AcDbCircle
 10
555.72622
 20
10.252764
 30
0.0
 40
0.3375
100
AcDbArc
 50
180.0
 51
0.0
  0
LINE
  5
2D95
330
18
100
AcDbEntity
  8
0
100
AcDbLine
 10
555.38872
 20
14.361264
 30
0.0
 11
555.38872
 21
10.252764
 31
0.0
  0
LINE
  5
2D96
330
18
100
AcDbEntity
  8
0
100
AcDbLine
 10
556.06372
 20
14.361264
 30
0.0
 11
556.06372
 21
10.252764
 31
0.0
  0
LINE
  5
2D97
330
18
100
AcDbEntity
  8
0
100
AcDbLine
 10
553.78522
 20
10.203412
 30
0.0
 11
553.78522
 21
14.424264
 31
0.0
  0
LINE
  5
2D98
330
18
100
AcDbEntity
  8
0
100
AcDbLine
 10
555.26122
 20
15.612412
 30
0.0
 11
556.19122
 21
15.612412
 31
0.0
  0
LINE
  5
2D99
330
18
100
AcDbEntity
  8
0
100
AcDbLine
 10
558.34222
 20
17.211264
 30
0.0
 11
559.88722
 21
17.211264
 31
0.0
  0
TEXT
  5
2D9A
330
18
100
AcDbEntity
  8
WY
100
AcDbText
 10
564.417407
 20
11.60401
 30
0.0
 40
1.999999999999999
  1
31-05-2016
 41
1.000000000000001
 51
15.0
  7
ITALIC
100
AcDbText
  0
TEXT
  5
2D9B
330
18
100
AcDbEntity
  8
WY
100
AcDbText
 10
568.848776
 20
16.149239
 30
0.0
 40
2.0
  1
Data
 51
15.0
  7
ITALIC
100
AcDbText
  0
TEXT
  5
2D9D
330
18
100
AcDbEntity
  8
1
100
AcDbText
 10
637.422754
 20
9.064009
 30
0.0
 40
5.0
  1
GOP8
 41
0.8
 51
15.0
  7
ITALIC
100
AcDbText
  0
LINE
  5
2D9E
330
18
100
AcDbEntity
  8
1
100
AcDbLine
 10
627.394234
 20
5.0
 30
0.0
 11
627.394234
 21
19.689837
 31
0.0
  0
TEXT
  5
2D9F
330
18
100
AcDbEntity
  8
WY
100
AcDbText
 10
629.585432
 20
16.599248
 30
0.0
 40
2.0
  1
Product type
 51
15.0
  7
ITALIC
100
AcDbText
  0
LINE
  5
2DF2
330
18
100
AcDbEntity
  8
2
100
AcDbLine
 10
682.671651
 20
292.0
 30
0.0
 11
497.671651
 21
292.0
 31
0.0
  0
LINE
  5
2DF3
330
18
100
AcDbEntity
  8
2
100
AcDbLine
 10
687.671651
 20
297.0
 30
0.0
 11
497.671651
 21
297.0
 31
0.0
  0
LINE
  5
2E74
330
18
100
AcDbEntity
  8
WYMIARY
 62
     6
100
AcDbLine
 10
497.671651
 20
297.0
 30
0.0
 11
486.041244
 21
297.0
 31
0.0
  0
MTEXT
  5
31F2
330
18
100
AcDbEntity
  8
WYMIARY
100
AcDbMText
 10
780.543201
 20
224.476865
 30
0.0
 40
3.5
 41
15.6
 71
     1
 72
     5
  1

  7
ITALIC
  0
TEXT
  5
478E
330
18
100
AcDbEntity
  8
1
100
AcDbText
 10
500.301985
 20
8.797457
 30
0.0
 40
5.0
  1
1:1
 51
15.0
  7
ITALIC
100
AcDbText
  0
LINE
  5
482F
330
18
100
AcDbEntity
  8
WYMIARY
 62
     6
100
AcDbLine
 10
687.671651
 20
0.0
 30
0.0
 11
687.671651
 21
297.0
 31
0.0
  0
LINE
  5
4AD7
330
18
100
AcDbEntity
  8
WYMIARY
 62
     3
100
AcDbLine
 10
512.671651
 20
19.689837
 30
0.0
 11
512.671651
 21
5.0
 31
0.0
  0
LINE
  5
4AD9
330
18
100
AcDbEntity
  8
WYMIARY
 62
     3
100
AcDbLine
 10
527.671651
 20
19.689837
 30
0.0
 11
527.671651
 21
5.0
 31
0.0
  0
LINE
  5
4ADA
330
18
100
AcDbEntity
  8
WYMIARY
 62
     3
100
AcDbLine
 10
586.373187
 20
19.689837
 30
0.0
 11
586.373187
 21
5.0
 31
0.0
  0
TEXT
  5
4ADB
330
18
100
AcDbEntity
  8
WY
100
AcDbText
 10
587.562196
 20
16.599248
 30
0.0
 40
2.0
  1
Draw. No.
 51
15.0
  7
ITALIC
100
AcDbText
  0
TEXT
  5
4ADF
330
18
100
AcDbEntity
  8
1
100
AcDbText
 10
591.935141
 20
9.064009
 30
0.0
 40
3.999999999999996
  1
GOP8-01A
 41
0.7000000000000007
 51
15.0
  7
ITALIC
100
AcDbText
  0
LINE
  5
4AE9
330
18
100
AcDbEntity
  8
WYMIARY
 62
     6
100
AcDbLine
 10
687.671651
 20
0.0
 30
0.0
 11
687.671651
 21
297.0
 31
0.0
  0
LINE
  5
6488
330
18
100
AcDbEntity
  8
WYMIARY
 62
     6
100
AcDbLine
 10
687.671651
 20
0.0
 30
0.0
 11
687.671651
 21
297.0
 31
0.0
  0
LINE
  5
648E
330
18
100
AcDbEntity
  8
2
100
AcDbLine
 10
687.671651
 20
0.0
 30
0.0
 11
687.671651
 21
297.0
 31
0.0
  0
LINE
  5
6CB6
330
18
100
AcDbEntity
  8
WYMIARY
 62
     6
100
AcDbLine
 10
687.671651
 20
0.0
 30
0.0
 11
687.671651
 21
297.0
 31
0.0
  0
LINE
  5
6CB8
330
18
100
AcDbEntity
  8
2
100
AcDbLine
 10
687.671651
 20
0.0
 30
0.0
 11
687.671651
 21
297.0
 31
0.0
  0
TEXT
  5
B62D
330
18
100
AcDbEntity
  8
1
100
AcDbText
 10
588.628792682284
 20
275.1245812869693
 30
0.0
 40
5.0
  1
GOP8
 41
0.8
 51
15.0
  7
ITALIC
100
AcDbText
  0
LINE
  5
1E5B1
330
18
100
AcDbEntity
  8
1
  6
CONTINUOUS
 62
     7
100
AcDbLine
 10
596.9415941972097
 20
159.0714490504885
 30
0.0
 11
597.5883098808249
 21
158.8035708757067
 31
0.0
  0
LINE
  5
1E5B2
330
18
100
AcDbEntity
  8
1
  6
CONTINUOUS
 62
     7
100
AcDbLine
 10
596.8420771759834
 20
157.0020055862093
 30
0.0
 11
596.1953614978252
 21
157.2698837609911
 31
0.0
  0
LINE
  5
1E5B3
330
18
100
AcDbEntity
  8
1
  6
CONTINUOUS
 62
     7
100
AcDbLine
 10
598.3632438373884
 20
160.6744265647554
 30
0.0
 11
597.7165281446783
 21
160.9423047395372
 31
0.0
  0
LINE
  5
1E5B4
330
18
100
AcDbEntity
  8
1
  6
CONTINUOUS
 62
     7
100
AcDbLine
 10
595.4204275994693
 20
155.3990280719423
 30
0.0
 11
596.0671432339718
 21
155.1311498971605
 31
0.0
  0
LINE
  5
1E5B5
330
18
100
AcDbEntity
  8
1
  6
CONTINUOUS
 62
     7
100
AcDbLine
 10
602.648493347237
 20
146.587207773509
 30
0.0
 11
602.3806151724552
 21
145.9404936524057
 31
0.0
  0
LINE
  5
1E5B6
330
18
100
AcDbEntity
  8
1
  6
CONTINUOUS
 62
     7
100
AcDbLine
 10
600.5790498829579
 20
146.6867251785421
 30
0.0
 11
600.846928523401
 21
147.3334392996454
 31
0.0
  0
LINE
  5
1E5B7
330
18
100
AcDbEntity
  8
1
  6
CONTINUOUS
 62
     7
100
AcDbLine
 10
604.251470861504
 20
145.1655587645197
 30
0.0
 11
604.5193495019471
 21
145.812272885623
 31
0.0
  0
LINE
  5
1E5B8
330
18
100
AcDbEntity
  8
1
  6
CONTINUOUS
 62
     7
100
AcDbLine
 10
598.9760723686909
 20
148.1083741875315
 30
0.0
 11
598.7081938446631
 21
147.4616600664282
 31
0.0
  0
LINE
  5
1E5B9
330
18
100
AcDbEntity
  8
1
  6
CONTINUOUS
 62
     7
100
AcDbLine
 10
597.5883098808249
 20
141.1481870802069
 30
0.0
 11
596.9415941972097
 21
140.8803089054251
 31
0.0
  0
LINE
  5
1E5BA
330
18
100
AcDbEntity
  8
1
  6
CONTINUOUS
 62
     7
100
AcDbLine
 10
596.1953614978252
 20
142.6818741949224
 30
0.0
 11
596.8420771759834
 21
142.9497523697042
 31
0.0
  0
LINE
  5
1E5BB
330
18
100
AcDbEntity
  8
1
  6
CONTINUOUS
 62
     7
100
AcDbLine
 10
597.7165281446783
 20
139.0094532163763
 30
0.0
 11
598.3632438373884
 21
139.2773313911581
 31
0.0
  0
LINE
  5
1E5BC
330
18
100
AcDbEntity
  8
1
  6
CONTINUOUS
 62
     7
100
AcDbLine
 10
596.0671432339718
 20
144.820608058753
 30
0.0
 11
595.4204275994693
 21
144.5527298839712
 31
0.0
  0
LINE
  5
1E5BD
330
18
100
AcDbEntity
  8
1
  6
CONTINUOUS
 62
     7
100
AcDbLine
 10
590.164251138935
 20
140.8803089054251
 30
0.0
 11
589.5175356208479
 21
141.1481870802069
 31
0.0
  0
LINE
  5
1E5BE
330
18
100
AcDbEntity
  8
1
  6
CONTINUOUS
 62
     7
100
AcDbLine
 10
590.2637680783068
 20
142.9497523697042
 30
0.0
 11
590.9104840620553
 21
142.6818741949224
 31
0.0
  0
LINE
  5
1E5BF
330
18
100
AcDbEntity
  8
1
  6
CONTINUOUS
 62
     7
100
AcDbLine
 10
588.7426011986231
 20
139.2773313911581
 30
0.0
 11
589.3893171823715
 21
139.0094532163763
 31
0.0
  0
LINE
  5
1E5C0
330
18
100
AcDbEntity
  8
1
  6
CONTINUOUS
 62
     7
100
AcDbLine
 10
591.6854180186187
 20
144.5527298839712
 30
0.0
 11
591.0387020348703
 21
144.820608058753
 31
0.0
  0
LINE
  5
1E5C1
330
18
100
AcDbEntity
  8
1
  6
CONTINUOUS
 62
     7
100
AcDbLine
 10
602.3806151724552
 20
154.0112680287981
 30
0.0
 11
602.648493347237
 21
153.3645501824045
 31
0.0
  0
LINE
  5
1E5C2
330
18
100
AcDbEntity
  8
1
  6
CONTINUOUS
 62
     7
100
AcDbLine
 10
600.846928523401
 20
152.6183186562681
 30
0.0
 11
600.5790498829579
 21
153.2650327773714
 31
0.0
  0
LINE
  5
1E5C3
330
18
100
AcDbEntity
  8
1
  6
CONTINUOUS
 62
     7
100
AcDbLine
 10
604.5193495019471
 20
154.1394850702906
 30
0.0
 11
604.251470861504
 21
154.7861991913938
 31
0.0
  0
LINE
  5
1E5C4
330
18
100
AcDbEntity
  8
1
  6
CONTINUOUS
 62
     7
100
AcDbLine
 10
598.7081938446631
 20
152.4901016147757
 30
0.0
 11
598.9760723686909
 21
151.8433837683821
 31
0.0
  0
LINE
  5
1E5C5
330
18
100
AcDbEntity
  8
1
  6
CONTINUOUS
 62
     7
100
AcDbLine
 10
589.5175356208479
 20
158.8035708757067
 30
0.0
 11
590.164251138935
 21
159.0714490504885
 31
0.0
  0
LINE
  5
1E5C6
330
18
100
AcDbEntity
  8
1
  6
CONTINUOUS
 62
     7
100
AcDbLine
 10
590.9104840620553
 20
157.2698837609911
 30
0.0
 11
590.2637680783068
 21
157.0020055862093
 31
0.0
  0
LINE
  5
1E5C7
330
18
100
AcDbEntity
  8
1
  6
CONTINUOUS
 62
     7
100
AcDbLine
 10
589.3893171823715
 20
160.9423047395372
 30
0.0
 11
588.7426011986231
 21
160.6744265647554
 31
0.0
  0
LINE
  5
1E5C8
330
18
100
AcDbEntity
  8
1
  6
CONTINUOUS
 62
     7
100
AcDbLine
 10
591.0387020348703
 20
155.1311498971605
 30
0.0
 11
591.6854180186187
 21
155.3990280719423
 31
0.0
  0
LINE
  5
1E5C9
330
18
100
AcDbEntity
  8
1
  6
CONTINUOUS
 62
     7
100
AcDbLine
 10
584.4573522708511
 20
153.3645501824045
 30
0.0
 11
584.7252304456329
 21
154.0112680287981
 31
0.0
  0
LINE
  5
1E5CA
330
18
100
AcDbEntity
  8
1
  6
CONTINUOUS
 62
     7
100
AcDbLine
 10
586.5267957351302
 20
153.2650327773714
 30
0.0
 11
586.2589175603484
 21
152.6183186562681
 31
0.0
  0
LINE
  5
1E5CB
330
18
100
AcDbEntity
  8
1
  6
CONTINUOUS
 62
     7
100
AcDbLine
 10
582.8543747565841
 20
154.7861991913938
 30
0.0
 11
582.5864956504797
 21
154.1394850702906
 31
0.0
  0
LINE
  5
1E5CC
330
18
100
AcDbEntity
  8
1
  6
CONTINUOUS
 62
     7
100
AcDbLine
 10
588.1297732493972
 20
151.8433837683821
 30
0.0
 11
588.397651424179
 21
152.4901016147757
 31
0.0
  0
LINE
  5
1E5CD
330
18
100
AcDbEntity
  8
1
  6
CONTINUOUS
 62
     7
100
AcDbLine
 10
584.7252304456329
 20
145.9404936524057
 30
0.0
 11
584.4573522708511
 21
146.587207773509
 31
0.0
  0
LINE
  5
1E5CE
330
18
100
AcDbEntity
  8
1
  6
CONTINUOUS
 62
     7
100
AcDbLine
 10
586.2589175603484
 20
147.3334392996454
 30
0.0
 11
586.5267957351302
 21
146.6867251785421
 31
0.0
  0
LINE
  5
1E5CF
330
18
100
AcDbEntity
  8
1
  6
CONTINUOUS
 62
     7
100
AcDbLine
 10
582.5864956504797
 20
145.812272885623
 30
0.0
 11
582.8543747565841
 21
145.1655587645197
 31
0.0
  0
LINE
  5
1E5D0
330
18
100
AcDbEntity
  8
1
  6
CONTINUOUS
 62
     7
100
AcDbLine
 10
588.397651424179
 20
147.4616600664282
 30
0.0
 11
588.1297732493972
 21
148.1083741875315
 31
0.0
  0
LINE
  5
1E5D1
330
18
100
AcDbEntity
  8
1
  6
CONTINUOUS
 62
     7
100
AcDbLine
 10
597.5060522696135
 20
160.4341714175367
 30
0.0
 11
598.1527679623237
 21
160.1662932427549
 31
0.0
  0
LINE
  5
1E5D2
330
18
100
AcDbEntity
  8
1
  6
CONTINUOUS
 62
     7
100
AcDbLine
 10
597.7126525621993
 20
160.9329505355978
 30
0.0
 11
598.3593682549094
 21
160.665072360816
 31
0.0
  0
LWPOLYLINE
  5
1E5D3
330
18
100
AcDbEntity
  8
1
  6
CONTINUOUS
 62
     7
100
AcDbPolyline
 90
        3
 70
   128
 43
0.0
 10
598.1527679623237
 20
160.1662932427549
 10
598.2684640702923
 20
160.445608058753
 10
598.3593682549094
 20
160.665072360816
  0
LWPOLYLINE
  5
1E5D4
330
18
100
AcDbEntity
  8
1
  6
CONTINUOUS
 62
     7
100
AcDbPolyline
 90
        3
 70
   128
 43
0.0
 10
597.5060522696135
 20
160.4341714175367
 10
597.6217484357899
 20
160.7134862335348
 10
597.7126525621993
 20
160.9329505355978
  0
LINE
  5
1E5D5
330
18
100
AcDbEntity
  8
1
  6
CONTINUOUS
 62
     7
100
AcDbLine
 10
595.4243031819483
 20
155.4083860011721
 30
0.0
 11
596.0710188164508
 21
155.1405078263903
 31
0.0
  0
LINE
  5
1E5D6
330
18
100
AcDbEntity
  8
1
  6
CONTINUOUS
 62
     7
100
AcDbLine
 10
595.6309034745341
 20
155.9071613939428
 30
0.0
 11
596.2776191090366
 21
155.639283219161
 31
0.0
  0
LWPOLYLINE
  5
1E5D7
330
18
100
AcDbEntity
  8
1
  6
CONTINUOUS
 62
     7
100
AcDbPolyline
 90
        3
 70
   128
 43
0.0
 10
596.0710188164508
 20
155.1405078263903
 10
596.1867149826271
 20
155.4198226423883
 10
596.2776191090366
 20
155.639283219161
  0
LWPOLYLINE
  5
1E5D8
330
18
100
AcDbEntity
  8
1
  6
CONTINUOUS
 62
     7
100
AcDbPolyline
 90
        3
 70
   128
 43
0.0
 10
595.4243031819483
 20
155.4083860011721
 10
595.539999289917
 20
155.6877008171701
 10
595.6309034745341
 20
155.9071613939428
  0
LWPOLYLINE
  5
1E5D9
330
18
100
AcDbEntity
  8
1
  6
CONTINUOUS
 62
     7
100
AcDbPolyline
 90
        9
 70
   128
 43
0.0
 10
597.5883098808249
 20
158.8035708757067
 10
597.5884206500036
 20
158.8038390966082
 10
597.6043684431484
 20
158.8423399718428
 10
597.6466406509412
 20
158.9443942995691
 10
597.7133709029426
 20
159.1054944785261
 10
597.8016130183955
 20
159.3185326548243
 10
597.9074709257243
 20
159.5740950198793
 10
598.0262709572112
 20
159.8609051199579
 10
598.1527679623237
 20
160.1662932427549
  0
LWPOLYLINE
  5
1E5DA
330
18
100
AcDbEntity
  8
1
  6
CONTINUOUS
 62
     7
100
AcDbPolyline
 90
        9
 70
   128
 43
0.0
 10
596.9415941972097
 20
159.0714490504885
 10
596.9417049645695
 20
159.07171727139
 10
596.9576527795421
 20
159.1102181466246
 10
596.9999249946109
 20
159.2122724743509
 10
597.0666552393363
 20
159.3733726533079
 10
597.1548973256854
 20
159.5864108296061
 10
597.2607552330142
 20
159.8419731946611
 10
597.379555264501
 20
160.1287832947397
 10
597.5060522696135
 20
160.4341714175367
  0
LWPOLYLINE
  5
1E5DB
330
18
100
AcDbEntity
  8
1
  6
CONTINUOUS
 62
     7
100
AcDbPolyline
 90
        9
 70
   128
 43
0.0
 10
596.2776191090366
 20
155.639283219161
 10
596.4041160559414
 20
155.9446750672483
 10
596.5229160874283
 20
156.2314851673269
 10
596.628773994757
 20
156.487047532382
 10
596.7170160520022
 20
156.7000819833899
 10
596.7837462894518
 20
156.8611821623468
 10
596.8260185045206
 20
156.9632364900732
 10
596.8419663122172
 20
157.0017373653078
 10
596.8420771759834
 20
157.0020055862093
  0
LWPOLYLINE
  5
1E5DC
330
18
100
AcDbEntity
  8
1
  6
CONTINUOUS
 62
     7
100
AcDbPolyline
 90
        9
 70
   128
 43
0.0
 10
595.6309034745341
 20
155.9071613939428
 10
595.7574003632312
 20
156.2125532420301
 10
595.8762004529258
 20
156.4993633421087
 10
595.9820583020469
 20
156.7549257071638
 10
596.0703003592921
 20
156.9679601581716
 10
596.1370306112935
 20
157.1290603371286
 10
596.1793028190864
 20
157.231114664855
 10
596.1952506122311
 20
157.2696192653799
 10
596.1953614978252
 20
157.2698837609911
  0
LWPOLYLINE
  5
1E5DD
330
18
100
AcDbEntity
  8
1
  6
CONTINUOUS
 62
     7
100
AcDbPolyline
 90
        9
 70
   128
 43
0.0
 10
596.8420771759834
 20
157.0020055862093
 10
596.8643910536907
 20
157.0558770092154
 10
596.9735565640572
 20
157.3194263966703
 10
597.0920080371566
 20
157.6053945811415
 10
597.2151934774724
 20
157.902788230958
 10
597.3383789032364
 20
158.2001856060648
 10
597.4568304163536
 20
158.4861537905359
 10
597.5659959158061
 20
158.7496994527006
 10
597.5883098808249
 20
158.8035708757067
  0
LWPOLYLINE
  5
1E5DE
330
18
100
AcDbEntity
  8
1
  6
CONTINUOUS
 62
     7
100
AcDbPolyline
 90
        9
 70
   128
 43
0.0
 10
596.1953614978252
 20
157.2698837609911
 10
596.2176754046363
 20
157.3237551839972
 10
596.3268409040888
 20
157.5873045714521
 10
596.4452923589984
 20
157.8732727559233
 10
596.5684778138661
 20
158.1706664057398
 10
596.6916632396301
 20
158.4680637808466
 10
596.8101147236434
 20
158.7540319653177
 10
596.9192802394668
 20
159.0175813527727
 10
596.9415941972097
 20
159.0714490504885
  0
LINE
  5
1E5DF
330
18
100
AcDbEntity
  8
1
  6
CONTINUOUS
 62
     7
100
AcDbLine
 10
596.5012223250365
 20
158.1422200890207
 30
0.0
 11
596.5230116061998
 21
158.0609007270956
 31
0.0
  0
SPLINE
  5
1E5E0
330
18
100
AcDbEntity
  8
1
  6
CONTINUOUS
 62
     7
100
AcDbSpline
210
0.0
220
0.0
230
1.0
 70
     8
 71
     3
 72
     9
 73
     5
 74
     0
 42
0.000000001
 43
0.00000001
 40
0.0
 40
0.0
 40
0.0
 40
0.0
 40
0.4642270870319369
 40
1.0
 40
1.0
 40
1.0
 40
1.0
 10
597.0369701253499
 20
159.3025474341536
 30
0.0
 10
597.0309851179452
 20
159.3022153077209
 30
0.0
 10
597.0180927047884
 20
159.3014998681397
 30
0.0
 10
596.9950965656459
 20
159.3036446618368
 30
0.0
 10
596.9827758571905
 20
159.3047937842035
 30
0.0
  0
LINE
  5
1E5E1
330
18
100
AcDbEntity
  8
1
  6
CONTINUOUS
 62
     7
100
AcDbLine
 10
596.7594291514383
 20
156.668554851594
 30
0.0
 11
596.7195997736549
 21
156.7063218446398
 31
0.0
  0
SPLINE
  5
1E5E2
330
18
100
AcDbEntity
  8
1
  6
CONTINUOUS
 62
     7
100
AcDbSpline
210
0.0
220
0.0
230
1.0
 70
     8
 71
     3
 72
     9
 73
     5
 74
     0
 42
0.000000001
 43
0.00000001
 40
0.0
 40
0.0
 40
0.0
 40
0.0
 40
0.0318236633056825
 40
1.0
 40
1.0
 40
1.0
 40
1.0
 10
596.8011253216669
 20
156.7692159207487
 30
0.0
 10
596.8003595604259
 20
156.7692951420553
 30
0.0
 10
596.7762969239657
 20
156.7717845256894
 30
0.0
 10
596.7612598244752
 20
156.7713406641112
 30
0.0
 10
596.7467012605762
 20
156.7709109278345
 30
0.0
  0
LINE
  5
1E5E3
330
18
100
AcDbEntity
  8
1
  6
CONTINUOUS
 62
     7
100
AcDbLine
 10
597.063202186268
 20
159.3650391789103
 30
0.0
 11
597.0252177657808
 21
159.4072578938627
 31
0.0
  0
LINE
  5
1E5E4
330
18
100
AcDbEntity
  8
1
  6
CONTINUOUS
 62
     7
100
AcDbLine
 10
597.2606597433464
 20
158.0125539096022
 30
0.0
 11
597.2824490536136
 21
157.931234547677
 31
0.0
  0
LWPOLYLINE
  5
1E5E5
330
18
100
AcDbEntity
  8
1
  6
CONTINUOUS
 62
     7
100
AcDbPolyline
 90
        9
 70
   128
 43
0.0
 10
602.648493347237
 20
146.587207773509
 10
602.648760636816
 20
146.5870960148001
 10
602.6872624433731
 20
146.5711480470324
 10
602.7893163054382
 20
146.5288771780157
 10
602.9504174157178
 20
146.4621460528994
 10
603.1634527980482
 20
146.3739051015997
 10
603.4190165600871
 20
146.2680472524786
 10
603.7058247975206
 20
146.1492477448606
 10
604.0112157142853
 20
146.0227517874861
  0
LINE
  5
1E5E6
330
18
100
AcDbEntity
  8
1
  6
CONTINUOUS
 62
     7
100
AcDbLine
 10
604.0112157142853
 20
146.0227517874861
 30
0.0
 11
603.7433375395035
 21
145.3760339410925
 31
0.0
  0
LWPOLYLINE
  5
1E5E7
330
18
100
AcDbEntity
  8
1
  6
CONTINUOUS
 62
     7
100
AcDbPolyline
 90
        9
 70
   128
 43
0.0
 10
602.3806151724552
 20
145.9404936524057
 10
602.3808824620342
 20
145.9403818936968
 10
602.41938380293
 20
145.9244339259291
 10
602.5214381306564
 20
145.8821630569124
 10
602.682539240936
 20
145.8154319317961
 10
602.8955741576051
 20
145.7271909804964
 10
603.151137919644
 20
145.6213331313753
 10
603.4379466227388
 20
145.5025298984671
 10
603.7433375395035
 20
145.3760339410925
  0
LINE
  5
1E5E8
330
18
100
AcDbEntity
  8
1
  6
CONTINUOUS
 62
     7
100
AcDbLine
 10
598.9854286681061
 20
148.1044998856211
 30
0.0
 11
598.717550376909
 21
147.4577820392275
 31
0.0
  0
LWPOLYLINE
  5
1E5E9
330
18
100
AcDbEntity
  8
1
  6
CONTINUOUS
 62
     7
100
AcDbPolyline
 90
        3
 70
   128
 43
0.0
 10
598.9854286681061
 20
148.1044998856211
 10
599.2647439497655
 20
147.9888035448217
 10
599.484205923522
 20
147.8978990109587
  0
LINE
  5
1E5EA
330
18
100
AcDbEntity
  8
1
  6
CONTINUOUS
 62
     7
100
AcDbLine
 10
599.484205923522
 20
147.8978990109587
 30
0.0
 11
599.2163275159096
 21
147.2511848898554
 31
0.0
  0
LWPOLYLINE
  5
1E5EB
330
18
100
AcDbEntity
  8
1
  6
CONTINUOUS
 62
     7
100
AcDbPolyline
 90
        3
 70
   128
 43
0.0
 10
598.717550376909
 20
147.4577820392275
 10
598.996865542153
 20
147.3420856984281
 10
599.2163275159096
 20
147.2511848898554
  0
LWPOLYLINE
  5
1E5EC
330
18
100
AcDbEntity
  8
1
  6
CONTINUOUS
 62
     7
100
AcDbPolyline
 90
        3
 70
   128
 43
0.0
 10
604.0112157142853
 20
146.0227517874861
 10
604.2905309959447
 20
145.9070554466867
 10
604.5099929697012
 20
145.8161509128237
  0
LINE
  5
1E5ED
330
18
100
AcDbEntity
  8
1
  6
CONTINUOUS
 62
     7
100
AcDbLine
 10
604.5099929697012
 20
145.8161509128237
 30
0.0
 11
604.2421143292581
 21
145.1694330664301
 31
0.0
  0
LWPOLYLINE
  5
1E5EE
330
18
100
AcDbEntity
  8
1
  6
CONTINUOUS
 62
     7
100
AcDbPolyline
 90
        3
 70
   128
 43
0.0
 10
603.7433375395035
 20
145.3760339410925
 10
604.0226523555016
 20
145.2603376002932
 10
604.2421147949194
 20
145.1694330664301
  0
LWPOLYLINE
  5
1E5EF
330
18
100
AcDbEntity
  8
1
  6
CONTINUOUS
 62
     7
100
AcDbPolyline
 90
        9
 70
   128
 43
0.0
 10
599.484205923522
 20
147.8978990109587
 10
599.7895966074561
 20
147.7714030535841
 10
600.0764053105509
 20
147.6526035459661
 10
600.3319688397592
 20
147.5467456968451
 10
600.5450039892589
 20
147.4585010202551
 10
600.7061050995385
 20
147.3917698951387
 10
600.8081591944342
 20
147.3494990261221
 10
600.8466607681607
 20
147.3335510583544
 10
600.846928523401
 20
147.3334392996454
  0
LWPOLYLINE
  5
1E5F0
330
18
100
AcDbEntity
  8
1
  6
CONTINUOUS
 62
     7
100
AcDbPolyline
 90
        9
 70
   128
 43
0.0
 10
599.2163275159096
 20
147.2511848898554
 10
599.5217181998437
 20
147.1246852071905
 10
599.8085269029384
 20
147.0058856995726
 10
600.0640904321467
 20
146.9000278504515
 10
600.2771255816465
 20
146.8117868991518
 10
600.438226691926
 20
146.7450557740354
 10
600.5402807868218
 20
146.7027849050188
 10
600.5787823605483
 20
146.6868369372511
 10
600.5790498829579
 20
146.6867251785421
  0
LWPOLYLINE
  5
1E5F1
330
18
100
AcDbEntity
  8
1
  6
CONTINUOUS
 62
     7
100
AcDbPolyline
 90
        9
 70
   128
 43
0.0
 10
600.846928523401
 20
147.3334392996454
 10
600.9007990150844
 20
147.3111285360479
 10
601.1643474712168
 20
147.2019626291418
 10
601.4503147243654
 20
147.0835095735216
 10
601.7477107024883
 20
146.9603253992224
 10
602.0451066806113
 20
146.8371374996328
 10
602.3310739337599
 20
146.7186881693029
 10
602.5946228555536
 20
146.6095222623968
 10
602.648493347237
 20
146.587207773509
  0
LWPOLYLINE
  5
1E5F2
330
18
100
AcDbEntity
  8
1
  6
CONTINUOUS
 62
     7
100
AcDbPolyline
 90
        9
 70
   128
 43
0.0
 10
600.5790498829579
 20
146.6867251785421
 10
600.6329203746413
 20
146.6644106896543
 10
600.896469296435
 20
146.5552447827482
 10
601.1824365495836
 20
146.4367954524183
 10
601.4798325277065
 20
146.3136075528288
 10
601.7772285058295
 20
146.1904233785295
 10
602.0631952933168
 20
146.0719703229094
 10
602.3267442151105
 20
145.9628081412935
 10
602.3806151724552
 20
145.9404936524057
  0
LINE
  5
1E5F3
330
18
100
AcDbEntity
  8
1
  6
CONTINUOUS
 62
     7
100
AcDbLine
 10
601.7192643857693
 20
147.0275817902708
 30
0.0
 11
601.6379454895055
 21
147.0057925673151
 31
0.0
  0
SPLINE
  5
1E5F4
330
18
100
AcDbEntity
  8
1
  6
CONTINUOUS
 62
     7
100
AcDbSpline
210
0.0
220
0.0
230
1.0
 70
     8
 71
     3
 72
     9
 73
     5
 74
     0
 42
0.000000001
 43
0.00000001
 40
0.0
 40
0.0
 40
0.0
 40
0.0
 40
0.4642280347999509
 40
1.0
 40
1.0
 40
1.0
 40
1.0
 10
602.879589868257
 20
146.4918328912878
 30
0.0
 10
602.8792576470806
 20
146.4978175883193
 30
0.0
 10
602.8785420048715
 20
146.5107093065759
 30
0.0
 10
602.880687903152
 20
146.5337045060481
 30
0.0
 10
602.8818376152908
 20
146.5460246892595
 30
0.0
  0
LINE
  5
1E5F5
330
18
100
AcDbEntity
  8
1
  6
CONTINUOUS
 62
     7
100
AcDbLine
 10
600.2455972856974
 20
146.7693744691038
 30
0.0
 11
600.2833633474206
 21
146.8092015476847
 31
0.0
  0
SPLINE
  5
1E5F6
330
18
100
AcDbEntity
  8
1
  6
CONTINUOUS
 62
     7
100
AcDbSpline
210
0.0
220
0.0
230
1.0
 70
     8
 71
     3
 72
     9
 73
     5
 74
     0
 42
0.000000001
 43
0.00000001
 40
0.0
 40
0.0
 40
0.0
 40
0.0
 40
0.0318204260392851
 40
1.0
 40
1.0
 40
1.0
 40
1.0
 10
600.3462606831586
 20
146.7276772947931
 30
0.0
 10
600.3463392736717
 20
146.7284427808053
 30
0.0
 10
600.3488090870248
 20
146.7524992158494
 30
0.0
 10
600.3483744253367
 20
146.767538923255
 30
0.0
 10
600.3479535947686
 20
146.7821000607634
 30
0.0
  0
LINE
  5
1E5F7
330
18
100
AcDbEntity
  8
1
  6
CONTINUOUS
 62
     7
100
AcDbLine
 10
602.9420811473524
 20
146.465599397006
 30
0.0
 11
602.9843012592887
 21
146.5035861821794
 31
0.0
  0
LINE
  5
1E5F8
330
18
100
AcDbEntity
  8
1
  6
CONTINUOUS
 62
     7
100
AcDbLine
 10
601.5895977406894
 20
146.2681441100264
 30
0.0
 11
601.5082788444256
 21
146.2463548870707
 31
0.0
  0
LINE
  5
1E5F9
330
18
100
AcDbEntity
  8
1
  6
CONTINUOUS
 62
     7
100
AcDbLine
 10
598.1527679623237
 20
139.7854647131586
 30
0.0
 11
597.5060522696135
 21
139.5175865383768
 31
0.0
  0
LWPOLYLINE
  5
1E5FA
330
18
100
AcDbEntity
  8
1
  6
CONTINUOUS
 62
     7
100
AcDbPolyline
 90
        3
 70
   128
 43
0.0
 10
598.1527679623237
 20
139.7854647131586
 10
598.2684640702923
 20
139.5061498971605
 10
598.3593682549094
 20
139.2866874577427
  0
LINE
  5
1E5FB
330
18
100
AcDbEntity
  8
1
  6
CONTINUOUS
 62
     7
100
AcDbLine
 10
598.3593682549094
 20
139.2866874577427
 30
0.0
 11
597.7126525621993
 21
139.0188092829609
 31
0.0
  0
LWPOLYLINE
  5
1E5FC
330
18
100
AcDbEntity
  8
1
  6
CONTINUOUS
 62
     7
100
AcDbPolyline
 90
        3
 70
   128
 43
0.0
 10
597.5060522696135
 20
139.5175865383768
 10
597.6217484357899
 20
139.2382717223787
 10
597.7126525621993
 20
139.0188092829609
  0
LWPOLYLINE
  5
1E5FD
330
18
100
AcDbEntity
  8
1
  6
CONTINUOUS
 62
     7
100
AcDbPolyline
 90
        9
 70
   128
 43
0.0
 10
597.5883098808249
 20
141.1481870802069
 10
597.5884206500036
 20
141.1479207219505
 10
597.6043684431484
 20
141.1094179840708
 10
597.6466406509412
 20
141.0073636563444
 10
597.7133709029426
 20
140.8462634773874
 10
597.8016130183955
 20
140.6332271637344
 10
597.9074709257243
 20
140.3776647986793
 10
598.0262709572112
 20
140.0908565612459
 10
598.1527679623237
 20
139.7854647131586
  0
LWPOLYLINE
  5
1E5FE
330
18
100
AcDbEntity
  8
1
  6
CONTINUOUS
 62
     7
100
AcDbPolyline
 90
        9
 70
   128
 43
0.0
 10
596.9415941972097
 20
140.8803089054251
 10
596.9417049645695
 20
140.8800406845236
 10
596.9576527795421
 20
140.841539809289
 10
596.9999249946109
 20
140.7394854815626
 10
597.0666552393363
 20
140.5783853026056
 10
597.1548973256854
 20
140.3653489889526
 10
597.2607552330142
 20
140.1097866238975
 10
597.379555264501
 20
139.822976523819
 10
597.5060522696135
 20
139.5175865383768
  0
LINE
  5
1E5FF
330
18
100
AcDbEntity
  8
1
  6
CONTINUOUS
 62
     7
100
AcDbLine
 10
596.0710188164508
 20
144.8112538548136
 30
0.0
 11
595.4243031819483
 21
144.5433719547415
 31
0.0
  0
LWPOLYLINE
  5
1E600
330
18
100
AcDbEntity
  8
1
  6
CONTINUOUS
 62
     7
100
AcDbPolyline
 90
        3
 70
   128
 43
0.0
 10
596.0710188164508
 20
144.8112538548136
 10
596.1867149826271
 20
144.5319353135252
 10
596.2776191090366
 20
144.3124747367525
  0
LINE
  5
1E601
330
18
100
AcDbEntity
  8
1
  6
CONTINUOUS
 62
     7
100
AcDbLine
 10
596.2776191090366
 20
144.3124747367525
 30
0.0
 11
595.6309034745341
 21
144.0445965619707
 31
0.0
  0
LWPOLYLINE
  5
1E602
330
18
100
AcDbEntity
  8
1
  6
CONTINUOUS
 62
     7
100
AcDbPolyline
 90
        3
 70
   128
 43
0.0
 10
595.4243031819483
 20
144.5433719547415
 10
595.539999289917
 20
144.2640571387434
 10
595.6309034745341
 20
144.0445965619707
  0
LWPOLYLINE
  5
1E603
330
18
100
AcDbEntity
  8
1
  6
CONTINUOUS
 62
     7
100
AcDbPolyline
 90
        9
 70
   128
 43
0.0
 10
596.2776191090366
 20
144.3124747367525
 10
596.4041160559414
 20
144.0070828886652
 10
596.5229160874283
 20
143.7202765138769
 10
596.628773994757
 20
143.4647104235315
 10
596.7170160520022
 20
143.2516759725237
 10
596.7837462894518
 20
143.0905757935667
 10
596.8260185045206
 20
142.9885214658403
 10
596.8419663122172
 20
142.9500205906057
 10
596.8420771759834
 20
142.9497523697042
  0
LWPOLYLINE
  5
1E604
330
18
100
AcDbEntity
  8
1
  6
CONTINUOUS
 62
     7
100
AcDbPolyline
 90
        9
 70
   128
 43
0.0
 10
595.6309034745341
 20
144.0445965619707
 10
595.7574003632312
 20
143.7392047138834
 10
595.8762004529258
 20
143.4523983390951
 10
595.9820583020469
 20
143.1968322487497
 10
596.0703003592921
 20
142.9837977977419
 10
596.1370306112935
 20
142.8226976187849
 10
596.1793028190864
 20
142.7206432910585
 10
596.1952506122311
 20
142.6821424158239
 10
596.1953614978252
 20
142.6818741949224
  0
LWPOLYLINE
  5
1E605
330
18
100
AcDbEntity
  8
1
  6
CONTINUOUS
 62
     7
100
AcDbPolyline
 90
        9
 70
   128
 43
0.0
 10
596.8420771759834
 20
142.9497523697042
 10
596.8643910536907
 20
142.8958809466982
 10
596.9735565640572
 20
142.6323315592432
 10
597.0920080371566
 20
142.3463671000624
 10
597.2151934774724
 20
142.0489697249556
 10
597.3383789032364
 20
141.7515742124939
 10
597.4568304163536
 20
141.4656060280228
 10
597.5659959158061
 20
141.2020585032129
 10
597.5883098808249
 20
141.1481870802069
  0
LWPOLYLINE
  5
1E606
330
18
100
AcDbEntity
  8
1
  6
CONTINUOUS
 62
     7
100
AcDbPolyline
 90
        9
 70
   128
 43
0.0
 10
596.1953614978252
 20
142.6818741949224
 10
596.2176754046363
 20
142.6280027719164
 10
596.3268409040888
 20
142.3644533844614
 10
596.4452923589984
 20
142.0784889252806
 10
596.5684778138661
 20
141.7810915501738
 10
596.6916632396301
 20
141.4836960377121
 10
596.8101147236434
 20
141.197727853241
 10
596.9192802394668
 20
140.9341803284311
 10
596.9415941972097
 20
140.8803089054251
  0
LINE
  5
1E607
330
18
100
AcDbEntity
  8
1
  6
CONTINUOUS
 62
     7
100
AcDbLine
 10
597.2426356538331
 20
142.1166396232271
 30
0.0
 11
597.169727284358
 21
142.1587354035997
 31
0.0
  0
SPLINE
  5
1E608
330
18
100
AcDbEntity
  8
1
  6
CONTINUOUS
 62
     7
100
AcDbSpline
210
0.0
220
0.0
230
1.0
 70
     8
 71
     3
 72
     9
 73
     5
 74
     0
 42
0.000000001
 43
0.00000001
 40
0.0
 40
0.0
 40
0.0
 40
0.0
 40
0.464227360028582
 40
1.0
 40
1.0
 40
1.0
 40
1.0
 10
597.6842787140181
 20
140.9173364283466
 30
0.0
 10
597.6882758672864
 20
140.9218033793346
 30
0.0
 10
597.6968862026791
 20
140.9314257139333
 30
0.0
 10
597.7146642257975
 20
140.9461688316103
 30
0.0
 10
597.724189204177
 20
140.9540677906895
 30
0.0
  0
LINE
  5
1E609
330
18
100
AcDbEntity
  8
1
  6
CONTINUOUS
 62
     7
100
AcDbLine
 10
596.0180157935379
 20
142.9761013479853
 30
0.0
 11
596.0728840809447
 21
142.9775616617823
 31
0.0
  0
SPLINE
  5
1E60A
330
18
100
AcDbEntity
  8
1
  6
CONTINUOUS
 62
     7
100
AcDbSpline
210
0.0
220
0.0
230
1.0
 70
     8
 71
     3
 72
     9
 73
     5
 74
     0
 42
0.000000001
 43
0.00000001
 40
0.0
 40
0.0
 40
0.0
 40
0.0
 40
0.0318298733060528
 40
1.0
 40
1.0
 40
1.0
 40
1.0
 10
596.0597119783183
 20
142.8754365535402
 30
0.0
 10
596.0603090087732
 20
142.8759235611956
 30
0.0
 10
596.0790659308973
 20
142.8912238940205
 30
0.0
 10
596.0893936629662
 20
142.9021472841408
 30
0.0
 10
596.099392664632
 20
142.9127229841375
 30
0.0
  0
LINE
  5
1E60B
330
18
100
AcDbEntity
  8
1
  6
CONTINUOUS
 62
     7
100
AcDbLine
 10
597.7099178498743
 20
140.8545988144302
 30
0.0
 11
597.7666310873014
 21
140.8516036810303
 31
0.0
  0
LINE
  5
1E60C
330
18
100
AcDbEntity
  8
1
  6
CONTINUOUS
 62
     7
100
AcDbLine
 10
596.6139440797401
 20
141.6713258715296
 30
0.0
 11
596.541035724817
 21
141.713419789257
 31
0.0
  0
LINE
  5
1E60D
330
18
100
AcDbEntity
  8
1
  6
CONTINUOUS
 62
     7
100
AcDbLine
 10
591.6815423197245
 20
144.5433719547415
 30
0.0
 11
591.0348268016373
 21
144.8112538548136
 31
0.0
  0
LINE
  5
1E60E
330
18
100
AcDbEntity
  8
1
  6
CONTINUOUS
 62
     7
100
AcDbLine
 10
591.4749419107234
 20
144.0445965619707
 30
0.0
 11
590.8282263926362
 21
144.3124747367525
 31
0.0
  0
LWPOLYLINE
  5
1E60F
330
18
100
AcDbEntity
  8
1
  6
CONTINUOUS
 62
     7
100
AcDbPolyline
 90
        3
 70
   128
 43
0.0
 10
591.0348268016373
 20
144.8112538548136
 10
590.919130460838
 20
144.5319353135252
 10
590.8282263926362
 20
144.3124747367525
  0
LWPOLYLINE
  5
1E610
330
18
100
AcDbEntity
  8
1
  6
CONTINUOUS
 62
     7
100
AcDbPolyline
 90
        3
 70
   128
 43
0.0
 10
591.6815423197245
 20
144.5433719547415
 10
591.5658459789252
 20
144.2640571387434
 10
591.4749419107234
 20
144.0445965619707
  0
LINE
  5
1E611
330
18
100
AcDbEntity
  8
1
  6
CONTINUOUS
 62
     7
100
AcDbLine
 10
589.5997932902669
 20
139.5175865383768
 30
0.0
 11
588.9530773065185
 21
139.7854647131586
 31
0.0
  0
LINE
  5
1E612
330
18
100
AcDbEntity
  8
1
  6
CONTINUOUS
 62
     7
100
AcDbLine
 10
589.3931928812658
 20
139.0188092829609
 30
0.0
 11
588.7464773631787
 21
139.2866874577427
 31
0.0
  0
LWPOLYLINE
  5
1E613
330
18
100
AcDbEntity
  8
1
  6
CONTINUOUS
 62
     7
100
AcDbPolyline
 90
        3
 70
   128
 43
0.0
 10
588.9530773065185
 20
139.7854647131586
 10
588.8373809657191
 20
139.5061498971605
 10
588.7464773631787
 20
139.2866874577427
  0
LWPOLYLINE
  5
1E614
330
18
100
AcDbEntity
  8
1
  6
CONTINUOUS
 62
     7
100
AcDbPolyline
 90
        3
 70
   128
 43
0.0
 10
589.5997932902669
 20
139.5175865383768
 10
589.4840969494676
 20
139.2382717223787
 10
589.3931928812658
 20
139.0188092829609
  0
LWPOLYLINE
  5
1E615
330
18
100
AcDbEntity
  8
1
  6
CONTINUOUS
 62
     7
100
AcDbPolyline
 90
        9
 70
   128
 43
0.0
 10
589.5175356208479
 20
141.1481870802069
 10
589.5174247934615
 20
141.1479207219505
 10
589.5014768256938
 20
141.1094179840708
 10
589.4592050253545
 20
141.0073636563444
 10
589.3924743658995
 20
140.8462634773874
 10
589.3042324832772
 20
140.6332271637344
 10
589.1983746341562
 20
140.3776647986793
 10
589.0795741952156
 20
140.0908565612459
 10
588.9530773065185
 20
139.7854647131586
  0
LWPOLYLINE
  5
1E616
330
18
100
AcDbEntity
  8
1
  6
CONTINUOUS
 62
     7
100
AcDbPolyline
 90
        9
 70
   128
 43
0.0
 10
590.164251138935
 20
140.8803089054251
 10
590.1641403115486
 20
140.8800406845236
 10
590.1481928094422
 20
140.841539809289
 10
590.1059205434417
 20
140.7394854815626
 10
590.0391903496479
 20
140.5783853026056
 10
589.9509480013644
 20
140.3653489889526
 10
589.8450901522433
 20
140.1097866238975
 10
589.7262901789641
 20
139.822976523819
 10
589.5997932902669
 20
139.5175865383768
  0
LWPOLYLINE
  5
1E617
330
18
100
AcDbEntity
  8
1
  6
CONTINUOUS
 62
     7
100
AcDbPolyline
 90
        9
 70
   128
 43
0.0
 10
590.8282263926362
 20
144.3124747367525
 10
590.7017295039391
 20
144.0070828886652
 10
590.5829295306598
 20
143.7202765138769
 10
590.4770716815387
 20
143.4647104235315
 10
590.3888293332552
 20
143.2516759725237
 10
590.3220991394614
 20
143.0905757935667
 10
590.2798268734609
 20
142.9885214658403
 10
590.2638793713545
 20
142.9500205906057
 10
590.2637680783068
 20
142.9497523697042
  0
LWPOLYLINE
  5
1E618
330
18
100
AcDbEntity
  8
1
  6
CONTINUOUS
 62
     7
100
AcDbPolyline
 90
        9
 70
   128
 43
0.0
 10
591.4749419107234
 20
144.0445965619707
 10
591.3484450220262
 20
143.7392047138834
 10
591.229645048747
 20
143.4523983390951
 10
591.1237871996259
 20
143.1968322487497
 10
591.0355453170037
 20
142.9837977977419
 10
590.9688146575486
 20
142.8226976187849
 10
590.9265428572094
 20
142.7206432910585
 10
590.9105948894417
 20
142.6821424158239
 10
590.9104840620553
 20
142.6818741949224
  0
LWPOLYLINE
  5
1E619
330
18
100
AcDbEntity
  8
1
  6
CONTINUOUS
 62
     7
100
AcDbPolyline
 90
        9
 70
   128
 43
0.0
 10
590.2637680783068
 20
142.9497523697042
 10
590.2414545207416
 20
142.8958809466982
 10
590.1322890794968
 20
142.6323315592432
 10
590.0138374208605
 20
142.3463671000624
 10
589.8906518495774
 20
142.0489697249556
 10
589.7674667439555
 20
141.7515742124939
 10
589.6490150853192
 20
141.4656060280228
 10
589.5398496440744
 20
141.2020585032129
 10
589.5175356208479
 20
141.1481870802069
  0
LWPOLYLINE
  5
1E61A
330
18
100
AcDbEntity
  8
1
  6
CONTINUOUS
 62
     7
100
AcDbPolyline
 90
        9
 70
   128
 43
0.0
 10
590.9104840620553
 20
142.6818741949224
 10
590.8881700388288
 20
142.6280027719164
 10
590.7790045975839
 20
142.3644533844614
 10
590.6605529389476
 20
142.0784889252806
 10
590.5373678333258
 20
141.7810915501738
 10
590.4141822620427
 20
141.4836960377121
 10
590.2957306034064
 20
141.197727853241
 10
590.1865651621615
 20
140.9341803284311
 10
590.164251138935
 20
140.8803089054251
  0
LINE
  5
1E61B
330
18
100
AcDbEntity
  8
1
  6
CONTINUOUS
 62
     7
100
AcDbLine
 10
590.6046232930516
 20
141.8095378668928
 30
0.0
 11
590.5828340700959
 21
141.8908572288179
 31
0.0
  0
SPLINE
  5
1E61C
330
18
100
AcDbEntity
  8
1
  6
CONTINUOUS
 62
     7
100
AcDbSpline
210
0.0
220
0.0
230
1.0
 70
     8
 71
     3
 72
     9
 73
     5
 74
     0
 42
0.000000001
 43
0.00000001
 40
0.0
 40
0.0
 40
0.0
 40
0.0
 40
0.4642269650003509
 40
1.0
 40
1.0
 40
1.0
 40
1.0
 10
590.0688753253912
 20
140.6492123844051
 30
0.0
 10
590.0748603227623
 20
140.6495446355676
 30
0.0
 10
590.0877527176949
 20
140.6502603440196
 30
0.0
 10
590.1107487810257
 20
140.6481140813659
 30
0.0
 10
590.1230694516694
 20
140.64696417171
 30
0.0
  0
LINE
  5
1E61D
330
18
100
AcDbEntity
  8
1
  6
CONTINUOUS
 62
     7
100
AcDbLine
 10
590.3464164375459
 20
143.2832068296099
 30
0.0
 11
590.3862458444332
 21
143.2454398365641
 31
0.0
  0
SPLINE
  5
1E61E
330
18
100
AcDbEntity
  8
1
  6
CONTINUOUS
 62
     7
100
AcDbSpline
210
0.0
220
0.0
230
1.0
 70
     8
 71
     3
 72
     9
 73
     5
 74
     0
 42
0.000000001
 43
0.00000001
 40
0.0
 40
0.0
 40
0.0
 40
0.0
 40
0.0318240439549399
 40
1.0
 40
1.0
 40
1.0
 40
1.0
 10
590.3047201945578
 20
143.1825420351648
 30
0.0
 10
590.305485995148
 20
143.1824628138495
 30
0.0
 10
590.329549580257
 20
143.1799734597178
 30
0.0
 10
590.3445862324243
 20
143.1804173063965
 30
0.0
 10
590.3591443575119
 20
143.180847028079
 30
0.0
  0
LINE
  5
1E61F
330
18
100
AcDbEntity
  8
1
  6
CONTINUOUS
 62
     7
100
AcDbLine
 10
590.0426432280933
 20
140.5867206396484
 30
0.0
 11
590.0806276849603
 21
140.544501924696
 31
0.0
  0
LINE
  5
1E620
330
18
100
AcDbEntity
  8
1
  6
CONTINUOUS
 62
     7
100
AcDbLine
 10
589.8451856128072
 20
141.9392040463114
 30
0.0
 11
589.8233963898515
 21
142.0205234082365
 31
0.0
  0
LINE
  5
1E621
330
18
100
AcDbEntity
  8
1
  6
CONTINUOUS
 62
     7
100
AcDbLine
 10
598.717550376909
 20
152.4939759166861
 30
0.0
 11
598.9854286681061
 21
151.8472617955828
 31
0.0
  0
LINE
  5
1E622
330
18
100
AcDbEntity
  8
1
  6
CONTINUOUS
 62
     7
100
AcDbLine
 10
599.2163275159096
 20
152.7005767913485
 30
0.0
 11
599.484205923522
 21
152.0538589449549
 31
0.0
  0
LWPOLYLINE
  5
1E623
330
18
100
AcDbEntity
  8
1
  6
CONTINUOUS
 62
     7
100
AcDbPolyline
 90
        3
 70
   128
 43
0.0
 10
598.9854286681061
 20
151.8472617955828
 10
599.2647439497655
 20
151.9629544110918
 10
599.484205923522
 20
152.0538589449549
  0
LWPOLYLINE
  5
1E624
330
18
100
AcDbEntity
  8
1
  6
CONTINUOUS
 62
     7
100
AcDbPolyline
 90
        3
 70
   128
 43
0.0
 10
598.717550376909
 20
152.4939759166861
 10
598.996865542153
 20
152.6096722574854
 10
599.2163275159096
 20
152.7005767913485
  0
LINE
  5
1E625
330
18
100
AcDbEntity
  8
1
  6
CONTINUOUS
 62
     7
100
AcDbLine
 10
603.7433375395035
 20
154.575724014821
 30
0.0
 11
604.0112157142853
 21
153.9290098937178
 31
0.0
  0
LWPOLYLINE
  5
1E626
330
18
100
AcDbEntity
  8
1
  6
CONTINUOUS
 62
     7
100
AcDbPolyline
 90
        9
 70
   128
 43
0.0
 10
602.648493347237
 20
153.3645501824045
 10
602.648760636816
 20
153.3646619411135
 10
602.6872624433731
 20
153.3806099088812
 10
602.7893163054382
 20
153.4228807778978
 10
602.9504174157178
 20
153.4896119030142
 10
603.1634527980482
 20
153.5778528543138
 10
603.4190165600871
 20
153.6837107034349
 10
603.7058247975206
 20
153.8025139363432
 10
604.0112157142853
 20
153.9290098937178
  0
LWPOLYLINE
  5
1E627
330
18
100
AcDbEntity
  8
1
  6
CONTINUOUS
 62
     7
100
AcDbPolyline
 90
        9
 70
   128
 43
0.0
 10
602.3806151724552
 20
154.0112680287981
 10
602.3808824620342
 20
154.0113760622168
 10
602.41938380293
 20
154.0273240299845
 10
602.5214381306564
 20
154.0695986242914
 10
602.682539240936
 20
154.1363260241175
 10
602.8955741576051
 20
154.2245707007074
 10
603.151137919644
 20
154.3304285498285
 10
603.4379466227388
 20
154.4492280574465
 10
603.7433375395035
 20
154.575724014821
  0
LINE
  5
1E628
330
18
100
AcDbEntity
  8
1
  6
CONTINUOUS
 62
     7
100
AcDbLine
 10
604.2421147949194
 20
154.7823248894834
 30
0.0
 11
604.5099929697012
 21
154.1356107683802
 31
0.0
  0
LWPOLYLINE
  5
1E629
330
18
100
AcDbEntity
  8
1
  6
CONTINUOUS
 62
     7
100
AcDbPolyline
 90
        3
 70
   128
 43
0.0
 10
604.0112157142853
 20
153.9290098937178
 10
604.2905309959447
 20
154.0447062345171
 10
604.5099929697012
 20
154.1356107683802
  0
LWPOLYLINE
  5
1E62A
330
18
100
AcDbEntity
  8
1
  6
CONTINUOUS
 62
     7
100
AcDbPolyline
 90
        3
 70
   128
 43
0.0
 10
603.7433375395035
 20
154.575724014821
 10
604.0226523555016
 20
154.6914203556204
 10
604.2421147949194
 20
154.7823248894834
  0
LWPOLYLINE
  5
1E62B
330
18
100
AcDbEntity
  8
1
  6
CONTINUOUS
 62
     7
100
AcDbPolyline
 90
        9
 70
   128
 43
0.0
 10
599.484205923522
 20
152.0538589449549
 10
599.7895966074561
 20
152.1803586276197
 10
600.0764053105509
 20
152.2991581352377
 10
600.3319688397592
 20
152.4050159843588
 10
600.5450039892589
 20
152.4932569356585
 10
600.7061050995385
 20
152.5599880607748
 10
600.8081591944342
 20
152.6022589297914
 10
600.8466607681607
 20
152.6182068975592
 10
600.846928523401
 20
152.6183186562681
  0
LWPOLYLINE
  5
1E62C
330
18
100
AcDbEntity
  8
1
  6
CONTINUOUS
 62
     7
100
AcDbPolyline
 90
        9
 70
   128
 43
0.0
 10
599.2163275159096
 20
152.7005767913485
 10
599.5217181998437
 20
152.827072748723
 10
599.8085269029384
 20
152.945872256341
 10
600.0640904321467
 20
153.0517301054621
 10
600.2771255816465
 20
153.1399710567617
 10
600.438226691926
 20
153.2067021818781
 10
600.5402807868218
 20
153.248976776185
 10
600.5787823605483
 20
153.2649247439527
 10
600.5790498829579
 20
153.2650327773714
  0
LWPOLYLINE
  5
1E62D
330
18
100
AcDbEntity
  8
1
  6
CONTINUOUS
 62
     7
100
AcDbPolyline
 90
        9
 70
   128
 43
0.0
 10
600.846928523401
 20
152.6183186562681
 10
600.9007990150844
 20
152.6406331451559
 10
601.1643474712168
 20
152.749799052062
 10
601.4503147243654
 20
152.8682483823919
 10
601.7477107024883
 20
152.9914362819815
 10
602.0451066806113
 20
153.1146204562807
 10
602.3310739337599
 20
153.2330697866106
 10
602.5946228555536
 20
153.3422356935167
 10
602.648493347237
 20
153.3645501824045
  0
LWPOLYLINE
  5
1E62E
330
18
100
AcDbEntity
  8
1
  6
CONTINUOUS
 62
     7
100
AcDbPolyline
 90
        9
 70
   128
 43
0.0
 10
600.5790498829579
 20
153.2650327773714
 10
600.6329203746413
 20
153.2873472662592
 10
600.896469296435
 20
153.3965131731653
 10
601.1824365495836
 20
153.5149662287855
 10
601.4798325277065
 20
153.6381504030848
 10
601.7772285058295
 20
153.761334577384
 10
602.0631952933168
 20
153.8797876330042
 10
602.3267442151105
 20
153.9889535399103
 10
602.3806151724552
 20
154.0112680287981
  0
LINE
  5
1E62F
330
18
100
AcDbEntity
  8
1
  6
CONTINUOUS
 62
     7
100
AcDbLine
 10
601.4121607667898
 20
153.6655908914232
 30
0.0
 11
601.3700673147237
 21
153.592683234992
 31
0.0
  0
SPLINE
  5
1E630
330
18
100
AcDbEntity
  8
1
  6
CONTINUOUS
 62
     7
100
AcDbSpline
210
0.0
220
0.0
230
1.0
 70
     8
 71
     3
 72
     9
 73
     5
 74
     0
 42
0.000000001
 43
0.00000001
 40
0.0
 40
0.0
 40
0.0
 40
0.0
 40
0.4642264949867975
 40
1.0
 40
1.0
 40
1.0
 40
1.0
 10
602.6114658243155
 20
154.1072352321768
 30
0.0
 10
602.606998898677
 20
154.1112319897259
 30
0.0
 10
602.597376600754
 20
154.1198414887361
 30
0.0
 10
602.5826331477847
 20
154.1376193565786
 30
0.0
 10
602.5747339963114
 20
154.1471442671442
 30
0.0
  0
LINE
  5
1E631
330
18
100
AcDbEntity
  8
1
  6
CONTINUOUS
 62
     7
100
AcDbLine
 10
600.5527006718462
 20
152.4409724863195
 30
0.0
 11
600.5512417550331
 21
152.4958422871256
 31
0.0
  0
SPLINE
  5
1E632
330
18
100
AcDbEntity
  8
1
  6
CONTINUOUS
 62
     7
100
AcDbSpline
210
0.0
220
0.0
230
1.0
 70
     8
 71
     3
 72
     9
 73
     5
 74
     0
 42
0.000000001
 43
0.00000001
 40
0.0
 40
0.0
 40
0.0
 40
0.0
 40
0.0318182539298741
 40
1.0
 40
1.0
 40
1.0
 40
1.0
 10
600.6533640693074
 20
152.4826696606302
 30
0.0
 10
600.6528781642334
 20
152.4832660619096
 30
0.0
 10
600.6376068965174
 20
152.502010059638
 30
0.0
 10
600.6266682431891
 20
152.5123432862324
 30
0.0
 10
600.6160776387101
 20
152.5223477275991
 30
0.0
  0
LINE
  5
1E633
330
18
100
AcDbEntity
  8
1
  6
CONTINUOUS
 62
     7
100
AcDbLine
 10
602.6742025069093
 20
154.1328764053011
 30
0.0
 11
602.6771976403093
 21
154.1895864995146
 31
0.0
  0
LINE
  5
1E634
330
18
100
AcDbEntity
  8
1
  6
CONTINUOUS
 62
     7
100
AcDbLine
 10
601.8574759154712
 20
153.0368997247839
 30
0.0
 11
601.8153824634051
 21
152.9639920683527
 31
0.0
  0
LINE
  5
1E635
330
18
100
AcDbEntity
  8
1
  6
CONTINUOUS
 62
     7
100
AcDbLine
 10
591.0348268016373
 20
155.1405078263903
 30
0.0
 11
591.6815423197245
 21
155.4083860011721
 31
0.0
  0
LWPOLYLINE
  5
1E636
330
18
100
AcDbEntity
  8
1
  6
CONTINUOUS
 62
     7
100
AcDbPolyline
 90
        3
 70
   128
 43
0.0
 10
591.0348268016373
 20
155.1405078263903
 10
590.919130460838
 20
155.4198226423883
 10
590.8282263926362
 20
155.639283219161
  0
LINE
  5
1E637
330
18
100
AcDbEntity
  8
1
  6
CONTINUOUS
 62
     7
100
AcDbLine
 10
590.8282263926362
 20
155.639283219161
 30
0.0
 11
591.4749419107234
 21
155.9071613939428
 31
0.0
  0
LWPOLYLINE
  5
1E638
330
18
100
AcDbEntity
  8
1
  6
CONTINUOUS
 62
     7
100
AcDbPolyline
 90
        3
 70
   128
 43
0.0
 10
591.6815423197245
 20
155.4083860011721
 10
591.5658459789252
 20
155.6877008171701
 10
591.4749419107234
 20
155.9071613939428
  0
LINE
  5
1E639
330
18
100
AcDbEntity
  8
1
  6
CONTINUOUS
 62
     7
100
AcDbLine
 10
588.9530773065185
 20
160.1662932427549
 30
0.0
 11
589.5997932902669
 21
160.4341714175367
 31
0.0
  0
LWPOLYLINE
  5
1E63A
330
18
100
AcDbEntity
  8
1
  6
CONTINUOUS
 62
     7
100
AcDbPolyline
 90
        9
 70
   128
 43
0.0
 10
590.164251138935
 20
159.0714490504885
 10
590.1641403115486
 20
159.07171727139
 10
590.1481928094422
 20
159.1102181466246
 10
590.1059205434417
 20
159.2122724743509
 10
590.0391903496479
 20
159.3733726533079
 10
589.9509480013644
 20
159.5864108296061
 10
589.8450901522433
 20
159.8419731946611
 10
589.7262901789641
 20
160.1287832947397
 10
589.5997932902669
 20
160.4341714175367
  0
LWPOLYLINE
  5
1E63B
330
18
100
AcDbEntity
  8
1
  6
CONTINUOUS
 62
     7
100
AcDbPolyline
 90
        9
 70
   128
 43
0.0
 10
589.5175356208479
 20
158.8035708757067
 10
589.5174247934615
 20
158.8038390966082
 10
589.5014768256938
 20
158.8423399718428
 10
589.4592050253545
 20
158.9443942995691
 10
589.3924743658995
 20
159.1054944785261
 10
589.3042324832772
 20
159.3185326548243
 10
589.1983746341562
 20
159.5740950198793
 10
589.0795741952156
 20
159.8609051199579
 10
588.9530773065185
 20
160.1662932427549
  0
LINE
  5
1E63C
330
18
100
AcDbEntity
  8
1
  6
CONTINUOUS
 62
     7
100
AcDbLine
 10
588.7464773631787
 20
160.665072360816
 30
0.0
 11
589.3931928812658
 21
160.9329505355978
 31
0.0
  0
LWPOLYLINE
  5
1E63D
330
18
100
AcDbEntity
  8
1
  6
CONTINUOUS
 62
     7
100
AcDbPolyline
 90
        3
 70
   128
 43
0.0
 10
589.5997932902669
 20
160.4341714175367
 10
589.4840969494676
 20
160.7134862335348
 10
589.3931928812658
 20
160.9329505355978
  0
LWPOLYLINE
  5
1E63E
330
18
100
AcDbEntity
  8
1
  6
CONTINUOUS
 62
     7
100
AcDbPolyline
 90
        3
 70
   128
 43
0.0
 10
588.9530773065185
 20
160.1662932427549
 10
588.8373809657191
 20
160.445608058753
 10
588.7464773631787
 20
160.665072360816
  0
LWPOLYLINE
  5
1E63F
330
18
100
AcDbEntity
  8
1
  6
CONTINUOUS
 62
     7
100
AcDbPolyline
 90
        9
 70
   128
 43
0.0
 10
591.4749419107234
 20
155.9071613939428
 10
591.3484450220262
 20
156.2125532420301
 10
591.229645048747
 20
156.4993633421087
 10
591.1237871996259
 20
156.7549257071638
 10
591.0355453170037
 20
156.9679601581716
 10
590.9688146575486
 20
157.1290603371286
 10
590.9265428572094
 20
157.231114664855
 10
590.9105948894417
 20
157.2696192653799
 10
590.9104840620553
 20
157.2698837609911
  0
LWPOLYLINE
  5
1E640
330
18
100
AcDbEntity
  8
1
  6
CONTINUOUS
 62
     7
100
AcDbPolyline
 90
        9
 70
   128
 43
0.0
 10
590.8282263926362
 20
155.639283219161
 10
590.7017295039391
 20
155.9446750672483
 10
590.5829295306598
 20
156.2314851673269
 10
590.4770716815387
 20
156.487047532382
 10
590.3888293332552
 20
156.7000819833899
 10
590.3220991394614
 20
156.8611821623468
 10
590.2798268734609
 20
156.9632364900732
 10
590.2638793713545
 20
157.0017373653078
 10
590.2637680783068
 20
157.0020055862093
  0
LWPOLYLINE
  5
1E641
330
18
100
AcDbEntity
  8
1
  6
CONTINUOUS
 62
     7
100
AcDbPolyline
 90
        9
 70
   128
 43
0.0
 10
590.9104840620553
 20
157.2698837609911
 10
590.8881700388288
 20
157.3237551839972
 10
590.7790045975839
 20
157.5873045714521
 10
590.6605529389476
 20
157.8732727559233
 10
590.5373678333258
 20
158.1706664057398
 10
590.4141822620427
 20
158.4680637808466
 10
590.2957306034064
 20
158.7540319653177
 10
590.1865651621615
 20
159.0175813527727
 10
590.164251138935
 20
159.0714490504885
  0
LWPOLYLINE
  5
1E642
330
18
100
AcDbEntity
  8
1
  6
CONTINUOUS
 62
     7
100
AcDbPolyline
 90
        9
 70
   128
 43
0.0
 10
590.2637680783068
 20
157.0020055862093
 10
590.2414545207416
 20
157.0558770092154
 10
590.1322890794968
 20
157.3194263966703
 10
590.0138374208605
 20
157.6053945811415
 10
589.8906518495774
 20
157.902788230958
 10
589.7674667439555
 20
158.2001856060648
 10
589.6490150853192
 20
158.4861537905359
 10
589.5398496440744
 20
158.7496994527006
 10
589.5175356208479
 20
158.8035708757067
  0
LINE
  5
1E643
330
18
100
AcDbEntity
  8
1
  6
CONTINUOUS
 62
     7
100
AcDbLine
 10
589.863209964255
 20
157.8351183326864
 30
0.0
 11
589.9361180863475
 21
157.7930225523138
 31
0.0
  0
SPLINE
  5
1E644
330
18
100
AcDbEntity
  8
1
  6
CONTINUOUS
 62
     7
100
AcDbSpline
210
0.0
220
0.0
230
1.0
 70
     8
 71
     3
 72
     9
 73
     5
 74
     0
 42
0.000000001
 43
0.00000001
 40
0.0
 40
0.0
 40
0.0
 40
0.0
 40
0.4642306687668883
 40
1.0
 40
1.0
 40
1.0
 40
1.0
 10
589.421566554824
 20
159.0344233902121
 30
0.0
 10
589.4175694811015
 20
159.0299555717978
 30
0.0
 10
589.4089593784275
 20
159.0203314372568
 30
0.0
 10
589.3911811515809
 20
159.0055900246455
 30
0.0
 10
589.3816561228728
 20
158.9976920278692
 30
0.0
  0
LINE
  5
1E645
330
18
100
AcDbEntity
  8
1
  6
CONTINUOUS
 62
     7
100
AcDbLine
 10
591.0878297663426
 20
156.9756566079283
 30
0.0
 11
591.0329613625204
 21
156.9742000194216
 31
0.0
  0
SPLINE
  5
1E646
330
18
100
AcDbEntity
  8
1
  6
CONTINUOUS
 62
     7
100
AcDbSpline
210
0.0
220
0.0
230
1.0
 70
     8
 71
     3
 72
     9
 73
     5
 74
     0
 42
0.000000001
 43
0.00000001
 40
0.0
 40
0.0
 40
0.0
 40
0.0
 40
0.0318219379798217
 40
1.0
 40
1.0
 40
1.0
 40
1.0
 10
591.0461335233545
 20
157.0763214023733
 30
0.0
 10
591.0455364919383
 20
157.0758356556482
 30
0.0
 10
591.0267748622521
 20
157.0605711319919
 30
0.0
 10
591.0164494754254
 20
157.0496289511844
 30
0.0
 10
591.0064526624178
 20
157.039034971776
 30
0.0
  0
LINE
  5
1E647
330
18
100
AcDbEntity
  8
1
  6
CONTINUOUS
 62
     7
100
AcDbLine
 10
589.3959277100062
 20
159.0971610041285
 30
0.0
 11
589.3392143561637
 21
159.1001561375284
 31
0.0
  0
LINE
  5
1E648
330
18
100
AcDbEntity
  8
1
  6
CONTINUOUS
 62
     7
100
AcDbLine
 10
590.4919015965556
 20
158.280432084384
 30
0.0
 11
590.5648097186481
 21
158.2383400293016
 31
0.0
  0
LINE
  5
1E649
330
18
100
AcDbEntity
  8
1
  6
CONTINUOUS
 62
     7
100
AcDbLine
 10
588.1204171828126
 20
151.8472617955828
 30
0.0
 11
588.3882953575944
 21
152.4939759166861
 31
0.0
  0
LWPOLYLINE
  5
1E64A
330
18
100
AcDbEntity
  8
1
  6
CONTINUOUS
 62
     7
100
AcDbPolyline
 90
        3
 70
   128
 43
0.0
 10
588.1204171828126
 20
151.8472617955828
 10
587.841101435492
 20
151.9629544110918
 10
587.6216399273967
 20
152.0538589449549
  0
LINE
  5
1E64B
330
18
100
AcDbEntity
  8
1
  6
CONTINUOUS
 62
     7
100
AcDbLine
 10
587.6216399273967
 20
152.0538589449549
 30
0.0
 11
587.8895181021785
 21
152.7005767913485
 31
0.0
  0
LWPOLYLINE
  5
1E64C
330
18
100
AcDbEntity
  8
1
  6
CONTINUOUS
 62
     7
100
AcDbPolyline
 90
        3
 70
   128
 43
0.0
 10
588.3882953575944
 20
152.4939759166861
 10
588.1089796102738
 20
152.6096722574854
 10
587.8895181021785
 20
152.7005767913485
  0
LWPOLYLINE
  5
1E64D
330
18
100
AcDbEntity
  8
1
  6
CONTINUOUS
 62
     7
100
AcDbPolyline
 90
        9
 70
   128
 43
0.0
 10
584.4573522708511
 20
153.3645501824045
 10
584.4570849812721
 20
153.3646619411135
 10
584.418583174715
 20
153.3806099088812
 10
584.3165288469886
 20
153.4228807778978
 10
584.155427736709
 20
153.4896119030142
 10
583.9423923543786
 20
153.5778528543138
 10
583.686829058001
 20
153.6837107034349
 10
583.4000208205675
 20
153.8025139363432
 10
583.0946299038028
 20
153.9290098937178
  0
LINE
  5
1E64E
330
18
100
AcDbEntity
  8
1
  6
CONTINUOUS
 62
     7
100
AcDbLine
 10
583.0946299038028
 20
153.9290098937178
 30
0.0
 11
583.3625080785846
 21
154.575724014821
 31
0.0
  0
LWPOLYLINE
  5
1E64F
330
18
100
AcDbEntity
  8
1
  6
CONTINUOUS
 62
     7
100
AcDbPolyline
 90
        9
 70
   128
 43
0.0
 10
584.7252304456329
 20
154.0112680287981
 10
584.724963156054
 20
154.0113760622168
 10
584.6864613494968
 20
154.0273240299845
 10
584.5844070217704
 20
154.0695986242914
 10
584.4233068428134
 20
154.1363260241175
 10
584.210271460483
 20
154.2245707007074
 10
583.9547072327828
 20
154.3304285498285
 10
583.6678989953493
 20
154.4492280574465
 10
583.3625080785846
 20
154.575724014821
  0
LINE
  5
1E650
330
18
100
AcDbEntity
  8
1
  6
CONTINUOUS
 62
     7
100
AcDbLine
 10
582.5958526483869
 20
154.1356107683802
 30
0.0
 11
582.8637308231687
 21
154.7823248894834
 31
0.0
  0
LWPOLYLINE
  5
1E651
330
18
100
AcDbEntity
  8
1
  6
CONTINUOUS
 62
     7
100
AcDbPolyline
 90
        3
 70
   128
 43
0.0
 10
583.0946299038028
 20
153.9290098937178
 10
582.8153141564821
 20
154.0447062345171
 10
582.5958526483869
 20
154.1356107683802
  0
LWPOLYLINE
  5
1E652
330
18
100
AcDbEntity
  8
1
  6
CONTINUOUS
 62
     7
100
AcDbPolyline
 90
        3
 70
   128
 43
0.0
 10
583.3625080785846
 20
154.575724014821
 10
583.0831932625865
 20
154.6914203556204
 10
582.8637308231687
 20
154.7823248894834
  0
LWPOLYLINE
  5
1E653
330
18
100
AcDbEntity
  8
1
  6
CONTINUOUS
 62
     7
100
AcDbPolyline
 90
        9
 70
   128
 43
0.0
 10
587.6216399273967
 20
152.0538589449549
 10
587.316249010632
 20
152.1803586276197
 10
587.029439841876
 20
152.2991581352377
 10
586.7738765454983
 20
152.4050159843588
 10
586.5608411631679
 20
152.4932569356585
 10
586.3997400528883
 20
152.5599880607748
 10
586.2976866564845
 20
152.6022589297914
 10
586.2591848499274
 20
152.6182068975592
 10
586.2589175603484
 20
152.6183186562681
  0
LWPOLYLINE
  5
1E654
330
18
100
AcDbEntity
  8
1
  6
CONTINUOUS
 62
     7
100
AcDbPolyline
 90
        9
 70
   128
 43
0.0
 10
587.8895181021785
 20
152.7005767913485
 10
587.5841271854138
 20
152.827072748723
 10
587.2973189479803
 20
152.945872256341
 10
587.0417547202801
 20
153.0517301054621
 10
586.8287202692723
 20
153.1399710567617
 10
586.6676191589927
 20
153.2067021818781
 10
586.5655648312663
 20
153.248976776185
 10
586.5270630247092
 20
153.2649247439527
 10
586.5267957351302
 20
153.2650327773714
  0
LWPOLYLINE
  5
1E655
330
18
100
AcDbEntity
  8
1
  6
CONTINUOUS
 62
     7
100
AcDbPolyline
 90
        9
 70
   128
 43
0.0
 10
586.2589175603484
 20
152.6183186562681
 10
586.205047068665
 20
152.6406331451559
 10
585.94149768121
 20
152.749799052062
 10
585.6555304280614
 20
152.8682483823919
 10
585.3581349155997
 20
152.9914362819815
 10
585.0607384718155
 20
153.1146204562807
 10
584.774771218667
 20
153.2330697866106
 10
584.5112227625345
 20
153.3422356935167
 10
584.4573522708511
 20
153.3645501824045
  0
LWPOLYLINE
  5
1E656
330
18
100
AcDbEntity
  8
1
  6
CONTINUOUS
 62
     7
100
AcDbPolyline
 90
        9
 70
   128
 43
0.0
 10
586.5267957351302
 20
153.2650327773714
 10
586.4729252434468
 20
153.2873472662592
 10
586.2093758559918
 20
153.3965131731653
 10
585.9234095341658
 20
153.5149662287855
 10
585.6260130903815
 20
153.6381504030848
 10
585.3286175779199
 20
153.761334577384
 10
585.0426503247713
 20
153.8797876330042
 10
584.7791009373163
 20
153.9889535399103
 10
584.7252304456329
 20
154.0112680287981
  0
LINE
  5
1E657
330
18
100
AcDbEntity
  8
1
  6
CONTINUOUS
 62
     7
100
AcDbLine
 10
585.3865812323188
 20
152.924179890933
 30
0.0
 11
585.4678996629214
 21
152.9459691138887
 31
0.0
  0
SPLINE
  5
1E658
330
18
100
AcDbEntity
  8
1
  6
CONTINUOUS
 62
     7
100
AcDbSpline
210
0.0
220
0.0
230
1.0
 70
     8
 71
     3
 72
     9
 73
     5
 74
     0
 42
0.000000001
 43
0.00000001
 40
0.0
 40
0.0
 40
0.0
 40
0.0
 40
0.4642325740736197
 40
1.0
 40
1.0
 40
1.0
 40
1.0
 10
584.2262557498311
 20
153.459928789916
 30
0.0
 10
584.226587945014
 20
153.4539426116582
 30
0.0
 10
584.2273035242331
 20
153.4410478287584
 30
0.0
 10
584.2251579807615
 20
153.4180530956313
 30
0.0
 10
584.2240084684586
 20
153.405733266654
 30
0.0
  0
LINE
  5
1E659
330
18
100
AcDbEntity
  8
1
  6
CONTINUOUS
 62
     7
100
AcDbLine
 10
586.8602483323907
 20
153.1823872121
 30
0.0
 11
586.8224822706675
 21
153.1425564082289
 31
0.0
  0
SPLINE
  5
1E65A
330
18
100
AcDbEntity
  8
1
  6
CONTINUOUS
 62
     7
100
AcDbSpline
210
0.0
220
0.0
230
1.0
 70
     8
 71
     3
 72
     9
 73
     5
 74
     0
 42
0.000000001
 43
0.00000001
 40
0.0
 40
0.0
 40
0.0
 40
0.0
 40
0.0318204276084672
 40
1.0
 40
1.0
 40
1.0
 40
1.0
 10
586.7595844692682
 20
153.2240806611204
 30
0.0
 10
586.7595058786334
 20
153.2233151751086
 30
0.0
 10
586.7570360615748
 20
153.1992587412607
 30
0.0
 10
586.7574710801002
 20
153.1842190332352
 30
0.0
 10
586.7578922561502
 20
153.1696578951502
 30
0.0
  0
LINE
  5
1E65B
330
18
100
AcDbEntity
  8
1
  6
CONTINUOUS
 62
     7
100
AcDbLine
 10
584.1637640050744
 20
153.4861585589075
 30
0.0
 11
584.1215443587994
 21
153.4481754990244
 31
0.0
  0
LINE
  5
1E65C
330
18
100
AcDbEntity
  8
1
  6
CONTINUOUS
 62
     7
100
AcDbLine
 10
585.5162474117374
 20
153.6836175711775
 30
0.0
 11
585.5975667736625
 21
153.7054067941332
 31
0.0
  0
LWPOLYLINE
  5
1E65D
330
18
100
AcDbEntity
  8
1
  6
CONTINUOUS
 62
     7
100
AcDbPolyline
 90
        9
 70
   128
 43
0.0
 10
584.7252304456329
 20
145.9404936524057
 10
584.724963156054
 20
145.9403818936968
 10
584.6864613494968
 20
145.9244339259291
 10
584.5844070217704
 20
145.8821630569124
 10
584.4233068428134
 20
145.8154319317961
 10
584.210271460483
 20
145.7271909804964
 10
583.9547072327828
 20
145.6213331313753
 10
583.6678989953493
 20
145.5025298984671
 10
583.3625080785846
 20
145.3760339410925
  0
LINE
  5
1E65E
330
18
100
AcDbEntity
  8
1
  6
CONTINUOUS
 62
     7
100
AcDbLine
 10
583.3625080785846
 20
145.3760339410925
 30
0.0
 11
583.0946299038028
 21
146.0227517874861
 31
0.0
  0
LWPOLYLINE
  5
1E65F
330
18
100
AcDbEntity
  8
1
  6
CONTINUOUS
 62
     7
100
AcDbPolyline
 90
        9
 70
   128
 43
0.0
 10
584.4573522708511
 20
146.587207773509
 10
584.4570849812721
 20
146.5870960148001
 10
584.418583174715
 20
146.5711480470324
 10
584.3165288469886
 20
146.5288771780157
 10
584.155427736709
 20
146.4621460528994
 10
583.9423923543786
 20
146.3739051015997
 10
583.686829058001
 20
146.2680472524786
 10
583.4000208205675
 20
146.1492477448606
 10
583.0946299038028
 20
146.0227517874861
  0
LINE
  5
1E660
330
18
100
AcDbEntity
  8
1
  6
CONTINUOUS
 62
     7
100
AcDbLine
 10
588.3882953575944
 20
147.4577820392275
 30
0.0
 11
588.1204171828126
 21
148.1044998856211
 31
0.0
  0
LINE
  5
1E661
330
18
100
AcDbEntity
  8
1
  6
CONTINUOUS
 62
     7
100
AcDbLine
 10
587.8895181021785
 20
147.2511848898554
 30
0.0
 11
587.6216399273967
 21
147.8978990109587
 31
0.0
  0
LWPOLYLINE
  5
1E662
330
18
100
AcDbEntity
  8
1
  6
CONTINUOUS
 62
     7
100
AcDbPolyline
 90
        3
 70
   128
 43
0.0
 10
588.3882953575944
 20
147.4577820392275
 10
588.1089796102738
 20
147.3420856984281
 10
587.8895181021785
 20
147.2511848898554
  0
LWPOLYLINE
  5
1E663
330
18
100
AcDbEntity
  8
1
  6
CONTINUOUS
 62
     7
100
AcDbPolyline
 90
        3
 70
   128
 43
0.0
 10
588.1204171828126
 20
148.1044998856211
 10
587.841101435492
 20
147.9888035448217
 10
587.6216399273967
 20
147.8978990109587
  0
LINE
  5
1E664
330
18
100
AcDbEntity
  8
1
  6
CONTINUOUS
 62
     7
100
AcDbLine
 10
582.8637308231687
 20
145.1694330664301
 30
0.0
 11
582.5958526483869
 21
145.8161509128237
 31
0.0
  0
LWPOLYLINE
  5
1E665
330
18
100
AcDbEntity
  8
1
  6
CONTINUOUS
 62
     7
100
AcDbPolyline
 90
        3
 70
   128
 43
0.0
 10
583.3625080785846
 20
145.3760339410925
 10
583.0831932625865
 20
145.2603376002932
 10
582.8637308231687
 20
145.1694330664301
  0
LWPOLYLINE
  5
1E666
330
18
100
AcDbEntity
  8
1
  6
CONTINUOUS
 62
     7
100
AcDbPolyline
 90
        3
 70
   128
 43
0.0
 10
583.0946299038028
 20
146.0227517874861
 10
582.8153141564821
 20
145.9070554466867
 10
582.5958526483869
 20
145.8161509128237
  0
LWPOLYLINE
  5
1E667
330
18
100
AcDbEntity
  8
1
  6
CONTINUOUS
 62
     7
100
AcDbPolyline
 90
        9
 70
   128
 43
0.0
 10
587.8895181021785
 20
147.2511848898554
 10
587.5841271854138
 20
147.1246852071905
 10
587.2973189479803
 20
147.0058856995726
 10
587.0417547202801
 20
146.9000278504515
 10
586.8287202692723
 20
146.8117868991518
 10
586.6676191589927
 20
146.7450557740354
 10
586.5655648312663
 20
146.7027849050188
 10
586.5270630247092
 20
146.6868369372511
 10
586.5267957351302
 20
146.6867251785421
  0
LWPOLYLINE
  5
1E668
330
18
100
AcDbEntity
  8
1
  6
CONTINUOUS
 62
     7
100
AcDbPolyline
 90
        9
 70
   128
 43
0.0
 10
587.6216399273967
 20
147.8978990109587
 10
587.316249010632
 20
147.7714030535841
 10
587.029439841876
 20
147.6526035459661
 10
586.7738765454983
 20
147.5467456968451
 10
586.5608411631679
 20
147.4585010202551
 10
586.3997400528883
 20
147.3917698951387
 10
586.2976866564845
 20
147.3494990261221
 10
586.2591848499274
 20
147.3335510583544
 10
586.2589175603484
 20
147.3334392996454
  0
LWPOLYLINE
  5
1E669
330
18
100
AcDbEntity
  8
1
  6
CONTINUOUS
 62
     7
100
AcDbPolyline
 90
        9
 70
   128
 43
0.0
 10
586.5267957351302
 20
146.6867251785421
 10
586.4729252434468
 20
146.6644106896543
 10
586.2093758559918
 20
146.5552447827482
 10
585.9234095341658
 20
146.4367954524183
 10
585.6260130903815
 20
146.3136075528288
 10
585.3286175779199
 20
146.1904233785295
 10
585.0426503247713
 20
146.0719703229094
 10
584.7791009373163
 20
145.9628081412935
 10
584.7252304456329
 20
145.9404936524057
  0
LWPOLYLINE
  5
1E66A
330
18
100
AcDbEntity
  8
1
  6
CONTINUOUS
 62
     7
100
AcDbPolyline
 90
        9
 70
   128
 43
0.0
 10
586.2589175603484
 20
147.3334392996454
 10
586.205047068665
 20
147.3111285360479
 10
585.94149768121
 20
147.2019626291418
 10
585.6555304280614
 20
147.0835095735216
 10
585.3581349155997
 20
146.9603253992224
 10
585.0607384718155
 20
146.8371374996328
 10
584.774771218667
 20
146.7186881693029
 10
584.5112227625345
 20
146.6095222623968
 10
584.4573522708511
 20
146.587207773509
  0
LINE
  5
1E66B
330
18
100
AcDbEntity
  8
1
  6
CONTINUOUS
 62
     7
100
AcDbLine
 10
585.6936848512983
 20
146.2861670644903
 30
0.0
 11
585.7357778377032
 21
146.3590747209215
 31
0.0
  0
SPLINE
  5
1E66C
330
18
100
AcDbEntity
  8
1
  6
CONTINUOUS
 62
     7
100
AcDbSpline
210
0.0
220
0.0
230
1.0
 70
     8
 71
     3
 72
     9
 73
     5
 74
     0
 42
0.000000001
 43
0.00000001
 40
0.0
 40
0.0
 40
0.0
 40
0.0
 40
0.4642269595907241
 40
1.0
 40
1.0
 40
1.0
 40
1.0
 10
584.4943797937726
 20
145.8445227237368
 30
0.0
 10
584.498846747477
 20
145.8405259700955
 30
0.0
 10
584.5084690962271
 20
145.8319164881199
 30
0.0
 10
584.5232121990766
 20
145.8141386012628
 30
0.0
 10
584.5311111561155
 20
145.8046136887693
 30
0.0
  0
LINE
  5
1E66D
330
18
100
AcDbEntity
  8
1
  6
CONTINUOUS
 62
     7
100
AcDbLine
 10
586.5531447134113
 20
147.510785469594
 30
0.0
 11
586.5546040958857
 21
147.4559193940783
 31
0.0
  0
SPLINE
  5
1E66E
330
18
100
AcDbEntity
  8
1
  6
CONTINUOUS
 62
     7
100
AcDbSpline
210
0.0
220
0.0
230
1.0
 70
     8
 71
     3
 72
     9
 73
     5
 74
     0
 42
0.000000001
 43
0.00000001
 40
0.0
 40
0.0
 40
0.0
 40
0.0
 40
0.031826724668003
 40
1.0
 40
1.0
 40
1.0
 40
1.0
 10
586.4524817816114
 20
147.4690920205736
 30
0.0
 10
586.4529675275853
 20
147.4684943588311
 30
0.0
 10
586.4682297318797
 20
147.4497157459292
 30
0.0
 10
586.4791731181144
 20
147.4393988099819
 30
0.0
 10
586.4897682122087
 20
147.4294102283144
 30
0.0
  0
LINE
  5
1E66F
330
18
100
AcDbEntity
  8
1
  6
CONTINUOUS
 62
     7
100
AcDbLine
 10
584.4316431111788
 20
145.8188852759027
 30
0.0
 11
584.4286479777788
 21
145.762171456399
 31
0.0
  0
LINE
  5
1E670
330
18
100
AcDbEntity
  8
1
  6
CONTINUOUS
 62
     7
100
AcDbLine
 10
585.2483692369556
 20
146.9148582311296
 30
0.0
 11
585.290463154683
 21
146.9877658875608
 31
0.0
  0
LINE
  5
1E671
330
18
100
AcDbEntity
  8
1
  6
CONTINUOUS
 62
     7
100
AcDbLine
 10
583.940948804388
 20
162.7042925449038
 30
0.0
 11
571.8410811177587
 21
153.5669675560617
 31
0.0
  0
ARC
  5
1E672
330
18
100
AcDbEntity
  8
1
  6
CONTINUOUS
 62
     7
100
AcDbCircle
 10
593.5529227395814
 20
149.9758795897056
 30
0.0
 40
15.94999999999997
100
AcDbArc
 50
52.94139598676399
 51
127.0586040132365
  0
LINE
  5
1E673
330
18
100
AcDbEntity
  8
1
  6
CONTINUOUS
 62
     7
100
AcDbLine
 10
615.264765431652
 20
153.5669675560617
 30
0.0
 11
603.1648963480388
 21
162.7042925449038
 31
0.0
  0
LINE
  5
1E674
330
18
100
AcDbEntity
  8
1
  6
CONTINUOUS
 62
     7
100
AcDbLine
 10
603.1648963480388
 20
137.2474672736549
 30
0.0
 11
615.264765431652
 21
146.3847903998518
 31
0.0
  0
ARC
  5
1E675
330
18
100
AcDbEntity
  8
1
  6
CONTINUOUS
 62
     7
100
AcDbCircle
 10
593.5529227395814
 20
149.9758795897056
 30
0.0
 40
15.95
100
AcDbArc
 50
232.9413959867646
 51
307.0586040132359
  0
LINE
  5
1E676
330
18
100
AcDbEntity
  8
1
  6
CONTINUOUS
 62
     7
100
AcDbLine
 10
571.8410811177587
 20
146.3847903998518
 30
0.0
 11
583.940948804388
 21
137.2474672736549
 31
0.0
  0
CIRCLE
  5
1E677
330
18
100
AcDbEntity
  8
1
  6
CONTINUOUS
 62
     7
100
AcDbCircle
 10
593.5529227395814
 20
149.9758795897056
 30
0.0
 40
11.94999999999999
  0
ARC
  5
1E678
330
18
100
AcDbEntity
  8
1
  6
CONTINUOUS
 62
     7
100
AcDbCircle
 10
612.5529227395814
 20
149.9758795897056
 30
0.0
 40
4.500000000000036
100
AcDbArc
 50
307.0586040132372
 51
318.1896851042212
  0
ARC
  5
1E679
330
18
100
AcDbEntity
  8
1
  6
CONTINUOUS
 62
     7
100
AcDbCircle
 10
612.5529227395814
 20
149.9758795897056
 30
0.0
 40
4.500000000000023
100
AcDbArc
 50
41.81031489577885
 51
52.94139598676283
  0
LINE
  5
1E67A
330
18
100
AcDbEntity
  8
1
  6
CONTINUOUS
 62
     7
100
AcDbLine
 10
574.5529229543304
 20
152.9758794696951
 30
0.0
 11
571.1988205812072
 21
152.9758794696951
 31
0.0
  0
LINE
  5
1E67B
330
18
100
AcDbEntity
  8
1
  6
CONTINUOUS
 62
     7
100
AcDbLine
 10
571.1988205812072
 20
146.9758784862184
 30
0.0
 11
574.5529229543304
 21
146.9758784862184
 31
0.0
  0
ARC
  5
1E67C
330
18
100
AcDbEntity
  8
1
  6
CONTINUOUS
 62
     7
100
AcDbCircle
 10
574.5529227395814
 20
149.9758795897056
 30
0.0
 40
3.0
100
AcDbArc
 50
270.0
 51
90.0
  0
ARC
  5
1E67D
330
18
100
AcDbEntity
  8
1
  6
CONTINUOUS
 62
     7
100
AcDbCircle
 10
574.5529227395814
 20
149.9758795897056
 30
0.0
 40
4.500000000000002
100
AcDbArc
 50
127.0586040132376
 51
138.1896851042214
  0
ARC
  5
1E67E
330
18
100
AcDbEntity
  8
1
  6
CONTINUOUS
 62
     7
100
AcDbCircle
 10
574.5529227395814
 20
149.9758795897056
 30
0.0
 40
4.500000000000019
100
AcDbArc
 50
221.8103148957809
 51
232.9413959867663
  0
LINE
  5
1E67F
330
18
100
AcDbEntity
  8
1
  6
CONTINUOUS
 62
     7
100
AcDbLine
 10
612.5529226637577
 20
146.9758784862184
 30
0.0
 11
615.9070241055583
 21
146.9758784862184
 31
0.0
  0
LINE
  5
1E680
330
18
100
AcDbEntity
  8
1
  6
CONTINUOUS
 62
     7
100
AcDbLine
 10
615.9070241055583
 20
152.9758794696951
 30
0.0
 11
612.5529226637577
 21
152.9758794696951
 31
0.0
  0
ARC
  5
1E681
330
18
100
AcDbEntity
  8
1
  6
CONTINUOUS
 62
     7
100
AcDbCircle
 10
612.5529227395814
 20
149.9758795897056
 30
0.0
 40
3.0
100
AcDbArc
 50
90.0
 51
270.0
  0
LINE
  5
1E682
330
18
100
AcDbEntity
  8
1
  6
CONTINUOUS
 62
     7
100
AcDbLine
 10
600.4584270785695
 20
147.67025024611
 30
0.0
 11
598.980515941525
 21
148.2824234755659
 31
0.0
  0
LINE
  5
1E683
330
18
100
AcDbEntity
  8
1
  6
CONTINUOUS
 62
     7
100
AcDbLine
 10
598.980515941525
 20
148.2824234755659
 30
0.0
 11
598.5882653412541
 21
147.3354472311163
 31
0.0
  0
LINE
  5
1E684
330
18
100
AcDbEntity
  8
1
  6
CONTINUOUS
 62
     7
100
AcDbLine
 10
598.5882653412541
 20
147.3354472311163
 30
0.0
 11
600.0661765947139
 21
146.7232740016603
 31
0.0
  0
ARC
  5
1E685
330
18
100
AcDbEntity
  8
1
  6
CONTINUOUS
 62
     7
100
AcDbCircle
 10
601.613771660743
 20
146.6369666423194
 30
0.0
 40
1.549999999999999
100
AcDbArc
 50
176.8079388237051
 51
318.1920611762939
  0
LINE
  5
1E686
330
18
100
AcDbEntity
  8
1
  6
CONTINUOUS
 62
     7
100
AcDbLine
 10
602.7691163844561
 20
145.6036827059412
 30
0.0
 11
604.2470275215005
 21
144.9915094764852
 31
0.0
  0
LINE
  5
1E687
330
18
100
AcDbEntity
  8
1
  6
CONTINUOUS
 62
     7
100
AcDbLine
 10
604.2470275215005
 20
144.9915094764852
 30
0.0
 11
604.6392777725255
 21
145.9384857209349
 31
0.0
  0
LINE
  5
1E688
330
18
100
AcDbEntity
  8
1
  6
CONTINUOUS
 62
     7
100
AcDbLine
 10
604.6392777725255
 20
145.9384857209349
 30
0.0
 11
603.161366635481
 21
146.5506589503908
 31
0.0
  0
ARC
  5
1E689
330
18
100
AcDbEntity
  8
1
  6
CONTINUOUS
 62
     7
100
AcDbCircle
 10
601.613771660743
 20
146.6369666423194
 30
0.0
 40
1.55000000000002
100
AcDbArc
 50
356.8079388237052
 51
138.1920611762975
  0
ARC
  5
1E68A
330
18
100
AcDbEntity
  8
1
  6
CONTINUOUS
 62
     7
100
AcDbCircle
 10
601.6137716607424
 20
153.314792537091
 30
0.0
 40
1.550000000000022
100
AcDbArc
 50
221.8079388237069
 51
3.192061176294846
  0
LINE
  5
1E68B
330
18
100
AcDbEntity
  8
1
  6
CONTINUOUS
 62
     7
100
AcDbLine
 10
603.161366635481
 20
153.401102730813
 30
0.0
 11
604.6392777725255
 21
154.0132722349787
 31
0.0
  0
LINE
  5
1E68C
330
18
100
AcDbEntity
  8
1
  6
CONTINUOUS
 62
     7
100
AcDbLine
 10
604.6392777725255
 20
154.0132722349787
 30
0.0
 11
604.2470275215005
 21
154.9602484794283
 31
0.0
  0
LINE
  5
1E68D
330
18
100
AcDbEntity
  8
1
  6
CONTINUOUS
 62
     7
100
AcDbLine
 10
604.2470275215005
 20
154.9602484794283
 30
0.0
 11
602.7691163844561
 21
154.3480789752626
 31
0.0
  0
ARC
  5
1E68E
330
18
100
AcDbEntity
  8
1
  6
CONTINUOUS
 62
     7
100
AcDbCircle
 10
601.6137716607424
 20
153.314792537091
 30
0.0
 40
1.550000000000001
100
AcDbArc
 50
41.80793882370455
 51
183.1920611762948
  0
LINE
  5
1E68F
330
18
100
AcDbEntity
  8
1
  6
CONTINUOUS
 62
     7
100
AcDbLine
 10
600.0661765947139
 20
153.2284839542532
 30
0.0
 11
598.5882653412541
 21
152.6163144500875
 31
0.0
  0
LINE
  5
1E690
330
18
100
AcDbEntity
  8
1
  6
CONTINUOUS
 62
     7
100
AcDbLine
 10
598.5882653412541
 20
152.6163144500875
 30
0.0
 11
598.980515941525
 21
151.6693344803476
 31
0.0
  0
LINE
  5
1E691
330
18
100
AcDbEntity
  8
1
  6
CONTINUOUS
 62
     7
100
AcDbLine
 10
598.980515941525
 20
151.6693344803476
 30
0.0
 11
600.4584270785695
 21
152.2815077098036
 31
0.0
  0
LINE
  5
1E692
330
18
100
AcDbEntity
  8
1
  6
CONTINUOUS
 62
     7
100
AcDbLine
 10
596.8055267812583
 20
143.4626242609644
 30
0.0
 11
596.1933559528684
 21
144.9405363293314
 31
0.0
  0
LINE
  5
1E693
330
18
100
AcDbEntity
  8
1
  6
CONTINUOUS
 62
     7
100
AcDbLine
 10
596.1933559528684
 20
144.9405363293314
 30
0.0
 11
595.2463793591728
 21
144.5482856126451
 31
0.0
  0
LINE
  5
1E694
330
18
100
AcDbEntity
  8
1
  6
CONTINUOUS
 62
     7
100
AcDbLine
 10
595.2463793591728
 20
144.5482856126451
 30
0.0
 11
595.8585502603223
 21
143.0703735442781
 31
0.0
  0
ARC
  5
1E695
330
18
100
AcDbEntity
  8
1
  6
CONTINUOUS
 62
     7
100
AcDbCircle
 10
596.8918356869674
 20
141.9150306685428
 30
0.0
 40
1.550000000000001
100
AcDbArc
 50
131.8079388237061
 51
273.1920611762948
  0
LINE
  5
1E696
330
18
100
AcDbEntity
  8
1
  6
CONTINUOUS
 62
     7
100
AcDbLine
 10
596.9781445864778
 20
140.3674351515198
 30
0.0
 11
597.5903154257817
 21
138.8895249457979
 31
0.0
  0
LINE
  5
1E697
330
18
100
AcDbEntity
  8
1
  6
CONTINUOUS
 62
     7
100
AcDbLine
 10
597.5903154257817
 20
138.8895249457979
 30
0.0
 11
598.5372919612696
 21
139.2817756624842
 31
0.0
  0
LINE
  5
1E698
330
18
100
AcDbEntity
  8
1
  6
CONTINUOUS
 62
     7
100
AcDbLine
 10
598.5372919612696
 20
139.2817756624842
 30
0.0
 11
597.9251210601201
 21
140.759685868206
 31
0.0
  0
ARC
  5
1E699
330
18
100
AcDbEntity
  8
1
  6
CONTINUOUS
 62
     7
100
AcDbCircle
 10
596.8918356869674
 20
141.9150306685428
 30
0.0
 40
1.549999999999999
100
AcDbArc
 50
311.8079388237061
 51
93.19206117629905
  0
LINE
  5
1E69A
330
18
100
AcDbEntity
  8
1
  6
CONTINUOUS
 62
     7
100
AcDbLine
 10
591.2472950085198
 20
143.0703735442781
 30
0.0
 11
591.8594659096693
 21
144.5482856126451
 31
0.0
  0
LINE
  5
1E69B
330
18
100
AcDbEntity
  8
1
  6
CONTINUOUS
 62
     7
100
AcDbLine
 10
591.8594659096693
 20
144.5482856126451
 30
0.0
 11
590.9124896652197
 21
144.9405363293314
 31
0.0
  0
LINE
  5
1E69C
330
18
100
AcDbEntity
  8
1
  6
CONTINUOUS
 62
     7
100
AcDbLine
 10
590.9124896652197
 20
144.9405363293314
 30
0.0
 11
590.3003187640702
 21
143.4626242609644
 31
0.0
  0
ARC
  5
1E69D
330
18
100
AcDbEntity
  8
1
  6
CONTINUOUS
 62
     7
100
AcDbCircle
 10
590.2140097921958
 20
141.9150306685423
 30
0.0
 40
1.549999999999999
100
AcDbArc
 50
86.80793882370516
 51
228.1920611762998
  0
LINE
  5
1E69E
330
18
100
AcDbEntity
  8
1
  6
CONTINUOUS
 62
     7
100
AcDbLine
 10
589.180724208722
 20
140.759685868206
 30
0.0
 11
588.5685537732338
 21
139.2817756624842
 31
0.0
  0
LINE
  5
1E69F
330
18
100
AcDbEntity
  8
1
  6
CONTINUOUS
 62
     7
100
AcDbLine
 10
588.5685537732338
 20
139.2817756624842
 30
0.0
 11
589.5155300176834
 21
138.8895249457979
 31
0.0
  0
LINE
  5
1E6A0
330
18
100
AcDbEntity
  8
1
  6
CONTINUOUS
 62
     7
100
AcDbLine
 10
589.5155300176834
 20
138.8895249457979
 30
0.0
 11
590.1277009188329
 21
140.3674351515198
 31
0.0
  0
ARC
  5
1E6A1
330
18
100
AcDbEntity
  8
1
  6
CONTINUOUS
 62
     7
100
AcDbCircle
 10
590.2140097921958
 20
141.9150306685423
 30
0.0
 40
1.549999999999999
100
AcDbArc
 50
266.8079388237051
 51
48.19206117629388
  0
LINE
  5
1E6A2
330
18
100
AcDbEntity
  8
1
  6
CONTINUOUS
 62
     7
100
AcDbLine
 10
587.039668557713
 20
146.7232740016603
 30
0.0
 11
588.5175796947574
 21
147.3354472311163
 31
0.0
  0
LINE
  5
1E6A3
330
18
100
AcDbEntity
  8
1
  6
CONTINUOUS
 62
     7
100
AcDbLine
 10
588.5175796947574
 20
147.3354472311163
 30
0.0
 11
588.1253299093937
 21
148.2824234755659
 31
0.0
  0
LINE
  5
1E6A4
330
18
100
AcDbEntity
  8
1
  6
CONTINUOUS
 62
     7
100
AcDbLine
 10
588.1253299093937
 20
148.2824234755659
 30
0.0
 11
586.6474187723493
 21
147.67025024611
 31
0.0
  0
ARC
  5
1E6A5
330
18
100
AcDbEntity
  8
1
  6
CONTINUOUS
 62
     7
100
AcDbCircle
 10
585.4920738184193
 20
146.6369666423179
 30
0.0
 40
1.550000000000001
100
AcDbArc
 50
41.80793882370018
 51
183.192061176299
  0
LINE
  5
1E6A6
330
18
100
AcDbEntity
  8
1
  6
CONTINUOUS
 62
     7
100
AcDbLine
 10
583.9444785169458
 20
146.5506589503908
 30
0.0
 11
582.4665673799013
 21
145.9384857209349
 31
0.0
  0
LINE
  5
1E6A7
330
18
100
AcDbEntity
  8
1
  6
CONTINUOUS
 62
     7
100
AcDbLine
 10
582.4665673799013
 20
145.9384857209349
 30
0.0
 11
582.8588180965876
 21
144.9915094764852
 31
0.0
  0
LINE
  5
1E6A8
330
18
100
AcDbEntity
  8
1
  6
CONTINUOUS
 62
     7
100
AcDbLine
 10
582.8588180965876
 20
144.9915094764852
 30
0.0
 11
584.336729233632
 21
145.6036827059412
 31
0.0
  0
ARC
  5
1E6A9
330
18
100
AcDbEntity
  8
1
  6
CONTINUOUS
 62
     7
100
AcDbCircle
 10
585.4920738184193
 20
146.6369666423179
 30
0.0
 40
1.55000000000002
100
AcDbArc
 50
221.8079388237069
 51
3.192061176294846
  0
ARC
  5
1E6AA
330
18
100
AcDbEntity
  8
1
  6
CONTINUOUS
 62
     7
100
AcDbCircle
 10
585.4920738184186
 20
153.3147925370895
 30
0.0
 40
1.550000000000023
100
AcDbArc
 50
356.807938823701
 51
138.1920611762998
  0
LINE
  5
1E6AB
330
18
100
AcDbEntity
  8
1
  6
CONTINUOUS
 62
     7
100
AcDbLine
 10
584.336729233632
 20
154.3480789752626
 30
0.0
 11
582.8588180965876
 21
154.9602484794283
 31
0.0
  0
LINE
  5
1E6AC
330
18
100
AcDbEntity
  8
1
  6
CONTINUOUS
 62
     7
100
AcDbLine
 10
582.8588180965876
 20
154.9602484794283
 30
0.0
 11
582.4665673799013
 21
154.0132722349787
 31
0.0
  0
LINE
  5
1E6AD
330
18
100
AcDbEntity
  8
1
  6
CONTINUOUS
 62
     7
100
AcDbLine
 10
582.4665673799013
 20
154.0132722349787
 30
0.0
 11
583.9444785169458
 21
153.401102730813
 31
0.0
  0
ARC
  5
1E6AE
330
18
100
AcDbEntity
  8
1
  6
CONTINUOUS
 62
     7
100
AcDbCircle
 10
585.4920738184186
 20
153.3147925370895
 30
0.0
 40
1.549999999999996
100
AcDbArc
 50
176.8079388237051
 51
318.1920611762939
  0
LINE
  5
1E6AF
330
18
100
AcDbEntity
  8
1
  6
CONTINUOUS
 62
     7
100
AcDbLine
 10
586.6474187723493
 20
152.2815077098036
 30
0.0
 11
588.1253299093937
 21
151.6693344803476
 31
0.0
  0
LINE
  5
1E6B0
330
18
100
AcDbEntity
  8
1
  6
CONTINUOUS
 62
     7
100
AcDbLine
 10
588.1253299093937
 20
151.6693344803476
 30
0.0
 11
588.5175796947574
 21
152.6163144500875
 31
0.0
  0
LINE
  5
1E6B1
330
18
100
AcDbEntity
  8
1
  6
CONTINUOUS
 62
     7
100
AcDbLine
 10
588.5175796947574
 20
152.6163144500875
 30
0.0
 11
587.039668557713
 21
153.2284839542532
 31
0.0
  0
LINE
  5
1E6B2
330
18
100
AcDbEntity
  8
1
  6
CONTINUOUS
 62
     7
100
AcDbLine
 10
590.3003187640702
 20
156.4891336949491
 30
0.0
 11
590.9124896652197
 21
155.0112216265821
 31
0.0
  0
LINE
  5
1E6B3
330
18
100
AcDbEntity
  8
1
  6
CONTINUOUS
 62
     7
100
AcDbLine
 10
590.9124896652197
 20
155.0112216265821
 30
0.0
 11
591.8594659096693
 21
155.4034723432684
 31
0.0
  0
LINE
  5
1E6B4
330
18
100
AcDbEntity
  8
1
  6
CONTINUOUS
 62
     7
100
AcDbLine
 10
591.8594659096693
 20
155.4034723432684
 30
0.0
 11
591.2472950085198
 21
156.8813844116354
 31
0.0
  0
ARC
  5
1E6B5
330
18
100
AcDbEntity
  8
1
  6
CONTINUOUS
 62
     7
100
AcDbCircle
 10
590.2140097921942
 20
158.0367285108661
 30
0.0
 40
1.550000000000001
100
AcDbArc
 50
311.8079388237002
 51
93.19206117629486
  0
LINE
  5
1E6B6
330
18
100
AcDbEntity
  8
1
  6
CONTINUOUS
 62
     7
100
AcDbLine
 10
590.1277009188329
 20
159.5843246670389
 30
0.0
 11
589.5155300176834
 21
161.0622330101156
 31
0.0
  0
LINE
  5
1E6B7
330
18
100
AcDbEntity
  8
1
  6
CONTINUOUS
 62
     7
100
AcDbLine
 10
589.5155300176834
 20
161.0622330101156
 30
0.0
 11
588.5685537732338
 21
160.6699860187197
 31
0.0
  0
LINE
  5
1E6B8
330
18
100
AcDbEntity
  8
1
  6
CONTINUOUS
 62
     7
100
AcDbLine
 10
588.5685537732338
 20
160.6699860187197
 30
0.0
 11
589.180724208722
 21
159.1920739503527
 31
0.0
  0
ARC
  5
1E6B9
330
18
100
AcDbEntity
  8
1
  6
CONTINUOUS
 62
     7
100
AcDbCircle
 10
590.2140097921942
 20
158.0367285108661
 30
0.0
 40
1.550000000000025
100
AcDbArc
 50
131.8079388237054
 51
273.192061176299
  0
ARC
  5
1E6BA
330
18
100
AcDbEntity
  8
1
  6
CONTINUOUS
 62
     7
100
AcDbCircle
 10
596.8918356869658
 20
158.0367285108666
 30
0.0
 40
1.550000000000001
100
AcDbArc
 50
266.8079388237051
 51
48.19206117629529
  0
LINE
  5
1E6BB
330
18
100
AcDbEntity
  8
1
  6
CONTINUOUS
 62
     7
100
AcDbLine
 10
597.9251210601201
 20
159.1920739503527
 30
0.0
 11
598.5372919612696
 21
160.6699860187197
 31
0.0
  0
LINE
  5
1E6BC
330
18
100
AcDbEntity
  8
1
  6
CONTINUOUS
 62
     7
100
AcDbLine
 10
598.5372919612696
 20
160.6699860187197
 30
0.0
 11
597.5903154257817
 21
161.0622330101156
 31
0.0
  0
LINE
  5
1E6BD
330
18
100
AcDbEntity
  8
1
  6
CONTINUOUS
 62
     7
100
AcDbLine
 10
597.5903154257817
 20
161.0622330101156
 30
0.0
 11
596.9781445864778
 21
159.5843246670389
 31
0.0
  0
ARC
  5
1E6BE
330
18
100
AcDbEntity
  8
1
  6
CONTINUOUS
 62
     7
100
AcDbCircle
 10
596.8918356869658
 20
158.0367285108666
 30
0.0
 40
1.549999999999999
100
AcDbArc
 50
86.80793882370097
 51
228.1920611762984
  0
LINE
  5
1E6BF
330
18
100
AcDbEntity
  8
1
  6
CONTINUOUS
 62
     7
100
AcDbLine
 10
595.8585502603223
 20
156.8813844116354
 30
0.0
 11
595.2463793591728
 21
155.4034723432684
 31
0.0
  0
LINE
  5
1E6C0
330
18
100
AcDbEntity
  8
1
  6
CONTINUOUS
 62
     7
100
AcDbLine
 10
595.2463793591728
 20
155.4034723432684
 30
0.0
 11
596.1933559528684
 21
155.0112216265821
 31
0.0
  0
LINE
  5
1E6C1
330
18
100
AcDbEntity
  8
1
  6
CONTINUOUS
 62
     7
100
AcDbLine
 10
596.1933559528684
 20
155.0112216265821
 30
0.0
 11
596.8055267812583
 21
156.4891336949491
 31
0.0
  0
LINE
  5
1E6C2
330
18
100
AcDbEntity
  8
1
  6
CONTINUOUS
 62
     7
100
AcDbLine
 10
597.4568750616295
 20
148.7232184501314
 30
0.0
 11
599.0529227792417
 21
149.1508780511045
 31
0.0
  0
LINE
  5
1E6C3
330
18
100
AcDbEntity
  8
1
  6
CONTINUOUS
 62
     7
100
AcDbLine
 10
599.0529227792417
 20
149.1508780511045
 30
0.0
 11
599.0529227792417
 21
150.800879904809
 31
0.0
  0
ARC
  5
1E6C4
330
18
100
AcDbEntity
  8
1
  6
CONTINUOUS
 62
     7
100
AcDbCircle
 10
593.5529227395814
 20
149.9758795897056
 30
0.0
 40
4.100000000000001
100
AcDbArc
 50
17.78985742629416
 51
342.2101425737055
  0
LINE
  5
1E6C5
330
18
100
AcDbEntity
  8
1
  6
CONTINUOUS
 62
     7
100
AcDbLine
 10
599.0529227792417
 20
150.800879904809
 30
0.0
 11
597.4568750616295
 21
151.2285395057821
 31
0.0
  0
CIRCLE
  5
1E6C6
330
18
100
AcDbEntity
  8
1
  6
CONTINUOUS
 62
     7
100
AcDbCircle
 10
612.5529227395814
 20
149.9758795897056
 30
0.0
 40
1.824999999999989
  0
ARC
  5
1E6C7
330
18
100
AcDbEntity
  8
1
  6
CONTINUOUS
 62
     7
100
AcDbCircle
 10
612.5529227395814
 20
149.9758795897056
 30
0.0
 40
4.500000000000023
100
AcDbArc
 50
318.1896851042212
 51
41.81031489577885
  0
CIRCLE
  5
1E6C8
102
{ACAD_REACTORS
102
}
330
18
100
AcDbEntity
  8
1
  6
CONTINUOUS
 62
     7
100
AcDbCircle
 10
574.5529227395814
 20
149.9758795897056
 30
0.0
 40
1.824999999999989
  0
ARC
  5
1E6C9
330
18
100
AcDbEntity
  8
1
  6
CONTINUOUS
 62
     7
100
AcDbCircle
 10
574.5529227395814
 20
149.9758795897056
 30
0.0
 40
4.500000000000002
100
AcDbArc
 50
138.1896851042214
 51
221.8103148957786
  0
LINE
  5
1E6CA
330
18
100
AcDbEntity
  8
1
  6
CONTINUOUS
 62
     7
100
AcDbLine
 10
590.5298059596812
 20
155.9351010711813
 30
0.0
 11
590.6325876503383
 21
155.9776736887121
 31
0.0
  0
LWPOLYLINE
  5
1E6CB
330
18
100
AcDbEntity
  8
1
  6
CONTINUOUS
 62
     7
100
AcDbPolyline
 90
        9
 70
   128
 43
0.0
 10
590.6325876503383
 20
155.9776736887121
 10
590.6343818432783
 20
155.9733449013853
 10
590.6361760362183
 20
155.9690123887682
 10
590.6379702291583
 20
155.9646798761511
 10
590.6397644220983
 20
155.9603510888243
 10
590.641558149377
 20
155.9560185762072
 10
590.6433518766557
 20
155.9516897888803
 10
590.6451451382732
 20
155.9473572762632
 10
590.6469383998906
 20
155.9430284889364
  0
LINE
  5
1E6CC
330
18
100
AcDbEntity
  8
1
  6
CONTINUOUS
 62
     7
100
AcDbLine
 10
590.6469383998906
 20
155.9430284889364
 30
0.0
 11
590.6942873052453
 21
155.9626421423578
 31
0.0
  0
LINE
  5
1E6CD
330
18
100
AcDbEntity
  8
1
  6
CONTINUOUS
 62
     7
100
AcDbLine
 10
591.3410028233325
 20
156.2305203171396
 30
0.0
 11
591.3883517286872
 21
156.250133970561
 31
0.0
  0
LWPOLYLINE
  5
1E6CE
330
18
100
AcDbEntity
  8
1
  6
CONTINUOUS
 62
     7
100
AcDbPolyline
 90
        9
 70
   128
 43
0.0
 10
591.3883517286872
 20
156.250133970561
 10
591.3865584670698
 20
156.2544627578878
 10
591.3847652054524
 20
156.2587915452146
 10
591.3829714781737
 20
156.2631203325415
 10
591.381177750895
 20
156.2674528451586
 10
591.379383557955
 20
156.2717853577757
 10
591.377589365015
 20
156.2761141451025
 10
591.375795172075
 20
156.2804466577196
 10
591.374000979135
 20
156.2847791703367
  0
LINE
  5
1E6CF
330
18
100
AcDbEntity
  8
1
  6
CONTINUOUS
 62
     7
100
AcDbLine
 10
591.374000979135
 20
156.2847791703367
 30
0.0
 11
591.4767826697921
 21
156.3273517878675
 31
0.0
  0
LINE
  5
1E6D0
330
18
100
AcDbEntity
  8
1
  6
CONTINUOUS
 62
     7
100
AcDbLine
 10
595.6290628318807
 20
156.3273517878675
 30
0.0
 11
595.7318444061225
 21
156.2847791703367
 31
0.0
  0
LWPOLYLINE
  5
1E6D1
330
18
100
AcDbEntity
  8
1
  6
CONTINUOUS
 62
     7
100
AcDbPolyline
 90
        9
 70
   128
 43
0.0
 10
595.7318444061225
 20
156.2847791703367
 10
595.7300502131825
 20
156.2804466577196
 10
595.7282560202425
 20
156.2761141451025
 10
595.7264618273025
 20
156.2717853577757
 10
595.7246678671931
 20
156.2674528451586
 10
595.7228740234991
 20
156.2631203325415
 10
595.7210804126357
 20
156.2587915452146
 10
595.7192869181877
 20
156.2544627578878
 10
595.7174937729856
 20
156.250133970561
  0
LINE
  5
1E6D2
330
18
100
AcDbEntity
  8
1
  6
CONTINUOUS
 62
     7
100
AcDbLine
 10
595.7174937729856
 20
156.250133970561
 30
0.0
 11
595.7648426783403
 21
156.2305203171396
 31
0.0
  0
LINE
  5
1E6D3
330
18
100
AcDbEntity
  8
1
  6
CONTINUOUS
 62
     7
100
AcDbLine
 10
596.4115583128428
 20
155.9626421423578
 30
0.0
 11
596.458907130886
 21
155.9430284889364
 31
0.0
  0
LWPOLYLINE
  5
1E6D4
330
18
100
AcDbEntity
  8
1
  6
CONTINUOUS
 62
     7
100
AcDbPolyline
 90
        9
 70
   128
 43
0.0
 10
596.458907130886
 20
155.9430284889364
 10
596.4607002760881
 20
155.9473572762632
 10
596.4624936832247
 20
155.9516897888803
 10
596.4642873522957
 20
155.9560185762072
 10
596.4660811959898
 20
155.9603510888243
 10
596.4678752143068
 20
155.9646798761511
 10
596.4696693199353
 20
155.9690123887682
 10
596.4714635128753
 20
155.9733449013853
 10
596.473257764023
 20
155.9776736887121
  0
LINE
  5
1E6D5
330
18
100
AcDbEntity
  8
1
  6
CONTINUOUS
 62
     7
100
AcDbLine
 10
596.473257764023
 20
155.9776736887121
 30
0.0
 11
596.5760393673686
 21
155.9351010711813
 31
0.0
  0
LINE
  5
1E6D6
330
18
100
AcDbEntity
  8
1
  6
CONTINUOUS
 62
     7
100
AcDbLine
 10
583.7826975411867
 20
154.5775643082285
 30
0.0
 11
583.7401239923333
 21
154.4747835488939
 31
0.0
  0
LWPOLYLINE
  5
1E6D7
330
18
100
AcDbEntity
  8
1
  6
CONTINUOUS
 62
     7
100
AcDbPolyline
 90
        9
 70
   128
 43
0.0
 10
583.7401239923333
 20
154.4747835488939
 10
583.7357924110388
 20
154.4765791388178
 10
583.7314608297443
 20
154.4783710034513
 10
583.7271292484497
 20
154.4801665933752
 10
583.7227985984778
 20
154.4819621832991
 10
583.7184679485058
 20
154.4837540479326
 10
583.7141372985338
 20
154.4855496378565
 10
583.7098075798845
 20
154.48734150249
 10
583.7054787925576
 20
154.4891333671236
  0
LINE
  5
1E6D8
330
18
100
AcDbEntity
  8
1
  6
CONTINUOUS
 62
     7
100
AcDbLine
 10
583.7054787925576
 20
154.4891333671236
 30
0.0
 11
583.6858660704588
 21
154.4417849274301
 31
0.0
  0
LINE
  5
1E6D9
330
18
100
AcDbEntity
  8
1
  6
CONTINUOUS
 62
     7
100
AcDbLine
 10
583.417987895677
 20
153.7950708063269
 30
0.0
 11
583.3983751735782
 21
153.7477223666334
 31
0.0
  0
LWPOLYLINE
  5
1E6DA
330
18
100
AcDbEntity
  8
1
  6
CONTINUOUS
 62
     7
100
AcDbPolyline
 90
        9
 70
   128
 43
0.0
 10
583.3983751735782
 20
153.7477223666334
 10
583.402703960905
 20
153.7459267767096
 10
583.4070336795544
 20
153.744134912076
 10
583.4113643295264
 20
153.7423393221521
 10
583.4156949794983
 20
153.7405474575186
 10
583.4200256294703
 20
153.7387518675947
 10
583.4243572107648
 20
153.7369600029612
 10
583.4286887920593
 20
153.7351644130373
 10
583.4330203733539
 20
153.7333688231134
  0
LINE
  5
1E6DB
330
18
100
AcDbEntity
  8
1
  6
CONTINUOUS
 62
     7
100
AcDbLine
 10
583.4330203733539
 20
153.7333688231134
 30
0.0
 11
583.3904468245005
 21
153.6305880637789
 31
0.0
  0
LINE
  5
1E6DC
330
18
100
AcDbEntity
  8
1
  6
CONTINUOUS
 62
     7
100
AcDbLine
 10
599.5121449022686
 20
152.998994895997
 30
0.0
 11
599.554718451122
 21
152.8962141366625
 31
0.0
  0
LWPOLYLINE
  5
1E6DD
330
18
100
AcDbEntity
  8
1
  6
CONTINUOUS
 62
     7
100
AcDbPolyline
 90
        9
 70
   128
 43
0.0
 10
599.554718451122
 20
152.8962141366625
 10
599.5503866369968
 20
152.8944185467386
 10
599.5460550557023
 20
152.8926266821051
 10
599.5417237072384
 20
152.8908310921812
 10
599.5373925916051
 20
152.8890392275476
 10
599.5330619416332
 20
152.8872436376238
 10
599.5287315244918
 20
152.8854517729902
 10
599.5244020386731
 20
152.8836561830664
 10
599.5200730185156
 20
152.8818643184328
  0
LINE
  5
1E6DE
330
18
100
AcDbEntity
  8
1
  6
CONTINUOUS
 62
     7
100
AcDbLine
 10
599.5200730185156
 20
152.8818643184328
 30
0.0
 11
599.5396855077838
 21
152.8345158787394
 31
0.0
  0
LINE
  5
1E6DF
330
18
100
AcDbEntity
  8
1
  6
CONTINUOUS
 62
     7
100
AcDbLine
 10
599.8075639153963
 20
152.1877980323458
 30
0.0
 11
599.8271764046644
 21
152.1404495926523
 31
0.0
  0
LWPOLYLINE
  5
1E6E0
330
18
100
AcDbEntity
  8
1
  6
CONTINUOUS
 62
     7
100
AcDbPolyline
 90
        9
 70
   128
 43
0.0
 10
599.8271764046644
 20
152.1404495926523
 10
599.8315054248219
 20
152.1422451825762
 10
599.8358351434713
 20
152.1440370472097
 10
599.840165327782
 20
152.1458326371336
 10
599.8444959777539
 20
152.1476245017672
 10
599.8488270933872
 20
152.149420091691
 10
599.8531586746817
 20
152.1512119563246
 10
599.8574902559762
 20
152.1530075462484
 10
599.8618218372708
 20
152.1548031361723
  0
LINE
  5
1E6E1
330
18
100
AcDbEntity
  8
1
  6
CONTINUOUS
 62
     7
100
AcDbLine
 10
599.8618218372708
 20
152.1548031361723
 30
0.0
 11
599.9043953861242
 21
152.0520186515474
 31
0.0
  0
LINE
  5
1E6E2
330
18
100
AcDbEntity
  8
1
  6
CONTINUOUS
 62
     7
100
AcDbLine
 10
587.5937002501582
 20
146.9527630599165
 30
0.0
 11
587.5511267013048
 21
147.0555438192511
 31
0.0
  0
LWPOLYLINE
  5
1E6E3
330
18
100
AcDbEntity
  8
1
  6
CONTINUOUS
 62
     7
100
AcDbPolyline
 90
        9
 70
   128
 43
0.0
 10
587.5511267013048
 20
147.0555438192511
 10
587.555459213922
 20
147.0573394091749
 10
587.5597907952165
 20
147.0591312738085
 10
587.5641214451884
 20
147.0609268637323
 10
587.568453026483
 20
147.0627224536562
 10
587.572783676455
 20
147.0645143182898
 10
587.5771133951043
 20
147.0663099082136
 10
587.5814431137537
 20
147.0681017728472
 10
587.5857728324031
 20
147.0698936374807
  0
LINE
  5
1E6E4
330
18
100
AcDbEntity
  8
1
  6
CONTINUOUS
 62
     7
100
AcDbLine
 10
587.5857728324031
 20
147.0698936374807
 30
0.0
 11
587.5661601103043
 21
147.1172458024645
 31
0.0
  0
LINE
  5
1E6E5
330
18
100
AcDbEntity
  8
1
  6
CONTINUOUS
 62
     7
100
AcDbLine
 10
587.2982819355225
 20
147.7639599235678
 30
0.0
 11
587.2786692134237
 21
147.8113083632612
 31
0.0
  0
LWPOLYLINE
  5
1E6E6
330
18
100
AcDbEntity
  8
1
  6
CONTINUOUS
 62
     7
100
AcDbPolyline
 90
        9
 70
   128
 43
0.0
 10
587.2786692134237
 20
147.8113083632612
 10
587.2743404260968
 20
147.8095164986277
 10
587.2700107074475
 20
147.8077209087038
 10
587.2656800574755
 20
147.8059290440702
 10
587.2613494075035
 20
147.8041334541464
 10
587.2570187575316
 20
147.8023415895128
 10
587.252687176237
 20
147.800545999589
 10
587.2483555949425
 20
147.7987504096651
 10
587.244024013648
 20
147.7969585450315
  0
LINE
  5
1E6E7
330
18
100
AcDbEntity
  8
1
  6
CONTINUOUS
 62
     7
100
AcDbLine
 10
587.244024013648
 20
147.7969585450315
 30
0.0
 11
587.2014504647946
 21
147.8997393043661
 31
0.0
  0
LINE
  5
1E6E8
330
18
100
AcDbEntity
  8
1
  6
CONTINUOUS
 62
     7
100
AcDbLine
 10
598.1546084885617
 20
159.7461065741205
 30
0.0
 11
598.0518269143199
 21
159.7886791916513
 31
0.0
  0
LWPOLYLINE
  5
1E6E9
330
18
100
AcDbEntity
  8
1
  6
CONTINUOUS
 62
     7
100
AcDbPolyline
 90
        9
 70
   128
 43
0.0
 10
598.0518269143199
 20
159.7886791916513
 10
598.0536212236752
 20
159.7930117042685
 10
598.0554154166152
 20
159.7973404915953
 10
598.0572094931399
 20
159.8016730042124
 10
598.0590034532493
 20
159.8060055168295
 10
598.0607972969433
 20
159.8103343041563
 10
598.062591024222
 20
159.8146668167734
 10
598.0643844022547
 20
159.8189956041002
 10
598.0661775474568
 20
159.823324391427
  0
LINE
  5
1E6EA
330
18
100
AcDbEntity
  8
1
  6
CONTINUOUS
 62
     7
100
AcDbLine
 10
598.0661775474568
 20
159.823324391427
 30
0.0
 11
598.0188287585174
 21
159.8429380448484
 31
0.0
  0
LINE
  5
1E6EB
330
18
100
AcDbEntity
  8
1
  6
CONTINUOUS
 62
     7
100
AcDbLine
 10
597.3721130658073
 20
160.1108162196302
 30
0.0
 11
597.3247642186602
 21
160.1304261477613
 31
0.0
  0
LWPOLYLINE
  5
1E6EC
330
18
100
AcDbEntity
  8
1
  6
CONTINUOUS
 62
     7
100
AcDbPolyline
 90
        9
 70
   128
 43
0.0
 10
597.3247642186602
 20
160.1304261477613
 10
597.322971102562
 20
160.1260973604345
 10
597.3211776663215
 20
160.1217685731077
 10
597.3193840263543
 20
160.1174397857809
 10
597.3175901826603
 20
160.1131072731638
 10
597.3157961643433
 20
160.1087747605467
 10
597.3140020587148
 20
160.1044459732199
 10
597.312207836671
 20
160.1001134606028
 10
597.3104136146271
 20
160.0957809479856
  0
LINE
  5
1E6ED
330
18
100
AcDbEntity
  8
1
  6
CONTINUOUS
 62
     7
100
AcDbLine
 10
597.3104136146271
 20
160.0957809479856
 30
0.0
 11
597.2076320112815
 21
160.1383535655165
 31
0.0
  0
LINE
  5
1E6EE
330
18
100
AcDbEntity
  8
1
  6
CONTINUOUS
 62
     7
100
AcDbLine
 10
597.2076320112815
 20
139.8134043903971
 30
0.0
 11
597.3104136146271
 21
139.8559770079279
 31
0.0
  0
LWPOLYLINE
  5
1E6EF
330
18
100
AcDbEntity
  8
1
  6
CONTINUOUS
 62
     7
100
AcDbPolyline
 90
        9
 70
   128
 43
0.0
 10
597.3104136146271
 20
139.8559770079279
 10
597.312207836671
 20
139.8516463579559
 10
597.3140020587148
 20
139.8473138453388
 10
597.3157961643433
 20
139.8429831953669
 10
597.3175901826603
 20
139.8386525453949
 10
597.3193840263543
 20
139.8343200327778
 10
597.3211776663215
 20
139.829991245451
 10
597.322971102562
 20
139.825660595479
 10
597.3247642186602
 20
139.8213318081522
  0
LINE
  5
1E6F0
330
18
100
AcDbEntity
  8
1
  6
CONTINUOUS
 62
     7
100
AcDbLine
 10
597.3247642186602
 20
139.8213318081522
 30
0.0
 11
597.3721130658073
 21
139.8409435989284
 31
0.0
  0
LINE
  5
1E6F1
330
18
100
AcDbEntity
  8
1
  6
CONTINUOUS
 62
     7
100
AcDbLine
 10
598.0188287585174
 20
140.1088236363554
 30
0.0
 11
598.0661775474568
 21
140.1284354271316
 31
0.0
  0
LWPOLYLINE
  5
1E6F2
330
18
100
AcDbEntity
  8
1
  6
CONTINUOUS
 62
     7
100
AcDbPolyline
 90
        9
 70
   128
 43
0.0
 10
598.0661775474568
 20
140.1284354271316
 10
598.0643844022547
 20
140.1327642144585
 10
598.062591024222
 20
140.1370948644304
 10
598.0607972969433
 20
140.1414236517572
 10
598.0590034532493
 20
140.1457543017292
 10
598.0572094931399
 20
140.1500868143463
 10
598.0554154166152
 20
140.1544174643183
 10
598.0536212236752
 20
140.1587499769354
 10
598.0518269143199
 20
140.1630806269073
  0
LINE
  5
1E6F3
330
18
100
AcDbEntity
  8
1
  6
CONTINUOUS
 62
     7
100
AcDbLine
 10
598.0518269143199
 20
140.1630806269073
 30
0.0
 11
598.1546084885617
 21
140.2056551070833
 31
0.0
  0
LINE
  5
1E6F4
330
18
100
AcDbEntity
  8
1
  6
CONTINUOUS
 62
     7
100
AcDbLine
 10
591.4767826697921
 20
143.624406168046
 30
0.0
 11
591.374000979135
 21
143.6669787855768
 31
0.0
  0
LWPOLYLINE
  5
1E6F5
330
18
100
AcDbEntity
  8
1
  6
CONTINUOUS
 62
     7
100
AcDbPolyline
 90
        9
 70
   128
 43
0.0
 10
591.374000979135
 20
143.6669787855768
 10
591.375795172075
 20
143.6713112981939
 10
591.377589365015
 20
143.675643810811
 10
591.379383557955
 20
143.6799763234281
 10
591.381177750895
 20
143.684305110755
 10
591.3829714781737
 20
143.6886376233721
 10
591.3847652054524
 20
143.6929664106989
 10
591.3865584670698
 20
143.6972951980257
 10
591.3883517286872
 20
143.7016277106428
  0
LINE
  5
1E6F6
330
18
100
AcDbEntity
  8
1
  6
CONTINUOUS
 62
     7
100
AcDbLine
 10
591.3883517286872
 20
143.7016277106428
 30
0.0
 11
591.3410028233325
 21
143.7212376387739
 31
0.0
  0
LINE
  5
1E6F7
330
18
100
AcDbEntity
  8
1
  6
CONTINUOUS
 62
     7
100
AcDbLine
 10
590.6942873052453
 20
143.9891158135557
 30
0.0
 11
590.6469383998906
 21
144.0087294669771
 31
0.0
  0
LWPOLYLINE
  5
1E6F8
330
18
100
AcDbEntity
  8
1
  6
CONTINUOUS
 62
     7
100
AcDbPolyline
 90
        9
 70
   128
 43
0.0
 10
590.6469383998906
 20
144.0087294669771
 10
590.6451451382732
 20
144.0044006796503
 10
590.6433518766557
 20
144.0000718923235
 10
590.641558149377
 20
143.9957393797064
 10
590.6397644220983
 20
143.9914105923796
 10
590.6379702291583
 20
143.9870780797625
 10
590.6361760362183
 20
143.9827455671453
 10
590.6343818432783
 20
143.9784167798185
 10
590.6325876503383
 20
143.9740842672014
  0
LINE
  5
1E6F9
330
18
100
AcDbEntity
  8
1
  6
CONTINUOUS
 62
     7
100
AcDbLine
 10
590.6325876503383
 20
143.9740842672014
 30
0.0
 11
590.5298059596812
 21
144.0166568847322
 31
0.0
  0
LINE
  5
1E6FA
330
18
100
AcDbEntity
  8
1
  6
CONTINUOUS
 62
     7
100
AcDbLine
 10
589.8982132575607
 20
160.1383535655165
 30
0.0
 11
589.7954320325648
 21
160.0957809479856
 31
0.0
  0
LWPOLYLINE
  5
1E6FB
330
18
100
AcDbEntity
  8
1
  6
CONTINUOUS
 62
     7
100
AcDbPolyline
 90
        9
 70
   128
 43
0.0
 10
589.7954320325648
 20
160.0957809479856
 10
589.7936378396248
 20
160.1001134606028
 10
589.7918436466848
 20
160.1044459732199
 10
589.7900494537448
 20
160.1087747605467
 10
589.7882552608048
 20
160.1131072731638
 10
589.7864615335261
 20
160.1174397857809
 10
589.7846678062474
 20
160.1217685731077
 10
589.78287454463
 20
160.1260973604345
 10
589.7810812830126
 20
160.1304261477613
  0
LINE
  5
1E6FC
330
18
100
AcDbEntity
  8
1
  6
CONTINUOUS
 62
     7
100
AcDbLine
 10
589.7810812830126
 20
160.1304261477613
 30
0.0
 11
589.7337323776578
 21
160.1108162196302
 31
0.0
  0
LINE
  5
1E6FD
330
18
100
AcDbEntity
  8
1
  6
CONTINUOUS
 62
     7
100
AcDbLine
 10
589.0870163939094
 20
159.8429380448484
 30
0.0
 11
589.0396679542159
 21
159.823324391427
 31
0.0
  0
LWPOLYLINE
  5
1E6FE
330
18
100
AcDbEntity
  8
1
  6
CONTINUOUS
 62
     7
100
AcDbPolyline
 90
        9
 70
   128
 43
0.0
 10
589.0396679542159
 20
159.823324391427
 10
589.0414607501721
 20
159.8189956041002
 10
589.0432544774508
 20
159.8146668167734
 10
589.0450482047295
 20
159.8103343041563
 10
589.0468419320082
 20
159.8060055168295
 10
589.0486356592869
 20
159.8016730042124
 10
589.0504303178882
 20
159.7973404915953
 10
589.0522240451669
 20
159.7930117042685
 10
589.0540187037682
 20
159.7886791916513
  0
LINE
  5
1E6FF
330
18
100
AcDbEntity
  8
1
  6
CONTINUOUS
 62
     7
100
AcDbLine
 10
589.0540187037682
 20
159.7886791916513
 30
0.0
 11
588.951237013111
 21
159.7461065741205
 31
0.0
  0
LINE
  5
1E700
330
18
100
AcDbEntity
  8
1
  6
CONTINUOUS
 62
     7
100
AcDbLine
 10
587.2014504647946
 20
152.0520186515474
 30
0.0
 11
587.244024013648
 21
152.1548031361723
 31
0.0
  0
LWPOLYLINE
  5
1E701
330
18
100
AcDbEntity
  8
1
  6
CONTINUOUS
 62
     7
100
AcDbPolyline
 90
        9
 70
   128
 43
0.0
 10
587.244024013648
 20
152.1548031361723
 10
587.2483555949425
 20
152.1530075462484
 10
587.252687176237
 20
152.1512119563246
 10
587.2570187575316
 20
152.149420091691
 10
587.2613494075035
 20
152.1476245017672
 10
587.2656800574755
 20
152.1458326371336
 10
587.2700107074475
 20
152.1440370472097
 10
587.2743404260968
 20
152.1422451825762
 10
587.2786692134237
 20
152.1404495926523
  0
LINE
  5
1E702
330
18
100
AcDbEntity
  8
1
  6
CONTINUOUS
 62
     7
100
AcDbLine
 10
587.2786692134237
 20
152.1404495926523
 30
0.0
 11
587.2982819355225
 21
152.1877980323458
 31
0.0
  0
LINE
  5
1E703
330
18
100
AcDbEntity
  8
1
  6
CONTINUOUS
 62
     7
100
AcDbLine
 10
587.5661601103043
 20
152.8345158787394
 30
0.0
 11
587.5857728324031
 21
152.8818643184328
 31
0.0
  0
LWPOLYLINE
  5
1E704
330
18
100
AcDbEntity
  8
1
  6
CONTINUOUS
 62
     7
100
AcDbPolyline
 90
        9
 70
   128
 43
0.0
 10
587.5857728324031
 20
152.8818643184328
 10
587.5814431137537
 20
152.8836561830664
 10
587.5771133951043
 20
152.8854517729902
 10
587.572783676455
 20
152.8872436376238
 10
587.568453026483
 20
152.8890392275476
 10
587.5641214451884
 20
152.8908310921812
 10
587.5597907952165
 20
152.8926266821051
 10
587.555459213922
 20
152.8944185467386
 10
587.5511267013048
 20
152.8962141366625
  0
LINE
  5
1E705
330
18
100
AcDbEntity
  8
1
  6
CONTINUOUS
 62
     7
100
AcDbLine
 10
587.5511267013048
 20
152.8962141366625
 30
0.0
 11
587.5937002501582
 21
152.998994895997
 31
0.0
  0
LINE
  5
1E706
330
18
100
AcDbEntity
  8
1
  6
CONTINUOUS
 62
     7
100
AcDbLine
 10
603.7153983279263
 20
153.6305880637789
 30
0.0
 11
603.6728247790729
 21
153.7333688231134
 31
0.0
  0
LWPOLYLINE
  5
1E707
330
18
100
AcDbEntity
  8
1
  6
CONTINUOUS
 62
     7
100
AcDbPolyline
 90
        9
 70
   128
 43
0.0
 10
603.6728247790729
 20
153.7333688231134
 10
603.6771568260287
 20
153.7351644130373
 10
603.6814884073233
 20
153.7369600029612
 10
603.6858195229565
 20
153.7387518675947
 10
603.6901506385898
 20
153.7405474575186
 10
603.6944812885617
 20
153.7423393221521
 10
603.6988114728724
 20
153.744134912076
 10
603.7031411915218
 20
153.7459267767096
 10
603.7074704445099
 20
153.7477223666334
  0
LINE
  5
1E708
330
18
100
AcDbEntity
  8
1
  6
CONTINUOUS
 62
     7
100
AcDbLine
 10
603.7074704445099
 20
153.7477223666334
 30
0.0
 11
603.6878577224111
 21
153.7950708063269
 31
0.0
  0
LINE
  5
1E709
330
18
100
AcDbEntity
  8
1
  6
CONTINUOUS
 62
     7
100
AcDbLine
 10
603.4199795476293
 20
154.4417849274301
 30
0.0
 11
603.4003668255305
 21
154.4891333671236
 31
0.0
  0
LWPOLYLINE
  5
1E70A
330
18
100
AcDbEntity
  8
1
  6
CONTINUOUS
 62
     7
100
AcDbPolyline
 90
        9
 70
   128
 43
0.0
 10
603.4003668255305
 20
154.4891333671236
 10
603.3960380382036
 20
154.48734150249
 10
603.3917083195543
 20
154.4855496378565
 10
603.3873781352436
 20
154.4837540479326
 10
603.3830474852716
 20
154.4819621832991
 10
603.3787163696384
 20
154.4801665933752
 10
603.3743847883438
 20
154.4783710034513
 10
603.3700532070493
 20
154.4765791388178
 10
603.3657216257548
 20
154.4747835488939
  0
LINE
  5
1E70B
330
18
100
AcDbEntity
  8
1
  6
CONTINUOUS
 62
     7
100
AcDbLine
 10
603.3657216257548
 20
154.4747835488939
 30
0.0
 11
603.3231480769014
 21
154.5775643082285
 31
0.0
  0
LINE
  5
1E70C
330
18
100
AcDbEntity
  8
1
  6
CONTINUOUS
 62
     7
100
AcDbLine
 10
583.3904468245005
 20
146.3211698921347
 30
0.0
 11
583.4330203733539
 21
146.2183891328001
 31
0.0
  0
LWPOLYLINE
  5
1E70D
330
18
100
AcDbEntity
  8
1
  6
CONTINUOUS
 62
     7
100
AcDbPolyline
 90
        9
 70
   128
 43
0.0
 10
583.4330203733539
 20
146.2183891328001
 10
583.4286887920593
 20
146.2165935428762
 10
583.4243572107648
 20
146.2148016782427
 10
583.4200256294703
 20
146.2130060883188
 10
583.4156949794983
 20
146.211210498395
 10
583.4113643295264
 20
146.2094186337614
 10
583.4070336795544
 20
146.2076230438375
 10
583.402703960905
 20
146.205831179204
 10
583.3983751735782
 20
146.2040393145704
  0
LINE
  5
1E70E
330
18
100
AcDbEntity
  8
1
  6
CONTINUOUS
 62
     7
100
AcDbLine
 10
583.3983751735782
 20
146.2040393145704
 30
0.0
 11
583.417987895677
 21
146.156690874877
 31
0.0
  0
LINE
  5
1E70F
330
18
100
AcDbEntity
  8
1
  6
CONTINUOUS
 62
     7
100
AcDbLine
 10
583.6858660704588
 20
145.5099730284834
 30
0.0
 11
583.7054787925576
 21
145.4626245887899
 31
0.0
  0
LWPOLYLINE
  5
1E710
330
18
100
AcDbEntity
  8
1
  6
CONTINUOUS
 62
     7
100
AcDbPolyline
 90
        9
 70
   128
 43
0.0
 10
583.7054787925576
 20
145.4626245887899
 10
583.7098075798845
 20
145.4644164534235
 10
583.7141372985338
 20
145.4662120433474
 10
583.7184679485058
 20
145.4680039079809
 10
583.7227985984778
 20
145.4697994979048
 10
583.7271292484497
 20
145.4715913625383
 10
583.7314608297443
 20
145.4733869524622
 10
583.7357924110388
 20
145.4751825423861
 10
583.7401239923333
 20
145.4769744070196
  0
LINE
  5
1E711
330
18
100
AcDbEntity
  8
1
  6
CONTINUOUS
 62
     7
100
AcDbLine
 10
583.7401239923333
 20
145.4769744070196
 30
0.0
 11
583.7826975411867
 21
145.374193647685
 31
0.0
  0
LINE
  5
1E712
330
18
100
AcDbEntity
  8
1
  6
CONTINUOUS
 62
     7
100
AcDbLine
 10
603.3231480769014
 20
145.374193647685
 30
0.0
 11
603.3657216257548
 21
145.4769744070196
 31
0.0
  0
LWPOLYLINE
  5
1E713
330
18
100
AcDbEntity
  8
1
  6
CONTINUOUS
 62
     7
100
AcDbPolyline
 90
        9
 70
   128
 43
0.0
 10
603.3657216257548
 20
145.4769744070196
 10
603.3700532070493
 20
145.4751825423861
 10
603.3743847883438
 20
145.4733869524622
 10
603.3787163696384
 20
145.4715913625383
 10
603.3830474852716
 20
145.4697994979048
 10
603.3873781352436
 20
145.4680039079809
 10
603.3917083195543
 20
145.4662120433474
 10
603.3960380382036
 20
145.4644164534235
 10
603.4003668255305
 20
145.4626245887899
  0
LINE
  5
1E714
330
18
100
AcDbEntity
  8
1
  6
CONTINUOUS
 62
     7
100
AcDbLine
 10
603.4003668255305
 20
145.4626245887899
 30
0.0
 11
603.4199795476293
 21
145.5099730284834
 31
0.0
  0
LINE
  5
1E715
330
18
100
AcDbEntity
  8
1
  6
CONTINUOUS
 62
     7
100
AcDbLine
 10
603.6878577224111
 20
146.156690874877
 30
0.0
 11
603.7074704445099
 21
146.2040393145704
 31
0.0
  0
LWPOLYLINE
  5
1E716
330
18
100
AcDbEntity
  8
1
  6
CONTINUOUS
 62
     7
100
AcDbPolyline
 90
        9
 70
   128
 43
0.0
 10
603.7074704445099
 20
146.2040393145704
 10
603.7031411915218
 20
146.205831179204
 10
603.6988114728724
 20
146.2076230438375
 10
603.6944812885617
 20
146.2094186337614
 10
603.6901506385898
 20
146.211210498395
 10
603.6858195229565
 20
146.2130060883188
 10
603.6814884073233
 20
146.2148016782427
 10
603.6771568260287
 20
146.2165935428762
 10
603.6728247790729
 20
146.2183891328001
  0
LINE
  5
1E717
330
18
100
AcDbEntity
  8
1
  6
CONTINUOUS
 62
     7
100
AcDbLine
 10
603.6728247790729
 20
146.2183891328001
 30
0.0
 11
603.7153983279263
 21
146.3211698921347
 31
0.0
  0
LINE
  5
1E718
330
18
100
AcDbEntity
  8
1
  6
CONTINUOUS
 62
     7
100
AcDbLine
 10
599.9043953861242
 20
147.8997393043661
 30
0.0
 11
599.8618218372708
 21
147.7969585450315
 31
0.0
  0
LWPOLYLINE
  5
1E719
330
18
100
AcDbEntity
  8
1
  6
CONTINUOUS
 62
     7
100
AcDbPolyline
 90
        9
 70
   128
 43
0.0
 10
599.8618218372708
 20
147.7969585450315
 10
599.8574902559762
 20
147.7987504096651
 10
599.8531586746817
 20
147.800545999589
 10
599.8488270933872
 20
147.8023415895128
 10
599.8444959777539
 20
147.8041334541464
 10
599.840165327782
 20
147.8059290440702
 10
599.8358351434713
 20
147.8077209087038
 10
599.8315054248219
 20
147.8095164986277
 10
599.8271764046644
 20
147.8113083632612
  0
LINE
  5
1E71A
330
18
100
AcDbEntity
  8
1
  6
CONTINUOUS
 62
     7
100
AcDbLine
 10
599.8271764046644
 20
147.8113083632612
 30
0.0
 11
599.8075639153963
 21
147.7639599235678
 31
0.0
  0
LINE
  5
1E71B
330
18
100
AcDbEntity
  8
1
  6
CONTINUOUS
 62
     7
100
AcDbLine
 10
599.5396855077838
 20
147.1172458024645
 30
0.0
 11
599.5200730185156
 21
147.0698936374807
 31
0.0
  0
LWPOLYLINE
  5
1E71C
330
18
100
AcDbEntity
  8
1
  6
CONTINUOUS
 62
     7
100
AcDbPolyline
 90
        9
 70
   128
 43
0.0
 10
599.5200730185156
 20
147.0698936374807
 10
599.5244020386731
 20
147.0681017728472
 10
599.5287315244918
 20
147.0663099082136
 10
599.5330619416332
 20
147.0645143182898
 10
599.5373925916051
 20
147.0627224536562
 10
599.5417237072384
 20
147.0609268637323
 10
599.5460550557023
 20
147.0591312738085
 10
599.5503866369968
 20
147.0573394091749
 10
599.554718451122
 20
147.0555438192511
  0
LINE
  5
1E71D
330
18
100
AcDbEntity
  8
1
  6
CONTINUOUS
 62
     7
100
AcDbLine
 10
599.554718451122
 20
147.0555438192511
 30
0.0
 11
599.5121449022686
 21
146.9527630599165
 31
0.0
  0
LINE
  5
1E71E
330
18
100
AcDbEntity
  8
1
  6
CONTINUOUS
 62
     7
100
AcDbLine
 10
596.5760393673686
 20
144.0166568847322
 30
0.0
 11
596.473257764023
 21
143.9740842672014
 31
0.0
  0
LWPOLYLINE
  5
1E71F
330
18
100
AcDbEntity
  8
1
  6
CONTINUOUS
 62
     7
100
AcDbPolyline
 90
        9
 70
   128
 43
0.0
 10
596.473257764023
 20
143.9740842672014
 10
596.4714635128753
 20
143.9784167798185
 10
596.4696693199353
 20
143.9827455671453
 10
596.4678752143068
 20
143.9870780797625
 10
596.4660811959898
 20
143.9914105923796
 10
596.4642873522957
 20
143.9957393797064
 10
596.4624936832247
 20
144.0000718923235
 10
596.4607002760881
 20
144.0044006796503
 10
596.458907130886
 20
144.0087294669771
  0
LINE
  5
1E720
330
18
100
AcDbEntity
  8
1
  6
CONTINUOUS
 62
     7
100
AcDbLine
 10
596.458907130886
 20
144.0087294669771
 30
0.0
 11
596.4115583128428
 21
143.9891158135557
 31
0.0
  0
LINE
  5
1E721
330
18
100
AcDbEntity
  8
1
  6
CONTINUOUS
 62
     7
100
AcDbLine
 10
595.7648426783403
 20
143.7212376387739
 30
0.0
 11
595.7174937729856
 21
143.7016277106428
 31
0.0
  0
LWPOLYLINE
  5
1E722
330
18
100
AcDbEntity
  8
1
  6
CONTINUOUS
 62
     7
100
AcDbPolyline
 90
        9
 70
   128
 43
0.0
 10
595.7174937729856
 20
143.7016277106428
 10
595.7192869181877
 20
143.6972951980257
 10
595.7210804126357
 20
143.6929664106989
 10
595.7228740234991
 20
143.6886376233721
 10
595.7246678671931
 20
143.684305110755
 10
595.7264618273025
 20
143.6799763234281
 10
595.7282560202425
 20
143.675643810811
 10
595.7300502131825
 20
143.6713112981939
 10
595.7318444061225
 20
143.6669787855768
  0
LINE
  5
1E723
330
18
100
AcDbEntity
  8
1
  6
CONTINUOUS
 62
     7
100
AcDbLine
 10
595.7318444061225
 20
143.6669787855768
 30
0.0
 11
595.6290628318807
 21
143.624406168046
 31
0.0
  0
LINE
  5
1E724
330
18
100
AcDbEntity
  8
1
  6
CONTINUOUS
 62
     7
100
AcDbLine
 10
588.951237013111
 20
140.2056551070833
 30
0.0
 11
589.0540187037682
 21
140.1630806269073
 31
0.0
  0
LWPOLYLINE
  5
1E725
330
18
100
AcDbEntity
  8
1
  6
CONTINUOUS
 62
     7
100
AcDbPolyline
 90
        9
 70
   128
 43
0.0
 10
589.0540187037682
 20
140.1630806269073
 10
589.0522240451669
 20
140.1587499769354
 10
589.0504303178882
 20
140.1544174643183
 10
589.0486356592869
 20
140.1500868143463
 10
589.0468419320082
 20
140.1457543017292
 10
589.0450482047295
 20
140.1414236517572
 10
589.0432544774508
 20
140.1370948644304
 10
589.0414607501721
 20
140.1327642144585
 10
589.0396679542159
 20
140.1284354271316
  0
LINE
  5
1E726
330
18
100
AcDbEntity
  8
1
  6
CONTINUOUS
 62
     7
100
AcDbLine
 10
589.0396679542159
 20
140.1284354271316
 30
0.0
 11
589.0870163939094
 21
140.1088236363554
 31
0.0
  0
LINE
  5
1E727
330
18
100
AcDbEntity
  8
1
  6
CONTINUOUS
 62
     7
100
AcDbLine
 10
589.7337323776578
 20
139.8409435989284
 30
0.0
 11
589.7810812830126
 21
139.8213318081522
 31
0.0
  0
LWPOLYLINE
  5
1E728
330
18
100
AcDbEntity
  8
1
  6
CONTINUOUS
 62
     7
100
AcDbPolyline
 90
        9
 70
   128
 43
0.0
 10
589.7810812830126
 20
139.8213318081522
 10
589.78287454463
 20
139.825660595479
 10
589.7846678062474
 20
139.829991245451
 10
589.7864615335261
 20
139.8343200327778
 10
589.7882552608048
 20
139.8386525453949
 10
589.7900494537448
 20
139.8429831953669
 10
589.7918436466848
 20
139.8473138453388
 10
589.7936378396248
 20
139.8516463579559
 10
589.7954320325648
 20
139.8559770079279
  0
LINE
  5
1E729
330
18
100
AcDbEntity
  8
1
  6
CONTINUOUS
 62
     7
100
AcDbLine
 10
589.7954320325648
 20
139.8559770079279
 30
0.0
 11
589.8982132575607
 21
139.8134043903971
 31
0.0
  0
LINE
  5
1E72A
330
18
100
AcDbEntity
  8
1
  6
CONTINUOUS
 62
     7
100
AcDbLine
 10
600.0661765947139
 20
146.7232740016603
 30
0.0
 11
602.7691163844561
 21
145.6036827059412
 31
0.0
  0
LINE
  5
1E72B
330
18
100
AcDbEntity
  8
1
  6
CONTINUOUS
 62
     7
100
AcDbLine
 10
590.3003187640702
 20
143.4626242609644
 30
0.0
 11
589.180724208722
 21
140.759685868206
 31
0.0
  0
LINE
  5
1E72C
330
18
100
AcDbEntity
  8
1
  6
CONTINUOUS
 62
     7
100
AcDbLine
 10
595.8585502603223
 20
143.0703735442781
 30
0.0
 11
596.9781445864778
 21
140.3674351515198
 31
0.0
  0
LINE
  5
1E72D
330
18
100
AcDbEntity
  8
1
  6
CONTINUOUS
 62
     7
100
AcDbLine
 10
591.2472950085198
 20
156.8813844116354
 30
0.0
 11
590.1277009188329
 21
159.5843246670389
 31
0.0
  0
LINE
  5
1E72E
330
18
100
AcDbEntity
  8
1
  6
CONTINUOUS
 62
     7
100
AcDbLine
 10
587.039668557713
 20
153.2284839542532
 30
0.0
 11
584.336729233632
 21
154.3480789752626
 31
0.0
  0
LINE
  5
1E72F
330
18
100
AcDbEntity
  8
1
  6
CONTINUOUS
 62
     7
100
AcDbLine
 10
586.6474187723493
 20
147.67025024611
 30
0.0
 11
583.9444785169458
 21
146.5506589503908
 31
0.0
  0
LINE
  5
1E730
330
18
100
AcDbEntity
  8
1
  6
CONTINUOUS
 62
     7
100
AcDbLine
 10
600.4584270785695
 20
152.2815077098036
 30
0.0
 11
603.161366635481
 21
153.401102730813
 31
0.0
  0
LINE
  5
1E731
330
18
100
AcDbEntity
  8
1
  6
CONTINUOUS
 62
     7
100
AcDbLine
 10
596.8055267812583
 20
156.4891336949491
 30
0.0
 11
597.9251210601201
 21
159.1920739503527
 31
0.0
  0
LINE
  5
1E732
330
18
100
AcDbEntity
  8
1
  6
CONTINUOUS
 62
     7
100
AcDbLine
 10
586.6474187723493
 20
152.2815077098036
 30
0.0
 11
583.9444785169458
 21
153.401102730813
 31
0.0
  0
LINE
  5
1E733
330
18
100
AcDbEntity
  8
1
  6
CONTINUOUS
 62
     7
100
AcDbLine
 10
591.2472950085198
 20
143.0703735442781
 30
0.0
 11
590.1277009188329
 21
140.3674351515198
 31
0.0
  0
LINE
  5
1E734
330
18
100
AcDbEntity
  8
1
  6
CONTINUOUS
 62
     7
100
AcDbLine
 10
596.8055267812583
 20
143.4626242609644
 30
0.0
 11
597.9251210601201
 21
140.759685868206
 31
0.0
  0
LINE
  5
1E735
330
18
100
AcDbEntity
  8
1
  6
CONTINUOUS
 62
     7
100
AcDbLine
 10
595.8585502603223
 20
156.8813844116354
 30
0.0
 11
596.9781445864778
 21
159.5843246670389
 31
0.0
  0
LINE
  5
1E736
330
18
100
AcDbEntity
  8
1
  6
CONTINUOUS
 62
     7
100
AcDbLine
 10
587.039668557713
 20
146.7232740016603
 30
0.0
 11
584.336729233632
 21
145.6036827059412
 31
0.0
  0
LINE
  5
1E737
330
18
100
AcDbEntity
  8
1
  6
CONTINUOUS
 62
     7
100
AcDbLine
 10
600.0661765947139
 20
153.2284839542532
 30
0.0
 11
602.7691163844561
 21
154.3480789752626
 31
0.0
  0
LINE
  5
1E738
330
18
100
AcDbEntity
  8
1
  6
CONTINUOUS
 62
     7
100
AcDbLine
 10
590.3003187640702
 20
156.4891336949491
 30
0.0
 11
589.180724208722
 21
159.1920739503527
 31
0.0
  0
LINE
  5
1E739
330
18
100
AcDbEntity
  8
1
  6
CONTINUOUS
 62
     7
100
AcDbLine
 10
600.4584270785695
 20
147.67025024611
 30
0.0
 11
603.161366635481
 21
146.5506589503908
 31
0.0
  0
LINE
  5
1E73A
330
18
100
AcDbEntity
  8
1
  6
CONTINUOUS
 62
     7
100
AcDbLine
 10
583.7401239923333
 20
145.4769744070196
 30
0.0
 11
587.5511267013048
 21
147.0555438192511
 31
0.0
  0
LINE
  5
1E73B
330
18
100
AcDbEntity
  8
1
  6
CONTINUOUS
 62
     7
100
AcDbLine
 10
603.6728247790729
 20
146.2183891328001
 30
0.0
 11
599.8618218372708
 21
147.7969585450315
 31
0.0
  0
LINE
  5
1E73C
330
18
100
AcDbEntity
  8
1
  6
CONTINUOUS
 62
     7
100
AcDbLine
 10
603.3657216257548
 20
154.4747835488939
 30
0.0
 11
599.554718451122
 21
152.8962141366625
 31
0.0
  0
LINE
  5
1E73D
330
18
100
AcDbEntity
  8
1
  6
CONTINUOUS
 62
     7
100
AcDbLine
 10
597.3104136146271
 20
160.0957809479856
 30
0.0
 11
595.7318444061225
 21
156.2847791703367
 31
0.0
  0
LINE
  5
1E73E
330
18
100
AcDbEntity
  8
1
  6
CONTINUOUS
 62
     7
100
AcDbLine
 10
595.7318444061225
 20
143.6669787855768
 30
0.0
 11
597.3104136146271
 21
139.8559770079279
 31
0.0
  0
LINE
  5
1E73F
330
18
100
AcDbEntity
  8
1
  6
CONTINUOUS
 62
     7
100
AcDbLine
 10
599.554718451122
 20
147.0555438192511
 30
0.0
 11
603.3657216257548
 21
145.4769744070196
 31
0.0
  0
LINE
  5
1E740
330
18
100
AcDbEntity
  8
1
  6
CONTINUOUS
 62
     7
100
AcDbLine
 10
587.244024013648
 20
147.7969585450315
 30
0.0
 11
583.4330203733539
 21
146.2183891328001
 31
0.0
  0
LINE
  5
1E741
330
18
100
AcDbEntity
  8
1
  6
CONTINUOUS
 62
     7
100
AcDbLine
 10
583.4330203733539
 20
153.7333688231134
 30
0.0
 11
587.244024013648
 21
152.1548031361723
 31
0.0
  0
LINE
  5
1E742
330
18
100
AcDbEntity
  8
1
  6
CONTINUOUS
 62
     7
100
AcDbLine
 10
596.473257764023
 20
155.9776736887121
 30
0.0
 11
598.0518269143199
 21
159.7886791916513
 31
0.0
  0
LINE
  5
1E743
330
18
100
AcDbEntity
  8
1
  6
CONTINUOUS
 62
     7
100
AcDbLine
 10
590.6325876503383
 20
143.9740842672014
 30
0.0
 11
589.0540187037682
 21
140.1630806269073
 31
0.0
  0
LINE
  5
1E744
330
18
100
AcDbEntity
  8
1
  6
CONTINUOUS
 62
     7
100
AcDbLine
 10
589.7954320325648
 20
139.8559770079279
 30
0.0
 11
591.374000979135
 21
143.6669787855768
 31
0.0
  0
LINE
  5
1E745
330
18
100
AcDbEntity
  8
1
  6
CONTINUOUS
 62
     7
100
AcDbLine
 10
599.8618218372708
 20
152.1548031361723
 30
0.0
 11
603.6728247790729
 21
153.7333688231134
 31
0.0
  0
LINE
  5
1E746
330
18
100
AcDbEntity
  8
1
  6
CONTINUOUS
 62
     7
100
AcDbLine
 10
591.374000979135
 20
156.2847791703367
 30
0.0
 11
589.7954320325648
 21
160.0957809479856
 31
0.0
  0
LINE
  5
1E747
330
18
100
AcDbEntity
  8
1
  6
CONTINUOUS
 62
     7
100
AcDbLine
 10
587.5511267013048
 20
152.8962141366625
 30
0.0
 11
583.7401239923333
 21
154.4747835488939
 31
0.0
  0
LINE
  5
1E748
330
18
100
AcDbEntity
  8
1
  6
CONTINUOUS
 62
     7
100
AcDbLine
 10
589.0540187037682
 20
159.7886791916513
 30
0.0
 11
590.6325876503383
 21
155.9776736887121
 31
0.0
  0
LINE
  5
1E749
330
18
100
AcDbEntity
  8
1
  6
CONTINUOUS
 62
     7
100
AcDbLine
 10
598.0518269143199
 20
140.1630806269073
 30
0.0
 11
596.473257764023
 21
143.9740842672014
 31
0.0
  0
LINE
  5
1E74A
102
{ACAD_REACTORS
102
}
330
18
100
AcDbEntity
  8
1
  6
CONTINUOUS
 62
     7
100
AcDbLine
 10
579.602922757635
 20
223.5161049882696
 30
0.0
 11
579.602922757635
 21
215.3161040167139
 31
0.0
  0
LINE
  5
1E74B
102
{ACAD_REACTORS
102
}
330
18
100
AcDbEntity
  8
1
  6
CONTINUOUS
 62
     7
100
AcDbLine
 10
607.502922860453
 20
215.3161040167139
 30
0.0
 11
607.502922860453
 21
223.5161049882696
 31
0.0
  0
LINE
  5
1E74C
330
18
100
AcDbEntity
  8
1
  6
CONTINUOUS
 62
     7
100
AcDbLine
 10
586.6839200980162
 20
215.3161040167139
 30
0.0
 11
586.6839200980162
 21
215.0161063889788
 31
0.0
  0
LINE
  5
1E74D
330
18
100
AcDbEntity
  8
1
  6
CONTINUOUS
 62
     7
100
AcDbLine
 10
588.3350535086488
 20
215.0161063889788
 30
0.0
 11
588.3350535086488
 21
215.3161040167139
 31
0.0
  0
LINE
  5
1E74E
330
18
100
AcDbEntity
  8
1
  6
CONTINUOUS
 62
     7
100
AcDbLine
 10
603.1260848767256
 20
215.3161040167139
 30
0.0
 11
603.1260848767256
 21
215.0161063889788
 31
0.0
  0
LINE
  5
1E74F
330
18
100
AcDbEntity
  8
1
  6
CONTINUOUS
 62
     7
100
AcDbLine
 10
586.9761821604466
 20
215.0161063889788
 30
0.0
 11
587.1637458703613
 21
214.3161057154463
 31
0.0
  0
LINE
  5
1E750
330
18
100
AcDbEntity
  8
1
  6
CONTINUOUS
 62
     7
100
AcDbLine
 10
599.9420992820656
 20
214.3161057154463
 30
0.0
 11
600.2100484701937
 21
215.3161040167139
 31
0.0
  0
LINE
  5
1E751
330
18
100
AcDbEntity
  8
1
  6
CONTINUOUS
 62
     7
100
AcDbLine
 10
604.3512904807126
 20
215.0161063889788
 30
0.0
 11
604.3512904807126
 21
215.3161040167139
 31
0.0
  0
LINE
  5
1E752
330
18
100
AcDbEntity
  8
1
  6
CONTINUOUS
 62
     7
100
AcDbLine
 10
602.4217391177212
 20
215.3161040167139
 30
0.0
 11
602.4217391177212
 21
215.0161063889788
 31
0.0
  0
LINE
  5
1E753
330
18
100
AcDbEntity
  8
1
  6
CONTINUOUS
 62
     7
100
AcDbLine
 10
617.0529234013652
 20
223.5161049882696
 30
0.0
 11
617.0529234013652
 21
226.7161032776163
 31
0.0
  0
LINE
  5
1E754
330
18
100
AcDbEntity
  8
1
  6
CONTINUOUS
 62
     7
100
AcDbLine
 10
570.0529231480455
 20
226.7161032776163
 30
0.0
 11
570.0529231480455
 21
223.5161049882696
 31
0.0
  0
LINE
  5
1E755
330
18
100
AcDbEntity
  8
1
  6
CONTINUOUS
 62
     7
100
AcDbLine
 10
609.3653584621047
 20
223.5161049882696
 30
0.0
 11
609.552923103342
 21
222.8161043147371
 31
0.0
  0
LINE
  5
1E756
330
18
100
AcDbEntity
  8
1
  6
CONTINUOUS
 62
     7
100
AcDbLine
 10
615.5529222241735
 20
222.8161043147371
 30
0.0
 11
615.7404868654107
 21
223.5161049882696
 31
0.0
  0
LINE
  5
1E757
330
18
100
AcDbEntity
  8
1
  6
CONTINUOUS
 62
     7
100
AcDbLine
 10
571.3653578213548
 20
223.5161049882696
 30
0.0
 11
571.552922462592
 21
222.8161043147371
 31
0.0
  0
LINE
  5
1E758
330
18
100
AcDbEntity
  8
1
  6
CONTINUOUS
 62
     7
100
AcDbLine
 10
577.5529234460687
 20
222.8161043147371
 30
0.0
 11
577.740488087306
 21
223.5161049882696
 31
0.0
  0
LINE
  5
1E759
330
18
100
AcDbEntity
  8
1
  6
CONTINUOUS
 62
     7
100
AcDbLine
 10
581.344152314136
 20
215.3161040167139
 30
0.0
 11
581.344152314136
 21
215.0161063889788
 31
0.0
  0
LINE
  5
1E75A
330
18
100
AcDbEntity
  8
1
  6
CONTINUOUS
 62
     7
100
AcDbLine
 10
597.0584587857725
 20
207.4036004612968
 30
0.0
 11
597.0584587857725
 21
208.6215431461857
 31
0.0
  0
LINE
  5
1E75B
330
18
100
AcDbEntity
  8
1
  6
CONTINUOUS
 62
     7
100
AcDbLine
 10
597.0584587857725
 20
210.4036009530352
 30
0.0
 11
597.0584587857725
 21
211.621543637924
 31
0.0
  0
ARC
  5
1E75C
330
18
100
AcDbEntity
  8
1
  6
CONTINUOUS
 62
     7
100
AcDbCircle
 10
594.5694425507645
 20
208.0092367376016
 30
0.0
 40
2.180786190975865
100
AcDbArc
 50
344.5889229382363
 51
15.41107706176375
  0
ARC
  5
1E75D
330
18
100
AcDbEntity
  8
1
  6
CONTINUOUS
 62
     7
100
AcDbCircle
 10
594.5694295539597
 20
211.0092362980173
 30
0.0
 40
2.180798967961691
100
AcDbArc
 50
344.5889900907566
 51
15.41100990924334
  0
LWPOLYLINE
  5
1E75E
330
18
100
AcDbEntity
  8
1
  6
CONTINUOUS
 62
     7
100
AcDbPolyline
 90
       22
 70
   128
 43
0.0
 10
602.4167286022698
 20
208.009235806279
 10
602.3850799328779
 20
207.7918539414928
 10
602.2929465188777
 20
207.5937877069042
 10
602.1485137543773
 20
207.432635373883
 10
601.9646161957776
 20
207.3227169583366
 10
601.7575938976502
 20
207.2737983087824
 10
601.545840946505
 20
207.2902268389986
 10
601.3481733179783
 20
207.3705422351883
 10
601.1821538931822
 20
207.5076087037847
 10
601.0625348216986
 20
207.6892464081571
 10
600.9999448224103
 20
207.8993173907326
 10
600.9999448224103
 20
208.1191560844705
 10
601.0625348216986
 20
208.3292252044008
 10
601.1821538931822
 20
208.5108647714184
 10
601.3481733179783
 20
208.6479293773697
 10
601.545840946505
 20
208.7282466362045
 10
601.7575938976502
 20
208.7446751664207
 10
601.9646161957776
 20
208.6957565168665
 10
602.1485137543773
 20
208.5858381013201
 10
602.2929465188777
 20
208.4246857682989
 10
602.3850799328779
 20
208.2266176710651
 10
602.4167286022698
 20
208.009235806279
  0
LINE
  5
1E75F
330
18
100
AcDbEntity
  8
1
  6
CONTINUOUS
 62
     7
100
AcDbLine
 10
603.4671729221141
 20
214.709235600643
 30
0.0
 11
600.0474386173432
 21
214.709235600643
 31
0.0
  0
LINE
  5
1E760
330
18
100
AcDbEntity
  8
1
  6
CONTINUOUS
 62
     7
100
AcDbLine
 10
603.4671729221141
 20
214.709235600643
 30
0.0
 11
603.5879133059775
 21
214.709235600643
 31
0.0
  0
LINE
  5
1E761
330
18
100
AcDbEntity
  8
1
  6
CONTINUOUS
 62
     7
100
AcDbLine
 10
603.5879137716388
 20
214.709235600643
 30
0.0
 11
603.5879137716388
 21
207.0092375050114
 31
0.0
  0
LWPOLYLINE
  5
1E762
330
18
100
AcDbEntity
  8
1
  6
CONTINUOUS
 62
     7
100
AcDbPolyline
 90
        3
 70
   128
 43
0.0
 10
603.5879137716388
 20
207.0092356423662
 10
603.0469955667054
 20
206.4492369661854
 10
602.6219883724248
 20
206.0092373410986
  0
LINE
  5
1E763
330
18
100
AcDbEntity
  8
1
  6
CONTINUOUS
 62
     7
100
AcDbLine
 10
602.6219879067635
 20
206.0092373410986
 30
0.0
 11
600.7867294619923
 21
206.0092373410986
 31
0.0
  0
LWPOLYLINE
  5
1E764
330
18
100
AcDbEntity
  8
1
  6
CONTINUOUS
 62
     7
100
AcDbPolyline
 90
        3
 70
   128
 43
0.0
 10
600.7867287635004
 20
206.0092373410986
 10
600.2458103257363
 20
206.5692360172794
 10
599.8208028986251
 20
207.0092356423662
  0
LINE
  5
1E765
330
18
100
AcDbEntity
  8
1
  6
CONTINUOUS
 62
     7
100
AcDbLine
 10
599.8208028986251
 20
207.0092356423662
 30
0.0
 11
599.8208028986251
 21
214.3161057154463
 31
0.0
  0
LWPOLYLINE
  5
1E766
330
18
100
AcDbEntity
  8
1
  6
CONTINUOUS
 62
     7
100
AcDbPolyline
 90
       22
 70
   128
 43
0.0
 10
602.4167286022698
 20
211.0092362980173
 10
602.3850799328779
 20
210.7918544332312
 10
602.2929465188777
 20
210.5937881986425
 10
602.1485137543773
 20
210.4326358656214
 10
601.9646161957776
 20
210.3227174500749
 10
601.7575938976502
 20
210.2737969378755
 10
601.545840946505
 20
210.2902254680918
 10
601.3481733179783
 20
210.3705427269266
 10
601.1821538931822
 20
210.5076073328779
 10
601.0625348216986
 20
210.6892487625406
 10
600.9999448224103
 20
210.8993178824709
 10
600.9999448224103
 20
211.1191547135637
 10
601.0625348216986
 20
211.3292275587843
 10
601.1821538931822
 20
211.5108652631567
 10
601.3481733179783
 20
211.647929869108
 10
601.545840946505
 20
211.7282471279428
 10
601.7575938976502
 20
211.7446756581591
 10
601.9646161957776
 20
211.6957551459597
 10
602.1485137543773
 20
211.5858367304132
 10
602.2929465188777
 20
211.4246843973921
 10
602.3850799328779
 20
211.2266181628034
 10
602.4167286022698
 20
211.0092362980173
  0
SPLINE
  5
1E767
330
18
100
AcDbEntity
  8
1
  6
CONTINUOUS
 62
     7
100
AcDbSpline
210
0.0
220
0.0
230
1.0
 70
     8
 71
     3
 72
    11
 73
     7
 74
     0
 42
0.000000001
 43
0.00000001
 40
0.0
 40
0.0
 40
0.0
 40
0.0
 40
0.1943925489252262
 40
0.636561269598708
 40
0.9038274870188314
 40
0.9999999999999999
 40
0.9999999999999999
 40
0.9999999999999999
 40
0.9999999999999999
 10
602.9640901624357
 20
215.0161063889788
 30
0.0
 10
602.9842559807586
 20
214.9810593589516
 30
0.0
 10
603.0502913251431
 20
214.8662937362307
 30
0.0
 10
603.1966071458905
 20
214.7645193334314
 30
0.0
 10
603.3661261061361
 20
214.7110005112099
 30
0.0
 10
603.4461458530694
 20
214.7096049038026
 30
0.0
 10
603.4673205367421
 20
214.709235600643
 30
0.0
  0
SPLINE
  5
1E768
330
18
100
AcDbEntity
  8
1
  6
CONTINUOUS
 62
     7
100
AcDbSpline
210
0.0
220
0.0
230
1.0
 70
     8
 71
     3
 72
    12
 73
     8
 74
     0
 42
0.000000001
 43
0.00000001
 40
0.0
 40
0.0
 40
0.0
 40
0.0
 40
0.0441280192481314
 40
0.2395534779679175
 40
0.4797987434528385
 40
0.7187625220738232
 40
1.0
 40
1.0
 40
1.0
 40
1.0
 10
600.0605304516052
 20
214.7266066293047
 30
0.0
 10
600.0722977369508
 20
214.72800624372
 30
0.0
 10
600.1361776522244
 20
214.7356041941088
 30
0.0
 10
600.2404938534426
 20
214.8033481824782
 30
0.0
 10
600.3438320085934
 20
214.9201200758782
 30
0.0
 10
600.4158551757986
 20
215.1057146449169
 30
0.0
 10
600.4077032397666
 20
215.2378210654579
 30
0.0
 10
600.4032960417812
 20
215.3092420319841
 30
0.0
  0
LINE
  5
1E769
330
18
100
AcDbEntity
  8
1
  6
CONTINUOUS
 62
     7
100
AcDbLine
 10
600.6055555562621
 20
206.0092373410986
 30
0.0
 11
600.7867287635004
 21
206.0092373410986
 31
0.0
  0
LWPOLYLINE
  5
1E76A
330
18
100
AcDbEntity
  8
1
  6
CONTINUOUS
 62
     7
100
AcDbPolyline
 90
        3
 70
   128
 43
0.0
 10
600.6055555562621
 20
206.0092373410986
 10
600.064637118498
 20
206.5692360172794
 10
599.6396299242174
 20
207.0092356423662
  0
LINE
  5
1E76B
330
18
100
AcDbEntity
  8
1
  6
CONTINUOUS
 62
     7
100
AcDbLine
 10
599.6396296913867
 20
207.0092356423662
 30
0.0
 11
599.8208028986251
 21
207.0092356423662
 31
0.0
  0
SPLINE
  5
1E76C
330
18
100
AcDbEntity
  8
1
  6
CONTINUOUS
 62
     7
100
AcDbSpline
210
0.0
220
0.0
230
1.0
 70
     8
 71
     3
 72
    10
 73
     6
 74
     0
 42
0.000000001
 43
0.00000001
 40
0.0
 40
0.0
 40
0.0
 40
0.0
 40
0.3873433848717498
 40
0.8038213968823713
 40
0.9999999999999999
 40
0.9999999999999999
 40
0.9999999999999999
 40
0.9999999999999999
 10
600.0738611701076
 20
214.8078477601335
 30
0.0
 10
600.1324455335346
 20
214.8557268273883
 30
0.0
 10
600.2540207731913
 20
214.9550862594199
 30
0.0
 10
600.3502720537222
 20
215.1465475811926
 30
0.0
 10
600.3698325927687
 20
215.269770086814
 30
0.0
 10
600.3760960674977
 20
215.3092271308229
 30
0.0
  0
LINE
  5
1E76D
330
18
100
AcDbEntity
  8
1
  6
CONTINUOUS
 62
     7
100
AcDbLine
 10
600.4032960417812
 20
215.3092383066938
 30
0.0
 11
600.3760974644815
 21
215.3092383066938
 31
0.0
  0
LINE
  5
1E76E
330
18
100
AcDbEntity
  8
1
  6
CONTINUOUS
 62
     7
100
AcDbLine
 10
599.6396296913867
 20
207.0092356423662
 30
0.0
 11
599.6396296913867
 21
214.3161057154463
 31
0.0
  0
ARC
  5
1E76F
330
18
100
AcDbEntity
  8
1
  6
CONTINUOUS
 62
     7
100
AcDbCircle
 10
601.507916996037
 20
207.9977124084106
 30
0.0
 40
0.7277294068242773
100
AcDbArc
 50
278.3638460139322
 51
0.9073010542037698
  0
ARC
  5
1E770
330
18
100
AcDbEntity
  8
1
  6
CONTINUOUS
 62
     7
100
AcDbCircle
 10
601.5060234497649
 20
208.0191496960841
 30
0.0
 40
0.7295990711759845
100
AcDbArc
 50
359.2214333213516
 51
81.5074196105069
  0
ARC
  5
1E771
330
18
100
AcDbEntity
  8
1
  6
CONTINUOUS
 62
     7
100
AcDbCircle
 10
601.507916996037
 20
210.9977129001489
 30
0.0
 40
0.7277294068242773
100
AcDbArc
 50
278.3638460139322
 51
0.9073010542037698
  0
ARC
  5
1E772
330
18
100
AcDbEntity
  8
1
  6
CONTINUOUS
 62
     7
100
AcDbCircle
 10
601.5060191882195
 20
211.0191465655229
 30
0.0
 40
0.7296032831169423
100
AcDbArc
 50
359.2217223018383
 51
81.5071306300251
  0
LWPOLYLINE
  5
1E773
330
18
100
AcDbEntity
  8
1
  6
CONTINUOUS
 62
     7
100
AcDbPolyline
 90
       22
 70
   128
 43
0.0
 10
597.3555294121747
 20
208.009235806279
 10
597.3271540505943
 20
207.7918539414928
 10
597.2445492015818
 20
207.5937877069042
 10
597.115054720211
 20
207.432635373883
 10
596.9501767112656
 20
207.3227169583366
 10
596.7645653226778
 20
207.2737983087824
 10
596.5747129602955
 20
207.2902268389986
 10
596.397488822708
 20
207.3705422351883
 10
596.2486400758048
 20
207.5076087037847
 10
596.1413925187794
 20
207.6892464081571
 10
596.0852756188383
 20
207.8993173907326
 10
596.0852756188383
 20
208.1191560844705
 10
596.1413925187794
 20
208.3292252044008
 10
596.2486400758048
 20
208.5108647714184
 10
596.397488822708
 20
208.6479293773697
 10
596.5747129602955
 20
208.7282466362045
 10
596.7645653226778
 20
208.7446751664207
 10
596.9501767112656
 20
208.6957565168665
 10
597.115054720211
 20
208.5858381013201
 10
597.2445492015818
 20
208.4246857682989
 10
597.3271540505943
 20
208.2266176710651
 10
597.3555294121747
 20
208.009235806279
  0
LINE
  5
1E774
330
18
100
AcDbEntity
  8
1
  6
CONTINUOUS
 62
     7
100
AcDbLine
 10
595.0280861952474
 20
214.709235600643
 30
0.0
 11
595.1363392896151
 21
214.709235600643
 31
0.0
  0
LINE
  5
1E775
330
18
100
AcDbEntity
  8
1
  6
CONTINUOUS
 62
     7
100
AcDbLine
 10
598.297332043307
 20
214.709235600643
 30
0.0
 11
595.1363392896151
 21
214.709235600643
 31
0.0
  0
LINE
  5
1E776
330
18
100
AcDbEntity
  8
1
  6
CONTINUOUS
 62
     7
100
AcDbLine
 10
598.297332043307
 20
214.709235600643
 30
0.0
 11
598.4055847884288
 21
214.709235600643
 31
0.0
  0
LINE
  5
1E777
330
18
100
AcDbEntity
  8
1
  6
CONTINUOUS
 62
     7
100
AcDbLine
 10
598.40558525409
 20
214.709235600643
 30
0.0
 11
598.40558525409
 21
207.0092375050114
 31
0.0
  0
LWPOLYLINE
  5
1E778
330
18
100
AcDbEntity
  8
1
  6
CONTINUOUS
 62
     7
100
AcDbPolyline
 90
        3
 70
   128
 43
0.0
 10
598.40558525409
 20
207.0092356423662
 10
597.9206112469678
 20
206.4492369661854
 10
597.539560266318
 20
206.0092373410986
  0
LINE
  5
1E779
330
18
100
AcDbEntity
  8
1
  6
CONTINUOUS
 62
     7
100
AcDbLine
 10
597.5395598006567
 20
206.0092373410986
 30
0.0
 11
595.8941121143421
 21
206.0092373410986
 31
0.0
  0
LWPOLYLINE
  5
1E77A
330
18
100
AcDbEntity
  8
1
  6
CONTINUOUS
 62
     7
100
AcDbPolyline
 90
        3
 70
   128
 43
0.0
 10
595.8941115322655
 20
206.0092373410986
 10
595.4091372923126
 20
206.5692360172794
 10
595.0280861952474
 20
207.0092356423662
  0
LINE
  5
1E77B
330
18
100
AcDbEntity
  8
1
  6
CONTINUOUS
 62
     7
100
AcDbLine
 10
595.0280861952474
 20
207.0092356423662
 30
0.0
 11
595.0280861952474
 21
214.709235600643
 31
0.0
  0
LWPOLYLINE
  5
1E77C
330
18
100
AcDbEntity
  8
1
  6
CONTINUOUS
 62
     7
100
AcDbPolyline
 90
       22
 70
   128
 43
0.0
 10
597.3555294121747
 20
211.0092362980173
 10
597.3271540505943
 20
210.7918544332312
 10
597.2445492015818
 20
210.5937881986425
 10
597.115054720211
 20
210.4326358656214
 10
596.9501767112656
 20
210.3227174500749
 10
596.7645653226778
 20
210.2737969378755
 10
596.5747129602955
 20
210.2902254680918
 10
596.397488822708
 20
210.3705427269266
 10
596.2486400758048
 20
210.5076073328779
 10
596.1413925187794
 20
210.6892487625406
 10
596.0852756188383
 20
210.8993178824709
 10
596.0852756188383
 20
211.1191547135637
 10
596.1413925187794
 20
211.3292275587843
 10
596.2486400758048
 20
211.5108652631567
 10
596.397488822708
 20
211.647929869108
 10
596.5747129602955
 20
211.7282471279428
 10
596.7645653226778
 20
211.7446756581591
 10
596.9501767112656
 20
211.6957551459597
 10
597.115054720211
 20
211.5858367304132
 10
597.2445492015818
 20
211.4246843973921
 10
597.3271540505943
 20
211.2266181628034
 10
597.3555294121747
 20
211.0092362980173
  0
SPLINE
  5
1E77D
330
18
100
AcDbEntity
  8
1
  6
CONTINUOUS
 62
     7
100
AcDbSpline
210
0.0
220
0.0
230
1.0
 70
     8
 71
     3
 72
    12
 73
     8
 74
     0
 42
0.000000001
 43
0.00000001
 40
0.0
 40
0.0
 40
0.0
 40
0.0
 40
0.2167187526539682
 40
0.4680794021900933
 40
0.7600307085769511
 40
0.9365000308530576
 40
1.0
 40
1.0
 40
1.0
 40
1.0
 10
597.5533525715714
 20
215.3092308561132
 30
0.0
 10
597.5853881096818
 20
215.242542719365
 30
0.0
 10
597.6545799786084
 20
215.0985065305259
 30
0.0
 10
597.8252445102358
 20
214.8937912221822
 30
0.0
 10
598.0441441016518
 20
214.7634152632618
 30
0.0
 10
598.2063163695951
 20
214.7110650304626
 30
0.0
 10
598.2780519189374
 20
214.7096184029633
 30
0.0
 10
598.2970343693291
 20
214.709235600643
 30
0.0
  0
SPLINE
  5
1E77E
330
18
100
AcDbEntity
  8
1
  6
CONTINUOUS
 62
     7
100
AcDbSpline
210
0.0
220
0.0
230
1.0
 70
     8
 71
     3
 72
    11
 73
     7
 74
     0
 42
0.000000001
 43
0.00000001
 40
0.0
 40
0.0
 40
0.0
 40
0.0
 40
0.2580316936778648
 40
0.5169462536333488
 40
0.8352415233656635
 40
1.0
 40
1.0
 40
1.0
 40
1.0
 10
595.1366412709599
 20
214.709235600643
 30
0.0
 10
595.18398002043
 20
214.7132676116994
 30
0.0
 10
595.2788194908899
 20
214.7213454295073
 30
0.0
 10
595.4340065815452
 20
214.8016060199303
 30
0.0
 10
595.5629790897176
 20
214.8979219379655
 30
0.0
 10
595.6135378579932
 20
214.9860484656803
 30
0.0
 10
595.6307822861841
 20
215.0161063889788
 30
0.0
  0
SPLINE
  5
1E77F
330
18
100
AcDbEntity
  8
1
  6
CONTINUOUS
 62
     7
100
AcDbSpline
210
0.0
220
0.0
230
1.0
 70
     8
 71
     3
 72
    12
 73
     8
 74
     0
 42
0.000000001
 43
0.00000001
 40
0.0
 40
0.0
 40
0.0
 40
0.0
 40
0.2336892148978021
 40
0.4793580137136196
 40
0.7117335983404482
 40
0.86995514739688
 40
0.9999999999999999
 40
0.9999999999999999
 40
0.9999999999999999
 40
0.9999999999999999
 10
598.0287460633685
 20
215.3092494825647
 30
0.0
 10
598.0480488711887
 20
215.2409674906718
 30
0.0
 10
598.0876440044937
 20
215.1009031748215
 30
0.0
 10
598.2121164397914
 20
214.9015733435535
 30
0.0
 10
598.3823045617055
 20
214.780173665811
 30
0.0
 10
598.5305761772405
 20
214.7161154051896
 30
0.0
 10
598.6108255165313
 20
214.71137439839
 30
0.0
 10
598.6470281868374
 20
214.709235600643
 30
0.0
  0
LINE
  5
1E780
330
18
100
AcDbEntity
  8
1
  6
CONTINUOUS
 62
     7
100
AcDbLine
 10
598.0287283682396
 20
215.3092383066938
 30
0.0
 11
597.5533525133637
 21
215.3092345814035
 31
0.0
  0
LINE
  5
1E781
330
18
100
AcDbEntity
  8
1
  6
CONTINUOUS
 62
     7
100
AcDbLine
 10
598.7555852416103
 20
207.0092356423662
 30
0.0
 11
598.40558525409
 21
207.0092356423662
 31
0.0
  0
LINE
  5
1E782
330
18
100
AcDbEntity
  8
1
  6
CONTINUOUS
 62
     7
100
AcDbLine
 10
597.8895598463846
 20
206.0092373410986
 30
0.0
 11
597.5395598006567
 21
206.0092373410986
 31
0.0
  0
LWPOLYLINE
  5
1E783
330
18
100
AcDbEntity
  8
1
  6
CONTINUOUS
 62
     7
100
AcDbPolyline
 90
        3
 70
   128
 43
0.0
 10
598.7555852416103
 20
207.0092356423662
 10
598.2706111180728
 20
206.4492369661854
 10
597.8895601374229
 20
206.0092373410986
  0
LINE
  5
1E784
330
18
100
AcDbEntity
  8
1
  6
CONTINUOUS
 62
     7
100
AcDbLine
 10
598.7555852416103
 20
214.709235600643
 30
0.0
 11
598.40558525409
 21
214.709235600643
 31
0.0
  0
LINE
  5
1E785
330
18
100
AcDbEntity
  8
1
  6
CONTINUOUS
 62
     7
100
AcDbLine
 10
598.7555852416103
 20
214.709235600643
 30
0.0
 11
598.7555852416103
 21
207.0092375050114
 31
0.0
  0
ARC
  5
1E786
330
18
100
AcDbEntity
  8
1
  6
CONTINUOUS
 62
     7
100
AcDbCircle
 10
597.1831086654829
 20
208.0092367376016
 30
0.0
 40
0.7667541905481596
100
AcDbArc
 50
112.3261203616941
 51
247.6738796383059
  0
ARC
  5
1E787
330
18
100
AcDbEntity
  8
1
  6
CONTINUOUS
 62
     7
100
AcDbCircle
 10
597.1831096622218
 20
211.0092362980173
 30
0.0
 40
0.7667554306949995
100
AcDbArc
 50
112.3261628227484
 51
247.6738371772516
  0
LINE
  5
1E788
330
18
100
AcDbEntity
  8
1
  6
CONTINUOUS
 62
     7
100
AcDbLine
 10
591.0567808686887
 20
214.709235600643
 30
0.0
 11
590.380632763276
 21
214.709235600643
 31
0.0
  0
LINE
  5
1E789
330
18
100
AcDbEntity
  8
1
  6
CONTINUOUS
 62
     7
100
AcDbLine
 10
591.0567808686887
 20
214.709235600643
 30
0.0
 11
591.0567808686887
 21
207.0092375050114
 31
0.0
  0
LINE
  5
1E78A
330
18
100
AcDbEntity
  8
1
  6
CONTINUOUS
 62
     7
100
AcDbLine
 10
591.0567808686887
 20
207.0092356423662
 30
0.0
 11
590.380632763276
 21
207.0092356423662
 31
0.0
  0
LINE
  5
1E78B
330
18
100
AcDbEntity
  8
1
  6
CONTINUOUS
 62
     7
100
AcDbLine
 10
590.380632763276
 20
214.709235600643
 30
0.0
 11
590.380632763276
 21
207.0092375050114
 31
0.0
  0
LWPOLYLINE
  5
1E78C
330
18
100
AcDbEntity
  8
1
  6
CONTINUOUS
 62
     7
100
AcDbPolyline
 90
        3
 70
   128
 43
0.0
 10
591.0567808686887
 20
207.0092356423662
 10
590.9118423960304
 20
206.4492369661854
 10
590.7979621342515
 20
206.0092373410986
  0
LINE
  5
1E78D
330
18
100
AcDbEntity
  8
1
  6
CONTINUOUS
 62
     7
100
AcDbLine
 10
590.7979621342515
 20
206.0092373410986
 30
0.0
 11
590.1218140288388
 21
206.0092373410986
 31
0.0
  0
LWPOLYLINE
  5
1E78E
330
18
100
AcDbEntity
  8
1
  6
CONTINUOUS
 62
     7
100
AcDbPolyline
 90
        3
 70
   128
 43
0.0
 10
590.380632763276
 20
207.0092356423662
 10
590.2356942906176
 20
206.4492369661854
 10
590.1218140288388
 20
206.0092373410986
  0
SPLINE
  5
1E78F
330
18
100
AcDbEntity
  8
1
  6
CONTINUOUS
 62
     7
100
AcDbSpline
210
0.0
220
0.0
230
1.0
 70
     8
 71
     3
 72
    12
 73
     8
 74
     0
 42
0.000000001
 43
0.00000001
 40
0.0
 40
0.0
 40
0.0
 40
0.0
 40
0.2336894990207745
 40
0.4793582751420747
 40
0.7117339336248951
 40
0.8699552188736255
 40
0.9999999999999999
 40
0.9999999999999999
 40
0.9999999999999999
 40
0.9999999999999999
 10
590.6113674654757
 20
215.3092494825647
 30
0.0
 10
590.6431591185496
 20
215.2409675156379
 30
0.0
 10
590.7083721129088
 20
215.1009033449047
 30
0.0
 10
590.8027945640122
 20
214.9015732644145
 30
0.0
 10
590.924672372104
 20
214.7801737821482
 30
0.0
 10
590.9891336412418
 20
214.7161153773734
 30
0.0
 10
591.0130562306016
 20
214.7113743906467
 30
0.0
 10
591.0238483711278
 20
214.709235600643
 30
0.0
  0
SPLINE
  5
1E790
330
18
100
AcDbEntity
  8
1
  6
CONTINUOUS
 62
     7
100
AcDbSpline
210
0.0
220
0.0
230
1.0
 70
     8
 71
     3
 72
    12
 73
     8
 74
     0
 42
0.000000001
 43
0.00000001
 40
0.0
 40
0.0
 40
0.0
 40
0.0
 40
0.2167189465816945
 40
0.4680795400508427
 40
0.7600311406357358
 40
0.9365014301762901
 40
1.0
 40
1.0
 40
1.0
 40
1.0
 10
589.9118608585691
 20
215.3092308561132
 30
0.0
 10
589.9440258546938
 20
215.2425427364751
 30
0.0
 10
590.0134972914523
 20
215.0985066710576
 30
0.0
 10
590.1183549550974
 20
214.8937910832213
 30
0.0
 10
590.2623643377781
 20
214.7634150298774
 30
0.0
 10
590.3205188132908
 20
214.7110651997688
 30
0.0
 10
590.3420219306329
 20
214.7096184322639
 30
0.0
 10
590.3477119072472
 20
214.709235600643
 30
0.0
  0
LINE
  5
1E791
330
18
100
AcDbEntity
  8
1
  6
CONTINUOUS
 62
     7
100
AcDbLine
 10
590.6113432510888
 20
215.3092383066938
 30
0.0
 11
589.9118608585691
 21
215.3092345814035
 31
0.0
  0
LWPOLYLINE
  5
1E792
330
18
100
AcDbEntity
  8
1
  6
CONTINUOUS
 62
     7
100
AcDbPolyline
 90
       22
 70
   128
 43
0.0
 10
590.0668147741949
 20
208.009235806279
 10
590.0583346164917
 20
207.7918539414928
 10
590.0336475833451
 20
207.5937877069042
 10
589.9949469394182
 20
207.432635373883
 10
589.9456715933179
 20
207.3227169583366
 10
589.8902001581287
 20
207.2737983087824
 10
589.8334611929154
 20
207.2902268389986
 10
589.7804964124357
 20
207.3705422351883
 10
589.7360113239979
 20
207.5076087037847
 10
589.7039598575925
 20
207.6892464081571
 10
589.6871886006688
 20
207.8993173907326
 10
589.6871886006688
 20
208.1191560844705
 10
589.7039598575925
 20
208.3292252044008
 10
589.7360113239979
 20
208.5108647714184
 10
589.7804964124357
 20
208.6479293773697
 10
589.8334611929154
 20
208.7282466362045
 10
589.8902001581287
 20
208.7446751664207
 10
589.9456715933179
 20
208.6957565168665
 10
589.9949469394182
 20
208.5858381013201
 10
590.0336475833451
 20
208.4246857682989
 10
590.0583346164917
 20
208.2266176710651
 10
590.0668147741949
 20
208.009235806279
  0
LINE
  5
1E793
330
18
100
AcDbEntity
  8
1
  6
CONTINUOUS
 62
     7
100
AcDbLine
 10
589.3712388142144
 20
214.709235600643
 30
0.0
 11
589.4035910978114
 21
214.709235600643
 31
0.0
  0
LINE
  5
1E794
330
18
100
AcDbEntity
  8
1
  6
CONTINUOUS
 62
     7
100
AcDbLine
 10
590.348280479679
 20
214.709235600643
 30
0.0
 11
589.4035910978114
 21
214.709235600643
 31
0.0
  0
LINE
  5
1E795
330
18
100
AcDbEntity
  8
1
  6
CONTINUOUS
 62
     7
100
AcDbLine
 10
590.1218140288388
 20
206.0092373410986
 30
0.0
 11
589.6300580143129
 21
206.0092373410986
 31
0.0
  0
LWPOLYLINE
  5
1E796
330
18
100
AcDbEntity
  8
1
  6
CONTINUOUS
 62
     7
100
AcDbPolyline
 90
        3
 70
   128
 43
0.0
 10
589.6300575486516
 20
206.0092373410986
 10
589.4851190759932
 20
206.5692360172794
 10
589.3712388142144
 20
207.0092356423662
  0
LINE
  5
1E797
330
18
100
AcDbEntity
  8
1
  6
CONTINUOUS
 62
     7
100
AcDbLine
 10
589.3712388142144
 20
207.0092356423662
 30
0.0
 11
589.3712388142144
 21
214.709235600643
 31
0.0
  0
LWPOLYLINE
  5
1E798
330
18
100
AcDbEntity
  8
1
  6
CONTINUOUS
 62
     7
100
AcDbPolyline
 90
       22
 70
   128
 43
0.0
 10
590.0668147741949
 20
211.0092362980173
 10
590.0583346164917
 20
210.7918544332312
 10
590.0336475833451
 20
210.5937881986425
 10
589.9949469394182
 20
210.4326358656214
 10
589.9456715933179
 20
210.3227174500749
 10
589.8902001581287
 20
210.2737969378755
 10
589.8334611929154
 20
210.2902254680918
 10
589.7804964124357
 20
210.3705427269266
 10
589.7360113239979
 20
210.5076073328779
 10
589.7039598575925
 20
210.6892487625406
 10
589.6871886006688
 20
210.8993178824709
 10
589.6871886006688
 20
211.1191547135637
 10
589.7039598575925
 20
211.3292275587843
 10
589.7360113239979
 20
211.5108652631567
 10
589.7804964124357
 20
211.647929869108
 10
589.8334611929154
 20
211.7282471279428
 10
589.8902001581287
 20
211.7446756581591
 10
589.9456715933179
 20
211.6957551459597
 10
589.9949469394182
 20
211.5858367304132
 10
590.0336475833451
 20
211.4246843973921
 10
590.0583346164917
 20
211.2266181628034
 10
590.0668147741949
 20
211.0092362980173
  0
LINE
  5
1E799
330
18
100
AcDbEntity
  8
1
  6
CONTINUOUS
 62
     7
100
AcDbLine
 10
590.348280479679
 20
214.709235600643
 30
0.0
 11
590.380632763276
 21
214.709235600643
 31
0.0
  0
SPLINE
  5
1E79A
330
18
100
AcDbEntity
  8
1
  6
CONTINUOUS
 62
     7
100
AcDbSpline
210
0.0
220
0.0
230
1.0
 70
     8
 71
     3
 72
    12
 73
     8
 74
     0
 42
0.000000001
 43
0.00000001
 40
0.0
 40
0.0
 40
0.0
 40
0.0
 40
0.1692627359982913
 40
0.3391046071153753
 40
0.5479005524611393
 40
0.7555805225393689
 40
0.9999999999999999
 40
0.9999999999999999
 40
0.9999999999999999
 40
0.9999999999999999
 10
589.4041708461141
 20
214.709235600643
 30
0.0
 10
589.4181031841515
 20
214.7133186530951
 30
0.0
 10
589.4460155299405
 20
214.7214987282281
 30
0.0
 10
589.526324292988
 20
214.800931772238
 30
0.0
 10
589.63379517544
 20
214.9208106858748
 30
0.0
 10
589.7217145521556
 20
215.1055062342265
 30
0.0
 10
589.783335884152
 20
215.2377479268843
 30
0.0
 10
589.8166503547823
 20
215.3092420319841
 30
0.0
  0
ARC
  5
1E79B
330
18
100
AcDbEntity
  8
1
  6
CONTINUOUS
 62
     7
100
AcDbCircle
 10
602.5709324438917
 20
208.0092367376016
 30
0.0
 40
1.045586194728153
100
AcDbArc
 50
138.934893698606
 51
221.065106301394
  0
ARC
  5
1E79C
330
18
100
AcDbEntity
  8
1
  6
CONTINUOUS
 62
     7
100
AcDbCircle
 10
602.5709262417532
 20
211.0092362980173
 30
0.0
 40
1.04558090674607
100
AcDbArc
 50
138.934708914047
 51
221.065291085953
  0
ARC
  5
1E79D
330
18
100
AcDbEntity
  8
1
  6
CONTINUOUS
 62
     7
100
AcDbCircle
 10
600.4255456897508
 20
207.9900651436524
 30
0.0
 40
1.254013481181026
100
AcDbArc
 50
341.3587263512206
 51
0.8759402220618335
  0
ARC
  5
1E79E
330
18
100
AcDbEntity
  8
1
  6
CONTINUOUS
 62
     7
100
AcDbCircle
 10
600.42553414932
 20
208.0284064429302
 30
0.0
 40
1.254025019866154
100
AcDbArc
 50
359.1240690253138
 51
18.64118687228495
  0
ARC
  5
1E79F
330
18
100
AcDbEntity
  8
1
  6
CONTINUOUS
 62
     7
100
AcDbCircle
 10
600.4251111010806
 20
210.9901317775452
 30
0.0
 40
1.254447010031996
100
AcDbArc
 50
341.3621279604202
 51
0.8726161419851243
  0
ARC
  5
1E7A0
330
18
100
AcDbEntity
  8
1
  6
CONTINUOUS
 62
     7
100
AcDbCircle
 10
600.4251111010806
 20
211.0283408184894
 30
0.0
 40
1.254447010031996
100
AcDbArc
 50
359.1273838580149
 51
18.63787203957978
  0
LWPOLYLINE
  5
1E7A1
330
18
100
AcDbEntity
  8
1
  6
CONTINUOUS
 62
     7
100
AcDbPolyline
 90
        3
 70
   128
 43
0.0
 10
590.861733981887
 20
206.0092373410986
 10
591.3467081054246
 20
206.5692360172794
 10
591.7277592024898
 20
207.0092356423662
  0
LINE
  5
1E7A2
330
18
100
AcDbEntity
  8
1
  6
CONTINUOUS
 62
     7
100
AcDbLine
 10
589.2162858299112
 20
206.0092373410986
 30
0.0
 11
589.5997038832998
 21
206.0092373410986
 31
0.0
  0
LINE
  5
1E7A3
330
18
100
AcDbEntity
  8
1
  6
CONTINUOUS
 62
     7
100
AcDbLine
 10
590.8283157996034
 20
206.0092373410986
 30
0.0
 11
590.8617335162257
 21
206.0092373410986
 31
0.0
  0
LWPOLYLINE
  5
1E7A4
330
18
100
AcDbEntity
  8
1
  6
CONTINUOUS
 62
     7
100
AcDbPolyline
 90
        3
 70
   128
 43
0.0
 10
588.3502601436471
 20
207.0092356423662
 10
588.8352342671847
 20
206.4492369661854
 10
589.2162853642499
 20
206.0092373410986
  0
LINE
  5
1E7A5
330
18
100
AcDbEntity
  8
1
  6
CONTINUOUS
 62
     7
100
AcDbLine
 10
588.3502601436471
 20
214.3161057154463
 30
0.0
 11
588.3502601436471
 21
207.0092375050114
 31
0.0
  0
LINE
  5
1E7A6
330
18
100
AcDbEntity
  8
1
  6
CONTINUOUS
 62
     7
100
AcDbLine
 10
591.7277592024898
 20
207.0092356423662
 30
0.0
 11
591.7277592024898
 21
214.3161057154463
 31
0.0
  0
LINE
  5
1E7A7
330
18
100
AcDbEntity
  8
1
  6
CONTINUOUS
 62
     7
100
AcDbLine
 10
590.861733981887
 20
206.0092373410986
 30
0.0
 11
591.211733852992
 21
206.0092373410986
 31
0.0
  0
LINE
  5
1E7A8
330
18
100
AcDbEntity
  8
1
  6
CONTINUOUS
 62
     7
100
AcDbLine
 10
591.7277592024898
 20
207.0092356423662
 30
0.0
 11
592.077759539256
 21
207.0092356423662
 31
0.0
  0
LWPOLYLINE
  5
1E7A9
330
18
100
AcDbEntity
  8
1
  6
CONTINUOUS
 62
     7
100
AcDbPolyline
 90
        3
 70
   128
 43
0.0
 10
591.211733852992
 20
206.0092373410986
 10
591.6967079765295
 20
206.5692360172794
 10
592.077759539256
 20
207.0092356423662
  0
LINE
  5
1E7AA
330
18
100
AcDbEntity
  8
1
  6
CONTINUOUS
 62
     7
100
AcDbLine
 10
592.077759539256
 20
207.0092356423662
 30
0.0
 11
592.077759539256
 21
214.3161057154463
 31
0.0
  0
LWPOLYLINE
  5
1E7AB
330
18
100
AcDbEntity
  8
1
  6
CONTINUOUS
 62
     7
100
AcDbPolyline
 90
        3
 70
   128
 43
0.0
 10
586.5002902946567
 20
206.0092373410986
 10
587.0412080339288
 20
206.5692360172794
 10
587.4662152282094
 20
207.0092356423662
  0
LINE
  5
1E7AC
330
18
100
AcDbEntity
  8
1
  6
CONTINUOUS
 62
     7
100
AcDbLine
 10
586.330850122044
 20
206.0092373410986
 30
0.0
 11
586.5002893633341
 21
206.0092373410986
 31
0.0
  0
LWPOLYLINE
  5
1E7AD
330
18
100
AcDbEntity
  8
1
  6
CONTINUOUS
 62
     7
100
AcDbPolyline
 90
        3
 70
   128
 43
0.0
 10
583.699104820857
 20
207.0092356423662
 10
584.2400234914517
 20
206.4492369661854
 10
584.6650306857323
 20
206.0092373410986
  0
LINE
  5
1E7AE
330
18
100
AcDbEntity
  8
1
  6
CONTINUOUS
 62
     7
100
AcDbLine
 10
583.699104820857
 20
214.709235600643
 30
0.0
 11
583.699104820857
 21
207.0092375050114
 31
0.0
  0
LINE
  5
1E7AF
330
18
100
AcDbEntity
  8
1
  6
CONTINUOUS
 62
     7
100
AcDbLine
 10
583.819846136043
 20
214.709235600643
 30
0.0
 11
583.6991057521795
 21
214.709235600643
 31
0.0
  0
LINE
  5
1E7B0
330
18
100
AcDbEntity
  8
1
  6
CONTINUOUS
 62
     7
100
AcDbLine
 10
583.819846136043
 20
214.709235600643
 30
0.0
 11
584.1836114204621
 21
214.709235600643
 31
0.0
  0
LINE
  5
1E7B1
330
18
100
AcDbEntity
  8
1
  6
CONTINUOUS
 62
     7
100
AcDbLine
 10
587.466216159532
 20
207.0092356423662
 30
0.0
 11
587.466216159532
 21
214.3161057154463
 31
0.0
  0
SPLINE
  5
1E7B2
330
18
100
AcDbEntity
  8
1
  6
CONTINUOUS
 62
     7
100
AcDbSpline
210
0.0
220
0.0
230
1.0
 70
     8
 71
     3
 72
    12
 73
     8
 74
     0
 42
0.000000001
 43
0.00000001
 40
0.0
 40
0.0
 40
0.0
 40
0.0
 40
0.2336884938592679
 40
0.4793590082415539
 40
0.7117341099082644
 40
0.8699549674318886
 40
0.9999999999999999
 40
0.9999999999999999
 40
0.9999999999999999
 40
0.9999999999999999
 10
584.2815977311825
 20
215.3092494825647
 30
0.0
 10
584.28609098055
 20
215.2409672910719
 30
0.0
 10
584.295307863782
 20
215.1009018430304
 30
0.0
 10
584.2137002051614
 20
214.9015744310792
 30
0.0
 10
584.094895636775
 20
214.7801736752225
 30
0.0
 10
583.9496680905444
 20
214.7161153221331
 30
0.0
 10
583.8601013803768
 20
214.7113743772246
 30
0.0
 10
583.8196952617859
 20
214.709235600643
 30
0.0
  0
LINE
  5
1E7B3
330
18
100
AcDbEntity
  8
1
  6
CONTINUOUS
 62
     7
100
AcDbLine
 10
583.699104820857
 20
207.0092356423662
 30
0.0
 11
583.5179318464493
 21
207.0092356423662
 31
0.0
  0
LINE
  5
1E7B4
330
18
100
AcDbEntity
  8
1
  6
CONTINUOUS
 62
     7
100
AcDbLine
 10
584.6650306857323
 20
206.0092373410986
 30
0.0
 11
584.4838577113246
 21
206.0092373410986
 31
0.0
  0
LWPOLYLINE
  5
1E7B5
330
18
100
AcDbEntity
  8
1
  6
CONTINUOUS
 62
     7
100
AcDbPolyline
 90
        3
 70
   128
 43
0.0
 10
583.5179318464493
 20
207.0092356423662
 10
584.0588495857214
 20
206.4492369661854
 10
584.483856780002
 20
206.0092373410986
  0
SPLINE
  5
1E7B6
330
18
100
AcDbEntity
  8
1
  6
CONTINUOUS
 62
     7
100
AcDbSpline
210
0.0
220
0.0
230
1.0
 70
     8
 71
     3
 72
    11
 73
     7
 74
     0
 42
0.000000001
 43
0.00000001
 40
0.0
 40
0.0
 40
0.0
 40
0.0
 40
0.2747195295489097
 40
0.5933526410089718
 40
0.9634388541478399
 40
0.9999999999999999
 40
0.9999999999999999
 40
0.9999999999999999
 40
0.9999999999999999
 10
584.2543984553909
 20
215.3092308561132
 30
0.0
 10
584.241401230923
 20
215.2422834895607
 30
0.0
 10
584.2133291914996
 20
215.0976873015221
 30
0.0
 10
584.0740871372695
 20
214.8979535717343
 30
0.0
 10
583.9509784894923
 20
214.7788988053417
 30
0.0
 10
583.8495752071597
 20
214.7524707017526
 30
0.0
 10
583.8404581672644
 20
214.7500945846365
 30
0.0
  0
LINE
  5
1E7B7
330
18
100
AcDbEntity
  8
1
  6
CONTINUOUS
 62
     7
100
AcDbLine
 10
584.2815986625051
 20
215.3092383066938
 30
0.0
 11
584.2543984553909
 21
215.3092345814035
 31
0.0
  0
LINE
  5
1E7B8
330
18
100
AcDbEntity
  8
1
  6
CONTINUOUS
 62
     7
100
AcDbLine
 10
583.5179318464493
 20
214.709235600643
 30
0.0
 11
583.5179318464493
 21
207.0092375050114
 31
0.0
  0
LINE
  5
1E7B9
330
18
100
AcDbEntity
  8
1
  6
CONTINUOUS
 62
     7
100
AcDbLine
 10
583.699104820857
 20
214.709235600643
 30
0.0
 11
583.5179318464493
 21
214.709235600643
 31
0.0
  0
LINE
  5
1E7BA
330
18
100
AcDbEntity
  8
1
  6
CONTINUOUS
 62
     7
100
AcDbLine
 10
584.8201825074052
 20
214.709235600643
 30
0.0
 11
584.2139650858139
 21
214.709235600643
 31
0.0
  0
LINE
  5
1E7BB
330
18
100
AcDbEntity
  8
1
  6
CONTINUOUS
 62
     7
100
AcDbLine
 10
584.8201825074052
 20
214.709235600643
 30
0.0
 11
584.8201825074052
 21
207.0092375050114
 31
0.0
  0
LINE
  5
1E7BC
330
18
100
AcDbEntity
  8
1
  6
CONTINUOUS
 62
     7
100
AcDbLine
 10
584.8201825074052
 20
207.0092356423662
 30
0.0
 11
584.2139650858139
 21
207.0092356423662
 31
0.0
  0
LINE
  5
1E7BD
330
18
100
AcDbEntity
  8
1
  6
CONTINUOUS
 62
     7
100
AcDbLine
 10
584.2139650858139
 20
214.709235600643
 30
0.0
 11
584.2139650858139
 21
207.0092375050114
 31
0.0
  0
LWPOLYLINE
  5
1E7BE
330
18
100
AcDbEntity
  8
1
  6
CONTINUOUS
 62
     7
100
AcDbPolyline
 90
        3
 70
   128
 43
0.0
 10
584.8201825074052
 20
207.0092356423662
 10
585.1001827768182
 20
206.4492369661854
 10
585.3201825893616
 20
206.0092373410986
  0
LINE
  5
1E7BF
330
18
100
AcDbEntity
  8
1
  6
CONTINUOUS
 62
     7
100
AcDbLine
 10
585.3201825893616
 20
206.0092373410986
 30
0.0
 11
584.7139651677703
 21
206.0092373410986
 31
0.0
  0
LINE
  5
1E7C0
330
18
100
AcDbEntity
  8
1
  6
CONTINUOUS
 62
     7
100
AcDbLine
 10
584.2139650858139
 20
207.0092356423662
 30
0.0
 11
584.7139642364477
 21
206.0092373410986
 31
0.0
  0
SPLINE
  5
1E7C1
330
18
100
AcDbEntity
  8
1
  6
CONTINUOUS
 62
     7
100
AcDbSpline
210
0.0
220
0.0
230
1.0
 70
     8
 71
     3
 72
    12
 73
     8
 74
     0
 42
0.000000001
 43
0.00000001
 40
0.0
 40
0.0
 40
0.0
 40
0.0
 40
0.2336896868771753
 40
0.4793576539195539
 40
0.7117328913225895
 40
0.8699553686782586
 40
1.0
 40
1.0
 40
1.0
 40
1.0
 10
584.9171117670035
 20
215.3092494825647
 30
0.0
 10
584.942769562409
 20
215.2409675844979
 30
0.0
 10
584.9954003000964
 20
215.1009038491234
 30
0.0
 10
585.0044604132887
 20
214.9015731217916
 30
0.0
 10
585.0066337518541
 20
214.7801732950198
 30
0.0
 10
584.949524187088
 20
214.7161155532457
 30
0.0
 10
584.903106121236
 20
214.7113744382948
 30
0.0
 10
584.8821657500362
 20
214.709235600643
 30
0.0
  0
SPLINE
  5
1E7C2
330
18
100
AcDbEntity
  8
1
  6
CONTINUOUS
 62
     7
100
AcDbSpline
210
0.0
220
0.0
230
1.0
 70
     8
 71
     3
 72
    12
 73
     8
 74
     0
 42
0.000000001
 43
0.00000001
 40
0.0
 40
0.0
 40
0.0
 40
0.0
 40
0.2167188696625008
 40
0.4680785561866714
 40
0.7600303856702506
 40
0.9365015148613989
 40
1.0
 40
1.0
 40
1.0
 40
1.0
 10
584.4032536051368
 20
215.3092308561132
 30
0.0
 10
584.4167059016639
 20
215.2425427919205
 30
0.0
 10
584.4457607391388
 20
215.0985070978861
 30
0.0
 10
584.4233898845606
 20
214.8937905243276
 30
0.0
 10
584.4081464655723
 20
214.7634148671701
 30
0.0
 10
584.3282216233617
 20
214.7110652387265
 30
0.0
 10
584.2868942348731
 20
214.7096184390595
 30
0.0
 10
584.2759585729932
 20
214.709235600643
 30
0.0
  0
LINE
  5
1E7C3
330
18
100
AcDbEntity
  8
1
  6
CONTINUOUS
 62
     7
100
AcDbLine
 10
584.9170959345197
 20
215.3092383066938
 30
0.0
 11
584.4032536051368
 21
215.3092345814035
 31
0.0
  0
LWPOLYLINE
  5
1E7C4
330
18
100
AcDbEntity
  8
1
  6
CONTINUOUS
 62
     7
100
AcDbPolyline
 90
       22
 70
   128
 43
0.0
 10
585.4264325252866
 20
208.009235806279
 10
585.4428154206967
 20
207.7918539414928
 10
585.4905075184201
 20
207.5937877069042
 10
585.5652713007426
 20
207.432635373883
 10
585.6604636437391
 20
207.3227169583366
 10
585.7676262757873
 20
207.2737983087824
 10
585.8772373548841
 20
207.2902268389986
 10
585.9795580408668
 20
207.3705422351883
 10
586.0654958314394
 20
207.5076087037847
 10
586.1274148128127
 20
207.6892464081571
 10
586.1598136625385
 20
207.8993173907326
 10
586.1598136625385
 20
208.1191560844705
 10
586.1274148128127
 20
208.3292252044008
 10
586.0654958314394
 20
208.5108647714184
 10
585.9795580408668
 20
208.6479293773697
 10
585.8772373548841
 20
208.7282466362045
 10
585.7676262757873
 20
208.7446751664207
 10
585.6604636437391
 20
208.6957565168665
 10
585.5652713007426
 20
208.5858381013201
 10
585.4905075184201
 20
208.4246857682989
 10
585.4428154206967
 20
208.2266176710651
 10
585.4264325252866
 20
208.009235806279
  0
LWPOLYLINE
  5
1E7C5
330
18
100
AcDbEntity
  8
1
  6
CONTINUOUS
 62
     7
100
AcDbPolyline
 90
        3
 70
   128
 43
0.0
 10
586.270182838211
 20
206.0092373410986
 10
586.5501821763014
 20
206.5692360172794
 10
586.7701829201674
 20
207.0092356423662
  0
LINE
  5
1E7C6
330
18
100
AcDbEntity
  8
1
  6
CONTINUOUS
 62
     7
100
AcDbLine
 10
585.3201825893616
 20
206.0092373410986
 30
0.0
 11
586.270182838211
 21
206.0092373410986
 31
0.0
  0
LINE
  5
1E7C7
330
18
100
AcDbEntity
  8
1
  6
CONTINUOUS
 62
     7
100
AcDbLine
 10
584.8826826340651
 20
214.709235600643
 30
0.0
 11
586.7076827935075
 21
214.709235600643
 31
0.0
  0
LINE
  5
1E7C8
330
18
100
AcDbEntity
  8
1
  6
CONTINUOUS
 62
     7
100
AcDbLine
 10
586.7701829201674
 20
214.709235600643
 30
0.0
 11
586.7076827935075
 21
214.709235600643
 31
0.0
  0
LINE
  5
1E7C9
330
18
100
AcDbEntity
  8
1
  6
CONTINUOUS
 62
     7
100
AcDbLine
 10
586.7701829201674
 20
207.0092356423662
 30
0.0
 11
586.7701829201674
 21
214.709235600643
 31
0.0
  0
LWPOLYLINE
  5
1E7CA
330
18
100
AcDbEntity
  8
1
  6
CONTINUOUS
 62
     7
100
AcDbPolyline
 90
       22
 70
   128
 43
0.0
 10
585.4264325252866
 20
211.0092362980173
 10
585.4428154206967
 20
210.7918544332312
 10
585.4905075184201
 20
210.5937881986425
 10
585.5652713007426
 20
210.4326358656214
 10
585.6604636437391
 20
210.3227174500749
 10
585.7676262757873
 20
210.2737969378755
 10
585.8772373548841
 20
210.2902254680918
 10
585.9795580408668
 20
210.3705427269266
 10
586.0654958314394
 20
210.5076073328779
 10
586.1274148128127
 20
210.6892487625406
 10
586.1598136625385
 20
210.8993178824709
 10
586.1598136625385
 20
211.1191547135637
 10
586.1274148128127
 20
211.3292275587843
 10
586.0654958314394
 20
211.5108652631567
 10
585.9795580408668
 20
211.647929869108
 10
585.8772373548841
 20
211.7282471279428
 10
585.7676262757873
 20
211.7446756581591
 10
585.6604636437391
 20
211.6957551459597
 10
585.5652713007426
 20
211.5858367304132
 10
585.4905075184201
 20
211.4246843973921
 10
585.4428154206967
 20
211.2266181628034
 10
585.4264325252866
 20
211.0092362980173
  0
LINE
  5
1E7CB
330
18
100
AcDbEntity
  8
1
  6
CONTINUOUS
 62
     7
100
AcDbLine
 10
584.8826826340651
 20
214.709235600643
 30
0.0
 11
584.8201825074052
 21
214.709235600643
 31
0.0
  0
SPLINE
  5
1E7CC
330
18
100
AcDbEntity
  8
1
  6
CONTINUOUS
 62
     7
100
AcDbSpline
210
0.0
220
0.0
230
1.0
 70
     8
 71
     3
 72
    12
 73
     8
 74
     0
 42
0.000000001
 43
0.00000001
 40
0.0
 40
0.0
 40
0.0
 40
0.0
 40
0.1650078028145438
 40
0.3296993500821372
 40
0.6002202515586851
 40
0.8719865358795726
 40
1.0
 40
1.0
 40
1.0
 40
1.0
 10
586.7081903643107
 20
214.709235600643
 30
0.0
 10
586.6794846896677
 20
214.7138001423715
 30
0.0
 10
586.6221283579546
 20
214.722920477384
 30
0.0
 10
586.5663417344811
 20
214.8078130046753
 30
0.0
 10
586.5516326195274
 20
214.9533727491099
 30
0.0
 10
586.5438704271467
 20
215.1461842843556
 30
0.0
 10
586.5719130201379
 20
215.2696819470661
 30
0.0
 10
586.5808925381994
 20
215.3092271308229
 30
0.0
  0
ARC
  5
1E7CD
330
18
100
AcDbEntity
  8
1
  6
CONTINUOUS
 62
     7
100
AcDbCircle
 10
584.2197482911715
 20
211.0092362980173
 30
0.0
 40
1.339857945815853
100
AcDbArc
 50
341.7314098411118
 51
18.26859015888821
  0
ARC
  5
1E7CE
330
18
100
AcDbEntity
  8
1
  6
CONTINUOUS
 62
     7
100
AcDbCircle
 10
584.2197599192872
 20
208.0092367376016
 30
0.0
 40
1.339846611846062
100
AcDbArc
 50
341.7312917851949
 51
18.26870821480508
  0
LINE
  5
1E7CF
330
18
100
AcDbEntity
  8
1
  6
CONTINUOUS
 62
     7
100
AcDbLine
 10
583.940948804388
 20
223.5161049882696
 30
0.0
 11
603.1648963480388
 21
223.5161049882696
 31
0.0
  0
LINE
  5
1E7D0
330
18
100
AcDbEntity
  8
1
  6
CONTINUOUS
 62
     7
100
AcDbLine
 10
583.940948804388
 20
227.3161059836672
 30
0.0
 11
603.1648963480388
 21
227.3161059836672
 31
0.0
  0
LINE
  5
1E7D1
330
18
100
AcDbEntity
  8
1
  6
CONTINUOUS
 62
     7
100
AcDbLine
 10
607.502922860453
 20
215.3161040167139
 30
0.0
 11
579.602922757635
 21
215.3161040167139
 31
0.0
  0
LINE
  5
1E7D2
330
18
100
AcDbEntity
  8
1
  6
CONTINUOUS
 62
     7
100
AcDbLine
 10
571.8410811177587
 20
227.3161059836672
 30
0.0
 11
571.8410811177587
 21
223.5161049882696
 31
0.0
  0
LINE
  5
1E7D3
330
18
100
AcDbEntity
  8
1
  6
CONTINUOUS
 62
     7
100
AcDbLine
 10
571.8410811177587
 20
223.5161049882696
 30
0.0
 11
583.940948804388
 21
223.5161049882696
 31
0.0
  0
LINE
  5
1E7D4
330
18
100
AcDbEntity
  8
1
  6
CONTINUOUS
 62
     7
100
AcDbLine
 10
571.8410811177587
 20
227.3161059836672
 30
0.0
 11
583.940948804388
 21
227.3161059836672
 31
0.0
  0
LINE
  5
1E7D5
330
18
100
AcDbEntity
  8
1
  6
CONTINUOUS
 62
     7
100
AcDbLine
 10
615.264765431652
 20
227.3161059836672
 30
0.0
 11
615.264765431652
 21
223.5161049882696
 31
0.0
  0
LINE
  5
1E7D6
330
18
100
AcDbEntity
  8
1
  6
CONTINUOUS
 62
     7
100
AcDbLine
 10
603.1648963480388
 20
223.5161049882696
 30
0.0
 11
615.264765431652
 21
223.5161049882696
 31
0.0
  0
LINE
  5
1E7D7
330
18
100
AcDbEntity
  8
1
  6
CONTINUOUS
 62
     7
100
AcDbLine
 10
603.1648963480388
 20
227.3161059836672
 30
0.0
 11
615.264765431652
 21
227.3161059836672
 31
0.0
  0
LINE
  5
1E7D8
330
18
100
AcDbEntity
  8
1
  6
CONTINUOUS
 62
     7
100
AcDbLine
 10
596.5608475753238
 20
215.0161063889788
 30
0.0
 11
596.5608475753238
 21
215.3161040167139
 31
0.0
  0
SPLINE
  5
1E7D9
330
18
100
AcDbEntity
  8
1
  6
CONTINUOUS
 62
     7
100
AcDbSpline
210
0.0
220
0.0
230
1.0
 70
    24
 71
     3
 72
     9
 73
     5
 74
     0
 42
0.000000001
 43
0.00000001
 40
0.0
 40
0.0
 40
0.0
 40
0.0
 40
0.5599295465300895
 40
1.0
 40
1.0
 40
1.0
 40
1.0
 10
596.3529149093797
 20
215.0161063889788
 30
0.0
 10
596.3991375315991
 20
215.0161063889788
 30
0.0
 10
596.481688314114
 20
215.0161063889788
 30
0.0
 10
596.5366573338721
 20
215.0161063889788
 30
0.0
 10
596.5608475753238
 20
215.0161063889788
 30
0.0
  0
LINE
  5
1E7DA
330
18
100
AcDbEntity
  8
1
  6
CONTINUOUS
 62
     7
100
AcDbLine
 10
596.3529149093797
 20
215.0161063889788
 30
0.0
 11
596.3529149093797
 21
215.3161040167139
 31
0.0
  0
LINE
  5
1E7DB
330
18
100
AcDbEntity
  8
1
  6
CONTINUOUS
 62
     7
100
AcDbLine
 10
596.8040366942428
 20
215.0161063889788
 30
0.0
 11
596.8040366942428
 21
215.3161040167139
 31
0.0
  0
LINE
  5
1E7DC
330
18
100
AcDbEntity
  8
1
  6
CONTINUOUS
 62
     7
100
AcDbLine
 10
596.5608475753238
 20
215.0161063889788
 30
0.0
 11
596.8040366942428
 21
215.0161063889788
 31
0.0
  0
LINE
  5
1E7DD
330
18
100
AcDbEntity
  8
1
  6
CONTINUOUS
 62
     7
100
AcDbLine
 10
595.4450623621365
 20
215.0161063889788
 30
0.0
 11
595.4450623621365
 21
215.3161040167139
 31
0.0
  0
SPLINE
  5
1E7DE
330
18
100
AcDbEntity
  8
1
  6
CONTINUOUS
 62
     7
100
AcDbSpline
210
0.0
220
0.0
230
1.0
 70
    24
 71
     3
 72
    10
 73
     6
 74
     0
 42
0.000000001
 43
0.00000001
 40
0.0
 40
0.0
 40
0.0
 40
0.0
 40
0.2799664491287162
 40
0.5601567187732358
 40
1.0
 40
1.0
 40
1.0
 40
1.0
 10
595.4450623621365
 20
215.0161063889788
 30
0.0
 10
595.5473833582291
 20
215.0161063889788
 30
0.0
 10
595.7521071514237
 20
215.0161063889788
 30
0.0
 10
596.0665641784537
 20
215.0161063889788
 30
0.0
 10
596.2443262717014
 20
215.0161063889788
 30
0.0
 10
596.3529149093797
 20
215.0161063889788
 30
0.0
  0
LINE
  5
1E7DF
330
18
100
AcDbEntity
  8
1
  6
CONTINUOUS
 62
     7
100
AcDbLine
 10
588.0612632981633
 20
215.0161063889788
 30
0.0
 11
588.0612632981633
 21
215.3161040167139
 31
0.0
  0
SPLINE
  5
1E7E0
330
18
100
AcDbEntity
  8
1
  6
CONTINUOUS
 62
     7
100
AcDbSpline
210
0.0
220
0.0
230
1.0
 70
    24
 71
     3
 72
    12
 73
     8
 74
     0
 42
0.000000001
 43
0.00000001
 40
0.0
 40
0.0
 40
0.0
 40
0.0
 40
0.2485461735000256
 40
0.3738224389773256
 40
0.4990903985121232
 40
0.749088949406858
 40
1.0
 40
1.0
 40
1.0
 40
1.0
 10
586.965510135064
 20
215.0161063889788
 30
0.0
 10
587.0677882014036
 20
215.0161063889788
 30
0.0
 10
587.2216181142704
 20
215.0161063889788
 30
0.0
 10
587.4472602880749
 20
215.0161063889788
 30
0.0
 10
587.6584867128522
 20
215.0161063889788
 30
0.0
 10
587.8727772569792
 20
215.0161063889788
 30
0.0
 10
587.998358361348
 20
215.0161063889788
 30
0.0
 10
588.0612632981633
 20
215.0161063889788
 30
0.0
  0
LINE
  5
1E7E1
330
18
100
AcDbEntity
  8
1
  6
CONTINUOUS
 62
     7
100
AcDbLine
 10
586.965510135064
 20
215.0161063889788
 30
0.0
 11
586.965510135064
 21
215.3161040167139
 31
0.0
  0
SPLINE
  5
1E7E2
330
18
100
AcDbEntity
  8
1
  6
CONTINUOUS
 62
     7
100
AcDbSpline
210
0.0
220
0.0
230
1.0
 70
    24
 71
     3
 72
    10
 73
     6
 74
     0
 42
0.000000001
 43
0.00000001
 40
0.0
 40
0.0
 40
0.0
 40
0.0
 40
0.2510001957335322
 40
0.6251235321020955
 40
1.0
 40
1.0
 40
1.0
 40
1.0
 10
586.6995188198184
 20
215.0161063889788
 30
0.0
 10
586.6963469560077
 20
215.0161063889788
 30
0.0
 10
586.6884473338464
 20
215.0161063889788
 30
0.0
 10
586.7879985546873
 20
215.0161063889788
 30
0.0
 10
586.9062999569414
 20
215.0161063889788
 30
0.0
 10
586.965510135064
 20
215.0161063889788
 30
0.0
  0
LINE
  5
1E7E3
330
18
100
AcDbEntity
  8
1
  6
CONTINUOUS
 62
     7
100
AcDbLine
 10
595.4041969753002
 20
215.0161063889788
 30
0.0
 11
595.4041969753002
 21
215.3161040167139
 31
0.0
  0
LINE
  5
1E7E4
330
18
100
AcDbEntity
  8
1
  6
CONTINUOUS
 62
     7
100
AcDbLine
 10
595.4041969753002
 20
215.0161063889788
 30
0.0
 11
595.4450623621365
 21
215.0161063889788
 31
0.0
  0
SPLINE
  5
1E7E5
330
18
100
AcDbEntity
  8
1
  6
CONTINUOUS
 62
     7
100
AcDbSpline
210
0.0
220
0.0
230
1.0
 70
    24
 71
     3
 72
     9
 73
     5
 74
     0
 42
0.000000001
 43
0.00000001
 40
0.0
 40
0.0
 40
0.0
 40
0.0
 40
0.6079530494147148
 40
1.0
 40
1.0
 40
1.0
 40
1.0
 10
588.0612632981633
 20
215.0161063889788
 30
0.0
 10
588.1497964952478
 20
215.0161063889788
 30
0.0
 10
588.2954215516065
 20
215.0161063889788
 30
0.0
 10
588.3145307429791
 20
215.0161063889788
 30
0.0
 10
588.3220224431848
 20
215.0161063889788
 30
0.0
  0
LINE
  5
1E7E6
330
18
100
AcDbEntity
  8
1
  6
CONTINUOUS
 62
     7
100
AcDbLine
 10
594.302922699148
 20
214.3161057154463
 30
0.0
 11
594.5708718872761
 21
215.3161040167139
 31
0.0
  0
LINE
  5
1E7E7
330
18
100
AcDbEntity
  8
1
  6
CONTINUOUS
 62
     7
100
AcDbLine
 10
594.302922699148
 20
214.3161057154463
 30
0.0
 11
592.8029226861095
 21
214.3161057154463
 31
0.0
  0
LINE
  5
1E7E8
330
18
100
AcDbEntity
  8
1
  6
CONTINUOUS
 62
     7
100
AcDbLine
 10
592.8029226861095
 20
214.3161057154463
 30
0.0
 11
592.534973730812
 21
215.3161040167139
 31
0.0
  0
LINE
  5
1E7E9
330
18
100
AcDbEntity
  8
1
  6
CONTINUOUS
 62
     7
100
AcDbLine
 10
604.2318893387114
 20
215.0161063889788
 30
0.0
 11
604.2318893387114
 21
215.3161040167139
 31
0.0
  0
SPLINE
  5
1E7EA
330
18
100
AcDbEntity
  8
1
  6
CONTINUOUS
 62
     7
100
AcDbSpline
210
0.0
220
0.0
230
1.0
 70
    24
 71
     3
 72
    11
 73
     7
 74
     0
 42
0.000000001
 43
0.00000001
 40
0.0
 40
0.0
 40
0.0
 40
0.0
 40
0.2793606258116264
 40
0.5587794049369765
 40
0.779141852010747
 40
1.0
 40
1.0
 40
1.0
 40
1.0
 10
603.3753189048862
 20
215.0161063889788
 30
0.0
 10
603.4599634264252
 20
215.0161063889788
 30
0.0
 10
603.6292700895938
 20
215.0161063889788
 30
0.0
 10
603.8964371544449
 20
215.0161063889788
 30
0.0
 10
604.1025765992291
 20
215.0161063889788
 30
0.0
 10
604.1887528199013
 20
215.0161063889788
 30
0.0
 10
604.2318893387114
 20
215.0161063889788
 30
0.0
  0
LINE
  5
1E7EB
330
18
100
AcDbEntity
  8
1
  6
CONTINUOUS
 62
     7
100
AcDbLine
 10
603.3753189048862
 20
215.0161063889788
 30
0.0
 11
603.3753189048862
 21
215.3161040167139
 31
0.0
  0
SPLINE
  5
1E7EC
330
18
100
AcDbEntity
  8
1
  6
CONTINUOUS
 62
     7
100
AcDbSpline
210
0.0
220
0.0
230
1.0
 70
    24
 71
     3
 72
    10
 73
     6
 74
     0
 42
0.000000001
 43
0.00000001
 40
0.0
 40
0.0
 40
0.0
 40
0.0
 40
0.0628375325232636
 40
0.4285641046627961
 40
0.9999999999999999
 40
0.9999999999999999
 40
0.9999999999999999
 40
0.9999999999999999
 10
603.1305501028096
 20
215.0161063889788
 30
0.0
 10
603.1291521690216
 20
215.0161063889788
 30
0.0
 10
603.1196179906699
 20
215.0161063889788
 30
0.0
 10
603.1755143306679
 20
215.0161063889788
 30
0.0
 10
603.2996357352797
 20
215.0161063889788
 30
0.0
 10
603.3753189048862
 20
215.0161063889788
 30
0.0
  0
LINE
  5
1E7ED
330
18
100
AcDbEntity
  8
1
  6
CONTINUOUS
 62
     7
100
AcDbLine
 10
588.4440759918784
 20
214.3161057154463
 30
0.0
 11
588.6335451877808
 21
215.3161040167139
 31
0.0
  0
LINE
  5
1E7EE
330
18
100
AcDbEntity
  8
1
  6
CONTINUOUS
 62
     7
100
AcDbLine
 10
588.4440759918784
 20
214.3161057154463
 30
0.0
 11
587.1637458703613
 21
214.3161057154463
 31
0.0
  0
LINE
  5
1E7EF
330
18
100
AcDbEntity
  8
1
  6
CONTINUOUS
 62
     7
100
AcDbLine
 10
599.9420992820656
 20
214.3161057154463
 30
0.0
 11
598.7494470109364
 21
214.3161057154463
 31
0.0
  0
SPLINE
  5
1E7F0
330
18
100
AcDbEntity
  8
1
  6
CONTINUOUS
 62
     7
100
AcDbSpline
210
0.0
220
0.0
230
1.0
 70
    24
 71
     3
 72
     9
 73
     5
 74
     0
 42
0.000000001
 43
0.00000001
 40
0.0
 40
0.0
 40
0.0
 40
0.0
 40
0.7053933999738045
 40
1.0
 40
1.0
 40
1.0
 40
1.0
 10
604.2318893387114
 20
215.0161063889788
 30
0.0
 10
604.2817192237314
 20
215.0161063889788
 30
0.0
 10
604.3523604928754
 20
215.0161063889788
 30
0.0
 10
604.3392040518145
 20
215.0161063889788
 30
0.0
 10
604.335328077445
 20
215.0161063889788
 30
0.0
  0
LINE
  5
1E7F1
330
18
100
AcDbEntity
  8
1
  6
CONTINUOUS
 62
     7
100
AcDbLine
 10
589.3712388142144
 20
214.3161057154463
 30
0.0
 11
588.4440759918784
 21
214.3161057154463
 31
0.0
  0
LINE
  5
1E7F2
330
18
100
AcDbEntity
  8
1
  6
CONTINUOUS
 62
     7
100
AcDbLine
 10
602.6557674422061
 20
215.0161063889788
 30
0.0
 11
602.6557674422061
 21
215.3161040167139
 31
0.0
  0
SPLINE
  5
1E7F3
330
18
100
AcDbEntity
  8
1
  6
CONTINUOUS
 62
     7
100
AcDbSpline
210
0.0
220
0.0
230
1.0
 70
    24
 71
     3
 72
    10
 73
     6
 74
     0
 42
0.000000001
 43
0.00000001
 40
0.0
 40
0.0
 40
0.0
 40
0.0
 40
0.2807428706485101
 40
0.5610837688722587
 40
1.0
 40
1.0
 40
1.0
 40
1.0
 10
602.6557674422061
 20
215.0161063889788
 30
0.0
 10
602.6995845660352
 20
215.0161063889788
 30
0.0
 10
602.7871560755893
 20
215.0161063889788
 30
0.0
 10
602.9704984854218
 20
215.0161063889788
 30
0.0
 10
603.0803305385804
 20
215.0161063889788
 30
0.0
 10
603.1473539560234
 20
215.0161063889788
 30
0.0
  0
SPLINE
  5
1E7F4
330
18
100
AcDbEntity
  8
1
  6
CONTINUOUS
 62
     7
100
AcDbSpline
210
0.0
220
0.0
230
1.0
 70
    24
 71
     3
 72
    10
 73
     6
 74
     0
 42
0.000000001
 43
0.00000001
 40
0.0
 40
0.0
 40
0.0
 40
0.0
 40
0.2543028390393043
 40
0.6271063380979148
 40
1.0
 40
1.0
 40
1.0
 40
1.0
 10
602.4356451607441
 20
215.0161063889788
 30
0.0
 10
602.4333854203522
 20
215.0161063889788
 30
0.0
 10
602.427812940204
 20
215.0161063889788
 30
0.0
 10
602.5066965150779
 20
215.0161063889788
 30
0.0
 10
602.606073127928
 20
215.0161063889788
 30
0.0
 10
602.6557674422061
 20
215.0161063889788
 30
0.0
  0
LINE
  5
1E7F5
330
18
100
AcDbEntity
  8
1
  6
CONTINUOUS
 62
     7
100
AcDbLine
 10
592.8029226861095
 20
214.3161057154463
 30
0.0
 11
591.0439076624011
 21
214.3161057154463
 31
0.0
  0
LINE
  5
1E7F6
330
18
100
AcDbEntity
  8
1
  6
CONTINUOUS
 62
     7
100
AcDbLine
 10
595.0343145313805
 20
214.3161057154463
 30
0.0
 11
594.302922699148
 21
214.3161057154463
 31
0.0
  0
LINE
  5
1E7F7
330
18
100
AcDbEntity
  8
1
  6
CONTINUOUS
 62
     7
100
AcDbLine
 10
615.9070241055583
 20
226.7161032776163
 30
0.0
 11
615.9070241055583
 21
227.3161059836672
 31
0.0
  0
LINE
  5
1E7F8
330
18
100
AcDbEntity
  8
1
  6
CONTINUOUS
 62
     7
100
AcDbLine
 10
615.9070241055583
 20
226.7161032776163
 30
0.0
 11
617.0529234013652
 21
226.7161032776163
 31
0.0
  0
LINE
  5
1E7F9
330
18
100
AcDbEntity
  8
1
  6
CONTINUOUS
 62
     7
100
AcDbLine
 10
615.264765431652
 20
223.5161049882696
 30
0.0
 11
617.0529234013652
 21
223.5161049882696
 31
0.0
  0
LINE
  5
1E7FA
330
18
100
AcDbEntity
  8
1
  6
CONTINUOUS
 62
     7
100
AcDbLine
 10
615.264765431652
 20
227.3161059836672
 30
0.0
 11
615.9070241055583
 21
227.3161059836672
 31
0.0
  0
LINE
  5
1E7FB
330
18
100
AcDbEntity
  8
1
  6
CONTINUOUS
 62
     7
100
AcDbLine
 10
570.0529231480455
 20
226.7161032776163
 30
0.0
 11
571.1988205812072
 21
226.7161032776163
 31
0.0
  0
LINE
  5
1E7FC
330
18
100
AcDbEntity
  8
1
  6
CONTINUOUS
 62
     7
100
AcDbLine
 10
571.1988205812072
 20
226.7161032776163
 30
0.0
 11
571.1988205812072
 21
227.3161059836672
 31
0.0
  0
LINE
  5
1E7FD
330
18
100
AcDbEntity
  8
1
  6
CONTINUOUS
 62
     7
100
AcDbLine
 10
570.0529231480455
 20
223.5161049882696
 30
0.0
 11
571.8410811177587
 21
223.5161049882696
 31
0.0
  0
LINE
  5
1E7FE
330
18
100
AcDbEntity
  8
1
  6
CONTINUOUS
 62
     7
100
AcDbLine
 10
571.1988205812072
 20
227.3161059836672
 30
0.0
 11
571.8410811177587
 21
227.3161059836672
 31
0.0
  0
LINE
  5
1E7FF
330
18
100
AcDbEntity
  8
1
  6
CONTINUOUS
 62
     7
100
AcDbLine
 10
582.0381720340943
 20
215.0161063889788
 30
0.0
 11
582.0381720340943
 21
215.3161040167139
 31
0.0
  0
LINE
  5
1E800
330
18
100
AcDbEntity
  8
1
  6
CONTINUOUS
 62
     7
100
AcDbLine
 10
581.3634921587204
 20
215.0161063889788
 30
0.0
 11
581.3634921587204
 21
215.3161040167139
 31
0.0
  0
SPLINE
  5
1E801
330
18
100
AcDbEntity
  8
1
  6
CONTINUOUS
 62
     7
100
AcDbSpline
210
0.0
220
0.0
230
1.0
 70
    24
 71
     3
 72
    11
 73
     7
 74
     0
 42
0.000000001
 43
0.00000001
 40
0.0
 40
0.0
 40
0.0
 40
0.0
 40
0.2801882404618271
 40
0.5593826258736521
 40
0.7795116539365836
 40
1.0
 40
1.0
 40
1.0
 40
1.0
 10
581.3634921587204
 20
215.0161063889788
 30
0.0
 10
581.3890197119249
 20
215.0161063889788
 30
0.0
 10
581.4399842696098
 20
215.0161063889788
 30
0.0
 10
581.6203745238965
 20
215.0161063889788
 30
0.0
 10
581.8323917401061
 20
215.0161063889788
 30
0.0
 10
581.9695413215044
 20
215.0161063889788
 30
0.0
 10
582.0381720340943
 20
215.0161063889788
 30
0.0
  0
LINE
  5
1E802
330
18
100
AcDbEntity
  8
1
  6
CONTINUOUS
 62
     7
100
AcDbLine
 10
582.4352069548463
 20
215.0161063889788
 30
0.0
 11
582.4352069548463
 21
215.3161040167139
 31
0.0
  0
LINE
  5
1E803
330
18
100
AcDbEntity
  8
1
  6
CONTINUOUS
 62
     7
100
AcDbLine
 10
582.3570820293521
 20
215.0161063889788
 30
0.0
 11
582.3570820293521
 21
215.3161040167139
 31
0.0
  0
LINE
  5
1E804
330
18
100
AcDbEntity
  8
1
  6
CONTINUOUS
 62
     7
100
AcDbLine
 10
582.3570820293521
 20
215.0161063889788
 30
0.0
 11
582.4352069548463
 21
215.0161063889788
 31
0.0
  0
LINE
  5
1E805
330
18
100
AcDbEntity
  8
1
  6
CONTINUOUS
 62
     7
100
AcDbLine
 10
583.3839247725105
 20
215.0161063889788
 30
0.0
 11
583.3839247725105
 21
215.3161040167139
 31
0.0
  0
LINE
  5
1E806
330
18
100
AcDbEntity
  8
1
  6
CONTINUOUS
 62
     7
100
AcDbLine
 10
582.4352069548463
 20
215.0161063889788
 30
0.0
 11
583.3839247725105
 21
215.0161063889788
 31
0.0
  0
LINE
  5
1E807
330
18
100
AcDbEntity
  8
1
  6
CONTINUOUS
 62
     7
100
AcDbLine
 10
615.5529222241735
 20
222.8161043147371
 30
0.0
 11
609.552923103342
 21
222.8161043147371
 31
0.0
  0
LINE
  5
1E808
330
18
100
AcDbEntity
  8
1
  6
CONTINUOUS
 62
     7
100
AcDbLine
 10
577.5529234460687
 20
222.8161043147371
 30
0.0
 11
571.552922462592
 21
222.8161043147371
 31
0.0
  0
SPLINE
  5
1E809
330
18
100
AcDbEntity
  8
1
  6
CONTINUOUS
 62
     7
100
AcDbSpline
210
0.0
220
0.0
230
1.0
 70
    24
 71
     3
 72
    10
 73
     6
 74
     0
 42
0.000000001
 43
0.00000001
 40
0.0
 40
0.0
 40
0.0
 40
0.0
 40
0.2989685371265434
 40
0.9173101167690582
 40
1.0
 40
1.0
 40
1.0
 40
1.0
 10
582.0381720340943
 20
215.0161063889788
 30
0.0
 10
582.0688509605529
 20
215.0161063889788
 30
0.0
 10
582.1629815666784
 20
215.0161063889788
 30
0.0
 10
582.2734088167114
 20
215.0161063889788
 30
0.0
 10
582.3211118200456
 20
215.0161063889788
 30
0.0
 10
582.3267386085486
 20
215.0161063889788
 30
0.0
  0
LINE
  5
1E80A
330
18
100
AcDbEntity
  8
1
  6
CONTINUOUS
 62
     7
100
AcDbLine
 10
587.1637458703613
 20
214.3161057154463
 30
0.0
 11
586.7701829201674
 21
214.3161057154463
 31
0.0
  0
LINE
  5
1E80B
330
18
100
AcDbEntity
  8
1
  6
CONTINUOUS
 62
     7
100
AcDbLine
 10
605.7699969760274
 20
215.0161063889788
 30
0.0
 11
605.7699969760274
 21
215.3161040167139
 31
0.0
  0
LINE
  5
1E80C
330
18
100
AcDbEntity
  8
1
  6
CONTINUOUS
 62
     7
100
AcDbLine
 10
604.37002729393
 20
215.0161063889788
 30
0.0
 11
605.7699969760274
 21
215.0161063889788
 31
0.0
  0
LINE
  5
1E80D
330
18
100
AcDbEntity
  8
1
  6
CONTINUOUS
 62
     7
100
AcDbLine
 10
583.3839247725105
 20
215.0161063889788
 30
0.0
 11
584.1417549899911
 21
215.0161063889788
 31
0.0
  0
LINE
  5
1E80E
330
18
100
AcDbEntity
  8
1
  6
CONTINUOUS
 62
     8
100
AcDbLine
 10
598.5859375004788
 20
214.7163397292421
 30
0.0
 11
598.4723005467226
 21
215.3161040167139
 31
0.0
  0
LINE
  5
1E80F
330
18
100
AcDbEntity
  8
OSIE
100
AcDbLine
 10
565.093779137944
 20
149.9758795897056
 30
0.0
 11
619.9742511524681
 21
149.9758795897056
 31
0.0
  0
LINE
  5
1E810
330
18
100
AcDbEntity
  8
OSIE
100
AcDbLine
 10
593.5529227395813
 20
170.305700745594
 30
0.0
 11
593.5529227395813
 21
130.3080685994154
 31
0.0
  0
LINE
  5
1E811
102
{ACAD_REACTORS
102
}
330
18
100
AcDbEntity
  8
OSIE
100
AcDbLine
 10
574.5529227395814
 20
154.6050381023558
 30
0.0
 11
574.5529227395814
 21
145.3467210770555
 31
0.0
  0
LINE
  5
1E812
102
{ACAD_REACTORS
102
}
330
18
100
AcDbEntity
  8
OSIE
100
AcDbLine
 10
612.5529227395814
 20
154.6050381023558
 30
0.0
 11
612.5529227395814
 21
145.3467210770555
 31
0.0
  0
CIRCLE
  5
1E813
102
{ACAD_REACTORS
102
}
330
18
100
AcDbEntity
  8
OSIE
100
AcDbCircle
 10
593.5529227395814
 20
149.9758795897056
 30
0.0
 40
8.724999999999625
  0
LINE
  5
1E814
330
18
100
AcDbEntity
  8
OSIE
100
AcDbLine
 10
581.2480022222867
 20
144.8790131600523
 30
0.0
 11
589.7361453180333
 21
148.3949197919989
 31
0.0
  0
LINE
  5
1E815
330
18
100
AcDbEntity
  8
OSIE
100
AcDbLine
 10
588.4560588150507
 20
137.6709580347551
 30
0.0
 11
591.9719609362667
 21
146.1591029989074
 31
0.0
  0
LINE
  5
1E816
330
18
100
AcDbEntity
  8
OSIE
100
AcDbLine
 10
598.6497891692347
 20
137.6709590724109
 30
0.0
 11
595.1338825372882
 21
146.1591021681576
 31
0.0
  0
LINE
  5
1E817
330
18
100
AcDbEntity
  8
OSIE
100
AcDbLine
 10
605.8578442945318
 20
144.8790156651749
 30
0.0
 11
597.3696993303795
 21
148.394917786391
 31
0.0
  0
LINE
  5
1E818
330
18
100
AcDbEntity
  8
OSIE
100
AcDbLine
 10
605.8578432568761
 20
155.072746019359
 30
0.0
 11
597.3697001611295
 21
151.5568393874124
 31
0.0
  0
LINE
  5
1E819
330
18
100
AcDbEntity
  8
OSIE
100
AcDbLine
 10
598.6497866641121
 20
162.2808011446562
 30
0.0
 11
595.1338845428959
 21
153.7926561805039
 31
0.0
  0
LINE
  5
1E81A
330
18
100
AcDbEntity
  8
OSIE
100
AcDbLine
 10
588.456056309928
 20
162.2808001070003
 30
0.0
 11
591.9719629418746
 21
153.7926570112537
 31
0.0
  0
LINE
  5
1E81B
330
18
100
AcDbEntity
  8
OSIE
100
AcDbLine
 10
581.248001184631
 20
155.0727435142362
 30
0.0
 11
589.7361461487834
 21
151.5568413930201
 31
0.0
  0
LINE
  5
1E81C
330
18
100
AcDbEntity
  8
OSIE
100
AcDbLine
 10
593.5529225762134
 20
230.2073912279089
 30
0.0
 11
593.5529225762134
 21
204.7271658162206
 31
0.0
  0
DIMENSION
  5
1E81D
102
{ACAD_REACTORS
102
}
102
{ACAD_XDICTIONARY
360
1E81E
102
}
330
18
100
AcDbEntity
  8
WY
100
AcDbDimension
  2
*D189
 10
612.5529227395814
 20
125.9064762988061
 30
0.0
 11
593.5529227395814
 21
127.4064762988061
 31
0.0
 70
    32
  3
STANDARD
100
AcDbAlignedDimension
 13
574.5529227395814
 23
145.3467210770555
 33
0.0
 14
612.5529227395814
 24
145.3467210770555
 34
0.0
100
AcDbRotatedDimension
1001
ACAD
1000
DSTYLE
1002
{
1070
   287
1070
     4
1070
     3
1000
%%p0.2
1070
    41
1040
2.5
1070
   147
1040
0.75
1070
   174
1070
     1
1070
   279
1070
     1
1070
    74
1070
     1
1070
   140
1040
1.5
1070
   284
1070
     8
1070
    78
1070
     8
1002
}
  0
DIMENSION
  5
1E820
102
{ACAD_XDICTIONARY
360
1E821
102
}
330
18
100
AcDbEntity
  8
WY
100
AcDbDimension
  2
*D190
 10
617.0529227395814
 20
122.3345947304031
 30
0.0
 11
593.5529227395814
 21
123.8345947304031
 31
0.0
 70
    32
  3
STANDARD
100
AcDbAlignedDimension
 13
570.0529227395814
 23
149.9758795897056
 33
0.0
 14
617.0529227395814
 24
149.9758795897056
 34
0.0
100
AcDbRotatedDimension
1001
ACAD
1000
DSTYLE
1002
{
1070
   287
1070
     4
1070
    41
1040
2.5
1070
   147
1040
0.75
1070
   174
1070
     1
1070
   279
1070
     1
1070
    74
1070
     1
1070
   140
1040
1.5
1070
   284
1070
     8
1070
    78
1070
     8
1002
}
  0
DIMENSION
  5
1E822
102
{ACAD_XDICTIONARY
360
1E823
102
}
330
18
100
AcDbEntity
  8
WY
100
AcDbDimension
  2
*D191
 10
631.3340049969084
 20
134.0258795897057
 30
0.0
 11
629.7090049969084
 21
149.9758795897056
 31
0.0
 70
    32
  3
STANDARD
100
AcDbAlignedDimension
 13
593.5529227395813
 23
165.9258795897056
 33
0.0
 14
593.5529227395815
 24
134.0258795897057
 34
0.0
 50
90.0
100
AcDbRotatedDimension
1001
ACAD
1000
DSTYLE
1002
{
1070
   287
1070
     4
1070
     3
1000
-0,2
1070
   271
1070
     0
1070
    41
1040
2.5
1070
   147
1040
0.75
1070
   174
1070
     1
1070
   279
1070
     1
1070
    74
1070
     1
1070
   140
1040
1.5
1070
   284
1070
     8
1070
    78
1070
     8
1002
}
  0
DIMENSION
  5
1E824
102
{ACAD_REACTORS
102
}
102
{ACAD_XDICTIONARY
360
1E825
102
}
330
18
100
AcDbEntity
  8
WY
100
AcDbDimension
  2
*D192
 10
586.4986604546853
 20
144.8413875392799
 30
0.0
 11
616.4706305694933
 21
161.3797256691626
 31
0.0
 70
   163
  1
<>
  3
STANDARD
100
AcDbDiametricDimension
 15
600.6071850244775
 25
155.1103716401313
 35
0.0
 40
0.0
1001
ACAD
1000
DSTYLE
1002
{
1070
   287
1070
     3
1070
     3
1000
%%p0.05
1070
   172
1070
     1
1070
    41
1040
2.5
1070
   147
1040
0.75
1070
   174
1070
     1
1070
   279
1070
     0
1070
    74
1070
     1
1070
   140
1040
1.5
1070
   284
1070
     8
1070
    78
1070
     8
1002
}
1001
ACAD_DSTYLE_DIMRADIAL_EXT4
1070
   387
1070
     1
1070
   388
1040
0.0
1070
   390
1040
6.283185307179586
  0
DIMENSION
  5
1E827
102
{ACAD_REACTORS
102
}
102
{ACAD_XDICTIONARY
360
1E828
102
}
330
18
100
AcDbEntity
  8
WY
100
AcDbDimension
  2
*D193
 10
575.1416520807677
 20
148.2484471705279
 30
0.0
 11
572.3512362992545
 21
156.4360035682745
 31
0.0
 70
   163
  1
%%c3.6+0.1
  3
STANDARD
100
AcDbDiametricDimension
 15
573.9641933983951
 25
151.7033120088834
 35
0.0
 40
0.0
1001
ACAD
1000
DSTYLE
1002
{
1070
   287
1070
     4
1070
     3
1000

1070
    41
1040
2.5
1070
   147
1040
0.75
1070
   174
1070
     1
1070
   279
1070
     1
1070
    74
1070
     1
1070
   140
1040
1.5
1070
   284
1070
     8
1070
    78
1070
     8
1002
}
1001
ACAD_DSTYLE_DIMRADIAL_EXT4
1070
   387
1070
     1
1070
   388
1040
0.0
1070
   390
1040
6.283185307179586
  0
DIMENSION
  5
1E82A
102
{ACAD_REACTORS
102
}
102
{ACAD_XDICTIONARY
360
1E82B
102
}
330
18
100
AcDbEntity
  8
WY
100
AcDbDimension
  2
*D194
 10
607.502922860453
 20
200.2802140958321
 30
0.0
 11
593.552922809044
 21
201.7802140958321
 31
0.0
 70
    32
  3
STANDARD
100
AcDbAlignedDimension
 13
579.602922757635
 23
215.3161040167139
 33
0.0
 14
607.502922860453
 24
215.3161040167139
 34
0.0
100
AcDbRotatedDimension
1001
ACAD
1000
DSTYLE
1002
{
1070
   287
1070
     4
1070
   271
1070
     0
1070
    41
1040
2.5
1070
   147
1040
0.75
1070
   174
1070
     1
1070
   279
1070
     1
1070
    74
1070
     1
1070
   140
1040
1.5
1070
   284
1070
     8
1070
    78
1070
     8
1002
}
  0
DIMENSION
  5
1E82D
330
18
100
AcDbEntity
  8
WY
100
AcDbDimension
  2
*D195
 10
560.1540504620808
 20
215.3161040167139
 30
0.0
 11
558.6540504620808
 21
221.3161050001905
 31
0.0
 70
    32
  3
STANDARD
100
AcDbAlignedDimension
 13
571.1988205812072
 23
227.3161059836672
 33
0.0
 14
579.602922757635
 24
215.3161040167139
 34
0.0
 50
90.0
100
AcDbRotatedDimension
1001
ACAD
1000
DSTYLE
1002
{
1070
   287
1070
     4
1070
    41
1040
2.5
1070
   147
1040
0.75
1070
   174
1070
     1
1070
   279
1070
     1
1070
    74
1070
     1
1070
   140
1040
1.5
1070
   284
1070
     8
1070
    78
1070
     8
1002
}
  0
DIMENSION
  5
1E82E
330
18
100
AcDbEntity
  8
WY
100
AcDbDimension
  2
*D196
 10
564.0593076435348
 20
222.8161043147371
 30
0.0
 11
562.5593076435348
 21
225.0661051492021
 31
0.0
 70
    32
  3
STANDARD
100
AcDbAlignedDimension
 13
571.1988205812072
 23
227.3161059836672
 33
0.0
 14
571.5529205999469
 24
222.8161043147371
 34
0.0
 50
90.0
100
AcDbRotatedDimension
1001
ACAD
1000
DSTYLE
1002
{
1070
   287
1070
     4
1070
   172
1070
     1
1070
    41
1040
2.5
1070
   147
1040
0.75
1070
   174
1070
     1
1070
   279
1070
     1
1070
    74
1070
     0
1070
   140
1040
1.5
1070
   284
1070
     8
1070
    78
1070
     8
1002
}
  0
DIMENSION
  5
1E82F
330
18
100
AcDbEntity
  8
WY
100
AcDbDimension
  2
*D197
 10
556.9155445067289
 20
206.0092373410986
 30
0.0
 11
555.4155445067289
 21
216.6626716623829
 31
0.0
 70
    32
  3
STANDARD
100
AcDbAlignedDimension
 13
571.1988205812072
 23
227.3161059836672
 33
0.0
 14
584.483856780002
 24
206.0092373410986
 34
0.0
 50
90.0
100
AcDbRotatedDimension
1001
ACAD
1000
DSTYLE
1002
{
1070
   287
1070
     4
1070
   271
1070
     1
1070
    41
1040
2.5
1070
   147
1040
0.75
1070
   174
1070
     1
1070
   279
1070
     1
1070
    74
1070
     1
1070
   140
1040
1.5
1070
   284
1070
     8
1070
    78
1070
     8
1002
}
  0
ENDSEC
  0
SECTION
  2
OBJECTS
  0
DICTIONARY
  5
C
330
0
100
AcDbDictionary
  3
ACAD_DETAILVIEWSTYLE
350
F5C4
  3
ACAD_GROUP
350
D
  3
ACAD_IMAGE_VARS
350
F140
  3
ACAD_MLINESTYLE
350
E
  3
ACAD_SCALELIST
350
1DFFD
  3
ACAD_SECTIONVIEWSTYLE
350
F5C5
  3
ACDBVARIABLEDICTIONARY
350
C1B
  3
APPDATA
350
F13E
  3
DIMOFFSETDICTIONARY
350
13296
  3
DWGPROPS
350
1E8A3
  0
DICTIONARY
  5
13241
330
2
100
AcDbDictionary
280
     1
  3
ACAD_LAYERSTATES
360
13242
  0
DICTIONARY
  5
1E81E
330
1E81D
100
AcDbDictionary
280
     1
  0
DICTIONARY
  5
1E821
330
1E820
100
AcDbDictionary
280
     1
  0
DICTIONARY
  5
1E823
330
1E822
100
AcDbDictionary
280
     1
  0
DICTIONARY
  5
1E825
330
1E824
100
AcDbDictionary
280
     1
  0
DICTIONARY
  5
1E828
330
1E827
100
AcDbDictionary
280
     1
  0
DICTIONARY
  5
1E82B
330
1E82A
100
AcDbDictionary
280
     1
  0
DICTIONARY
  5
F5C4
102
{ACAD_REACTORS
330
C
102
}
330
C
100
AcDbDictionary
  0
DICTIONARY
  5
D
102
{ACAD_REACTORS
330
C
102
}
330
C
100
AcDbDictionary
  0
RASTERVARIABLES
  5
F140
102
{ACAD_REACTORS
330
C
102
}
330
C
100
AcDbRasterVariables
 90
        0
 70
     1
 71
     1
 72
     0
  0
DICTIONARY
  5
E
102
{ACAD_REACTORS
330
C
102
}
330
C
100
AcDbDictionary
  3
STANDARD
350
1B
  0
DICTIONARY
  5
1DFFD
102
{ACAD_REACTORS
330
C
102
}
330
C
100
AcDbDictionary
  0
DICTIONARY
  5
F5C5
102
{ACAD_REACTORS
330
C
102
}
330
C
100
AcDbDictionary
  0
DICTIONARY
  5
C1B
102
{ACAD_REACTORS
330
C
102
}
330
C
100
AcDbDictionary
  3
HPTRANSPARENCY
350
13295
  3
SORTENTS
350
C1C
  0
DICTIONARY
  5
F13E
102
{ACAD_REACTORS
330
C
102
}
330
C
100
AcDbDictionary
  0
DICTIONARY
  5
13296
102
{ACAD_REACTORS
330
C
102
}
330
C
100
AcDbDictionary
  3
DIMRAILANGLE
350
173E2
  3
DIMRAILFIRSTOFFSET
350
173E0
  3
DIMRAILOFFSET
350
173E1
  3
DIMRAILSENABLED
350
173E3
  0
XRECORD
  5
1E8A3
102
{ACAD_REACTORS
330
C
102
}
330
C
100
AcDbXrecord
  1
DWGPROPS COOKIE
  2

  3

  4

  6

  7

  8
pikusl
  9

300
=
301
=
302
=
303
=
304
=
305
=
306
=
307
=
308
=
309
=
 40
0.0
 41
2448721.315803356
 42
2457540.38253022
  1

 90
        0
  0
DICTIONARY
  5
13242
102
{ACAD_REACTORS
330
13241
102
}
330
13241
100
AcDbDictionary
  0
MLINESTYLE
  5
1B
102
{ACAD_REACTORS
330
E
102
}
330
E
100
AcDbMlineStyle
  2
STANDARD
 70
     0
  3

 62
     0
 51
90.0
 52
90.0
 71
     2
 49
0.5
 62
   256
  6
BYLAYER
 49
-0.5
 62
   256
  6
BYLAYER
  0
DICTIONARYVAR
  5
13295
102
{ACAD_REACTORS
330
C1B
102
}
330
C1B
100
DictionaryVariables
280
     0
  1
ByLayer
  0
DICTIONARYVAR
  5
C1C
102
{ACAD_REACTORS
330
C1B
102
}
330
C1B
100
DictionaryVariables
280
     0
  1
96
  0
DICTIONARYVAR
  5
173E2
102
{ACAD_REACTORS
330
13296
102
}
330
13296
100
DictionaryVariables
280
     0
  1
0.261799
  0
DICTIONARYVAR
  5
173E0
102
{ACAD_REACTORS
330
13296
102
}
330
13296
100
DictionaryVariables
280
     0
  1
0.400000
  0
DICTIONARYVAR
  5
173E1
102
{ACAD_REACTORS
330
13296
102
}
330
13296
100
DictionaryVariables
280
     0
  1
0.250000
  0
DICTIONARYVAR
  5
173E3
102
{ACAD_REACTORS
330
13296
102
}
330
13296
100
DictionaryVariables
280
     0
  1
1
  0
ENDSEC
  0
EOF
