  0
SECTION
  2
HEADER
  9
$ACADVER
  1
AC1014
  9
$ACADMAINTVER
 70
     9
  9
$DWGCODEPAGE
  3
ANSI_1250
  9
$INSBASE
 10
0.0
 20
0.0
 30
0.0
  9
$EXTMIN
 10
486.041244
 20
0.0
 30
0.0
  9
$EXTMAX
 10
687.671651
 20
297.0
 30
0.0
  9
$LIMMIN
 10
0.0
 20
0.0
  9
$LIMMAX
 10
420.0
 20
297.0
  9
$ORTHOMODE
 70
     0
  9
$REGENMODE
 70
     1
  9
$FILLMODE
 70
     1
  9
$QTEXTMODE
 70
     0
  9
$MIRRTEXT
 70
     1
  9
$DRAGMODE
 70
     2
  9
$LTSCALE
 40
6.0
  9
$OSMODE
 70
 13247
  9
$ATTMODE
 70
     1
  9
$TEXTSIZE
 40
0.2
  9
$TRACEWID
 40
0.05
  9
$TEXTSTYLE
  7
ITALIC
  9
$CLAYER
  8
WY
  9
$CELTYPE
  6
BYLAYER
  9
$CECOLOR
 62
   256
  9
$CELTSCALE
 40
1.0
  9
$DELOBJ
 70
     1
  9
$DISPSILH
 70
     0
  9
$DIMSCALE
 40
1.0
  9
$DIMASZ
 40
2.5
  9
$DIMEXO
 40
1.5
  9
$DIMDLI
 40
7.0
  9
$DIMRND
 40
0.0
  9
$DIMDLE
 40
0.0
  9
$DIMEXE
 40
1.5
  9
$DIMTP
 40
0.1
  9
$DIMTM
 40
0.0
  9
$DIMTXT
 40
1.5
  9
$DIMCEN
 40
-1.0
  9
$DIMTSZ
 40
0.0
  9
$DIMTOL
 70
     0
  9
$DIMLIM
 70
     0
  9
$DIMTIH
 70
     0
  9
$DIMTOH
 70
     1
  9
$DIMSE1
 70
     0
  9
$DIMSE2
 70
     0
  9
$DIMTAD
 70
     1
  9
$DIMZIN
 70
     8
  9
$DIMBLK
  1

  9
$DIMASO
 70
     1
  9
$DIMSHO
 70
     0
  9
$DIMPOST
  1

  9
$DIMAPOST
  1

  9
$DIMALT
 70
     0
  9
$DIMALTD
 70
     2
  9
$DIMALTF
 40
25.4
  9
$DIMLFAC
 40
1.0
  9
$DIMTOFL
 70
     0
  9
$DIMTVP
 40
0.0
  9
$DIMTIX
 70
     1
  9
$DIMSOXD
 70
     0
  9
$DIMSAH
 70
     0
  9
$DIMBLK1
  1

  9
$DIMBLK2
  1

  9
$DIMSTYLE
  2
STANDARD
  9
$DIMCLRD
 70
     0
  9
$DIMCLRE
 70
     0
  9
$DIMCLRT
 70
     0
  9
$DIMTFAC
 40
1.0
  9
$DIMGAP
 40
0.75
  9
$DIMJUST
 70
     0
  9
$DIMSD1
 70
     0
  9
$DIMSD2
 70
     0
  9
$DIMTOLJ
 70
     1
  9
$DIMTZIN
 70
     8
  9
$DIMALTZ
 70
     0
  9
$DIMALTTZ
 70
     0
  9
$DIMFIT
 70
     4
  9
$DIMUPT
 70
     0
  9
$DIMUNIT
 70
     2
  9
$DIMDEC
 70
     2
  9
$DIMTDEC
 70
     4
  9
$DIMALTU
 70
     2
  9
$DIMALTTD
 70
     2
  9
$DIMTXSTY
  7
STANDARD
  9
$DIMAUNIT
 70
     0
  9
$LUNITS
 70
     2
  9
$LUPREC
 70
     2
  9
$SKETCHINC
 40
0.1
  9
$FILLETRAD
 40
0.1
  9
$AUNITS
 70
     0
  9
$AUPREC
 70
     2
  9
$MENU
  1
ACAD
  9
$ELEVATION
 40
0.0
  9
$PELEVATION
 40
0.0
  9
$THICKNESS
 40
0.0
  9
$LIMCHECK
 70
     0
  9
$CHAMFERA
 40
0.0
  9
$CHAMFERB
 40
0.0
  9
$CHAMFERC
 40
0.0
  9
$CHAMFERD
 40
0.0
  9
$SKPOLY
 70
     0
  9
$TDCREATE
 40
2448721.39913669
  9
$TDUPDATE
 40
2457540.437074468
  9
$TDINDWG
 40
1.5792568287
  9
$TDUSRTIMER
 40
2457540.352795011
  9
$USRTIMER
 70
     1
  9
$ANGBASE
 50
0.0
  9
$ANGDIR
 70
     0
  9
$PDMODE
 70
     0
  9
$PDSIZE
 40
0.0
  9
$PLINEWID
 40
0.5
  9
$COORDS
 70
     1
  9
$SPLFRAME
 70
     0
  9
$SPLINETYPE
 70
     6
  9
$SPLINESEGS
 70
     8
  9
$ATTDIA
 70
     0
  9
$ATTREQ
 70
     1
  9
$HANDLING
 70
     1
  9
$HANDSEED
  5
1DFE5
  9
$SURFTAB1
 70
     6
  9
$SURFTAB2
 70
     6
  9
$SURFTYPE
 70
     6
  9
$SURFU
 70
     6
  9
$SURFV
 70
     6
  9
$UCSNAME
  2

  9
$UCSORG
 10
0.0
 20
0.0
 30
0.0
  9
$UCSXDIR
 10
1.0
 20
0.0
 30
0.0
  9
$UCSYDIR
 10
0.0
 20
1.0
 30
0.0
  9
$PUCSNAME
  2

  9
$PUCSORG
 10
0.0
 20
0.0
 30
0.0
  9
$PUCSXDIR
 10
1.0
 20
0.0
 30
0.0
  9
$PUCSYDIR
 10
0.0
 20
1.0
 30
0.0
  9
$USERI1
 70
     0
  9
$USERI2
 70
     0
  9
$USERI3
 70
     0
  9
$USERI4
 70
     0
  9
$USERI5
 70
     0
  9
$USERR1
 40
0.0
  9
$USERR2
 40
0.0
  9
$USERR3
 40
0.0
  9
$USERR4
 40
0.0
  9
$USERR5
 40
0.0
  9
$WORLDVIEW
 70
     1
  9
$SHADEDGE
 70
     3
  9
$SHADEDIF
 70
    70
  9
$TILEMODE
 70
     1
  9
$MAXACTVP
 70
    16
  9
$PINSBASE
 10
0.0
 20
0.0
 30
0.0
  9
$PLIMCHECK
 70
     0
  9
$PEXTMIN
 10
1.000000000000000E+20
 20
1.000000000000000E+20
 30
1.000000000000000E+20
  9
$PEXTMAX
 10
-1.000000000000000E+20
 20
-1.000000000000000E+20
 30
-1.000000000000000E+20
  9
$PLIMMIN
 10
0.0
 20
0.0
  9
$PLIMMAX
 10
0.0
 20
0.0
  9
$UNITMODE
 70
     0
  9
$VISRETAIN
 70
     0
  9
$PLINEGEN
 70
     0
  9
$PSLTSCALE
 70
     0
  9
$TREEDEPTH
 70
  3020
  9
$PICKSTYLE
 70
     1
  9
$CMLSTYLE
  2
STANDARD
  9
$CMLJUST
 70
     0
  9
$CMLSCALE
 40
1.0
  9
$PROXYGRAPHICS
 70
     1
  9
$MEASUREMENT
 70
     0
  0
ENDSEC
  0
SECTION
  2
CLASSES
  0
CLASS
  1
HATCH
  2
AcDbHatch
  3
ObjectDBX Classes
 90
        0
280
     0
281
     1
  0
CLASS
  1
LWPOLYLINE
  2
AcDbPolyline
  3
ObjectDBX Classes
 90
        0
280
     0
281
     1
  0
CLASS
  1
DICTIONARYVAR
  2
AcDbDictionaryVar
  3
ObjectDBX Classes
 90
        0
280
     0
281
     0
  0
CLASS
  1
XRECORD
  2
AcDbXrecord
  3
ObjectDBX Classes
 90
        0
280
     0
281
     0
  0
CLASS
  1
SCALE
  2
AcDbScale
  3
ObjectDBX Classes
 90
     1153
280
     0
281
     0
  0
CLASS
  1
VISUALSTYLE
  2
AcDbVisualStyle
  3
ObjectDBX Classes
 90
     4095
280
     0
281
     0
  0
CLASS
  1
MATERIAL
  2
AcDbMaterial
  3
ObjectDBX Classes
 90
     1153
280
     0
281
     0
  0
CLASS
  1
TABLESTYLE
  2
AcDbTableStyle
  3
ObjectDBX Classes
 90
     4095
280
     0
281
     0
  0
CLASS
  1
MLEADERSTYLE
  2
AcDbMLeaderStyle
  3
ACDB_MLEADERSTYLE_CLASS
 90
     4095
280
     0
281
     0
  0
CLASS
  1
SUN
  2
AcDbSun
  3
SCENEOE
 90
     1153
280
     0
281
     0
  0
CLASS
  1
RASTERVARIABLES
  2
AcDbRasterVariables
  3
ISM
 90
        0
280
     0
281
     0
  0
CLASS
  1
DIMASSOC
  2
AcDbDimAssoc
  3
"AcDbDimAssoc|Product Desc:     AcDim ARX App For Dimension|Company:          Autodesk, Inc.|WEB Address:      www.autodesk.com"
 90
        0
280
     0
281
     0
  0
CLASS
  1
ACDBDICTIONARYWDFLT
  2
AcDbDictionaryWithDefault
  3
ObjectDBX Classes
 90
        0
280
     0
281
     0
  0
ENDSEC
  0
SECTION
  2
TABLES
  0
TABLE
  2
VPORT
  5
8
330
0
100
AcDbSymbolTable
 70
     1
  0
VPORT
  5
F0F7
330
8
100
AcDbSymbolTableRecord
100
AcDbViewportTableRecord
  2
*ACTIVE
 70
     0
 10
0.0
 20
0.0
 11
1.0
 21
1.0
 12
395.7850931426333
 22
503.3540253583408
 13
0.0
 23
0.0
 14
1.0
 24
1.0
 15
5.0
 25
5.0
 16
0.0
 26
0.0
 36
1.0
 17
191.0713543573668
 27
-354.8540253583408
 37
0.0
 40
302.94
 41
2.811127379209371
 42
50.0
 43
0.0
 44
0.0
 50
0.0
 51
0.0
 71
    16
 72
   200
 73
     1
 74
     0
 75
     0
 76
     0
 77
     0
 78
     0
  0
ENDTAB
  0
TABLE
  2
LTYPE
  5
5
330
0
100
AcDbSymbolTable
 70
     5
  0
LTYPE
  5
12
330
5
100
AcDbSymbolTableRecord
100
AcDbLinetypeTableRecord
  2
BYBLOCK
 70
     0
  3

 72
    65
 73
     0
 40
0.0
  0
LTYPE
  5
13
330
5
100
AcDbSymbolTableRecord
100
AcDbLinetypeTableRecord
  2
BYLAYER
 70
     0
  3

 72
    65
 73
     0
 40
0.0
  0
LTYPE
  5
14
330
5
100
AcDbSymbolTableRecord
100
AcDbLinetypeTableRecord
  2
CONTINUOUS
 70
     0
  3
Solid line
 72
    65
 73
     0
 40
0.0
  0
LTYPE
  5
1D
330
5
100
AcDbSymbolTableRecord
100
AcDbLinetypeTableRecord
  2
CENTER
 70
     0
  3
____ _ ____ _ ____ _ ____ _ ____ _ ____ _ ____
 72
    65
 73
     4
 40
2.0
 49
1.25
 74
     0
 49
-0.25
 74
     0
 49
0.25
 74
     0
 49
-0.25
 74
     0
  0
LTYPE
  5
1E
330
5
100
AcDbSymbolTableRecord
100
AcDbLinetypeTableRecord
  2
HIDDEN
 70
     0
  3
_ _ _ _ _ _ _ _ _ _ _ _ _ _ _ _ _ _ _ _ _ _ _
 72
    65
 73
     2
 40
0.375
 49
0.25
 74
     0
 49
-0.125
 74
     0
  0
LTYPE
  5
8093
330
5
100
AcDbSymbolTableRecord
100
AcDbLinetypeTableRecord
  2
PHANTOM
 70
     0
  3
Phantom ______  __  __  ______  __  __  ______
 72
    65
 73
     6
 40
12.7
 49
6.35
 74
     0
 49
-1.27
 74
     0
 49
1.27
 74
     0
 49
-1.27
 74
     0
 49
1.27
 74
     0
 49
-1.27
 74
     0
  0
LTYPE
  5
1187C
330
5
100
AcDbSymbolTableRecord
100
AcDbLinetypeTableRecord
  2
CENTERX2
 70
     0
  3
Center (2x) ________  __  ________  __  _____
 72
    65
 73
     4
 40
20.32
 49
12.7
 74
     0
 49
-2.54
 74
     0
 49
2.54
 74
     0
 49
-2.54
 74
     0
  0
ENDTAB
  0
TABLE
  2
LAYER
  5
2
102
{ACAD_XDICTIONARY
360
13241
102
}
330
0
100
AcDbSymbolTable
 70
     8
  0
LAYER
  5
F
330
2
100
AcDbSymbolTableRecord
100
AcDbLayerTableRecord
  2
0
 70
     0
 62
     7
  6
CONTINUOUS
  0
LAYER
  5
21
330
2
100
AcDbSymbolTableRecord
100
AcDbLayerTableRecord
  2
1
 70
     0
 62
     3
  6
CONTINUOUS
  0
LAYER
  5
22
330
2
100
AcDbSymbolTableRecord
100
AcDbLayerTableRecord
  2
2
 70
     0
 62
     6
  6
CONTINUOUS
  0
LAYER
  5
23
330
2
100
AcDbSymbolTableRecord
100
AcDbLayerTableRecord
  2
3
 70
     0
 62
     4
  6
HIDDEN
  0
LAYER
  5
24
330
2
100
AcDbSymbolTableRecord
100
AcDbLayerTableRecord
  2
OSIE
 70
     0
 62
     2
  6
CENTER
  0
LAYER
  5
25
330
2
100
AcDbSymbolTableRecord
100
AcDbLayerTableRecord
  2
WY
 70
     0
 62
     1
  6
CONTINUOUS
  0
LAYER
  5
26
330
2
100
AcDbSymbolTableRecord
100
AcDbLayerTableRecord
  2
DEFPOINTS
 70
     0
 62
     7
  6
CONTINUOUS
  0
LAYER
  5
464
330
2
100
AcDbSymbolTableRecord
100
AcDbLayerTableRecord
  2
WYMIARY
 70
     0
 62
     1
  6
CONTINUOUS
  0
ENDTAB
  0
TABLE
  2
STYLE
  5
3
330
0
100
AcDbSymbolTable
 70
     4
  0
STYLE
  5
10
330
3
100
AcDbSymbolTableRecord
100
AcDbTextStyleTableRecord
  2
STANDARD
 70
     0
 40
0.0
 41
1.0
 50
0.0
 71
     0
 42
6.0
  3
txt
  4

  0
STYLE
  5
1C
330
3
100
AcDbSymbolTableRecord
100
AcDbTextStyleTableRecord
  2
ITALIC
 70
     0
 40
0.0
 41
1.0
 50
15.0
 71
     0
 42
0.2
  3
simplex
  4

  0
STYLE
  5
C512
330
3
100
AcDbSymbolTableRecord
100
AcDbTextStyleTableRecord
  2
SLDTEXTSTYLE2
 70
     0
 40
0.0
 41
0.7
 50
0.0
 71
     0
 42
0.2
  3
TXT
  4

  0
STYLE
  5
C513
330
3
100
AcDbSymbolTableRecord
100
AcDbTextStyleTableRecord
  2
SLDTEXTSTYLE6
 70
     0
 40
0.0
 41
0.605
 50
0.0
 71
     0
 42
0.2
  3
TXT
  4

  0
ENDTAB
  0
TABLE
  2
VIEW
  5
6
330
0
100
AcDbSymbolTable
 70
     0
  0
ENDTAB
  0
TABLE
  2
UCS
  5
7
330
0
100
AcDbSymbolTable
 70
     0
  0
ENDTAB
  0
TABLE
  2
APPID
  5
9
330
0
100
AcDbSymbolTable
 70
     6
  0
APPID
  5
11
330
9
100
AcDbSymbolTableRecord
100
AcDbRegAppTableRecord
  2
ACAD
 70
     0
  0
APPID
  5
14E88
330
9
100
AcDbSymbolTableRecord
100
AcDbRegAppTableRecord
  2
ACAD_DSTYLE_DIMRADIAL_EXTE
 70
     0
  0
APPID
  5
17475
330
9
100
AcDbSymbolTableRecord
100
AcDbRegAppTableRecord
  2
ACAD_DSTYLE_DIMRADIAL_EXT0
 70
     0
  0
APPID
  5
1C4D0
330
9
100
AcDbSymbolTableRecord
100
AcDbRegAppTableRecord
  2
ACAD_DSTYLE_DIMRADIAL_EXT1
 70
     0
  0
APPID
  5
1D830
330
9
100
AcDbSymbolTableRecord
100
AcDbRegAppTableRecord
  2
ACAD_DSTYLE_DIMRADIAL_EXT2
 70
     0
  0
APPID
  5
1DF7B
330
9
100
AcDbSymbolTableRecord
100
AcDbRegAppTableRecord
  2
ACAD_DSTYLE_DIMRADIAL_EXT3
 70
     0
  0
ENDTAB
  0
TABLE
  2
DIMSTYLE
  5
A
330
0
100
AcDbSymbolTable
 70
     2
  0
DIMSTYLE
105
3B
102
{ACAD_REACTORS
330
1DF4E
330
1DF5D
330
1DF6C
330
1DF7C
330
1DF8E
330
1DF9D
330
1DFAE
330
1DFC2
330
1DFD4
102
}
330
A
100
AcDbSymbolTableRecord
100
AcDbDimStyleTableRecord
  2
STANDARD
 70
     0
  3

  4

  5

  6

  7

 40
1.0
 41
3.5
 42
1.5
 43
7.0
 44
1.5
 45
0.0
 46
0.0
 47
0.1
 48
0.0
140
3.6
141
-1.0
142
0.0
143
25.4
144
1.0
145
0.0
146
1.0
147
1.5
 71
     0
 72
     0
 73
     0
 74
     0
 75
     0
 76
     0
 77
     1
 78
     0
170
     0
171
     2
172
     0
173
     0
174
     0
175
     0
176
     0
177
     0
178
     0
270
     2
271
     2
272
     4
273
     2
274
     2
340
10
275
     0
280
     0
281
     0
282
     0
283
     1
284
     0
285
     0
286
     0
287
     3
288
     0
  0
DIMSTYLE
105
1187D
330
A
100
AcDbSymbolTableRecord
100
AcDbDimStyleTableRecord
  2
ISO-25
 70
     0
  3

  4

  5

  6

  7

 40
1.0
 41
2.5
 42
0.625
 43
3.75
 44
1.25
 45
0.0
 46
0.0
 47
0.0
 48
0.0
140
2.5
141
2.5
142
0.0
143
0.03937007874016
144
1.0
145
0.0
146
1.0
147
0.625
 71
     0
 72
     0
 73
     0
 74
     0
 75
     0
 76
     0
 77
     1
 78
     8
170
     0
171
     3
172
     1
173
     0
174
     0
175
     0
176
     0
177
     0
178
     0
270
     2
271
     2
272
     2
273
     2
274
     3
340
10
275
     0
280
     0
281
     0
282
     0
283
     0
284
     8
285
     0
286
     0
287
     3
288
     0
  0
ENDTAB
  0
TABLE
  2
BLOCK_RECORD
  5
1
330
0
100
AcDbSymbolTable
 70
   179
  0
BLOCK_RECORD
  5
18
330
1
100
AcDbSymbolTableRecord
100
AcDbBlockTableRecord
  2
*MODEL_SPACE
  0
BLOCK_RECORD
  5
15
330
1
100
AcDbSymbolTableRecord
100
AcDbBlockTableRecord
  2
*PAPER_SPACE
  0
BLOCK_RECORD
  5
7EA0
330
1
100
AcDbSymbolTableRecord
100
AcDbBlockTableRecord
  2
A$C312173AA
  0
BLOCK_RECORD
  5
C4F7
330
1
100
AcDbSymbolTableRecord
100
AcDbBlockTableRecord
  2
_DOT
  0
BLOCK_RECORD
  5
13341
330
1
100
AcDbSymbolTableRecord
100
AcDbBlockTableRecord
  2
_NONE
  0
BLOCK_RECORD
  5
13346
330
1
100
AcDbSymbolTableRecord
100
AcDbBlockTableRecord
  2
_OBLIQUE
  0
BLOCK_RECORD
  5
1357A
330
1
100
AcDbSymbolTableRecord
100
AcDbBlockTableRecord
  2
SW_CENTERMARKSYMBOL_0
  0
BLOCK_RECORD
  5
13586
330
1
100
AcDbSymbolTableRecord
100
AcDbBlockTableRecord
  2
SW_CENTERMARKSYMBOL_1
  0
BLOCK_RECORD
  5
13592
330
1
100
AcDbSymbolTableRecord
100
AcDbBlockTableRecord
  2
SW_CENTERMARKSYMBOL_2
  0
BLOCK_RECORD
  5
140D3
330
1
100
AcDbSymbolTableRecord
100
AcDbBlockTableRecord
  2
SW_CENTERMARKSYMBOL_3
  0
BLOCK_RECORD
  5
140DF
330
1
100
AcDbSymbolTableRecord
100
AcDbBlockTableRecord
  2
SW_CENTERMARKSYMBOL_4
  0
BLOCK_RECORD
  5
140EB
330
1
100
AcDbSymbolTableRecord
100
AcDbBlockTableRecord
  2
SW_CENTERMARKSYMBOL_5
  0
BLOCK_RECORD
  5
140F7
330
1
100
AcDbSymbolTableRecord
100
AcDbBlockTableRecord
  2
SW_CENTERMARKSYMBOL_6
  0
BLOCK_RECORD
  5
14103
330
1
100
AcDbSymbolTableRecord
100
AcDbBlockTableRecord
  2
SW_CENTERMARKSYMBOL_7
  0
BLOCK_RECORD
  5
1410F
330
1
100
AcDbSymbolTableRecord
100
AcDbBlockTableRecord
  2
SW_CENTERMARKSYMBOL_8
  0
BLOCK_RECORD
  5
1411B
330
1
100
AcDbSymbolTableRecord
100
AcDbBlockTableRecord
  2
SW_CENTERMARKSYMBOL_9
  0
BLOCK_RECORD
  5
17418
330
1
100
AcDbSymbolTableRecord
100
AcDbBlockTableRecord
  2
_ARCHTICK
  0
BLOCK_RECORD
  5
1741C
330
1
100
AcDbSymbolTableRecord
100
AcDbBlockTableRecord
  2
_INTEGRAL
  0
BLOCK_RECORD
  5
1CC05
330
1
100
AcDbSymbolTableRecord
100
AcDbBlockTableRecord
  2
*D152
  0
BLOCK_RECORD
  5
1CC14
330
1
100
AcDbSymbolTableRecord
100
AcDbBlockTableRecord
  2
*D153
  0
BLOCK_RECORD
  5
1CC36
330
1
100
AcDbSymbolTableRecord
100
AcDbBlockTableRecord
  2
*D155
  0
BLOCK_RECORD
  5
1CC45
330
1
100
AcDbSymbolTableRecord
100
AcDbBlockTableRecord
  2
*D156
  0
BLOCK_RECORD
  5
1CC63
330
1
100
AcDbSymbolTableRecord
100
AcDbBlockTableRecord
  2
*D158
  0
BLOCK_RECORD
  5
1CC72
330
1
100
AcDbSymbolTableRecord
100
AcDbBlockTableRecord
  2
*D159
  0
BLOCK_RECORD
  5
1CC81
330
1
100
AcDbSymbolTableRecord
100
AcDbBlockTableRecord
  2
*D160
  0
BLOCK_RECORD
  5
1CC90
330
1
100
AcDbSymbolTableRecord
100
AcDbBlockTableRecord
  2
*D161
  0
BLOCK_RECORD
  5
1CC9F
330
1
100
AcDbSymbolTableRecord
100
AcDbBlockTableRecord
  2
*D162
  0
BLOCK_RECORD
  5
1D801
330
1
100
AcDbSymbolTableRecord
100
AcDbBlockTableRecord
  2
*D165
  0
BLOCK_RECORD
  5
1D810
330
1
100
AcDbSymbolTableRecord
100
AcDbBlockTableRecord
  2
*D166
  0
BLOCK_RECORD
  5
1D81F
330
1
100
AcDbSymbolTableRecord
100
AcDbBlockTableRecord
  2
*D167
  0
BLOCK_RECORD
  5
1D834
330
1
100
AcDbSymbolTableRecord
100
AcDbBlockTableRecord
  2
*D168
  0
BLOCK_RECORD
  5
1DF51
330
1
100
AcDbSymbolTableRecord
100
AcDbBlockTableRecord
  2
*D170
  0
BLOCK_RECORD
  5
1DF60
330
1
100
AcDbSymbolTableRecord
100
AcDbBlockTableRecord
  2
*D171
  0
BLOCK_RECORD
  5
1DF6F
330
1
100
AcDbSymbolTableRecord
100
AcDbBlockTableRecord
  2
*D172
  0
BLOCK_RECORD
  5
1DF7F
330
1
100
AcDbSymbolTableRecord
100
AcDbBlockTableRecord
  2
*D173
  0
BLOCK_RECORD
  5
1DF91
330
1
100
AcDbSymbolTableRecord
100
AcDbBlockTableRecord
  2
*D174
  0
BLOCK_RECORD
  5
1DFA0
330
1
100
AcDbSymbolTableRecord
100
AcDbBlockTableRecord
  2
*D175
  0
BLOCK_RECORD
  5
1DFB1
330
1
100
AcDbSymbolTableRecord
100
AcDbBlockTableRecord
  2
*D176
  0
BLOCK_RECORD
  5
1DFC5
330
1
100
AcDbSymbolTableRecord
100
AcDbBlockTableRecord
  2
*D177
  0
BLOCK_RECORD
  5
1DFD7
330
1
100
AcDbSymbolTableRecord
100
AcDbBlockTableRecord
  2
*D178
  0
ENDTAB
  0
ENDSEC
  0
SECTION
  2
BLOCKS
  0
BLOCK
  5
29
330
18
100
AcDbEntity
  8
0
100
AcDbBlockBegin
  2
*MODEL_SPACE
 70
     0
 10
0.0
 20
0.0
 30
0.0
  3
*MODEL_SPACE
  1

  0
ENDBLK
  5
2A
330
18
100
AcDbEntity
  8
0
100
AcDbBlockEnd
  0
BLOCK
  5
27
330
15
100
AcDbEntity
 67
     1
  8
0
100
AcDbBlockBegin
  2
*PAPER_SPACE
 70
     0
 10
0.0
 20
0.0
 30
0.0
  3
*PAPER_SPACE
  1

  0
ENDBLK
  5
28
330
15
100
AcDbEntity
 67
     1
  8
0
100
AcDbBlockEnd
  0
BLOCK
  5
7EAF
330
7EA0
100
AcDbEntity
  8
0
100
AcDbBlockBegin
  2
A$C312173AA
 70
     0
 10
0.0
 20
0.0
 30
0.0
  3
A$C312173AA
  1
A$C312173AA
  0
HATCH
  5
7EA1
330
7EA0
100
AcDbEntity
  8
1
100
AcDbHatch
 10
0.0
 20
0.0
 30
0.0
210
0.0
220
0.0
230
1.0
  2
SOLID
 70
     1
 71
     1
 91
        1
 92
        7
 72
     0
 73
     1
 93
        4
 10
2.724690422176706
 20
5.013136352600668
 10
5.058157912552363
 20
1.095673373491763
 10
5.076413282682712
 20
1.095673373491763
 10
7.382430158279476
 20
5.013136352600668
 97
        4
330
7EA6
330
7EAA
330
7EA5
330
7EA8
 75
     0
 76
     1
 47
0.057765
 98
        1
 10
5.461965
 20
4.283681
  0
HATCH
  5
7EA2
330
7EA0
100
AcDbEntity
  8
1
100
AcDbHatch
 10
0.0
 20
0.0
 30
0.0
210
0.0
220
0.0
230
1.0
  2
SOLID
 70
     1
 71
     1
 91
        1
 92
        7
 72
     0
 73
     1
 93
        4
 10
2.724690422176706
 20
5.013136352600668
 10
5.058157912552363
 20
1.095673373491763
 10
5.076413282682712
 20
1.095673373491763
 10
7.382430158279476
 20
5.013136352600668
 97
        4
330
7EA4
330
7EA9
330
7EA3
330
7EA7
 75
     0
 76
     1
 47
0.057765
 98
        1
 10
5.461965
 20
4.283681
  0
LINE
  5
7EA3
102
{ACAD_REACTORS
330
7EA2
102
}
330
7EA0
100
AcDbEntity
  8
1
100
AcDbLine
 10
7.376974
 20
1.095673
 30
0.0
 11
2.719445
 21
1.095673
 31
0.0
  0
LINE
  5
7EA4
102
{ACAD_REACTORS
330
7EA2
102
}
330
7EA0
100
AcDbEntity
  8
1
100
AcDbLine
 10
2.716507
 20
5.013136
 30
0.0
 11
7.38243
 21
5.013136
 31
0.0
  0
LINE
  5
7EA5
102
{ACAD_REACTORS
330
7EA1
102
}
330
7EA0
100
AcDbEntity
  8
1
100
AcDbLine
 10
7.376974
 20
1.095673
 30
0.0
 11
2.719445
 21
1.095673
 31
0.0
  0
LINE
  5
7EA6
102
{ACAD_REACTORS
330
7EA1
102
}
330
7EA0
100
AcDbEntity
  8
1
100
AcDbLine
 10
2.716507
 20
5.013136
 30
0.0
 11
7.38243
 21
5.013136
 31
0.0
  0
LINE
  5
7EA7
102
{ACAD_REACTORS
330
7EA2
102
}
330
7EA0
100
AcDbEntity
  8
1
100
AcDbLine
 10
7.38243
 20
5.013136
 30
0.0
 11
5.049469
 21
1.0499
 31
0.0
  0
LINE
  5
7EA8
102
{ACAD_REACTORS
330
7EA1
102
}
330
7EA0
100
AcDbEntity
  8
1
100
AcDbLine
 10
7.38243
 20
5.013136
 30
0.0
 11
5.049469
 21
1.0499
 31
0.0
  0
LINE
  5
7EA9
102
{ACAD_REACTORS
330
7EA2
102
}
330
7EA0
100
AcDbEntity
  8
1
100
AcDbLine
 10
5.048209
 20
1.112376
 30
0.0
 11
2.719445
 21
5.021942
 31
0.0
  0
LINE
  5
7EAA
102
{ACAD_REACTORS
330
7EA1
102
}
330
7EA0
100
AcDbEntity
  8
1
100
AcDbLine
 10
5.048209
 20
1.112376
 30
0.0
 11
2.719445
 21
5.021942
 31
0.0
  0
LINE
  5
7EAB
330
7EA0
100
AcDbEntity
  8
1
100
AcDbLine
 10
3.176777
 20
2.240563
 30
0.0
 11
1.859991
 21
0.714974
 31
0.0
  0
LINE
  5
7EAC
330
7EA0
100
AcDbEntity
  8
1
100
AcDbLine
 10
1.935572
 20
2.29404
 30
0.0
 11
0.618786
 21
0.768452
 31
0.0
  0
HATCH
  5
7EAD
330
7EA0
100
AcDbEntity
  8
1
100
AcDbHatch
 10
0.0
 20
0.0
 30
0.0
210
0.0
220
0.0
230
1.0
  2
SOLID
 70
     1
 71
     0
 91
        1
 92
        7
 72
     0
 73
     1
 93
        3
 10
2.13435432304297
 20
0.5079866047149438
 10
1.594971700028992
 20
0.9149117569309055
 10
1.241204476589189
 20
0.0000001052034975
 97
        0
 75
     0
 76
     1
 47
0.009825
 98
        1
 10
1.617082
 20
0.370646
  0
HATCH
  5
7EAE
330
7EA0
100
AcDbEntity
  8
1
100
AcDbHatch
 10
0.0
 20
0.0
 30
0.0
210
0.0
220
0.0
230
1.0
  2
SOLID
 70
     1
 71
     0
 91
        1
 92
        7
 72
     0
 73
     1
 93
        3
 10
0.8931496793437361
 20
0.5614642425206
 10
0.3537670563297865
 20
0.9683893947365334
 10
-0.0000001671100733
 20
0.0534777430091538
 97
        0
 75
     0
 76
     1
 47
0.009825
 98
        1
 10
0.375878
 20
0.424123
  0
ENDBLK
  5
7EB0
330
7EA0
100
AcDbEntity
  8
0
100
AcDbBlockEnd
  0
BLOCK
  5
C4FC
330
C4F7
100
AcDbEntity
  8
0
100
AcDbBlockBegin
  2
_DOT
 70
     0
 10
0.0
 20
0.0
 30
0.0
  3
_DOT
  1
_DOT
  0
LWPOLYLINE
  5
C4F8
330
C4F7
100
AcDbEntity
  8
0
  6
BYBLOCK
 62
     0
100
AcDbPolyline
 90
        2
 70
     1
 43
0.5
 10
-0.25
 20
0.0
 42
1.0
 10
0.25
 20
0.0
 42
1.0
  0
LINE
  5
C4F9
330
C4F7
100
AcDbEntity
  8
0
  6
BYBLOCK
 62
     0
100
AcDbLine
 10
-0.5
 20
0.0
 30
0.0
 11
-1.0
 21
0.0
 31
0.0
  0
ENDBLK
  5
C4FD
330
C4F7
100
AcDbEntity
  8
0
100
AcDbBlockEnd
  0
BLOCK
  5
13342
330
13341
100
AcDbEntity
  8
0
100
AcDbBlockBegin
  2
_NONE
 70
     0
 10
0.0
 20
0.0
 30
0.0
  3
_NONE
  1
_NONE
  0
ENDBLK
  5
13343
330
13341
100
AcDbEntity
  8
0
100
AcDbBlockEnd
  0
BLOCK
  5
13347
330
13346
100
AcDbEntity
  8
0
100
AcDbBlockBegin
  2
_OBLIQUE
 70
     0
 10
0.0
 20
0.0
 30
0.0
  3
_OBLIQUE
  1
_OBLIQUE
  0
LINE
  5
13349
330
13346
100
AcDbEntity
  8
0
  6
BYBLOCK
 62
     0
100
AcDbLine
 10
-0.5
 20
-0.5
 30
0.0
 11
0.5
 21
0.5
 31
0.0
  0
ENDBLK
  5
13348
330
13346
100
AcDbEntity
  8
0
100
AcDbBlockEnd
  0
BLOCK
  5
1357B
330
1357A
100
AcDbEntity
  8
0
100
AcDbBlockBegin
  2
SW_CENTERMARKSYMBOL_0
 70
     0
 10
0.0
 20
0.0
 30
0.0
  3
SW_CENTERMARKSYMBOL_0
  1
SW_CENTERMARKSYMBOL_0
  0
LINE
  5
1357C
330
1357A
100
AcDbEntity
  8
0
  6
CONTINUOUS
 62
     0
100
AcDbLine
 10
0.0
 20
0.0
 30
0.0
 11
0.0
 21
2.500000000000002
 31
0.0
  0
LINE
  5
1357D
330
1357A
100
AcDbEntity
  8
0
  6
CONTINUOUS
 62
     0
100
AcDbLine
 10
0.0
 20
0.0
 30
0.0
 11
-2.500000000000002
 21
0.0
 31
0.0
  0
LINE
  5
1357E
330
1357A
100
AcDbEntity
  8
0
  6
CONTINUOUS
 62
     0
100
AcDbLine
 10
0.0
 20
0.0
 30
0.0
 11
0.0
 21
-2.500000000000002
 31
0.0
  0
LINE
  5
1357F
330
1357A
100
AcDbEntity
  8
0
  6
CONTINUOUS
 62
     0
100
AcDbLine
 10
0.0
 20
0.0
 30
0.0
 11
2.500000000000002
 21
0.0
 31
0.0
  0
LINE
  5
13580
330
1357A
100
AcDbEntity
  8
0
  6
CONTINUOUS
 62
     0
100
AcDbLine
 10
0.0
 20
2.500000000000002
 30
0.0
 11
0.0
 21
3.099999999999992
 31
0.0
  0
LINE
  5
13581
330
1357A
100
AcDbEntity
  8
0
  6
CONTINUOUS
 62
     0
100
AcDbLine
 10
-2.500000000000002
 20
0.0
 30
0.0
 11
-3.100000000000005
 21
0.0
 31
0.0
  0
LINE
  5
13582
330
1357A
100
AcDbEntity
  8
0
  6
CONTINUOUS
 62
     0
100
AcDbLine
 10
0.0
 20
-2.500000000000002
 30
0.0
 11
0.0
 21
-3.099999999999992
 31
0.0
  0
LINE
  5
13583
330
1357A
100
AcDbEntity
  8
0
  6
CONTINUOUS
 62
     0
100
AcDbLine
 10
2.500000000000002
 20
0.0
 30
0.0
 11
3.099999999999992
 21
0.0
 31
0.0
  0
ENDBLK
  5
13584
330
1357A
100
AcDbEntity
  8
0
100
AcDbBlockEnd
  0
BLOCK
  5
13587
330
13586
100
AcDbEntity
  8
0
100
AcDbBlockBegin
  2
SW_CENTERMARKSYMBOL_1
 70
     0
 10
0.0
 20
0.0
 30
0.0
  3
SW_CENTERMARKSYMBOL_1
  1
SW_CENTERMARKSYMBOL_1
  0
LINE
  5
13588
330
13586
100
AcDbEntity
  8
0
  6
CONTINUOUS
 62
     0
100
AcDbLine
 10
0.0
 20
0.0
 30
0.0
 11
0.0
 21
2.500000000000002
 31
0.0
  0
LINE
  5
13589
330
13586
100
AcDbEntity
  8
0
  6
CONTINUOUS
 62
     0
100
AcDbLine
 10
0.0
 20
0.0
 30
0.0
 11
-2.500000000000002
 21
0.0
 31
0.0
  0
LINE
  5
1358A
330
13586
100
AcDbEntity
  8
0
  6
CONTINUOUS
 62
     0
100
AcDbLine
 10
0.0
 20
0.0
 30
0.0
 11
0.0
 21
-2.500000000000002
 31
0.0
  0
LINE
  5
1358B
330
13586
100
AcDbEntity
  8
0
  6
CONTINUOUS
 62
     0
100
AcDbLine
 10
0.0
 20
0.0
 30
0.0
 11
2.500000000000002
 21
0.0
 31
0.0
  0
LINE
  5
1358C
330
13586
100
AcDbEntity
  8
0
  6
CONTINUOUS
 62
     0
100
AcDbLine
 10
0.0
 20
2.500000000000002
 30
0.0
 11
0.0
 21
3.099999999999992
 31
0.0
  0
LINE
  5
1358D
330
13586
100
AcDbEntity
  8
0
  6
CONTINUOUS
 62
     0
100
AcDbLine
 10
-2.500000000000002
 20
0.0
 30
0.0
 11
-3.100000000000005
 21
0.0
 31
0.0
  0
LINE
  5
1358E
330
13586
100
AcDbEntity
  8
0
  6
CONTINUOUS
 62
     0
100
AcDbLine
 10
0.0
 20
-2.500000000000002
 30
0.0
 11
0.0
 21
-3.099999999999992
 31
0.0
  0
LINE
  5
1358F
330
13586
100
AcDbEntity
  8
0
  6
CONTINUOUS
 62
     0
100
AcDbLine
 10
2.500000000000002
 20
0.0
 30
0.0
 11
3.099999999999992
 21
0.0
 31
0.0
  0
ENDBLK
  5
13590
330
13586
100
AcDbEntity
  8
0
100
AcDbBlockEnd
  0
BLOCK
  5
13593
330
13592
100
AcDbEntity
  8
0
100
AcDbBlockBegin
  2
SW_CENTERMARKSYMBOL_2
 70
     0
 10
0.0
 20
0.0
 30
0.0
  3
SW_CENTERMARKSYMBOL_2
  1
SW_CENTERMARKSYMBOL_2
  0
LINE
  5
13594
330
13592
100
AcDbEntity
  8
0
  6
CONTINUOUS
 62
     0
100
AcDbLine
 10
0.0
 20
0.0
 30
0.0
 11
0.0
 21
2.500000000000002
 31
0.0
  0
LINE
  5
13595
330
13592
100
AcDbEntity
  8
0
  6
CONTINUOUS
 62
     0
100
AcDbLine
 10
0.0
 20
0.0
 30
0.0
 11
-2.500000000000002
 21
0.0
 31
0.0
  0
LINE
  5
13596
330
13592
100
AcDbEntity
  8
0
  6
CONTINUOUS
 62
     0
100
AcDbLine
 10
0.0
 20
0.0
 30
0.0
 11
0.0
 21
-2.500000000000002
 31
0.0
  0
LINE
  5
13597
330
13592
100
AcDbEntity
  8
0
  6
CONTINUOUS
 62
     0
100
AcDbLine
 10
0.0
 20
0.0
 30
0.0
 11
2.500000000000002
 21
0.0
 31
0.0
  0
LINE
  5
13598
330
13592
100
AcDbEntity
  8
0
  6
CONTINUOUS
 62
     0
100
AcDbLine
 10
0.0
 20
2.500000000000002
 30
0.0
 11
0.0
 21
3.049999999999997
 31
0.0
  0
LINE
  5
13599
330
13592
100
AcDbEntity
  8
0
  6
CONTINUOUS
 62
     0
100
AcDbLine
 10
-2.500000000000002
 20
0.0
 30
0.0
 11
-3.050000000000011
 21
0.0
 31
0.0
  0
LINE
  5
1359A
330
13592
100
AcDbEntity
  8
0
  6
CONTINUOUS
 62
     0
100
AcDbLine
 10
0.0
 20
-2.500000000000002
 30
0.0
 11
0.0
 21
-3.049999999999997
 31
0.0
  0
LINE
  5
1359B
330
13592
100
AcDbEntity
  8
0
  6
CONTINUOUS
 62
     0
100
AcDbLine
 10
2.500000000000002
 20
0.0
 30
0.0
 11
3.049999999999997
 21
0.0
 31
0.0
  0
ENDBLK
  5
1359C
330
13592
100
AcDbEntity
  8
0
100
AcDbBlockEnd
  0
BLOCK
  5
140D4
330
140D3
100
AcDbEntity
  8
0
100
AcDbBlockBegin
  2
SW_CENTERMARKSYMBOL_3
 70
     0
 10
0.0
 20
0.0
 30
0.0
  3
SW_CENTERMARKSYMBOL_3
  1
SW_CENTERMARKSYMBOL_3
  0
LINE
  5
140D5
330
140D3
100
AcDbEntity
  8
0
  6
CONTINUOUS
 62
     0
100
AcDbLine
 10
0.0
 20
0.0
 30
0.0
 11
0.0
 21
2.500000000000002
 31
0.0
  0
LINE
  5
140D6
330
140D3
100
AcDbEntity
  8
0
  6
CONTINUOUS
 62
     0
100
AcDbLine
 10
0.0
 20
0.0
 30
0.0
 11
-2.500000000000002
 21
0.0
 31
0.0
  0
LINE
  5
140D7
330
140D3
100
AcDbEntity
  8
0
  6
CONTINUOUS
 62
     0
100
AcDbLine
 10
0.0
 20
0.0
 30
0.0
 11
0.0
 21
-2.500000000000002
 31
0.0
  0
LINE
  5
140D8
330
140D3
100
AcDbEntity
  8
0
  6
CONTINUOUS
 62
     0
100
AcDbLine
 10
0.0
 20
0.0
 30
0.0
 11
2.500000000000002
 21
0.0
 31
0.0
  0
LINE
  5
140D9
330
140D3
100
AcDbEntity
  8
0
  6
CONTINUOUS
 62
     0
100
AcDbLine
 10
0.0
 20
2.500000000000002
 30
0.0
 11
0.0
 21
4.994484940947341
 31
0.0
  0
LINE
  5
140DA
330
140D3
100
AcDbEntity
  8
0
  6
CONTINUOUS
 62
     0
100
AcDbLine
 10
-2.500000000000002
 20
0.0
 30
0.0
 11
-4.994484940947341
 21
0.0
 31
0.0
  0
LINE
  5
140DB
330
140D3
100
AcDbEntity
  8
0
  6
CONTINUOUS
 62
     0
100
AcDbLine
 10
0.0
 20
-2.500000000000002
 30
0.0
 11
0.0
 21
-4.994484940947369
 31
0.0
  0
LINE
  5
140DC
330
140D3
100
AcDbEntity
  8
0
  6
CONTINUOUS
 62
     0
100
AcDbLine
 10
2.500000000000002
 20
0.0
 30
0.0
 11
4.994484940947369
 21
0.0
 31
0.0
  0
ENDBLK
  5
140DD
330
140D3
100
AcDbEntity
  8
0
100
AcDbBlockEnd
  0
BLOCK
  5
140E0
330
140DF
100
AcDbEntity
  8
0
100
AcDbBlockBegin
  2
SW_CENTERMARKSYMBOL_4
 70
     0
 10
0.0
 20
0.0
 30
0.0
  3
SW_CENTERMARKSYMBOL_4
  1
SW_CENTERMARKSYMBOL_4
  0
LINE
  5
140E1
330
140DF
100
AcDbEntity
  8
0
  6
CONTINUOUS
 62
     0
100
AcDbLine
 10
0.0
 20
0.0
 30
0.0
 11
0.0
 21
2.500000000000002
 31
0.0
  0
LINE
  5
140E2
330
140DF
100
AcDbEntity
  8
0
  6
CONTINUOUS
 62
     0
100
AcDbLine
 10
0.0
 20
0.0
 30
0.0
 11
-2.500000000000002
 21
0.0
 31
0.0
  0
LINE
  5
140E3
330
140DF
100
AcDbEntity
  8
0
  6
CONTINUOUS
 62
     0
100
AcDbLine
 10
0.0
 20
0.0
 30
0.0
 11
0.0
 21
-2.500000000000002
 31
0.0
  0
LINE
  5
140E4
330
140DF
100
AcDbEntity
  8
0
  6
CONTINUOUS
 62
     0
100
AcDbLine
 10
0.0
 20
0.0
 30
0.0
 11
2.500000000000002
 21
0.0
 31
0.0
  0
LINE
  5
140E5
330
140DF
100
AcDbEntity
  8
0
  6
CONTINUOUS
 62
     0
100
AcDbLine
 10
0.0
 20
5.000000000000004
 30
0.0
 11
0.0
 21
5.148285779730477
 31
0.0
  0
LINE
  5
140E6
330
140DF
100
AcDbEntity
  8
0
  6
CONTINUOUS
 62
     0
100
AcDbLine
 10
-5.000000000000004
 20
0.0
 30
0.0
 11
-5.14828577973045
 21
0.0
 31
0.0
  0
LINE
  5
140E7
330
140DF
100
AcDbEntity
  8
0
  6
CONTINUOUS
 62
     0
100
AcDbLine
 10
0.0
 20
-4.999999999999977
 30
0.0
 11
0.0
 21
-5.14828577973045
 31
0.0
  0
LINE
  5
140E8
330
140DF
100
AcDbEntity
  8
0
  6
CONTINUOUS
 62
     0
100
AcDbLine
 10
5.000000000000004
 20
0.0
 30
0.0
 11
5.148285779730477
 21
0.0
 31
0.0
  0
ENDBLK
  5
140E9
330
140DF
100
AcDbEntity
  8
0
100
AcDbBlockEnd
  0
BLOCK
  5
140EC
330
140EB
100
AcDbEntity
  8
0
100
AcDbBlockBegin
  2
SW_CENTERMARKSYMBOL_5
 70
     0
 10
0.0
 20
0.0
 30
0.0
  3
SW_CENTERMARKSYMBOL_5
  1
SW_CENTERMARKSYMBOL_5
  0
LINE
  5
140ED
330
140EB
100
AcDbEntity
  8
0
  6
CONTINUOUS
 62
     0
100
AcDbLine
 10
0.0
 20
0.0
 30
0.0
 11
0.0
 21
2.500000000000002
 31
0.0
  0
LINE
  5
140EE
330
140EB
100
AcDbEntity
  8
0
  6
CONTINUOUS
 62
     0
100
AcDbLine
 10
0.0
 20
0.0
 30
0.0
 11
-2.500000000000002
 21
0.0
 31
0.0
  0
LINE
  5
140EF
330
140EB
100
AcDbEntity
  8
0
  6
CONTINUOUS
 62
     0
100
AcDbLine
 10
0.0
 20
0.0
 30
0.0
 11
0.0
 21
-2.499999999999974
 31
0.0
  0
LINE
  5
140F0
330
140EB
100
AcDbEntity
  8
0
  6
CONTINUOUS
 62
     0
100
AcDbLine
 10
0.0
 20
0.0
 30
0.0
 11
2.500000000000002
 21
0.0
 31
0.0
  0
LINE
  5
140F1
330
140EB
100
AcDbEntity
  8
0
  6
CONTINUOUS
 62
     0
100
AcDbLine
 10
0.0
 20
2.500000000000002
 30
0.0
 11
0.0
 21
4.994484940947369
 31
0.0
  0
LINE
  5
140F2
330
140EB
100
AcDbEntity
  8
0
  6
CONTINUOUS
 62
     0
100
AcDbLine
 10
-2.500000000000002
 20
0.0
 30
0.0
 11
-4.994484940947341
 21
0.0
 31
0.0
  0
LINE
  5
140F3
330
140EB
100
AcDbEntity
  8
0
  6
CONTINUOUS
 62
     0
100
AcDbLine
 10
0.0
 20
-2.499999999999974
 30
0.0
 11
0.0
 21
-4.994484940947341
 31
0.0
  0
LINE
  5
140F4
330
140EB
100
AcDbEntity
  8
0
  6
CONTINUOUS
 62
     0
100
AcDbLine
 10
2.500000000000002
 20
0.0
 30
0.0
 11
4.994484940947369
 21
0.0
 31
0.0
  0
ENDBLK
  5
140F5
330
140EB
100
AcDbEntity
  8
0
100
AcDbBlockEnd
  0
BLOCK
  5
140F8
330
140F7
100
AcDbEntity
  8
0
100
AcDbBlockBegin
  2
SW_CENTERMARKSYMBOL_6
 70
     0
 10
0.0
 20
0.0
 30
0.0
  3
SW_CENTERMARKSYMBOL_6
  1
SW_CENTERMARKSYMBOL_6
  0
LINE
  5
140F9
330
140F7
100
AcDbEntity
  8
0
  6
CONTINUOUS
 62
     0
100
AcDbLine
 10
0.0
 20
0.0
 30
0.0
 11
0.0
 21
2.500000000000002
 31
0.0
  0
LINE
  5
140FA
330
140F7
100
AcDbEntity
  8
0
  6
CONTINUOUS
 62
     0
100
AcDbLine
 10
0.0
 20
0.0
 30
0.0
 11
-2.500000000000002
 21
0.0
 31
0.0
  0
LINE
  5
140FB
330
140F7
100
AcDbEntity
  8
0
  6
CONTINUOUS
 62
     0
100
AcDbLine
 10
0.0
 20
0.0
 30
0.0
 11
0.0
 21
-2.500000000000002
 31
0.0
  0
LINE
  5
140FC
330
140F7
100
AcDbEntity
  8
0
  6
CONTINUOUS
 62
     0
100
AcDbLine
 10
0.0
 20
0.0
 30
0.0
 11
2.500000000000002
 21
0.0
 31
0.0
  0
LINE
  5
140FD
330
140F7
100
AcDbEntity
  8
0
  6
CONTINUOUS
 62
     0
100
AcDbLine
 10
0.0
 20
5.000000000000004
 30
0.0
 11
0.0
 21
5.148285779730005
 31
0.0
  0
LINE
  5
140FE
330
140F7
100
AcDbEntity
  8
0
  6
CONTINUOUS
 62
     0
100
AcDbLine
 10
-5.000000000000004
 20
0.0
 30
0.0
 11
-5.148285779730005
 21
0.0
 31
0.0
  0
LINE
  5
140FF
330
140F7
100
AcDbEntity
  8
0
  6
CONTINUOUS
 62
     0
100
AcDbLine
 10
0.0
 20
-5.000000000000004
 30
0.0
 11
0.0
 21
-5.148285779730005
 31
0.0
  0
LINE
  5
14100
330
140F7
100
AcDbEntity
  8
0
  6
CONTINUOUS
 62
     0
100
AcDbLine
 10
5.000000000000004
 20
0.0
 30
0.0
 11
5.148285779730005
 21
0.0
 31
0.0
  0
ENDBLK
  5
14101
330
140F7
100
AcDbEntity
  8
0
100
AcDbBlockEnd
  0
BLOCK
  5
14104
330
14103
100
AcDbEntity
  8
0
100
AcDbBlockBegin
  2
SW_CENTERMARKSYMBOL_7
 70
     0
 10
0.0
 20
0.0
 30
0.0
  3
SW_CENTERMARKSYMBOL_7
  1
SW_CENTERMARKSYMBOL_7
  0
LINE
  5
14105
330
14103
100
AcDbEntity
  8
0
  6
CONTINUOUS
 62
     0
100
AcDbLine
 10
0.0
 20
0.0
 30
0.0
 11
0.0
 21
2.500000000000002
 31
0.0
  0
LINE
  5
14106
330
14103
100
AcDbEntity
  8
0
  6
CONTINUOUS
 62
     0
100
AcDbLine
 10
0.0
 20
0.0
 30
0.0
 11
-2.500000000000002
 21
0.0
 31
0.0
  0
LINE
  5
14107
330
14103
100
AcDbEntity
  8
0
  6
CONTINUOUS
 62
     0
100
AcDbLine
 10
0.0
 20
0.0
 30
0.0
 11
0.0
 21
-2.500000000000002
 31
0.0
  0
LINE
  5
14108
330
14103
100
AcDbEntity
  8
0
  6
CONTINUOUS
 62
     0
100
AcDbLine
 10
0.0
 20
0.0
 30
0.0
 11
2.500000000000002
 21
0.0
 31
0.0
  0
LINE
  5
14109
330
14103
100
AcDbEntity
  8
0
  6
CONTINUOUS
 62
     0
100
AcDbLine
 10
0.0
 20
2.500000000000002
 30
0.0
 11
0.0
 21
4.396509385747454
 31
0.0
  0
LINE
  5
1410A
330
14103
100
AcDbEntity
  8
0
  6
CONTINUOUS
 62
     0
100
AcDbLine
 10
-2.500000000000002
 20
0.0
 30
0.0
 11
-4.396509385747454
 21
0.0
 31
0.0
  0
LINE
  5
1410B
330
14103
100
AcDbEntity
  8
0
  6
CONTINUOUS
 62
     0
100
AcDbLine
 10
0.0
 20
-2.500000000000002
 30
0.0
 11
0.0
 21
-4.396509385747454
 31
0.0
  0
LINE
  5
1410C
330
14103
100
AcDbEntity
  8
0
  6
CONTINUOUS
 62
     0
100
AcDbLine
 10
2.500000000000002
 20
0.0
 30
0.0
 11
4.396509385747454
 21
0.0
 31
0.0
  0
ENDBLK
  5
1410D
330
14103
100
AcDbEntity
  8
0
100
AcDbBlockEnd
  0
BLOCK
  5
14110
330
1410F
100
AcDbEntity
  8
0
100
AcDbBlockBegin
  2
SW_CENTERMARKSYMBOL_8
 70
     0
 10
0.0
 20
0.0
 30
0.0
  3
SW_CENTERMARKSYMBOL_8
  1
SW_CENTERMARKSYMBOL_8
  0
LINE
  5
14111
330
1410F
100
AcDbEntity
  8
0
  6
CONTINUOUS
 62
     0
100
AcDbLine
 10
0.0
 20
0.0
 30
0.0
 11
0.0
 21
2.500000000000002
 31
0.0
  0
LINE
  5
14112
330
1410F
100
AcDbEntity
  8
0
  6
CONTINUOUS
 62
     0
100
AcDbLine
 10
0.0
 20
0.0
 30
0.0
 11
-2.499999999999988
 21
0.0
 31
0.0
  0
LINE
  5
14113
330
1410F
100
AcDbEntity
  8
0
  6
CONTINUOUS
 62
     0
100
AcDbLine
 10
0.0
 20
0.0
 30
0.0
 11
0.0
 21
-2.499999999999974
 31
0.0
  0
LINE
  5
14114
330
1410F
100
AcDbEntity
  8
0
  6
CONTINUOUS
 62
     0
100
AcDbLine
 10
0.0
 20
0.0
 30
0.0
 11
2.500000000000002
 21
0.0
 31
0.0
  0
LINE
  5
14115
330
1410F
100
AcDbEntity
  8
0
  6
CONTINUOUS
 62
     0
100
AcDbLine
 10
0.0
 20
2.500000000000002
 30
0.0
 11
0.0
 21
4.396509385855424
 31
0.0
  0
LINE
  5
14116
330
1410F
100
AcDbEntity
  8
0
  6
CONTINUOUS
 62
     0
100
AcDbLine
 10
-2.499999999999988
 20
0.0
 30
0.0
 11
-4.39650938585541
 21
0.0
 31
0.0
  0
LINE
  5
14117
330
1410F
100
AcDbEntity
  8
0
  6
CONTINUOUS
 62
     0
100
AcDbLine
 10
0.0
 20
-2.499999999999974
 30
0.0
 11
0.0
 21
-4.396509385855396
 31
0.0
  0
LINE
  5
14118
330
1410F
100
AcDbEntity
  8
0
  6
CONTINUOUS
 62
     0
100
AcDbLine
 10
2.500000000000002
 20
0.0
 30
0.0
 11
4.39650938585541
 21
0.0
 31
0.0
  0
ENDBLK
  5
14119
330
1410F
100
AcDbEntity
  8
0
100
AcDbBlockEnd
  0
BLOCK
  5
1411C
330
1411B
100
AcDbEntity
  8
0
100
AcDbBlockBegin
  2
SW_CENTERMARKSYMBOL_9
 70
     0
 10
0.0
 20
0.0
 30
0.0
  3
SW_CENTERMARKSYMBOL_9
  1
SW_CENTERMARKSYMBOL_9
  0
LINE
  5
1411D
330
1411B
100
AcDbEntity
  8
0
  6
CONTINUOUS
 62
     0
100
AcDbLine
 10
0.0
 20
0.0
 30
0.0
 11
0.0
 21
2.500000000000002
 31
0.0
  0
LINE
  5
1411E
330
1411B
100
AcDbEntity
  8
0
  6
CONTINUOUS
 62
     0
100
AcDbLine
 10
0.0
 20
0.0
 30
0.0
 11
-2.500000000000002
 21
0.0
 31
0.0
  0
LINE
  5
1411F
330
1411B
100
AcDbEntity
  8
0
  6
CONTINUOUS
 62
     0
100
AcDbLine
 10
0.0
 20
0.0
 30
0.0
 11
0.0
 21
-2.500000000000002
 31
0.0
  0
LINE
  5
14120
330
1411B
100
AcDbEntity
  8
0
  6
CONTINUOUS
 62
     0
100
AcDbLine
 10
0.0
 20
0.0
 30
0.0
 11
2.500000000000002
 21
0.0
 31
0.0
  0
LINE
  5
14121
330
1411B
100
AcDbEntity
  8
0
  6
CONTINUOUS
 62
     0
100
AcDbLine
 10
0.0
 20
2.500000000000002
 30
0.0
 11
0.0
 21
4.700000000000787
 31
0.0
  0
LINE
  5
14122
330
1411B
100
AcDbEntity
  8
0
  6
CONTINUOUS
 62
     0
100
AcDbLine
 10
-2.500000000000002
 20
0.0
 30
0.0
 11
-4.7000000000008
 21
0.0
 31
0.0
  0
LINE
  5
14123
330
1411B
100
AcDbEntity
  8
0
  6
CONTINUOUS
 62
     0
100
AcDbLine
 10
0.0
 20
-2.500000000000002
 30
0.0
 11
0.0
 21
-4.700000000000815
 31
0.0
  0
LINE
  5
14124
330
1411B
100
AcDbEntity
  8
0
  6
CONTINUOUS
 62
     0
100
AcDbLine
 10
2.500000000000002
 20
0.0
 30
0.0
 11
4.7000000000008
 21
0.0
 31
0.0
  0
ENDBLK
  5
14125
330
1411B
100
AcDbEntity
  8
0
100
AcDbBlockEnd
  0
BLOCK
  5
17419
330
17418
100
AcDbEntity
  8
0
100
AcDbBlockBegin
  2
_ARCHTICK
 70
     0
 10
0.0
 20
0.0
 30
0.0
  3
_ARCHTICK
  1
_ARCHTICK
  0
LWPOLYLINE
  5
1741B
330
17418
100
AcDbEntity
  8
0
  6
BYBLOCK
 62
     0
100
AcDbPolyline
 90
        2
 70
     0
 43
0.15
 10
-0.5
 20
-0.5
 10
0.5
 20
0.5
  0
ENDBLK
  5
1741A
330
17418
100
AcDbEntity
  8
0
100
AcDbBlockEnd
  0
BLOCK
  5
1741D
330
1741C
100
AcDbEntity
  8
0
100
AcDbBlockBegin
  2
_INTEGRAL
 70
     0
 10
0.0
 20
0.0
 30
0.0
  3
_INTEGRAL
  1
_INTEGRAL
  0
ARC
  5
1741F
330
1741C
100
AcDbEntity
  8
0
  6
BYBLOCK
 62
     0
100
AcDbCircle
 10
0.444888
 20
-0.091335
 30
0.0
 40
0.4541666700000001
100
AcDbArc
 50
102.0
 51
168.0
  0
ARC
  5
17420
330
1741C
100
AcDbEntity
  8
0
  6
BYBLOCK
 62
     0
100
AcDbCircle
 10
-0.444888
 20
0.091335
 30
0.0
 40
0.4541666700000001
100
AcDbArc
 50
281.9999999999999
 51
348.0
  0
ENDBLK
  5
1741E
330
1741C
100
AcDbEntity
  8
0
100
AcDbBlockEnd
  0
BLOCK
  5
1CC06
330
1CC05
100
AcDbEntity
  8
0
100
AcDbBlockBegin
  2
*D152
 70
     1
 10
0.0
 20
0.0
 30
0.0
  3
*D152
  1
*D152
  0
LINE
  5
1CC08
330
1CC05
100
AcDbEntity
  8
WY
 62
     0
100
AcDbLine
 10
569.6195949711712
 20
103.3732450257554
 30
0.0
 11
569.6195949711712
 21
72.87189223275573
 31
0.0
  0
LINE
  5
1CC09
330
1CC05
100
AcDbEntity
  8
WY
 62
     0
100
AcDbLine
 10
619.5195954204412
 20
103.3732450257554
 30
0.0
 11
619.5195954204412
 21
72.87189223275573
 31
0.0
  0
LINE
  5
1CC0A
330
1CC05
100
AcDbEntity
  8
WY
 62
     0
100
AcDbLine
 10
572.1195949711712
 20
74.37189223275573
 30
0.0
 11
617.0195954204412
 21
74.37189223275573
 31
0.0
  0
SOLID
  5
1CC0B
330
1CC05
100
AcDbEntity
  8
WY
 62
     0
100
AcDbTrace
 10
572.1195949711712
 20
74.7885588994224
 30
0.0
 11
572.1195949711712
 21
73.95522556608906
 31
0.0
 12
569.6195949711712
 22
74.37189223275573
 32
0.0
 13
569.6195949711712
 23
74.37189223275573
 33
0.0
  0
SOLID
  5
1CC0C
330
1CC05
100
AcDbEntity
  8
WY
 62
     0
100
AcDbTrace
 10
617.0195954204412
 20
73.95522556608906
 30
0.0
 11
617.0195954204412
 21
74.7885588994224
 31
0.0
 12
619.5195954204412
 22
74.37189223275573
 32
0.0
 13
619.5195954204412
 23
74.37189223275573
 33
0.0
  0
MTEXT
  5
1CC0D
330
1CC05
100
AcDbEntity
  8
WY
 62
     0
100
AcDbMText
 10
594.5695951958062
 20
75.99689223275573
 30
0.0
 40
1.5
 41
0.0
 71
     5
 72
     1
  1
\A1;50-0,2
  0
POINT
  5
1CC0E
330
1CC05
100
AcDbEntity
  8
DEFPOINTS
 62
     0
100
AcDbPoint
 10
569.6195949711712
 20
104.8732450257554
 30
0.0
  0
POINT
  5
1CC0F
330
1CC05
100
AcDbEntity
  8
DEFPOINTS
 62
     0
100
AcDbPoint
 10
619.5195954204412
 20
104.8732450257554
 30
0.0
  0
POINT
  5
1CC10
330
1CC05
100
AcDbEntity
  8
DEFPOINTS
 62
     0
100
AcDbPoint
 10
619.5195954204412
 20
74.37189223275573
 30
0.0
  0
ENDBLK
  5
1CC07
330
1CC05
100
AcDbEntity
  8
0
100
AcDbBlockEnd
  0
BLOCK
  5
1CC15
330
1CC14
100
AcDbEntity
  8
0
100
AcDbBlockBegin
  2
*D153
 70
     1
 10
0.0
 20
0.0
 30
0.0
  3
*D153
  1
*D153
  0
LINE
  5
1CC17
330
1CC14
100
AcDbEntity
  8
WY
 62
     0
100
AcDbLine
 10
578.1195966102989
 20
88.22324566101054
 30
0.0
 11
558.6385073621886
 21
88.22324566101054
 31
0.0
  0
LINE
  5
1CC18
330
1CC14
100
AcDbEntity
  8
WY
 62
     0
100
AcDbLine
 10
578.1195966102989
 20
130.1232440422788
 30
0.0
 11
558.6385073621886
 21
130.1232440422788
 31
0.0
  0
LINE
  5
1CC19
330
1CC14
100
AcDbEntity
  8
WY
 62
     0
100
AcDbLine
 10
560.1385073621886
 20
90.72324566101054
 30
0.0
 11
560.1385073621886
 21
127.6232440422788
 31
0.0
  0
SOLID
  5
1CC1A
330
1CC14
100
AcDbEntity
  8
WY
 62
     0
100
AcDbTrace
 10
559.721840695522
 20
90.72324566101054
 30
0.0
 11
560.5551740288553
 21
90.72324566101054
 31
0.0
 12
560.1385073621886
 22
88.22324566101054
 32
0.0
 13
560.1385073621886
 23
88.22324566101054
 33
0.0
  0
SOLID
  5
1CC1B
330
1CC14
100
AcDbEntity
  8
WY
 62
     0
100
AcDbTrace
 10
560.5551740288553
 20
127.6232440422788
 30
0.0
 11
559.721840695522
 21
127.6232440422788
 31
0.0
 12
560.1385073621886
 22
130.1232440422788
 32
0.0
 13
560.1385073621886
 23
130.1232440422788
 33
0.0
  0
MTEXT
  5
1CC1C
330
1CC14
100
AcDbEntity
  8
WY
 62
     0
100
AcDbMText
 10
558.5135073621886
 20
109.1732448516447
 30
0.0
 40
1.5
 41
0.0
 71
     5
 72
     1
  1
\A1;42-0,2
 11
0.0
 21
1.0
 31
0.0
  0
POINT
  5
1CC1D
330
1CC14
100
AcDbEntity
  8
DEFPOINTS
 62
     0
100
AcDbPoint
 10
579.6195966102989
 20
88.22324566101054
 30
0.0
  0
POINT
  5
1CC1E
330
1CC14
100
AcDbEntity
  8
DEFPOINTS
 62
     0
100
AcDbPoint
 10
579.6195966102989
 20
130.1232440422788
 30
0.0
  0
POINT
  5
1CC1F
330
1CC14
100
AcDbEntity
  8
DEFPOINTS
 62
     0
100
AcDbPoint
 10
560.1385073621886
 20
130.1232440422788
 30
0.0
  0
ENDBLK
  5
1CC16
330
1CC14
100
AcDbEntity
  8
0
100
AcDbBlockEnd
  0
BLOCK
  5
1CC37
330
1CC36
100
AcDbEntity
  8
0
100
AcDbBlockBegin
  2
*D155
 70
     1
 10
0.0
 20
0.0
 30
0.0
  3
*D155
  1
*D155
  0
LINE
  5
1CC39
330
1CC36
100
AcDbEntity
  8
WY
 62
     0
100
AcDbLine
 10
573.0695953792967
 20
102.7916736949695
 30
0.0
 11
573.0695953792967
 21
76.6921929610607
 31
0.0
  0
LINE
  5
1CC3A
330
1CC36
100
AcDbEntity
  8
WY
 62
     0
100
AcDbLine
 10
616.0695953792967
 20
102.7916741604602
 30
0.0
 11
616.0695953792967
 21
76.6921929610607
 31
0.0
  0
LINE
  5
1CC3B
330
1CC36
100
AcDbEntity
  8
WY
 62
     0
100
AcDbLine
 10
575.5695953792967
 20
78.1921929610607
 30
0.0
 11
613.5695953792967
 21
78.1921929610607
 31
0.0
  0
SOLID
  5
1CC3C
330
1CC36
100
AcDbEntity
  8
WY
 62
     0
100
AcDbTrace
 10
575.5695953792967
 20
78.60885962772737
 30
0.0
 11
575.5695953792967
 21
77.77552629439403
 31
0.0
 12
573.0695953792967
 22
78.1921929610607
 32
0.0
 13
573.0695953792967
 23
78.1921929610607
 33
0.0
  0
SOLID
  5
1CC3D
330
1CC36
100
AcDbEntity
  8
WY
 62
     0
100
AcDbTrace
 10
613.5695953792967
 20
77.77552629439403
 30
0.0
 11
613.5695953792967
 21
78.60885962772737
 31
0.0
 12
616.0695953792967
 22
78.1921929610607
 32
0.0
 13
616.0695953792967
 23
78.1921929610607
 33
0.0
  0
MTEXT
  5
1CC3E
330
1CC36
100
AcDbEntity
  8
WY
 62
     0
100
AcDbMText
 10
594.5695953792967
 20
79.8171929610607
 30
0.0
 40
1.5
 41
0.0
 71
     5
 72
     1
  1
\A1;43%%p0,1
  0
POINT
  5
1CC3F
330
1CC36
100
AcDbEntity
  8
DEFPOINTS
 62
     0
100
AcDbPoint
 10
573.0695953792967
 20
104.2916736949695
 30
0.0
  0
POINT
  5
1CC40
330
1CC36
100
AcDbEntity
  8
DEFPOINTS
 62
     0
100
AcDbPoint
 10
616.0695953792967
 20
104.2916741604602
 30
0.0
  0
POINT
  5
1CC41
330
1CC36
100
AcDbEntity
  8
DEFPOINTS
 62
     0
100
AcDbPoint
 10
616.0695953792967
 20
78.1921929610607
 30
0.0
  0
ENDBLK
  5
1CC38
330
1CC36
100
AcDbEntity
  8
0
100
AcDbBlockEnd
  0
BLOCK
  5
1CC46
330
1CC45
100
AcDbEntity
  8
0
100
AcDbBlockBegin
  2
*D156
 70
     1
 10
0.0
 20
0.0
 30
0.0
  3
*D156
  1
*D156
  0
LINE
  5
1CC48
330
1CC45
100
AcDbEntity
  8
WY
 62
     0
100
AcDbLine
 10
577.119594583741
 20
166.7734605467444
 30
0.0
 11
560.7537872978176
 21
166.7734605467444
 31
0.0
  0
LINE
  5
1CC49
330
1CC45
100
AcDbEntity
  8
WY
 62
     0
100
AcDbLine
 10
568.1195949711712
 20
179.6734591221934
 30
0.0
 11
560.7537872978176
 21
179.6734591221934
 31
0.0
  0
LINE
  5
1CC4A
330
1CC45
100
AcDbEntity
  8
WY
 62
     0
100
AcDbLine
 10
562.2537872978176
 20
169.2734605467444
 30
0.0
 11
562.2537872978176
 21
177.1734591221934
 31
0.0
  0
SOLID
  5
1CC4B
330
1CC45
100
AcDbEntity
  8
WY
 62
     0
100
AcDbTrace
 10
561.8371206311509
 20
169.2734605467444
 30
0.0
 11
562.6704539644842
 21
169.2734605467444
 31
0.0
 12
562.2537872978176
 22
166.7734605467444
 32
0.0
 13
562.2537872978176
 23
166.7734605467444
 33
0.0
  0
SOLID
  5
1CC4C
330
1CC45
100
AcDbEntity
  8
WY
 62
     0
100
AcDbTrace
 10
562.6704539644842
 20
177.1734591221934
 30
0.0
 11
561.8371206311509
 21
177.1734591221934
 31
0.0
 12
562.2537872978176
 22
179.6734591221934
 32
0.0
 13
562.2537872978176
 23
179.6734591221934
 33
0.0
  0
MTEXT
  5
1CC4D
330
1CC45
100
AcDbEntity
  8
WY
 62
     0
100
AcDbMText
 10
560.6287872978176
 20
173.2234598344689
 30
0.0
 40
1.5
 41
0.0
 71
     5
 72
     1
  1
\A1;13-0,2
 11
0.0
 21
1.0
 31
0.0
  0
POINT
  5
1CC4E
330
1CC45
100
AcDbEntity
  8
DEFPOINTS
 62
     0
100
AcDbPoint
 10
578.619594583741
 20
166.7734605467444
 30
0.0
  0
POINT
  5
1CC4F
330
1CC45
100
AcDbEntity
  8
DEFPOINTS
 62
     0
100
AcDbPoint
 10
569.6195949711712
 20
179.6734591221934
 30
0.0
  0
POINT
  5
1CC50
330
1CC45
100
AcDbEntity
  8
DEFPOINTS
 62
     0
100
AcDbPoint
 10
562.2537872978176
 20
179.6734591221934
 30
0.0
  0
ENDBLK
  5
1CC47
330
1CC45
100
AcDbEntity
  8
0
100
AcDbBlockEnd
  0
BLOCK
  5
1CC64
330
1CC63
100
AcDbEntity
  8
0
100
AcDbBlockBegin
  2
*D158
 70
     1
 10
0.0
 20
0.0
 30
0.0
  3
*D158
  1
*D158
  0
LINE
  5
1CC66
330
1CC63
100
AcDbEntity
  8
WY
 62
     0
100
AcDbLine
 10
591.019594512918
 20
124.1732456856362
 30
0.0
 11
591.019594512918
 21
138.8786137681902
 31
0.0
  0
LINE
  5
1CC67
330
1CC63
100
AcDbEntity
  8
WY
 62
     0
100
AcDbLine
 10
598.0195953792968
 20
124.1732456372775
 30
0.0
 11
598.0195953792968
 21
138.8786137681902
 31
0.0
  0
LINE
  5
1CC68
330
1CC63
100
AcDbEntity
  8
WY
 62
     0
100
AcDbLine
 10
593.519594512918
 20
137.3786137681902
 30
0.0
 11
595.5195953792968
 21
137.3786137681902
 31
0.0
  0
SOLID
  5
1CC69
330
1CC63
100
AcDbEntity
  8
WY
 62
     0
100
AcDbTrace
 10
593.519594512918
 20
137.7952804348568
 30
0.0
 11
593.519594512918
 21
136.9619471015235
 31
0.0
 12
591.019594512918
 22
137.3786137681902
 32
0.0
 13
591.019594512918
 23
137.3786137681902
 33
0.0
  0
SOLID
  5
1CC6A
330
1CC63
100
AcDbEntity
  8
WY
 62
     0
100
AcDbTrace
 10
595.5195953792968
 20
136.9619471015235
 30
0.0
 11
595.5195953792968
 21
137.7952804348568
 31
0.0
 12
598.0195953792968
 22
137.3786137681902
 32
0.0
 13
598.0195953792968
 23
137.3786137681902
 33
0.0
  0
MTEXT
  5
1CC6B
330
1CC63
100
AcDbEntity
  8
WY
 62
     0
100
AcDbMText
 10
594.5195949461074
 20
138.8786137681902
 30
0.0
 40
1.5
 41
0.0
 71
     5
 72
     1
  1
\A1;7
  0
POINT
  5
1CC6C
330
1CC63
100
AcDbEntity
  8
DEFPOINTS
 62
     0
100
AcDbPoint
 10
591.019594512918
 20
122.6732456856362
 30
0.0
  0
POINT
  5
1CC6D
330
1CC63
100
AcDbEntity
  8
DEFPOINTS
 62
     0
100
AcDbPoint
 10
598.0195953792968
 20
122.6732456372775
 30
0.0
  0
POINT
  5
1CC6E
330
1CC63
100
AcDbEntity
  8
DEFPOINTS
 62
     0
100
AcDbPoint
 10
598.0195953792968
 20
137.3786137681902
 30
0.0
  0
ENDBLK
  5
1CC65
330
1CC63
100
AcDbEntity
  8
0
100
AcDbBlockEnd
  0
BLOCK
  5
1CC73
330
1CC72
100
AcDbEntity
  8
0
100
AcDbBlockBegin
  2
*D159
 70
     1
 10
0.0
 20
0.0
 30
0.0
  3
*D159
  1
*D159
  0
LINE
  5
1CC75
330
1CC72
100
AcDbEntity
  8
WY
 62
     0
100
AcDbLine
 10
606.5195953792968
 20
122.6732456372775
 30
0.0
 11
634.8487967670876
 21
122.6732456372775
 31
0.0
  0
LINE
  5
1CC76
330
1CC72
100
AcDbEntity
  8
WY
 62
     0
100
AcDbLine
 10
606.5195953792971
 20
95.67324563727749
 30
0.0
 11
634.8487967670876
 21
95.67324563727749
 31
0.0
  0
LINE
  5
1CC77
330
1CC72
100
AcDbEntity
  8
WY
 62
     0
100
AcDbLine
 10
633.3487967670876
 20
120.1732456372775
 30
0.0
 11
633.3487967670876
 21
98.17324563727749
 31
0.0
  0
SOLID
  5
1CC78
330
1CC72
100
AcDbEntity
  8
WY
 62
     0
100
AcDbTrace
 10
633.7654634337542
 20
120.1732456372775
 30
0.0
 11
632.932130100421
 21
120.1732456372775
 31
0.0
 12
633.3487967670876
 22
122.6732456372775
 32
0.0
 13
633.3487967670876
 23
122.6732456372775
 33
0.0
  0
SOLID
  5
1CC79
330
1CC72
100
AcDbEntity
  8
WY
 62
     0
100
AcDbTrace
 10
632.932130100421
 20
98.17324563727749
 30
0.0
 11
633.7654634337542
 21
98.17324563727749
 31
0.0
 12
633.3487967670876
 22
95.67324563727749
 32
0.0
 13
633.3487967670876
 23
95.67324563727749
 33
0.0
  0
MTEXT
  5
1CC7A
330
1CC72
100
AcDbEntity
  8
WY
 62
     0
100
AcDbMText
 10
631.8487967670876
 20
109.1732456372775
 30
0.0
 40
1.5
 41
0.0
 71
     5
 72
     1
  1
\A1;27
 11
0.0
 21
1.0
 31
0.0
  0
POINT
  5
1CC7B
330
1CC72
100
AcDbEntity
  8
DEFPOINTS
 62
     0
100
AcDbPoint
 10
605.0195953792968
 20
122.6732456372775
 30
0.0
  0
POINT
  5
1CC7C
330
1CC72
100
AcDbEntity
  8
DEFPOINTS
 62
     0
100
AcDbPoint
 10
605.0195953792971
 20
95.67324563727749
 30
0.0
  0
POINT
  5
1CC7D
330
1CC72
100
AcDbEntity
  8
DEFPOINTS
 62
     0
100
AcDbPoint
 10
633.3487967670876
 20
95.67324563727749
 30
0.0
  0
ENDBLK
  5
1CC74
330
1CC72
100
AcDbEntity
  8
0
100
AcDbBlockEnd
  0
BLOCK
  5
1CC82
330
1CC81
100
AcDbEntity
  8
0
100
AcDbBlockBegin
  2
*D160
 70
     1
 10
0.0
 20
0.0
 30
0.0
  3
*D160
  1
*D160
  0
LINE
  5
1CC84
330
1CC81
100
AcDbEntity
  8
WY
 62
     0
100
AcDbLine
 10
606.5195953792969
 20
113.6732456372776
 30
0.0
 11
629.7866634769626
 21
113.6732456372776
 31
0.0
  0
LINE
  5
1CC85
330
1CC81
100
AcDbEntity
  8
WY
 62
     0
100
AcDbLine
 10
606.5195945129183
 20
104.6732456856365
 30
0.0
 11
629.7866634769626
 21
104.6732456856365
 31
0.0
  0
LINE
  5
1CC86
330
1CC81
100
AcDbEntity
  8
WY
 62
     0
100
AcDbLine
 10
628.2866634769626
 20
111.1732456372776
 30
0.0
 11
628.2866634769626
 21
107.1732456856365
 31
0.0
  0
SOLID
  5
1CC87
330
1CC81
100
AcDbEntity
  8
WY
 62
     0
100
AcDbTrace
 10
628.7033301436293
 20
111.1732456372776
 30
0.0
 11
627.869996810296
 21
111.1732456372776
 31
0.0
 12
628.2866634769626
 22
113.6732456372776
 32
0.0
 13
628.2866634769626
 23
113.6732456372776
 33
0.0
  0
SOLID
  5
1CC88
330
1CC81
100
AcDbEntity
  8
WY
 62
     0
100
AcDbTrace
 10
627.869996810296
 20
107.1732456856365
 30
0.0
 11
628.7033301436293
 21
107.1732456856365
 31
0.0
 12
628.2866634769626
 22
104.6732456856365
 32
0.0
 13
628.2866634769626
 23
104.6732456856365
 33
0.0
  0
MTEXT
  5
1CC89
330
1CC81
100
AcDbEntity
  8
WY
 62
     0
100
AcDbMText
 10
626.7866634769626
 20
109.173245661457
 30
0.0
 40
1.5
 41
0.0
 71
     5
 72
     1
  1
\A1;9
 11
0.0
 21
1.0
 31
0.0
  0
POINT
  5
1CC8A
330
1CC81
100
AcDbEntity
  8
DEFPOINTS
 62
     0
100
AcDbPoint
 10
605.0195953792969
 20
113.6732456372776
 30
0.0
  0
POINT
  5
1CC8B
330
1CC81
100
AcDbEntity
  8
DEFPOINTS
 62
     0
100
AcDbPoint
 10
605.0195945129183
 20
104.6732456856365
 30
0.0
  0
POINT
  5
1CC8C
330
1CC81
100
AcDbEntity
  8
DEFPOINTS
 62
     0
100
AcDbPoint
 10
628.2866634769626
 20
104.6732456856365
 30
0.0
  0
ENDBLK
  5
1CC83
330
1CC81
100
AcDbEntity
  8
0
100
AcDbBlockEnd
  0
BLOCK
  5
1CC91
330
1CC90
100
AcDbEntity
  8
0
100
AcDbBlockBegin
  2
*D161
 70
     1
 10
0.0
 20
0.0
 30
0.0
  3
*D161
  1
*D161
  0
LINE
  5
1CC93
330
1CC90
100
AcDbEntity
  8
WY
 62
     0
100
AcDbLine
 10
598.019594512918
 20
124.1732456856363
 30
0.0
 11
598.019594512918
 21
138.8786137681902
 31
0.0
  0
LINE
  5
1CC94
330
1CC90
100
AcDbEntity
  8
WY
 62
     0
100
AcDbLine
 10
605.019594512918
 20
124.1732456856363
 30
0.0
 11
605.019594512918
 21
138.8786137681902
 31
0.0
  0
LINE
  5
1CC95
330
1CC90
100
AcDbEntity
  8
WY
 62
     0
100
AcDbLine
 10
600.519594512918
 20
137.3786137681902
 30
0.0
 11
602.519594512918
 21
137.3786137681902
 31
0.0
  0
SOLID
  5
1CC96
330
1CC90
100
AcDbEntity
  8
WY
 62
     0
100
AcDbTrace
 10
600.519594512918
 20
137.7952804348568
 30
0.0
 11
600.519594512918
 21
136.9619471015235
 31
0.0
 12
598.019594512918
 22
137.3786137681902
 32
0.0
 13
598.019594512918
 23
137.3786137681902
 33
0.0
  0
SOLID
  5
1CC97
330
1CC90
100
AcDbEntity
  8
WY
 62
     0
100
AcDbTrace
 10
602.519594512918
 20
136.9619471015235
 30
0.0
 11
602.519594512918
 21
137.7952804348568
 31
0.0
 12
605.019594512918
 22
137.3786137681902
 32
0.0
 13
605.019594512918
 23
137.3786137681902
 33
0.0
  0
MTEXT
  5
1CC98
330
1CC90
100
AcDbEntity
  8
WY
 62
     0
100
AcDbMText
 10
601.519594512918
 20
138.8786137681902
 30
0.0
 40
1.5
 41
0.0
 71
     5
 72
     1
  1
\A1;7
  0
POINT
  5
1CC99
330
1CC90
100
AcDbEntity
  8
DEFPOINTS
 62
     0
100
AcDbPoint
 10
598.019594512918
 20
122.6732456856363
 30
0.0
  0
POINT
  5
1CC9A
330
1CC90
100
AcDbEntity
  8
DEFPOINTS
 62
     0
100
AcDbPoint
 10
605.019594512918
 20
122.6732456856363
 30
0.0
  0
POINT
  5
1CC9B
330
1CC90
100
AcDbEntity
  8
DEFPOINTS
 62
     0
100
AcDbPoint
 10
605.019594512918
 20
137.3786137681902
 30
0.0
  0
ENDBLK
  5
1CC92
330
1CC90
100
AcDbEntity
  8
0
100
AcDbBlockEnd
  0
BLOCK
  5
1CCA0
330
1CC9F
100
AcDbEntity
  8
0
100
AcDbBlockBegin
  2
*D162
 70
     1
 10
0.0
 20
0.0
 30
0.0
  3
*D162
  1
*D162
  0
LINE
  5
1CCA2
330
1CC9F
100
AcDbEntity
  8
WY
 62
     0
100
AcDbLine
 10
583.019594512918
 20
124.1732456856361
 30
0.0
 11
583.019594512918
 21
143.0572962193439
 31
0.0
  0
LINE
  5
1CCA3
330
1CC9F
100
AcDbEntity
  8
WY
 62
     0
100
AcDbLine
 10
605.019594512918
 20
124.1732456856363
 30
0.0
 11
605.019594512918
 21
143.0572962193439
 31
0.0
  0
LINE
  5
1CCA4
330
1CC9F
100
AcDbEntity
  8
WY
 62
     0
100
AcDbLine
 10
585.519594512918
 20
141.5572962193439
 30
0.0
 11
602.519594512918
 21
141.5572962193439
 31
0.0
  0
SOLID
  5
1CCA5
330
1CC9F
100
AcDbEntity
  8
WY
 62
     0
100
AcDbTrace
 10
585.519594512918
 20
141.9739628860106
 30
0.0
 11
585.519594512918
 21
141.1406295526772
 31
0.0
 12
583.019594512918
 22
141.5572962193439
 32
0.0
 13
583.019594512918
 23
141.5572962193439
 33
0.0
  0
SOLID
  5
1CCA6
330
1CC9F
100
AcDbEntity
  8
WY
 62
     0
100
AcDbTrace
 10
602.519594512918
 20
141.1406295526772
 30
0.0
 11
602.519594512918
 21
141.9739628860106
 31
0.0
 12
605.019594512918
 22
141.5572962193439
 32
0.0
 13
605.019594512918
 23
141.5572962193439
 33
0.0
  0
MTEXT
  5
1CCA7
330
1CC9F
100
AcDbEntity
  8
WY
 62
     0
100
AcDbMText
 10
594.019594512918
 20
143.0572962193439
 30
0.0
 40
1.5
 41
0.0
 71
     5
 72
     1
  1
\A1;22
  0
POINT
  5
1CCA8
330
1CC9F
100
AcDbEntity
  8
DEFPOINTS
 62
     0
100
AcDbPoint
 10
583.019594512918
 20
122.6732456856361
 30
0.0
  0
POINT
  5
1CCA9
330
1CC9F
100
AcDbEntity
  8
DEFPOINTS
 62
     0
100
AcDbPoint
 10
605.019594512918
 20
122.6732456856363
 30
0.0
  0
POINT
  5
1CCAA
330
1CC9F
100
AcDbEntity
  8
DEFPOINTS
 62
     0
100
AcDbPoint
 10
605.019594512918
 20
141.5572962193439
 30
0.0
  0
ENDBLK
  5
1CCA1
330
1CC9F
100
AcDbEntity
  8
0
100
AcDbBlockEnd
  0
BLOCK
  5
1D802
330
1D801
100
AcDbEntity
  8
0
100
AcDbBlockBegin
  2
*D165
 70
     1
 10
0.0
 20
0.0
 30
0.0
  3
*D165
  1
*D165
  0
LINE
  5
1D804
330
1D801
100
AcDbEntity
  8
WY
 62
     0
100
AcDbLine
 10
568.1195949711712
 20
179.6734591221934
 30
0.0
 11
555.2585466963077
 21
179.6734591221934
 31
0.0
  0
LINE
  5
1D805
330
1D801
100
AcDbEntity
  8
WY
 62
     0
100
AcDbLine
 10
581.169596085778
 20
157.4912012761956
 30
0.0
 11
555.2585466963077
 21
157.4912012761956
 31
0.0
  0
LINE
  5
1D806
330
1D801
100
AcDbEntity
  8
WY
 62
     0
100
AcDbLine
 10
556.7585466963077
 20
177.1734591221934
 30
0.0
 11
556.7585466963077
 21
159.9912012761956
 31
0.0
  0
SOLID
  5
1D807
330
1D801
100
AcDbEntity
  8
WY
 62
     0
100
AcDbTrace
 10
557.1752133629743
 20
177.1734591221934
 30
0.0
 11
556.3418800296411
 21
177.1734591221934
 31
0.0
 12
556.7585466963077
 22
179.6734591221934
 32
0.0
 13
556.7585466963077
 23
179.6734591221934
 33
0.0
  0
SOLID
  5
1D808
330
1D801
100
AcDbEntity
  8
WY
 62
     0
100
AcDbTrace
 10
556.3418800296411
 20
159.9912012761956
 30
0.0
 11
557.1752133629743
 21
159.9912012761956
 31
0.0
 12
556.7585466963077
 22
157.4912012761956
 32
0.0
 13
556.7585466963077
 23
157.4912012761956
 33
0.0
  0
MTEXT
  5
1D809
330
1D801
100
AcDbEntity
  8
WY
 62
     0
100
AcDbMText
 10
555.2585466963077
 20
168.5823301991945
 30
0.0
 40
1.5
 41
0.0
 71
     5
 72
     1
  1
\A1;22.2
 11
0.0
 21
1.0
 31
0.0
  0
POINT
  5
1D80A
330
1D801
100
AcDbEntity
  8
DEFPOINTS
 62
     0
100
AcDbPoint
 10
569.6195949711712
 20
179.6734591221934
 30
0.0
  0
POINT
  5
1D80B
330
1D801
100
AcDbEntity
  8
DEFPOINTS
 62
     0
100
AcDbPoint
 10
582.669596085778
 20
157.4912012761956
 30
0.0
  0
POINT
  5
1D80C
330
1D801
100
AcDbEntity
  8
DEFPOINTS
 62
     0
100
AcDbPoint
 10
556.7585466963077
 20
157.4912012761956
 30
0.0
  0
ENDBLK
  5
1D803
330
1D801
100
AcDbEntity
  8
0
100
AcDbBlockEnd
  0
BLOCK
  5
1D811
330
1D810
100
AcDbEntity
  8
0
100
AcDbBlockBegin
  2
*D166
 70
     1
 10
0.0
 20
0.0
 30
0.0
  3
*D166
  1
*D166
  0
LINE
  5
1D813
330
1D810
100
AcDbEntity
  8
WY
 62
     0
100
AcDbLine
 10
578.1195953792967
 20
241.5297554279149
 30
0.0
 11
562.8184717083906
 21
241.5297554279149
 31
0.0
  0
LINE
  5
1D814
330
1D810
100
AcDbEntity
  8
WY
 62
     0
100
AcDbLine
 10
578.1195966102989
 20
202.6297563374602
 30
0.0
 11
562.8184717083906
 21
202.6297563374602
 31
0.0
  0
LINE
  5
1D815
330
1D810
100
AcDbEntity
  8
WY
 62
     0
100
AcDbLine
 10
564.3184717083906
 20
239.0297554279149
 30
0.0
 11
564.3184717083906
 21
205.1297563374602
 31
0.0
  0
SOLID
  5
1D816
330
1D810
100
AcDbEntity
  8
WY
 62
     0
100
AcDbTrace
 10
564.7351383750572
 20
239.0297554279149
 30
0.0
 11
563.901805041724
 21
239.0297554279149
 31
0.0
 12
564.3184717083906
 22
241.5297554279149
 32
0.0
 13
564.3184717083906
 23
241.5297554279149
 33
0.0
  0
SOLID
  5
1D817
330
1D810
100
AcDbEntity
  8
WY
 62
     0
100
AcDbTrace
 10
563.901805041724
 20
205.1297563374602
 30
0.0
 11
564.7351383750572
 21
205.1297563374602
 31
0.0
 12
564.3184717083906
 22
202.6297563374602
 32
0.0
 13
564.3184717083906
 23
202.6297563374602
 33
0.0
  0
MTEXT
  5
1D818
330
1D810
100
AcDbEntity
  8
WY
 62
     0
100
AcDbMText
 10
562.6934717083906
 20
222.0797558826876
 30
0.0
 40
1.5
 41
0.0
 71
     5
 72
     1
  1
\A1;39-0,2
 11
0.0
 21
1.0
 31
0.0
  0
POINT
  5
1D819
330
1D810
100
AcDbEntity
  8
DEFPOINTS
 62
     0
100
AcDbPoint
 10
579.6195953792967
 20
241.5297554279149
 30
0.0
  0
POINT
  5
1D81A
330
1D810
100
AcDbEntity
  8
DEFPOINTS
 62
     0
100
AcDbPoint
 10
579.6195966102989
 20
202.6297563374602
 30
0.0
  0
POINT
  5
1D81B
330
1D810
100
AcDbEntity
  8
DEFPOINTS
 62
     0
100
AcDbPoint
 10
564.3184717083906
 20
202.6297563374602
 30
0.0
  0
ENDBLK
  5
1D812
330
1D810
100
AcDbEntity
  8
0
100
AcDbBlockEnd
  0
BLOCK
  5
1D820
330
1D81F
100
AcDbEntity
  8
0
100
AcDbBlockBegin
  2
*D167
 70
     1
 10
0.0
 20
0.0
 30
0.0
  3
*D167
  1
*D167
  0
LINE
  5
1D822
330
1D81F
100
AcDbEntity
  8
WY
 62
     0
100
AcDbLine
 10
578.6195953792967
 20
202.1297554279149
 30
0.0
 11
578.6195953792967
 21
192.3529984822307
 31
0.0
  0
LINE
  5
1D823
330
1D81F
100
AcDbEntity
  8
WY
 62
     0
100
AcDbLine
 10
610.5195953422101
 20
202.1297546387278
 30
0.0
 11
610.5195953422101
 21
192.3529984822307
 31
0.0
  0
LINE
  5
1D824
330
1D81F
100
AcDbEntity
  8
WY
 62
     0
100
AcDbLine
 10
581.1195953792967
 20
193.8529984822307
 30
0.0
 11
608.0195953422101
 21
193.8529984822307
 31
0.0
  0
SOLID
  5
1D825
330
1D81F
100
AcDbEntity
  8
WY
 62
     0
100
AcDbTrace
 10
581.1195953792967
 20
194.2696651488973
 30
0.0
 11
581.1195953792967
 21
193.436331815564
 31
0.0
 12
578.6195953792967
 22
193.8529984822307
 32
0.0
 13
578.6195953792967
 23
193.8529984822307
 33
0.0
  0
SOLID
  5
1D826
330
1D81F
100
AcDbEntity
  8
WY
 62
     0
100
AcDbTrace
 10
608.0195953422101
 20
193.436331815564
 30
0.0
 11
608.0195953422101
 21
194.2696651488973
 31
0.0
 12
610.5195953422101
 22
193.8529984822307
 32
0.0
 13
610.5195953422101
 23
193.8529984822307
 33
0.0
  0
MTEXT
  5
1D827
330
1D81F
100
AcDbEntity
  8
WY
 62
     0
100
AcDbMText
 10
594.5695953607534
 20
195.4779984822307
 30
0.0
 40
1.5
 41
0.0
 71
     5
 72
     1
  1
\A1;32-0,2
  0
POINT
  5
1D828
330
1D81F
100
AcDbEntity
  8
DEFPOINTS
 62
     0
100
AcDbPoint
 10
578.6195953792967
 20
203.6297554279149
 30
0.0
  0
POINT
  5
1D829
330
1D81F
100
AcDbEntity
  8
DEFPOINTS
 62
     0
100
AcDbPoint
 10
610.5195953422101
 20
203.6297546387278
 30
0.0
  0
POINT
  5
1D82A
330
1D81F
100
AcDbEntity
  8
DEFPOINTS
 62
     0
100
AcDbPoint
 10
610.5195953422101
 20
193.8529984822307
 30
0.0
  0
ENDBLK
  5
1D821
330
1D81F
100
AcDbEntity
  8
0
100
AcDbBlockEnd
  0
BLOCK
  5
1D835
330
1D834
100
AcDbEntity
  8
0
100
AcDbBlockBegin
  2
*D168
 70
     1
 10
0.0
 20
0.0
 30
0.0
  3
*D168
  1
*D168
  0
LINE
  5
1D837
330
1D834
100
AcDbEntity
  8
WY
 62
     0
100
AcDbLine
 10
626.4867136981361
 20
231.7736107735644
 30
0.0
 11
621.2367136981361
 21
231.7736107735644
 31
0.0
  0
LINE
  5
1D838
330
1D834
100
AcDbEntity
  8
WY
 62
     0
100
AcDbLine
 10
621.2367136981361
 20
231.7736107735644
 30
0.0
 11
616.4929373836037
 21
222.8739729972177
 31
0.0
  0
MTEXT
  5
1D839
330
1D834
100
AcDbEntity
  8
WY
 62
     0
100
AcDbMText
 10
624.2367136981361
 20
233.2736107735644
 30
0.0
 40
1.5
 41
0.0
 71
     5
 72
     1
  1
\A1;%%c3.2
  0
SOLID
  5
1D83A
330
1D834
100
AcDbEntity
  8
WY
 62
     0
100
AcDbTrace
 10
616.125244064482
 20
223.0699646658784
 30
0.0
 11
616.8606307027254
 21
222.6779813285571
 31
0.0
 12
615.3169873716399
 22
220.6678130824875
 32
0.0
 13
615.3169873716399
 23
220.6678130824875
 33
0.0
  0
POINT
  5
1D83B
330
1D834
100
AcDbEntity
  8
DEFPOINTS
 62
     0
100
AcDbPoint
 10
615.3169873716399
 20
220.6678130824875
 30
0.0
  0
POINT
  5
1D83C
330
1D834
100
AcDbEntity
  8
DEFPOINTS
 62
     0
100
AcDbPoint
 10
616.8222033869536
 20
223.4916977733422
 30
0.0
  0
ENDBLK
  5
1D836
330
1D834
100
AcDbEntity
  8
0
100
AcDbBlockEnd
  0
BLOCK
  5
1DF52
330
1DF51
100
AcDbEntity
  8
0
100
AcDbBlockBegin
  2
*D170
 70
     1
 10
0.0
 20
0.0
 30
0.0
  3
*D170
  1
*D170
  0
LINE
  5
1DF54
330
1DF51
100
AcDbEntity
  8
WY
 62
     0
100
AcDbLine
 10
580.6648390003526
 20
206.8580179869349
 30
0.0
 11
580.6648390003526
 21
189.8213494405715
 31
0.0
  0
LINE
  5
1DF55
330
1DF51
100
AcDbEntity
  8
WY
 62
     0
100
AcDbLine
 10
608.6648393989586
 20
206.8580179869349
 30
0.0
 11
608.6648393989586
 21
189.8213494405715
 31
0.0
  0
LINE
  5
1DF56
330
1DF51
100
AcDbEntity
  8
WY
 62
     0
100
AcDbLine
 10
583.1648390003526
 20
191.3213494405715
 30
0.0
 11
606.1648393989586
 21
191.3213494405715
 31
0.0
  0
SOLID
  5
1DF57
330
1DF51
100
AcDbEntity
  8
WY
 62
     0
100
AcDbTrace
 10
583.1648390003526
 20
191.7380161072381
 30
0.0
 11
583.1648390003526
 21
190.9046827739048
 31
0.0
 12
580.6648390003526
 22
191.3213494405715
 32
0.0
 13
580.6648390003526
 23
191.3213494405715
 33
0.0
  0
SOLID
  5
1DF58
330
1DF51
100
AcDbEntity
  8
WY
 62
     0
100
AcDbTrace
 10
606.1648393989586
 20
190.9046827739048
 30
0.0
 11
606.1648393989586
 21
191.7380161072381
 31
0.0
 12
608.6648393989586
 22
191.3213494405715
 32
0.0
 13
608.6648393989586
 23
191.3213494405715
 33
0.0
  0
MTEXT
  5
1DF59
330
1DF51
100
AcDbEntity
  8
WY
 62
     0
100
AcDbMText
 10
594.6648391996556
 20
192.8213494405715
 30
0.0
 40
1.5
 41
0.0
 71
     5
 72
     1
  1
\A1;28
  0
POINT
  5
1DF5A
330
1DF51
100
AcDbEntity
  8
DEFPOINTS
 62
     0
100
AcDbPoint
 10
580.6648390003526
 20
208.3580179869349
 30
0.0
  0
POINT
  5
1DF5B
330
1DF51
100
AcDbEntity
  8
DEFPOINTS
 62
     0
100
AcDbPoint
 10
608.6648393989586
 20
208.3580179869349
 30
0.0
  0
POINT
  5
1DF5C
330
1DF51
100
AcDbEntity
  8
DEFPOINTS
 62
     0
100
AcDbPoint
 10
608.6648393989586
 20
191.3213494405715
 30
0.0
  0
ENDBLK
  5
1DF53
330
1DF51
100
AcDbEntity
  8
0
100
AcDbBlockEnd
  0
BLOCK
  5
1DF61
330
1DF60
100
AcDbEntity
  8
0
100
AcDbBlockBegin
  2
*D171
 70
     1
 10
0.0
 20
0.0
 30
0.0
  3
*D171
  1
*D171
  0
LINE
  5
1DF63
330
1DF60
100
AcDbEntity
  8
WY
 62
     0
100
AcDbLine
 10
571.164839514966
 20
142.9092905960164
 30
0.0
 11
571.164839514966
 21
113.2127801561201
 31
0.0
  0
LINE
  5
1DF64
330
1DF60
100
AcDbEntity
  8
WY
 62
     0
100
AcDbLine
 10
618.164839514966
 20
142.9092905960165
 30
0.0
 11
618.164839514966
 21
113.2127801561201
 31
0.0
  0
LINE
  5
1DF65
330
1DF60
100
AcDbEntity
  8
WY
 62
     0
100
AcDbLine
 10
573.664839514966
 20
114.7127801561201
 30
0.0
 11
615.664839514966
 21
114.7127801561201
 31
0.0
  0
SOLID
  5
1DF66
330
1DF60
100
AcDbEntity
  8
WY
 62
     0
100
AcDbTrace
 10
573.664839514966
 20
115.1294468227867
 30
0.0
 11
573.664839514966
 21
114.2961134894534
 31
0.0
 12
571.164839514966
 22
114.7127801561201
 32
0.0
 13
571.164839514966
 23
114.7127801561201
 33
0.0
  0
SOLID
  5
1DF67
330
1DF60
100
AcDbEntity
  8
WY
 62
     0
100
AcDbTrace
 10
615.664839514966
 20
114.2961134894534
 30
0.0
 11
615.664839514966
 21
115.1294468227867
 31
0.0
 12
618.164839514966
 22
114.7127801561201
 32
0.0
 13
618.164839514966
 23
114.7127801561201
 33
0.0
  0
MTEXT
  5
1DF68
330
1DF60
100
AcDbEntity
  8
WY
 62
     0
100
AcDbMText
 10
594.664839514966
 20
116.2127801561201
 30
0.0
 40
1.5
 41
0.0
 71
     5
 72
     1
  1
\A1;47
  0
POINT
  5
1DF69
330
1DF60
100
AcDbEntity
  8
DEFPOINTS
 62
     0
100
AcDbPoint
 10
571.164839514966
 20
144.4092905960164
 30
0.0
  0
POINT
  5
1DF6A
330
1DF60
100
AcDbEntity
  8
DEFPOINTS
 62
     0
100
AcDbPoint
 10
618.164839514966
 20
144.4092905960165
 30
0.0
  0
POINT
  5
1DF6B
330
1DF60
100
AcDbEntity
  8
DEFPOINTS
 62
     0
100
AcDbPoint
 10
618.164839514966
 20
114.7127801561201
 30
0.0
  0
ENDBLK
  5
1DF62
330
1DF60
100
AcDbEntity
  8
0
100
AcDbBlockEnd
  0
BLOCK
  5
1DF70
330
1DF6F
100
AcDbEntity
  8
0
100
AcDbBlockBegin
  2
*D172
 70
     1
 10
0.0
 20
0.0
 30
0.0
  3
*D172
  1
*D172
  0
LINE
  5
1DF72
330
1DF6F
100
AcDbEntity
  8
WY
 62
     0
100
AcDbLine
 10
575.664839514966
 20
142.9092905960165
 30
0.0
 11
575.664839514966
 21
118.421774110041
 31
0.0
  0
LINE
  5
1DF73
330
1DF6F
100
AcDbEntity
  8
WY
 62
     0
100
AcDbLine
 10
613.664839514966
 20
142.9092905960165
 30
0.0
 11
613.664839514966
 21
118.421774110041
 31
0.0
  0
LINE
  5
1DF74
330
1DF6F
100
AcDbEntity
  8
WY
 62
     0
100
AcDbLine
 10
578.164839514966
 20
119.921774110041
 30
0.0
 11
611.164839514966
 21
119.921774110041
 31
0.0
  0
SOLID
  5
1DF75
330
1DF6F
100
AcDbEntity
  8
WY
 62
     0
100
AcDbTrace
 10
578.164839514966
 20
120.3384407767077
 30
0.0
 11
578.164839514966
 21
119.5051074433743
 31
0.0
 12
575.664839514966
 22
119.921774110041
 32
0.0
 13
575.664839514966
 23
119.921774110041
 33
0.0
  0
SOLID
  5
1DF76
330
1DF6F
100
AcDbEntity
  8
WY
 62
     0
100
AcDbTrace
 10
611.164839514966
 20
119.5051074433743
 30
0.0
 11
611.164839514966
 21
120.3384407767077
 31
0.0
 12
613.664839514966
 22
119.921774110041
 32
0.0
 13
613.664839514966
 23
119.921774110041
 33
0.0
  0
MTEXT
  5
1DF77
330
1DF6F
100
AcDbEntity
  8
WY
 62
     0
100
AcDbMText
 10
594.664839514966
 20
121.421774110041
 30
0.0
 40
1.5
 41
0.0
 71
     5
 72
     1
  1
\A1;38%%p0.1
  0
POINT
  5
1DF78
330
1DF6F
100
AcDbEntity
  8
DEFPOINTS
 62
     0
100
AcDbPoint
 10
575.664839514966
 20
144.4092905960165
 30
0.0
  0
POINT
  5
1DF79
330
1DF6F
100
AcDbEntity
  8
DEFPOINTS
 62
     0
100
AcDbPoint
 10
613.664839514966
 20
144.4092905960165
 30
0.0
  0
POINT
  5
1DF7A
330
1DF6F
100
AcDbEntity
  8
DEFPOINTS
 62
     0
100
AcDbPoint
 10
613.664839514966
 20
119.921774110041
 30
0.0
  0
ENDBLK
  5
1DF71
330
1DF6F
100
AcDbEntity
  8
0
100
AcDbBlockEnd
  0
BLOCK
  5
1DF80
330
1DF7F
100
AcDbEntity
  8
0
100
AcDbBlockBegin
  2
*D173
 70
     1
 10
0.0
 20
0.0
 30
0.0
  3
*D173
  1
*D173
  0
LINE
  5
1DF82
330
1DF7F
100
AcDbEntity
  8
WY
 62
     0
100
AcDbLine
 10
564.1544601985834
 20
153.7337259359385
 30
0.0
 11
569.4044601985834
 21
153.7337259359385
 31
0.0
  0
LINE
  5
1DF83
330
1DF7F
100
AcDbEntity
  8
WY
 62
     0
100
AcDbLine
 10
569.4044601985834
 20
153.7337259359385
 30
0.0
 11
573.2540197284819
 21
148.0000527654029
 31
0.0
  0
MTEXT
  5
1DF84
330
1DF7F
100
AcDbEntity
  8
WY
 62
     0
100
AcDbMText
 10
566.4044601985834
 20
155.2337259359385
 30
0.0
 40
1.5
 41
0.0
 71
     5
 72
     1
  1
\A1;%%c3.6
  0
SOLID
  5
1DF85
330
1DF7F
100
AcDbEntity
  8
WY
 62
     0
100
AcDbTrace
 10
572.908088883647
 20
147.7677965239304
 30
0.0
 11
573.5999505733168
 21
148.2323090068754
 31
0.0
 12
574.6475571773167
 22
145.9244676963934
 32
0.0
 13
574.6475571773167
 23
145.9244676963934
 33
0.0
  0
LINE
  5
1DF86
330
1DF7F
100
AcDbEntity
  8
WY
 62
     0
100
AcDbLine
 10
574.664839514966
 20
144.4092905960165
 30
0.0
 11
576.664839514966
 21
144.4092905960165
 31
0.0
  0
LINE
  5
1DF87
330
1DF7F
100
AcDbEntity
  8
WY
 62
     0
100
AcDbLine
 10
575.664839514966
 20
143.4092905960165
 30
0.0
 11
575.664839514966
 21
145.4092905960165
 31
0.0
  0
LINE
  5
1DF88
330
1DF7F
100
AcDbEntity
  8
WY
 62
     0
100
AcDbLine
 10
573.664839514966
 20
144.4092905960165
 30
0.0
 11
572.8398395149661
 21
144.4092905960165
 31
0.0
  0
LINE
  5
1DF89
330
1DF7F
100
AcDbEntity
  8
WY
 62
     0
100
AcDbLine
 10
577.664839514966
 20
144.4092905960165
 30
0.0
 11
578.489839514966
 21
144.4092905960165
 31
0.0
  0
LINE
  5
1DF8A
330
1DF7F
100
AcDbEntity
  8
WY
 62
     0
100
AcDbLine
 10
575.664839514966
 20
142.4092905960165
 30
0.0
 11
575.664839514966
 21
141.5842905960166
 31
0.0
  0
LINE
  5
1DF8B
330
1DF7F
100
AcDbEntity
  8
WY
 62
     0
100
AcDbLine
 10
575.664839514966
 20
146.4092905960165
 30
0.0
 11
575.664839514966
 21
147.2342905960165
 31
0.0
  0
POINT
  5
1DF8C
330
1DF7F
100
AcDbEntity
  8
DEFPOINTS
 62
     0
100
AcDbPoint
 10
574.6475571773167
 20
145.9244676963934
 30
0.0
  0
POINT
  5
1DF8D
330
1DF7F
100
AcDbEntity
  8
DEFPOINTS
 62
     0
100
AcDbPoint
 10
576.6821218526154
 20
142.8941134956396
 30
0.0
  0
ENDBLK
  5
1DF81
330
1DF7F
100
AcDbEntity
  8
0
100
AcDbBlockEnd
  0
BLOCK
  5
1DF92
330
1DF91
100
AcDbEntity
  8
0
100
AcDbBlockBegin
  2
*D174
 70
     1
 10
0.0
 20
0.0
 30
0.0
  3
*D174
  1
*D174
  0
LINE
  5
1DF94
330
1DF91
100
AcDbEntity
  8
WY
 62
     0
100
AcDbLine
 10
570.8107376703107
 20
220.3580162285978
 30
0.0
 11
559.7659675511843
 21
220.3580162285978
 31
0.0
  0
LINE
  5
1DF95
330
1DF91
100
AcDbEntity
  8
WY
 62
     0
100
AcDbLine
 10
579.1648390003526
 20
208.3580179869349
 30
0.0
 11
559.7659675511843
 21
208.3580179869349
 31
0.0
  0
LINE
  5
1DF96
330
1DF91
100
AcDbEntity
  8
WY
 62
     0
100
AcDbLine
 10
561.2659675511843
 20
217.8580162285978
 30
0.0
 11
561.2659675511843
 21
210.8580179869349
 31
0.0
  0
SOLID
  5
1DF97
330
1DF91
100
AcDbEntity
  8
WY
 62
     0
100
AcDbTrace
 10
561.6826342178509
 20
217.8580162285978
 30
0.0
 11
560.8493008845177
 21
217.8580162285978
 31
0.0
 12
561.2659675511843
 22
220.3580162285978
 32
0.0
 13
561.2659675511843
 23
220.3580162285978
 33
0.0
  0
SOLID
  5
1DF98
330
1DF91
100
AcDbEntity
  8
WY
 62
     0
100
AcDbTrace
 10
560.8493008845177
 20
210.8580179869349
 30
0.0
 11
561.6826342178509
 21
210.8580179869349
 31
0.0
 12
561.2659675511843
 22
208.3580179869349
 32
0.0
 13
561.2659675511843
 23
208.3580179869349
 33
0.0
  0
MTEXT
  5
1DF99
330
1DF91
100
AcDbEntity
  8
WY
 62
     0
100
AcDbMText
 10
559.7659675511843
 20
214.3580171077664
 30
0.0
 40
1.5
 41
0.0
 71
     5
 72
     1
  1
\A1;12
 11
0.0
 21
1.0
 31
0.0
  0
POINT
  5
1DF9A
330
1DF91
100
AcDbEntity
  8
DEFPOINTS
 62
     0
100
AcDbPoint
 10
572.3107376703107
 20
220.3580162285978
 30
0.0
  0
POINT
  5
1DF9B
330
1DF91
100
AcDbEntity
  8
DEFPOINTS
 62
     0
100
AcDbPoint
 10
580.6648390003526
 20
208.3580179869349
 30
0.0
  0
POINT
  5
1DF9C
330
1DF91
100
AcDbEntity
  8
DEFPOINTS
 62
     0
100
AcDbPoint
 10
561.2659675511843
 20
208.3580179869349
 30
0.0
  0
ENDBLK
  5
1DF93
330
1DF91
100
AcDbEntity
  8
0
100
AcDbBlockEnd
  0
BLOCK
  5
1DFA1
330
1DFA0
100
AcDbEntity
  8
0
100
AcDbBlockBegin
  2
*D175
 70
     1
 10
0.0
 20
0.0
 30
0.0
  3
*D175
  1
*D175
  0
LINE
  5
1DFA3
330
1DFA0
100
AcDbEntity
  8
WY
 62
     0
100
AcDbLine
 10
570.8107376703107
 20
220.3580162285978
 30
0.0
 11
563.6712247326383
 21
220.3580162285978
 31
0.0
  0
LINE
  5
1DFA4
330
1DFA0
100
AcDbEntity
  8
WY
 62
     0
100
AcDbLine
 10
571.1648376890504
 20
215.8580145596678
 30
0.0
 11
563.6712247326383
 21
215.8580145596678
 31
0.0
  0
LINE
  5
1DFA5
330
1DFA0
100
AcDbEntity
  8
WY
 62
     0
100
AcDbLine
 10
565.1712247326383
 20
220.3580162285978
 30
0.0
 11
565.1712247326383
 21
215.8580145596678
 31
0.0
  0
LINE
  5
1DFA6
330
1DFA0
100
AcDbEntity
  8
WY
 62
     0
100
AcDbLine
 10
565.1712247326383
 20
222.8580162285978
 30
0.0
 11
565.1712247326383
 21
225.3580162285978
 31
0.0
  0
LINE
  5
1DFA7
330
1DFA0
100
AcDbEntity
  8
WY
 62
     0
100
AcDbLine
 10
565.1712247326383
 20
213.3580145596678
 30
0.0
 11
565.1712247326383
 21
210.8580145596678
 31
0.0
  0
SOLID
  5
1DFA8
330
1DFA0
100
AcDbEntity
  8
WY
 62
     0
100
AcDbTrace
 10
564.7545580659717
 20
222.8580162285978
 30
0.0
 11
565.5878913993049
 21
222.8580162285978
 31
0.0
 12
565.1712247326383
 22
220.3580162285978
 32
0.0
 13
565.1712247326383
 23
220.3580162285978
 33
0.0
  0
SOLID
  5
1DFA9
330
1DFA0
100
AcDbEntity
  8
WY
 62
     0
100
AcDbTrace
 10
565.5878913993049
 20
213.3580145596678
 30
0.0
 11
564.7545580659717
 21
213.3580145596678
 31
0.0
 12
565.1712247326383
 22
215.8580145596678
 32
0.0
 13
565.1712247326383
 23
215.8580145596678
 33
0.0
  0
MTEXT
  5
1DFAA
330
1DFA0
100
AcDbEntity
  8
WY
 62
     0
100
AcDbMText
 10
563.6712247326383
 20
218.1080153941328
 30
0.0
 40
1.5
 41
0.0
 71
     5
 72
     1
  1
\A1;4.5
 11
0.0
 21
1.0
 31
0.0
  0
POINT
  5
1DFAB
330
1DFA0
100
AcDbEntity
  8
DEFPOINTS
 62
     0
100
AcDbPoint
 10
572.3107376703107
 20
220.3580162285978
 30
0.0
  0
POINT
  5
1DFAC
330
1DFA0
100
AcDbEntity
  8
DEFPOINTS
 62
     0
100
AcDbPoint
 10
572.6648376890504
 20
215.8580145596678
 30
0.0
  0
POINT
  5
1DFAD
330
1DFA0
100
AcDbEntity
  8
DEFPOINTS
 62
     0
100
AcDbPoint
 10
565.1712247326383
 20
215.8580145596678
 30
0.0
  0
ENDBLK
  5
1DFA2
330
1DFA0
100
AcDbEntity
  8
0
100
AcDbBlockEnd
  0
BLOCK
  5
1DFB2
330
1DFB1
100
AcDbEntity
  8
0
100
AcDbBlockBegin
  2
*D176
 70
     1
 10
0.0
 20
0.0
 30
0.0
  3
*D176
  1
*D176
  0
LINE
  5
1DFB4
330
1DFB1
100
AcDbEntity
  8
WY
 62
     0
100
AcDbLine
 10
570.8107376703107
 20
220.3580162285978
 30
0.0
 11
556.5274615958324
 21
220.3580162285978
 31
0.0
  0
LINE
  5
1DFB5
330
1DFB1
100
AcDbEntity
  8
WY
 62
     0
100
AcDbLine
 10
582.6730864354455
 20
199.0507564305479
 30
0.0
 11
556.5274615958324
 21
199.0507564305479
 31
0.0
  0
LINE
  5
1DFB6
330
1DFB1
100
AcDbEntity
  8
WY
 62
     0
100
AcDbLine
 10
558.0274615958324
 20
217.8580162285978
 30
0.0
 11
558.0274615958324
 21
201.5507564305479
 31
0.0
  0
SOLID
  5
1DFB7
330
1DFB1
100
AcDbEntity
  8
WY
 62
     0
100
AcDbTrace
 10
558.444128262499
 20
217.8580162285978
 30
0.0
 11
557.6107949291658
 21
217.8580162285978
 31
0.0
 12
558.0274615958324
 22
220.3580162285978
 32
0.0
 13
558.0274615958324
 23
220.3580162285978
 33
0.0
  0
SOLID
  5
1DFB8
330
1DFB1
100
AcDbEntity
  8
WY
 62
     0
100
AcDbTrace
 10
557.6107949291658
 20
201.5507564305479
 30
0.0
 11
558.444128262499
 21
201.5507564305479
 31
0.0
 12
558.0274615958324
 22
199.0507564305479
 32
0.0
 13
558.0274615958324
 23
199.0507564305479
 33
0.0
  0
MTEXT
  5
1DFB9
330
1DFB1
100
AcDbEntity
  8
WY
 62
     0
100
AcDbMText
 10
556.5274615958324
 20
209.7043863295729
 30
0.0
 40
1.5
 41
0.0
 71
     5
 72
     1
  1
\A1;21.3
 11
0.0
 21
1.0
 31
0.0
  0
POINT
  5
1DFBA
330
1DFB1
100
AcDbEntity
  8
DEFPOINTS
 62
     0
100
AcDbPoint
 10
572.3107376703107
 20
220.3580162285978
 30
0.0
  0
POINT
  5
1DFBB
330
1DFB1
100
AcDbEntity
  8
DEFPOINTS
 62
     0
100
AcDbPoint
 10
584.1730864354455
 20
199.0507564305479
 30
0.0
  0
POINT
  5
1DFBC
330
1DFB1
100
AcDbEntity
  8
DEFPOINTS
 62
     0
100
AcDbPoint
 10
558.0274615958324
 20
199.0507564305479
 30
0.0
  0
ENDBLK
  5
1DFB3
330
1DFB1
100
AcDbEntity
  8
0
100
AcDbBlockEnd
  0
BLOCK
  5
1DFC6
330
1DFC5
100
AcDbEntity
  8
0
100
AcDbBlockBegin
  2
*D177
 70
     1
 10
0.0
 20
0.0
 30
0.0
  3
*D177
  1
*D177
  0
LINE
  5
1DFC8
330
1DFC5
100
AcDbEntity
  8
WY
 62
     0
100
AcDbLine
 10
637.1277306885081
 20
163.4409577667189
 30
0.0
 11
623.6277306885081
 21
163.4409577667189
 31
0.0
  0
LINE
  5
1DFC9
330
1DFC5
100
AcDbEntity
  8
WY
 62
     0
100
AcDbLine
 10
623.6277306885081
 20
163.4409577667189
 30
0.0
 11
604.7143721526244
 21
151.0128910181919
 31
0.0
  0
LINE
  5
1DFCA
330
1DFC5
100
AcDbEntity
  8
WY
 62
     0
100
AcDbLine
 10
584.615306877308
 20
137.805690173841
 30
0.0
 11
582.5260070954729
 21
136.4328003670379
 31
0.0
  0
MTEXT
  5
1DFCB
330
1DFC5
100
AcDbEntity
  8
WY
 62
     0
100
AcDbMText
 10
630.7527306885081
 20
164.9409577667189
 30
0.0
 40
1.5
 41
0.0
 71
     5
 72
     1
  1
\A1;%%c19.05%%p0.05
  0
LINE
  5
1DFCC
330
1DFC5
100
AcDbEntity
  8
WY
 62
     0
100
AcDbLine
 10
586.704606659143
 20
139.1785799806442
 30
0.0
 11
602.6250723707893
 21
149.6400012113887
 31
0.0
  0
SOLID
  5
1DFCD
330
1DFC5
100
AcDbEntity
  8
WY
 62
     0
100
AcDbTrace
 10
584.8441218451085
 20
137.4574735435352
 30
0.0
 11
584.3864919095074
 21
138.1539068041469
 31
0.0
 12
586.704606659143
 22
139.1785799806442
 32
0.0
 13
586.704606659143
 23
139.1785799806442
 33
0.0
  0
SOLID
  5
1DFCE
330
1DFC5
100
AcDbEntity
  8
WY
 62
     0
100
AcDbTrace
 10
604.4855571848238
 20
151.3611076484977
 30
0.0
 11
604.9431871204249
 21
150.664674387886
 31
0.0
 12
602.6250723707893
 22
149.6400012113887
 32
0.0
 13
602.6250723707893
 23
149.6400012113887
 33
0.0
  0
POINT
  5
1DFCF
330
1DFC5
100
AcDbEntity
  8
DEFPOINTS
 62
     0
100
AcDbPoint
 10
602.6250723707893
 20
149.6400012113887
 30
0.0
  0
POINT
  5
1DFD0
330
1DFC5
100
AcDbEntity
  8
DEFPOINTS
 62
     0
100
AcDbPoint
 10
586.704606659143
 20
139.1785799806442
 30
0.0
  0
ENDBLK
  5
1DFC7
330
1DFC5
100
AcDbEntity
  8
0
100
AcDbBlockEnd
  0
BLOCK
  5
1DFD8
330
1DFD7
100
AcDbEntity
  8
0
100
AcDbBlockBegin
  2
*D178
 70
     1
 10
0.0
 20
0.0
 30
0.0
  3
*D178
  1
*D178
  0
LINE
  5
1DFDA
330
1DFD7
100
AcDbEntity
  8
WY
 62
     0
100
AcDbLine
 10
596.1648395149659
 20
160.3592905960165
 30
0.0
 11
630.9430018214483
 21
160.3592905960165
 31
0.0
  0
LINE
  5
1DFDB
330
1DFD7
100
AcDbEntity
  8
WY
 62
     0
100
AcDbLine
 10
596.1648395149662
 20
128.4592905960165
 30
0.0
 11
630.9430018214483
 21
128.4592905960165
 31
0.0
  0
LINE
  5
1DFDC
330
1DFD7
100
AcDbEntity
  8
WY
 62
     0
100
AcDbLine
 10
629.4430018214483
 20
157.8592905960165
 30
0.0
 11
629.4430018214483
 21
130.9592905960165
 31
0.0
  0
SOLID
  5
1DFDD
330
1DFD7
100
AcDbEntity
  8
WY
 62
     0
100
AcDbTrace
 10
629.859668488115
 20
157.8592905960165
 30
0.0
 11
629.0263351547817
 21
157.8592905960165
 31
0.0
 12
629.4430018214483
 22
160.3592905960165
 32
0.0
 13
629.4430018214483
 23
160.3592905960165
 33
0.0
  0
SOLID
  5
1DFDE
330
1DFD7
100
AcDbEntity
  8
WY
 62
     0
100
AcDbTrace
 10
629.0263351547817
 20
130.9592905960165
 30
0.0
 11
629.859668488115
 21
130.9592905960165
 31
0.0
 12
629.4430018214483
 22
128.4592905960165
 32
0.0
 13
629.4430018214483
 23
128.4592905960165
 33
0.0
  0
MTEXT
  5
1DFDF
330
1DFD7
100
AcDbEntity
  8
WY
 62
     0
100
AcDbMText
 10
627.9430018214483
 20
144.4092905960165
 30
0.0
 40
1.5
 41
0.0
 71
     5
 72
     1
  1
\A1;32-0.2
 11
0.0
 21
1.0
 31
0.0
  0
POINT
  5
1DFE0
330
1DFD7
100
AcDbEntity
  8
DEFPOINTS
 62
     0
100
AcDbPoint
 10
594.6648395149659
 20
160.3592905960165
 30
0.0
  0
POINT
  5
1DFE1
330
1DFD7
100
AcDbEntity
  8
DEFPOINTS
 62
     0
100
AcDbPoint
 10
594.6648395149662
 20
128.4592905960165
 30
0.0
  0
POINT
  5
1DFE2
330
1DFD7
100
AcDbEntity
  8
DEFPOINTS
 62
     0
100
AcDbPoint
 10
629.4430018214483
 20
128.4592905960165
 30
0.0
  0
ENDBLK
  5
1DFD9
330
1DFD7
100
AcDbEntity
  8
0
100
AcDbBlockEnd
  0
ENDSEC
  0
SECTION
  2
ENTITIES
  0
LINE
  5
2D2D
330
18
100
AcDbEntity
  8
WYMIARY
 62
     6
100
AcDbLine
 10
486.041244
 20
0.0
 30
0.0
 11
486.041244
 21
297.0
 31
0.0
  0
LINE
  5
2D2E
330
18
100
AcDbEntity
  8
WYMIARY
 62
     6
100
AcDbLine
 10
497.671651
 20
292.0
 30
0.0
 11
497.671651
 21
5.0
 31
0.0
  0
LINE
  5
2D34
330
18
100
AcDbEntity
  8
2
100
AcDbLine
 10
682.671651
 20
5.0
 30
0.0
 11
682.671651
 21
292.0
 31
0.0
  0
LINE
  5
2D35
330
18
100
AcDbEntity
  8
2
100
AcDbLine
 10
687.671651
 20
0.0
 30
0.0
 11
687.671651
 21
297.0
 31
0.0
  0
LINE
  5
2D36
330
18
100
AcDbEntity
  8
WY
  6
CONTINUOUS
 62
     3
100
AcDbLine
 10
682.671651
 20
19.689837
 30
0.0
 11
497.671651
 21
19.689837
 31
0.0
  0
LINE
  5
2D38
330
18
100
AcDbEntity
  8
2
100
AcDbLine
 10
497.671651
 20
5.0
 30
0.0
 11
682.671651
 21
5.0
 31
0.0
  0
LINE
  5
2D39
330
18
100
AcDbEntity
  8
2
 62
     6
100
AcDbLine
 10
497.671651
 20
0.0
 30
0.0
 11
687.671651
 21
0.0
 31
0.0
  0
LINE
  5
2D3A
330
18
100
AcDbEntity
  8
0
100
AcDbLine
 10
529.697667
 20
11.742481
 30
0.0
 11
528.795256
 21
11.742481
 31
0.0
  0
ELLIPSE
  5
2D3B
330
18
100
AcDbEntity
  8
0
100
AcDbEllipse
 10
529.697667
 20
11.742481
 30
0.0
 11
-1.203215696869327
 21
1.967000000000000E-13
 31
0.0
210
0.0
220
0.0
230
1.0
 40
0.958812
 41
-1.570796326794739
 42
0.0000000000001705
  0
TEXT
  5
2D3D
330
18
100
AcDbEntity
  8
1
100
AcDbText
 10
515.607578
 20
8.797457
 30
0.0
 40
5.0
  1
A4
 51
15.0
  7
ITALIC
100
AcDbText
  0
LINE
  5
2D40
330
18
100
AcDbEntity
  8
WYMIARY
 62
     6
100
AcDbLine
 10
497.671651
 20
0.0
 30
0.0
 11
486.041244
 21
0.0
 31
0.0
  0
TEXT
  5
2D42
330
18
100
AcDbEntity
  8
WY
100
AcDbText
 10
502.936765
 20
16.373844
 30
0.0
 40
2.0
  1
Skala
 51
15.0
  7
ITALIC
100
AcDbText
  0
TEXT
  5
2D43
330
18
100
AcDbEntity
  8
WY
100
AcDbText
 10
515.042219
 20
16.329369
 30
0.0
 40
2.0
  1
Format
 51
15.0
  7
ITALIC
100
AcDbText
  0
LINE
  5
2D44
330
18
100
AcDbEntity
  8
0
100
AcDbLine
 10
528.494452
 20
11.742481
 30
0.0
 11
528.795256
 21
11.742481
 31
0.0
  0
LINE
  5
2D45
330
18
100
AcDbEntity
  8
0
100
AcDbLine
 10
559.88722
 20
17.211264
 30
0.0
 11
559.88722
 21
9.015264
 31
0.0
  0
LINE
  5
2D46
330
18
100
AcDbEntity
  8
0
100
AcDbLine
 10
550.89322
 20
9.438264
 30
0.0
 11
550.89322
 21
7.416264
 31
0.0
  0
ARC
  5
2D47
330
18
100
AcDbEntity
  8
0
100
AcDbCircle
 10
551.5428
 20
9.724764
 30
0.0
 40
0.709955
100
AcDbArc
 50
203.80008
 51
272.051918
  0
LINE
  5
2D48
330
18
100
AcDbEntity
  8
0
100
AcDbLine
 10
549.34822
 20
7.416264
 30
0.0
 11
549.34822
 21
15.612264
 31
0.0
  0
ARC
  5
2D49
330
18
100
AcDbEntity
  8
0
100
AcDbCircle
 10
551.982126
 20
10.136416
 30
0.0
 40
1.128907
100
AcDbArc
 50
276.719576
 51
2.175194
  0
ARC
  5
2D4A
330
18
100
AcDbEntity
  8
0
100
AcDbCircle
 10
555.243059
 20
10.503572
 30
0.0
 40
1.488419
100
AcDbArc
 50
191.634268
 51
270.699113
  0
ARC
  5
2D4B
330
18
100
AcDbEntity
  8
0
100
AcDbCircle
 10
556.209381
 20
10.503572
 30
0.0
 40
1.488419
100
AcDbArc
 50
269.300887
 51
348.365732
  0
LINE
  5
2D4C
330
18
100
AcDbEntity
  8
0
100
AcDbLine
 10
558.34222
 20
9.015264
 30
0.0
 11
558.34222
 21
17.211264
 31
0.0
  0
ARC
  5
2D4D
330
18
100
AcDbEntity
  8
0
100
AcDbCircle
 10
545.056591
 20
10.472364
 30
0.0
 40
1.425319
100
AcDbArc
 50
269.703671
 51
350.465171
  0
ARC
  5
2D4E
330
18
100
AcDbEntity
  8
0
100
AcDbCircle
 10
544.201848
 20
10.472364
 30
0.0
 40
1.425319
100
AcDbArc
 50
189.534829
 51
270.2963290000001
  0
LINE
  5
2D4F
330
18
100
AcDbEntity
  8
0
100
AcDbLine
 10
547.14922
 20
9.015264
 30
0.0
 11
547.14922
 21
17.211264
 31
0.0
  0
LINE
  5
2D50
330
18
100
AcDbEntity
  8
0
100
AcDbLine
 10
548.69422
 20
17.211264
 30
0.0
 11
548.69422
 21
9.015264
 31
0.0
  0
LINE
  5
2D51
330
18
100
AcDbEntity
  8
0
100
AcDbLine
 10
539.892236
 20
14.361264
 30
0.0
 11
539.903809
 21
9.015264
 31
0.0
  0
LINE
  5
2D52
330
18
100
AcDbEntity
  8
0
100
AcDbLine
 10
538.361694
 20
9.015264
 30
0.0
 11
538.361694
 21
15.60367
 31
0.0
  0
LINE
  5
2D53
330
18
100
AcDbEntity
  8
0
100
AcDbLine
 10
529.697667
 20
9.895061
 30
0.0
 11
529.697667
 21
8.185369
 31
0.0
  0
LINE
  5
2D54
330
18
100
AcDbEntity
  8
0
100
AcDbLine
 10
535.613478
 20
8.185369
 30
0.0
 11
535.613478
 21
11.742481
 31
0.0
  0
LINE
  5
2D55
330
18
100
AcDbEntity
  8
1
100
AcDbLine
 10
563.469863
 20
5.0
 30
0.0
 11
563.469863
 21
19.689837
 31
0.0
  0
LINE
  5
2D56
330
18
100
AcDbEntity
  8
0
100
AcDbLine
 10
530.499811
 20
7.416263
 30
0.0
 11
534.811334
 21
7.416263
 31
0.0
  0
ELLIPSE
  5
2D57
330
18
100
AcDbEntity
  8
0
100
AcDbEllipse
 10
530.499811
 20
8.185369
 30
0.0
 11
-0.8021437979128705
 21
1.540000000000000E-14
 31
0.0
210
0.0
220
0.0
230
1.0
 40
0.958812
 41
0.00000000000002
 42
1.570796326794914
  0
ELLIPSE
  5
2D58
330
18
100
AcDbEntity
  8
0
100
AcDbEllipse
 10
534.811334
 20
8.185369
 30
0.0
 11
0.8021437979128704
 21
1.602000000000000E-13
 31
0.0
210
0.0
220
0.0
230
1.0
 40
0.958812
 41
4.712388980384497
 42
6.283185307179378
  0
LINE
  5
2D59
330
18
100
AcDbEntity
  8
0
100
AcDbLine
 10
539.892236
 20
9.015264
 30
0.0
 11
539.903809
 21
9.022759
 31
0.0
  0
LINE
  5
2D5A
330
18
100
AcDbEntity
  8
0
100
AcDbLine
 10
538.361694
 20
9.015264
 30
0.0
 11
539.903809
 21
9.015264
 31
0.0
  0
LINE
  5
2D5B
330
18
100
AcDbEntity
  8
0
100
AcDbLine
 10
544.194477
 20
9.047064
 30
0.0
 11
545.04922
 21
9.047064
 31
0.0
  0
LINE
  5
2D5C
330
18
100
AcDbEntity
  8
0
100
AcDbLine
 10
550.89322
 20
7.416264
 30
0.0
 11
549.34822
 21
7.416264
 31
0.0
  0
LINE
  5
2D5D
330
18
100
AcDbEntity
  8
0
100
AcDbLine
 10
548.69422
 20
9.015264
 30
0.0
 11
547.14922
 21
9.015264
 31
0.0
  0
LINE
  5
2D5E
330
18
100
AcDbEntity
  8
0
100
AcDbLine
 10
551.576266
 20
9.015264
 30
0.0
 11
552.11422
 21
9.015264
 31
0.0
  0
LINE
  5
2D5F
330
18
100
AcDbEntity
  8
0
100
AcDbLine
 10
555.26122
 20
9.015264
 30
0.0
 11
556.19122
 21
9.015264
 31
0.0
  0
LINE
  5
2D60
330
18
100
AcDbEntity
  8
0
100
AcDbLine
 10
559.88722
 20
9.015264
 30
0.0
 11
558.34222
 21
9.015264
 31
0.0
  0
ARC
  5
2D61
330
18
100
AcDbEntity
  8
0
100
AcDbCircle
 10
545.056591
 20
14.17837
 30
0.0
 40
1.425319
100
AcDbArc
 50
9.534829000000002
 51
90.296329
  0
LINE
  5
2D62
330
18
100
AcDbEntity
  8
0
100
AcDbLine
 10
546.46222
 20
11.81167
 30
0.0
 11
544.33822
 21
11.81167
 31
0.0
  0
LINE
  5
2D63
330
18
100
AcDbEntity
  8
0
100
AcDbLine
 10
545.01322
 20
11.13667
 30
0.0
 11
546.46222
 21
11.13667
 31
0.0
  0
LINE
  5
2D64
330
18
100
AcDbEntity
  8
0
100
AcDbLine
 10
529.697667
 20
13.461283
 30
0.0
 11
529.697667
 21
16.260974
 31
0.0
  0
ELLIPSE
  5
2D65
330
18
100
AcDbEntity
  8
0
100
AcDbEllipse
 10
532.630506
 20
15.17942
 30
0.0
 11
2.983077570132104
 21
2.996000000000000E-13
 31
0.0
210
0.0
220
0.0
230
1.0
 40
0.9588119999999999
 41
-1.562393163247347
 42
0.0084031635475457
  0
ELLIPSE
  5
2D66
330
18
100
AcDbEntity
  8
0
100
AcDbEllipse
 10
532.58733
 20
15.509539
 30
0.0
 11
-4.072692107280919
 21
9.250000000000000E-14
 31
0.0
210
0.0
220
0.0
230
1.0
 40
0.958812
 41
1.587553347046634
 42
2.408388587343224
  0
LINE
  5
2D67
330
18
100
AcDbEntity
  8
0
100
AcDbLine
 10
529.697667
 20
11.742481
 30
0.0
 11
529.697667
 21
11.034514
 31
0.0
  0
LINE
  5
2D68
330
18
100
AcDbEntity
  8
0
100
AcDbLine
 10
529.697667
 20
13.461283
 30
0.0
 11
529.697667
 21
12.896138
 31
0.0
  0
ELLIPSE
  5
2D69
330
18
100
AcDbEntity
  8
0
100
AcDbEllipse
 10
532.249598
 20
9.872487
 30
0.0
 11
2.960559210508897
 21
0.3570763225581005
 31
0.0
210
0.0
220
0.0
230
1.0
 40
0.820999
 41
1.335209029023201
 42
2.503032872947537
  0
ELLIPSE
  5
2D6A
330
18
100
AcDbEntity
  8
0
100
AcDbEllipse
 10
532.480104
 20
8.937306
 30
0.0
 11
3.015746449176215
 21
0.7746519372140024
 31
0.0
210
0.0
220
0.0
230
1.0
 40
0.8467750000000003
 41
1.29973646820557
 42
2.479974117225238
  0
LINE
  5
2D6B
330
18
100
AcDbEntity
  8
0
100
AcDbLine
 10
536.816694
 20
12.896138
 30
0.0
 11
536.51589
 21
12.896138
 31
0.0
  0
LINE
  5
2D6C
330
18
100
AcDbEntity
  8
0
100
AcDbLine
 10
535.613478
 20
12.896138
 30
0.0
 11
536.51589
 21
12.896138
 31
0.0
  0
ELLIPSE
  5
2D6D
330
18
100
AcDbEntity
  8
0
100
AcDbEllipse
 10
535.613478
 20
12.896138
 30
0.0
 11
1.203215696869352
 21
8.930000000000000E-14
 31
0.0
210
0.0
220
0.0
230
1.0
 40
0.9588119999999999
 41
4.712388980384611
 42
6.283185307179508
  0
LINE
  5
2D6E
330
18
100
AcDbEntity
  8
0
100
AcDbLine
 10
530.499811
 20
17.030079
 30
0.0
 11
534.811334
 21
17.030079
 31
0.0
  0
ELLIPSE
  5
2D6F
330
18
100
AcDbEntity
  8
0
100
AcDbEllipse
 10
530.499811
 20
16.260974
 30
0.0
 11
0.8021437979128704
 21
3.800000000000000E-14
 31
0.0
210
0.0
220
0.0
230
1.0
 40
0.958812
 41
1.570796326794851
 42
3.141592653589743
  0
LINE
  5
2D70
330
18
100
AcDbEntity
  8
0
100
AcDbLine
 10
535.613478
 20
15.155385
 30
0.0
 11
535.613478
 21
16.260974
 31
0.0
  0
ELLIPSE
  5
2D71
330
18
100
AcDbEntity
  8
0
100
AcDbEllipse
 10
534.811334
 20
16.260974
 30
0.0
 11
-0.8021437979128705
 21
3.800000000000000E-14
 31
0.0
210
0.0
220
0.0
230
1.0
 40
0.958812
 41
3.141592653589842
 42
4.712388980384734
  0
ARC
  5
2D72
330
18
100
AcDbEntity
  8
0
100
AcDbCircle
 10
540.798894
 20
14.34127
 30
0.0
 40
1.377457
100
AcDbArc
 50
16.265061
 51
130.527299
  0
ARC
  5
2D73
330
18
100
AcDbEntity
  8
0
100
AcDbCircle
 10
544.201848
 20
14.17837
 30
0.0
 40
1.425319
100
AcDbArc
 50
89.703671
 51
170.465171
  0
LINE
  5
2D74
330
18
100
AcDbEntity
  8
0
100
AcDbLine
 10
540.911147
 20
12.93607
 30
0.0
 11
542.12122
 21
12.93607
 31
0.0
  0
LINE
  5
2D75
330
18
100
AcDbEntity
  8
0
100
AcDbLine
 10
540.578809
 20
12.93607
 30
0.0
 11
542.12122
 21
12.93607
 31
0.0
  0
ARC
  5
2D76
330
18
100
AcDbEntity
  8
0
100
AcDbCircle
 10
540.229736
 20
14.361264
 30
0.0
 40
0.3375
100
AcDbArc
 50
360.0
 51
180.0
  0
LINE
  5
2D77
330
18
100
AcDbEntity
  8
0
100
AcDbLine
 10
540.567236
 20
14.361264
 30
0.0
 11
540.578809
 21
12.93607
 31
0.0
  0
ARC
  5
2D78
330
18
100
AcDbEntity
  8
0
100
AcDbCircle
 10
544.67572
 20
14.361264
 30
0.0
 40
0.3375
100
AcDbArc
 50
360.0
 51
180.0
  0
LINE
  5
2D79
330
18
100
AcDbEntity
  8
0
100
AcDbLine
 10
544.33822
 20
11.81167
 30
0.0
 11
544.33822
 21
10.236264
 31
0.0
  0
LINE
  5
2D7A
330
18
100
AcDbEntity
  8
0
100
AcDbLine
 10
544.33822
 20
12.71167
 30
0.0
 11
545.01322
 21
12.71167
 31
0.0
  0
LINE
  5
2D7B
330
18
100
AcDbEntity
  8
0
100
AcDbLine
 10
545.01322
 20
11.13667
 30
0.0
 11
545.01322
 21
10.252764
 31
0.0
  0
LINE
  5
2D7C
330
18
100
AcDbEntity
  8
0
100
AcDbLine
 10
544.33822
 20
11.81167
 30
0.0
 11
544.33822
 21
10.252764
 31
0.0
  0
ARC
  5
2D7D
330
18
100
AcDbEntity
  8
0
100
AcDbCircle
 10
544.67572
 20
10.252764
 30
0.0
 40
0.3375
100
AcDbArc
 50
180.0
 51
0.0
  0
LINE
  5
2D7E
330
18
100
AcDbEntity
  8
0
100
AcDbLine
 10
545.01322
 20
14.361264
 30
0.0
 11
545.01322
 21
12.71167
 31
0.0
  0
LINE
  5
2D7F
330
18
100
AcDbEntity
  8
0
100
AcDbLine
 10
544.33822
 20
14.361264
 30
0.0
 11
544.33822
 21
12.71167
 31
0.0
  0
LINE
  5
2D80
330
18
100
AcDbEntity
  8
0
100
AcDbLine
 10
542.12122
 20
12.93607
 30
0.0
 11
542.12122
 21
14.72707
 31
0.0
  0
LINE
  5
2D81
330
18
100
AcDbEntity
  8
0
100
AcDbLine
 10
542.79622
 20
10.236264
 30
0.0
 11
542.79622
 21
14.41447
 31
0.0
  0
LINE
  5
2D82
330
18
100
AcDbEntity
  8
0
100
AcDbLine
 10
539.903809
 20
15.60367
 30
0.0
 11
539.903809
 21
15.38827
 31
0.0
  0
LINE
  5
2D83
330
18
100
AcDbEntity
  8
0
100
AcDbLine
 10
538.361694
 20
15.60367
 30
0.0
 11
539.903809
 21
15.60367
 31
0.0
  0
LINE
  5
2D84
330
18
100
AcDbEntity
  8
0
100
AcDbLine
 10
544.194477
 20
15.60367
 30
0.0
 11
545.04922
 21
15.60367
 31
0.0
  0
ARC
  5
2D85
330
18
100
AcDbEntity
  8
0
100
AcDbCircle
 10
555.243059
 20
14.124104
 30
0.0
 40
1.488419
100
AcDbArc
 50
89.300887
 51
168.365732
  0
ARC
  5
2D86
330
18
100
AcDbEntity
  8
0
100
AcDbCircle
 10
551.752247
 20
14.207365
 30
0.0
 40
1.409039
100
AcDbArc
 50
15.47255
 51
127.56454
  0
LINE
  5
2D87
330
18
100
AcDbEntity
  8
0
100
AcDbLine
 10
546.46222
 20
11.13667
 30
0.0
 11
546.46222
 21
10.236264
 31
0.0
  0
LINE
  5
2D88
330
18
100
AcDbEntity
  8
0
100
AcDbLine
 10
546.46222
 20
11.81167
 30
0.0
 11
546.46222
 21
14.41447
 31
0.0
  0
LINE
  5
2D89
330
18
100
AcDbEntity
  8
0
100
AcDbLine
 10
553.11022
 20
14.583264
 30
0.0
 11
553.11022
 21
10.179264
 31
0.0
  0
LINE
  5
2D8A
330
18
100
AcDbEntity
  8
0
100
AcDbLine
 10
551.56822
 20
14.361264
 30
0.0
 11
551.56822
 21
10.252764
 31
0.0
  0
LINE
  5
2D8B
330
18
100
AcDbEntity
  8
0
100
AcDbLine
 10
550.89322
 20
14.361264
 30
0.0
 11
550.89322
 21
10.252764
 31
0.0
  0
ARC
  5
2D8C
330
18
100
AcDbEntity
  8
0
100
AcDbCircle
 10
551.23072
 20
10.252764
 30
0.0
 40
0.3375
100
AcDbArc
 50
180.0
 51
0.0
  0
ARC
  5
2D8D
330
18
100
AcDbEntity
  8
0
100
AcDbCircle
 10
551.23072
 20
14.361264
 30
0.0
 40
0.3375
100
AcDbArc
 50
360.0
 51
180.0
  0
LINE
  5
2D8E
330
18
100
AcDbEntity
  8
0
100
AcDbLine
 10
549.34822
 20
15.612264
 30
0.0
 11
550.89322
 21
15.612264
 31
0.0
  0
LINE
  5
2D8F
330
18
100
AcDbEntity
  8
0
100
AcDbLine
 10
547.14922
 20
17.211264
 30
0.0
 11
548.69422
 21
17.211264
 31
0.0
  0
LINE
  5
2D90
330
18
100
AcDbEntity
  8
0
100
AcDbLine
 10
550.89322
 20
15.612264
 30
0.0
 11
550.89322
 21
15.324264
 31
0.0
  0
ARC
  5
2D91
330
18
100
AcDbEntity
  8
0
100
AcDbCircle
 10
556.209381
 20
14.124104
 30
0.0
 40
1.488419
100
AcDbArc
 50
11.634268
 51
90.699113
  0
LINE
  5
2D92
330
18
100
AcDbEntity
  8
0
100
AcDbLine
 10
557.66722
 20
14.424264
 30
0.0
 11
557.66722
 21
10.203412
 31
0.0
  0
ARC
  5
2D93
330
18
100
AcDbEntity
  8
0
100
AcDbCircle
 10
555.72622
 20
14.361264
 30
0.0
 40
0.3375
100
AcDbArc
 50
360.0
 51
180.0
  0
ARC
  5
2D94
330
18
100
AcDbEntity
  8
0
100
AcDbCircle
 10
555.72622
 20
10.252764
 30
0.0
 40
0.3375
100
AcDbArc
 50
180.0
 51
0.0
  0
LINE
  5
2D95
330
18
100
AcDbEntity
  8
0
100
AcDbLine
 10
555.38872
 20
14.361264
 30
0.0
 11
555.38872
 21
10.252764
 31
0.0
  0
LINE
  5
2D96
330
18
100
AcDbEntity
  8
0
100
AcDbLine
 10
556.06372
 20
14.361264
 30
0.0
 11
556.06372
 21
10.252764
 31
0.0
  0
LINE
  5
2D97
330
18
100
AcDbEntity
  8
0
100
AcDbLine
 10
553.78522
 20
10.203412
 30
0.0
 11
553.78522
 21
14.424264
 31
0.0
  0
LINE
  5
2D98
330
18
100
AcDbEntity
  8
0
100
AcDbLine
 10
555.26122
 20
15.612412
 30
0.0
 11
556.19122
 21
15.612412
 31
0.0
  0
LINE
  5
2D99
330
18
100
AcDbEntity
  8
0
100
AcDbLine
 10
558.34222
 20
17.211264
 30
0.0
 11
559.88722
 21
17.211264
 31
0.0
  0
TEXT
  5
2D9A
330
18
100
AcDbEntity
  8
WY
100
AcDbText
 10
564.417407
 20
11.60401
 30
0.0
 40
1.999999999999999
  1
31-05-2016
 41
1.000000000000001
 51
15.0
  7
ITALIC
100
AcDbText
  0
TEXT
  5
2D9B
330
18
100
AcDbEntity
  8
WY
100
AcDbText
 10
568.848776
 20
16.149239
 30
0.0
 40
2.0
  1
Data
 51
15.0
  7
ITALIC
100
AcDbText
  0
TEXT
  5
2D9D
330
18
100
AcDbEntity
  8
1
100
AcDbText
 10
637.422754
 20
9.064009
 30
0.0
 40
5.0
  1
GOP11
 41
0.8
 51
15.0
  7
ITALIC
100
AcDbText
  0
LINE
  5
2D9E
330
18
100
AcDbEntity
  8
1
100
AcDbLine
 10
627.394234
 20
5.0
 30
0.0
 11
627.394234
 21
19.689837
 31
0.0
  0
TEXT
  5
2D9F
330
18
100
AcDbEntity
  8
WY
100
AcDbText
 10
629.585432
 20
16.599248
 30
0.0
 40
2.0
  1
Product type
 51
15.0
  7
ITALIC
100
AcDbText
  0
LINE
  5
2DF2
330
18
100
AcDbEntity
  8
2
100
AcDbLine
 10
682.671651
 20
292.0
 30
0.0
 11
497.671651
 21
292.0
 31
0.0
  0
LINE
  5
2DF3
330
18
100
AcDbEntity
  8
2
100
AcDbLine
 10
687.671651
 20
297.0
 30
0.0
 11
497.671651
 21
297.0
 31
0.0
  0
LINE
  5
2E74
330
18
100
AcDbEntity
  8
WYMIARY
 62
     6
100
AcDbLine
 10
497.671651
 20
297.0
 30
0.0
 11
486.041244
 21
297.0
 31
0.0
  0
MTEXT
  5
31F2
330
18
100
AcDbEntity
  8
WYMIARY
100
AcDbMText
 10
780.543201
 20
224.476865
 30
0.0
 40
3.5
 41
15.6
 71
     1
 72
     5
  1

  7
ITALIC
  0
TEXT
  5
478E
330
18
100
AcDbEntity
  8
1
100
AcDbText
 10
500.301985
 20
8.797457
 30
0.0
 40
5.0
  1
1:1
 51
15.0
  7
ITALIC
100
AcDbText
  0
LINE
  5
482F
330
18
100
AcDbEntity
  8
WYMIARY
 62
     6
100
AcDbLine
 10
687.671651
 20
0.0
 30
0.0
 11
687.671651
 21
297.0
 31
0.0
  0
LINE
  5
4AD7
330
18
100
AcDbEntity
  8
WYMIARY
 62
     3
100
AcDbLine
 10
512.671651
 20
19.689837
 30
0.0
 11
512.671651
 21
5.0
 31
0.0
  0
LINE
  5
4AD9
330
18
100
AcDbEntity
  8
WYMIARY
 62
     3
100
AcDbLine
 10
527.671651
 20
19.689837
 30
0.0
 11
527.671651
 21
5.0
 31
0.0
  0
LINE
  5
4ADA
330
18
100
AcDbEntity
  8
WYMIARY
 62
     3
100
AcDbLine
 10
586.373187
 20
19.689837
 30
0.0
 11
586.373187
 21
5.0
 31
0.0
  0
TEXT
  5
4ADB
330
18
100
AcDbEntity
  8
WY
100
AcDbText
 10
587.562196
 20
16.599248
 30
0.0
 40
2.0
  1
Draw. No.
 51
15.0
  7
ITALIC
100
AcDbText
  0
TEXT
  5
4ADF
330
18
100
AcDbEntity
  8
1
100
AcDbText
 10
591.935141
 20
9.064009
 30
0.0
 40
3.999999999999996
  1
GOP11-01A
 41
0.7000000000000006
 51
15.0
  7
ITALIC
100
AcDbText
  0
LINE
  5
4AE9
330
18
100
AcDbEntity
  8
WYMIARY
 62
     6
100
AcDbLine
 10
687.671651
 20
0.0
 30
0.0
 11
687.671651
 21
297.0
 31
0.0
  0
LINE
  5
6488
330
18
100
AcDbEntity
  8
WYMIARY
 62
     6
100
AcDbLine
 10
687.671651
 20
0.0
 30
0.0
 11
687.671651
 21
297.0
 31
0.0
  0
LINE
  5
648E
330
18
100
AcDbEntity
  8
2
100
AcDbLine
 10
687.671651
 20
0.0
 30
0.0
 11
687.671651
 21
297.0
 31
0.0
  0
LINE
  5
6CB6
330
18
100
AcDbEntity
  8
WYMIARY
 62
     6
100
AcDbLine
 10
687.671651
 20
0.0
 30
0.0
 11
687.671651
 21
297.0
 31
0.0
  0
LINE
  5
6CB8
330
18
100
AcDbEntity
  8
2
100
AcDbLine
 10
687.671651
 20
0.0
 30
0.0
 11
687.671651
 21
297.0
 31
0.0
  0
TEXT
  5
B62D
330
18
100
AcDbEntity
  8
1
100
AcDbText
 10
588.628792682284
 20
275.1245812869693
 30
0.0
 40
5.0
  1
GOP11
 41
0.8
 51
15.0
  7
ITALIC
100
AcDbText
  0
LINE
  5
1DBEF
330
18
100
AcDbEntity
  8
1
  6
CONTINUOUS
 62
     7
100
AcDbLine
 10
586.0209012039983
 20
138.4381247122097
 30
0.0
 11
585.6424526878678
 21
139.026999976139
 31
0.0
  0
LINE
  5
1DBF0
330
18
100
AcDbEntity
  8
1
  6
CONTINUOUS
 62
     7
100
AcDbLine
 10
587.2828973093116
 20
140.0812496800231
 30
0.0
 11
587.661345825442
 21
139.4923744160938
 31
0.0
  0
LINE
  5
1DBF1
330
18
100
AcDbEntity
  8
1
  6
CONTINUOUS
 62
     7
100
AcDbLine
 10
583.9389146872842
 20
137.9322042126464
 30
0.0
 11
584.3173632034146
 21
137.3433252234268
 31
0.0
  0
LINE
  5
1DBF2
330
18
100
AcDbEntity
  8
1
  6
CONTINUOUS
 62
     7
100
AcDbLine
 10
589.3648838260257
 20
140.5871701795864
 30
0.0
 11
588.9864353098952
 21
141.176049168806
 31
0.0
  0
LINE
  5
1DBF3
330
18
100
AcDbEntity
  8
1
  6
CONTINUOUS
 62
     7
100
AcDbLine
 10
585.6424526878678
 20
149.7915801961231
 30
0.0
 11
586.0209012039983
 21
150.3804591853427
 31
0.0
  0
LINE
  5
1DBF4
330
18
100
AcDbEntity
  8
1
  6
CONTINUOUS
 62
     7
100
AcDbLine
 10
587.661345825442
 20
149.3262094814586
 30
0.0
 11
587.2828973093116
 21
148.737330492239
 31
0.0
  0
LINE
  5
1DBF5
330
18
100
AcDbEntity
  8
1
  6
CONTINUOUS
 62
     7
100
AcDbLine
 10
584.3173632034146
 20
151.4752549488353
 30
0.0
 11
583.9389146872842
 21
150.886379684906
 31
0.0
  0
LINE
  5
1DBF6
330
18
100
AcDbEntity
  8
1
  6
CONTINUOUS
 62
     7
100
AcDbLine
 10
588.9864353098952
 20
147.6425347287464
 30
0.0
 11
589.3648838260257
 21
148.2314099926757
 31
0.0
  0
LINE
  5
1DBF7
330
18
100
AcDbEntity
  8
1
  6
CONTINUOUS
 62
     7
100
AcDbLine
 10
601.8053897292399
 20
136.70312104712
 30
0.0
 11
601.2763649792456
 21
136.2447184879589
 31
0.0
  0
LINE
  5
1DBF8
330
18
100
AcDbEntity
  8
1
  6
CONTINUOUS
 62
     7
100
AcDbLine
 10
599.9993862220132
 20
137.7184321541595
 30
0.0
 11
600.5284109720075
 21
138.1768328506755
 31
0.0
  0
LINE
  5
1DBF9
330
18
100
AcDbEntity
  8
1
  6
CONTINUOUS
 62
     7
100
AcDbLine
 10
602.602457963773
 20
134.7143263925123
 30
0.0
 11
603.1314824809366
 21
135.1727289516735
 31
0.0
  0
LINE
  5
1DBFA
330
18
100
AcDbEntity
  8
1
  6
CONTINUOUS
 62
     7
100
AcDbLine
 10
599.2023179874801
 20
139.7072268087673
 30
0.0
 11
598.6732932374858
 21
139.2488223869609
 31
0.0
  0
LINE
  5
1DBFB
330
18
100
AcDbEntity
  8
1
  6
CONTINUOUS
 62
     7
100
AcDbLine
 10
590.6213534631812
 20
134.7127599079418
 30
0.0
 11
589.9846100815618
 21
135.0035504807043
 31
0.0
  0
LINE
  5
1DBFC
330
18
100
AcDbEntity
  8
1
  6
CONTINUOUS
 62
     7
100
AcDbLine
 10
590.794670731672
 20
136.7773325551557
 30
0.0
 11
591.4314122506463
 21
136.4865419823932
 31
0.0
  0
LINE
  5
1DBFD
330
18
100
AcDbEntity
  8
1
  6
CONTINUOUS
 62
     7
100
AcDbLine
 10
589.1433948286855
 20
133.1615453023719
 30
0.0
 11
589.7801382103049
 21
132.8707547296094
 31
0.0
  0
LINE
  5
1DBFE
330
18
100
AcDbEntity
  8
1
  6
CONTINUOUS
 62
     7
100
AcDbLine
 10
592.2726275035226
 20
138.3285452980804
 30
0.0
 11
591.6358850532257
 21
138.619337733488
 31
0.0
  0
LINE
  5
1DBFF
330
18
100
AcDbEntity
  8
1
  6
CONTINUOUS
 62
     7
100
AcDbLine
 10
589.9846100815618
 20
153.815031554203
 30
0.0
 11
590.6213534631812
 21
154.1058202643203
 31
0.0
  0
LINE
  5
1DC00
330
18
100
AcDbEntity
  8
1
  6
CONTINUOUS
 62
     7
100
AcDbLine
 10
591.4314122506463
 20
152.3320381898689
 30
0.0
 11
590.794670731672
 21
152.0412494797515
 31
0.0
  0
LINE
  5
1DC01
330
18
100
AcDbEntity
  8
1
  6
CONTINUOUS
 62
     7
100
AcDbLine
 10
589.7801382103049
 20
155.9478273052978
 30
0.0
 11
589.1433948286855
 21
155.6570348698902
 31
0.0
  0
LINE
  5
1DC02
330
18
100
AcDbEntity
  8
1
  6
CONTINUOUS
 62
     7
100
AcDbLine
 10
591.6358850532257
 20
150.1992424387741
 30
0.0
 11
592.2726275035226
 21
150.4900348741817
 31
0.0
  0
LINE
  5
1DC03
330
18
100
AcDbEntity
  8
1
  6
CONTINUOUS
 62
     7
100
AcDbLine
 10
595.8127075442159
 20
154.8522268791008
 30
0.0
 11
596.50558266873
 21
154.7526051659393
 31
0.0
  0
LINE
  5
1DC04
330
18
100
AcDbEntity
  8
1
  6
CONTINUOUS
 62
     7
100
AcDbLine
 10
596.2280690305912
 20
152.8224540312099
 30
0.0
 11
595.5351939060771
 21
152.9220757443714
 31
0.0
  0
LINE
  5
1DC05
330
18
100
AcDbEntity
  8
1
  6
CONTINUOUS
 62
     7
100
AcDbLine
 10
596.7937701948964
 20
156.7569938857364
 30
0.0
 11
596.1008950703823
 21
156.8566155988979
 31
0.0
  0
LINE
  5
1DC06
330
18
100
AcDbEntity
  8
1
  6
CONTINUOUS
 62
     7
100
AcDbLine
 10
595.2470063799107
 20
150.9176870245742
 30
0.0
 11
595.9398815044248
 21
150.8180653114128
 31
0.0
  0
LINE
  5
1DC07
330
18
100
AcDbEntity
  8
1
  6
CONTINUOUS
 62
     7
100
AcDbLine
 10
584.1648386427247
 20
144.0592897493648
 30
0.0
 11
584.1648386427247
 21
144.7592904228973
 31
0.0
  0
LINE
  5
1DC08
330
18
100
AcDbEntity
  8
1
  6
CONTINUOUS
 62
     7
100
AcDbLine
 10
586.1148399868094
 20
144.7592904228973
 30
0.0
 11
586.1148399868094
 21
144.0592897493648
 31
0.0
  0
LINE
  5
1DC09
330
18
100
AcDbEntity
  8
1
  6
CONTINUOUS
 62
     7
100
AcDbLine
 10
582.1398397543513
 20
144.7592904228973
 30
0.0
 11
582.1398397543513
 21
144.0592897493648
 31
0.0
  0
LINE
  5
1DC0A
330
18
100
AcDbEntity
  8
1
  6
CONTINUOUS
 62
     7
100
AcDbLine
 10
588.1398388751828
 20
144.0592897493648
 30
0.0
 11
588.1398388751828
 21
144.7592904228973
 31
0.0
  0
LINE
  5
1DC0B
330
18
100
AcDbEntity
  8
1
  6
CONTINUOUS
 62
     7
100
AcDbLine
 10
604.6409093410754
 20
147.7033053893852
 30
0.0
 11
604.8381221349397
 21
147.0316616256046
 31
0.0
  0
LINE
  5
1DC0C
330
18
100
AcDbEntity
  8
1
  6
CONTINUOUS
 62
     7
100
AcDbLine
 10
602.9671107986056
 20
146.4822818894195
 30
0.0
 11
602.7698981211566
 21
147.1539256532001
 31
0.0
  0
LINE
  5
1DC0D
330
18
100
AcDbEntity
  8
1
  6
CONTINUOUS
 62
     7
100
AcDbLine
 10
606.7810953987342
 20
147.6021674830722
 30
0.0
 11
606.5838826194218
 21
148.2738149721431
 31
0.0
  0
LINE
  5
1DC0E
330
18
100
AcDbEntity
  8
1
  6
CONTINUOUS
 62
     7
100
AcDbLine
 10
600.8269250028812
 20
146.5834197957325
 30
0.0
 11
601.0241376803302
 21
145.9117723066616
 31
0.0
  0
LINE
  5
1DC0F
330
18
100
AcDbEntity
  8
1
  6
CONTINUOUS
 62
     7
100
AcDbLine
 10
596.50558266873
 20
134.0659750063228
 30
0.0
 11
595.8127075442159
 21
133.9663551558065
 31
0.0
  0
LINE
  5
1DC10
330
18
100
AcDbEntity
  8
1
  6
CONTINUOUS
 62
     7
100
AcDbLine
 10
595.5351939060771
 20
135.8965062905359
 30
0.0
 11
596.2280690305912
 21
135.9961280036974
 31
0.0
  0
LINE
  5
1DC11
330
18
100
AcDbEntity
  8
1
  6
CONTINUOUS
 62
     7
100
AcDbLine
 10
596.1008950703823
 20
131.9619664360094
 30
0.0
 11
596.7937701948964
 21
132.0615881491708
 31
0.0
  0
LINE
  5
1DC12
330
18
100
AcDbEntity
  8
1
  6
CONTINUOUS
 62
     7
100
AcDbLine
 10
595.9398815044248
 20
138.0005148608493
 30
0.0
 11
595.2470063799107
 21
137.9008968729782
 31
0.0
  0
LINE
  5
1DC13
330
18
100
AcDbEntity
  8
1
  6
CONTINUOUS
 62
     7
100
AcDbLine
 10
604.8381221349397
 20
141.7869222719478
 30
0.0
 11
604.6409093410754
 21
141.1152747828769
 31
0.0
  0
LINE
  5
1DC14
330
18
100
AcDbEntity
  8
1
  6
CONTINUOUS
 62
     7
100
AcDbLine
 10
602.7698981211566
 20
141.664654519062
 30
0.0
 11
602.9671107986056
 21
142.3362982828426
 31
0.0
  0
LINE
  5
1DC15
330
18
100
AcDbEntity
  8
1
  6
CONTINUOUS
 62
     7
100
AcDbLine
 10
606.5838826194218
 20
140.5447689254093
 30
0.0
 11
606.7810953987342
 21
141.2164126891899
 31
0.0
  0
LINE
  5
1DC16
330
18
100
AcDbEntity
  8
1
  6
CONTINUOUS
 62
     7
100
AcDbLine
 10
601.0241376803302
 20
142.9068078656005
 30
0.0
 11
600.8269250028812
 21
142.2351641018199
 31
0.0
  0
LINE
  5
1DC17
330
18
100
AcDbEntity
  8
1
  6
CONTINUOUS
 62
     7
100
AcDbLine
 10
601.2763649792456
 20
152.5738616843032
 30
0.0
 11
601.8053897292399
 21
152.1154609877872
 31
0.0
  0
LINE
  5
1DC18
330
18
100
AcDbEntity
  8
1
  6
CONTINUOUS
 62
     7
100
AcDbLine
 10
600.5284109720075
 20
150.6417473215866
 30
0.0
 11
599.9993862220132
 21
151.1001517433929
 31
0.0
  0
LINE
  5
1DC19
330
18
100
AcDbEntity
  8
1
  6
CONTINUOUS
 62
     7
100
AcDbLine
 10
603.1314824809366
 20
153.6458512205886
 30
0.0
 11
602.602457963773
 21
154.104255642395
 31
0.0
  0
LINE
  5
1DC1A
330
18
100
AcDbEntity
  8
1
  6
CONTINUOUS
 62
     7
100
AcDbLine
 10
598.6732932374858
 20
149.5697577853012
 30
0.0
 11
599.2023179874801
 21
149.1113570887851
 31
0.0
  0
LINE
  5
1DC1B
330
18
100
AcDbEntity
  8
1
  6
CONTINUOUS
 62
     7
100
AcDbLine
 10
589.3563640871131
 20
140.5816940028476
 30
0.0
 11
588.9779155709826
 21
141.1705729920673
 31
0.0
  0
LWPOLYLINE
  5
1DC1C
330
18
100
AcDbEntity
  8
1
  6
CONTINUOUS
 62
     7
100
AcDbPolyline
 90
        3
 70
   128
 43
0.0
 10
589.3563640871131
 20
140.5816940028476
 10
589.1020292052114
 20
140.4182431657123
 10
588.9021953203761
 20
140.2898175079631
  0
LINE
  5
1DC1D
330
18
100
AcDbEntity
  8
1
  6
CONTINUOUS
 62
     7
100
AcDbLine
 10
588.9021953203761
 20
140.2898175079631
 30
0.0
 11
588.5237468042457
 21
140.8786964971828
 31
0.0
  0
LWPOLYLINE
  5
1DC1E
330
18
100
AcDbEntity
  8
1
  6
CONTINUOUS
 62
     7
100
AcDbPolyline
 90
        3
 70
   128
 43
0.0
 10
588.9779155709826
 20
141.1705729920673
 10
588.7235806890809
 20
141.007122154932
 10
588.5237468042457
 20
140.8786964971828
  0
LINE
  5
1DC1F
330
18
100
AcDbEntity
  8
1
  6
CONTINUOUS
 62
     7
100
AcDbLine
 10
584.7800535717093
 20
137.64067789505
 30
0.0
 11
584.4016050555789
 21
138.2295568842697
 31
0.0
  0
LWPOLYLINE
  5
1DC20
330
18
100
AcDbEntity
  8
1
  6
CONTINUOUS
 62
     7
100
AcDbPolyline
 90
        9
 70
   128
 43
0.0
 10
585.6424526878678
 20
139.026999976139
 10
585.6422105439984
 20
139.0268435139465
 10
585.6071518369996
 20
139.0043129582214
 10
585.5142244705045
 20
138.9445928294467
 10
585.3675318517768
 20
138.8503206331539
 10
585.1735485353553
 20
138.7256537933158
 10
584.9408408262813
 20
138.5761020142841
 10
584.6796830751979
 20
138.4082665104675
 10
584.4016050555789
 20
138.2295568842697
  0
LWPOLYLINE
  5
1DC21
330
18
100
AcDbEntity
  8
1
  6
CONTINUOUS
 62
     7
100
AcDbPolyline
 90
        9
 70
   128
 43
0.0
 10
586.0209012039983
 20
138.4381247122097
 10
586.0206590601289
 20
138.4379682500171
 10
585.98560035313
 20
138.415437694292
 10
585.8926729866349
 20
138.3557175655174
 10
585.7459803679072
 20
138.2614416439342
 10
585.5519970514857
 20
138.1367748040962
 10
585.3192893424117
 20
137.9872230250644
 10
585.0581315913283
 20
137.8193875212478
 10
584.7800535717093
 20
137.64067789505
  0
LINE
  5
1DC22
330
18
100
AcDbEntity
  8
1
  6
CONTINUOUS
 62
     7
100
AcDbLine
 10
584.3258829423272
 20
137.3488014001655
 30
0.0
 11
583.9474344261968
 21
137.9376766640949
 31
0.0
  0
LWPOLYLINE
  5
1DC23
330
18
100
AcDbEntity
  8
1
  6
CONTINUOUS
 62
     7
100
AcDbPolyline
 90
        3
 70
   128
 43
0.0
 10
584.4016050555789
 20
138.2295568842697
 10
584.147268311032
 20
138.0661060471344
 10
583.9474344261968
 20
137.9376766640949
  0
LWPOLYLINE
  5
1DC24
330
18
100
AcDbEntity
  8
1
  6
CONTINUOUS
 62
     7
100
AcDbPolyline
 90
        3
 70
   128
 43
0.0
 10
584.7800535717093
 20
137.64067789505
 10
584.5257168271625
 20
137.4772270579147
 10
584.3258829423272
 20
137.3488014001655
  0
LWPOLYLINE
  5
1DC25
330
18
100
AcDbEntity
  8
1
  6
CONTINUOUS
 62
     7
100
AcDbPolyline
 90
        9
 70
   128
 43
0.0
 10
588.5237468042457
 20
140.8786964971828
 10
588.2456687846267
 20
140.699986870985
 10
587.9845091708981
 20
140.5321476418781
 10
587.7518014618241
 20
140.3825958628463
 10
587.5578200080478
 20
140.2579327482986
 10
587.4111255266749
 20
140.1636568267154
 10
587.318200022825
 20
140.1039366979408
 10
587.2831413158261
 20
140.0814061422157
 10
587.2828973093116
 20
140.0812496800231
  0
LWPOLYLINE
  5
1DC26
330
18
100
AcDbEntity
  8
1
  6
CONTINUOUS
 62
     7
100
AcDbPolyline
 90
        9
 70
   128
 43
0.0
 10
588.9021953203761
 20
140.2898175079631
 10
588.6241173007571
 20
140.1111078817653
 10
588.3629576870286
 20
139.9432723779487
 10
588.1302499779546
 20
139.793720598917
 10
587.9362685241782
 20
139.6690537590789
 10
587.7895740428054
 20
139.5747815627861
 10
587.6966485389554
 20
139.5150614340114
 10
587.6615898319566
 20
139.4925308782863
 10
587.661345825442
 20
139.4923744160938
  0
LWPOLYLINE
  5
1DC27
330
18
100
AcDbEntity
  8
1
  6
CONTINUOUS
 62
     7
100
AcDbPolyline
 90
        9
 70
   128
 43
0.0
 10
587.2828973093116
 20
140.0812496800231
 10
587.2338445493066
 20
140.0497262735176
 10
586.9938669362151
 20
139.8955029804515
 10
586.7334747322881
 20
139.7281592149543
 10
586.4626759299123
 20
139.5541248280811
 10
586.1918771275365
 20
139.3800941664981
 10
585.9314849236094
 20
139.2127504010009
 10
585.6915054478728
 20
139.0585233826446
 10
585.6424526878678
 20
139.026999976139
  0
LWPOLYLINE
  5
1DC28
330
18
100
AcDbEntity
  8
1
  6
CONTINUOUS
 62
     7
100
AcDbPolyline
 90
        9
 70
   128
 43
0.0
 10
587.661345825442
 20
139.4923744160938
 10
587.612293065437
 20
139.4608472842979
 10
587.3723154523456
 20
139.3066239912319
 10
587.1119232484185
 20
139.1392802257347
 10
586.8411244460427
 20
138.9652495641517
 10
586.5703256436669
 20
138.7912151772785
 10
586.3099334397399
 20
138.6238714117813
 10
586.0699539640033
 20
138.4696481187152
 10
586.0209012039983
 20
138.4381247122097
  0
LINE
  5
1DC29
330
18
100
AcDbEntity
  8
1
  6
CONTINUOUS
 62
     7
100
AcDbLine
 10
586.9063412406528
 20
138.9328656155872
 30
0.0
 11
586.9410721221053
 21
139.0294810194778
 31
0.0
  0
SPLINE
  5
1DC2A
330
18
100
AcDbEntity
  8
1
  6
CONTINUOUS
 62
     7
100
AcDbSpline
210
0.0
220
0.0
230
1.0
 70
     8
 71
     3
 72
     9
 73
     5
 74
     0
 42
0.000000001
 43
0.00000001
 40
0.0
 40
0.0
 40
0.0
 40
0.0
 40
0.3915633569776406
 40
1.0
 40
1.0
 40
1.0
 40
1.0
 10
585.810757578262
 20
138.3026917834091
 30
0.0
 10
585.8159383579936
 20
138.2994591627575
 30
0.0
 10
585.8291693706486
 20
138.2912034856263
 30
0.0
 10
585.8503063264155
 20
138.2733321957839
 30
0.0
 10
585.863166824826
 20
138.2624586481857
 30
0.0
  0
SPLINE
  5
1DC2B
330
18
100
AcDbEntity
  8
1
  6
CONTINUOUS
 62
     7
100
AcDbSpline
210
0.0
220
0.0
230
1.0
 70
     8
 71
     3
 72
     9
 73
     5
 74
     0
 42
0.000000001
 43
0.00000001
 40
0.0
 40
0.0
 40
0.0
 40
0.0
 40
0.0353191510048703
 40
1.0
 40
1.0
 40
1.0
 40
1.0
 10
587.53893837417
 20
140.3200929422187
 30
0.0
 10
587.5389949604769
 20
140.3190259822387
 30
0.0
 10
587.5405971028073
 20
140.28881687614
 30
0.0
 10
587.5464717656265
 20
140.2712390021807
 30
0.0
 10
587.5521389403426
 20
140.2542819638061
 30
0.0
  0
SPLINE
  5
1DC2C
330
18
100
AcDbEntity
  8
1
  6
CONTINUOUS
 62
     7
100
AcDbSpline
210
0.0
220
0.0
230
1.0
 70
     8
 71
     3
 72
     9
 73
     5
 74
     0
 42
0.000000001
 43
0.00000001
 40
0.0
 40
0.0
 40
0.0
 40
0.0
 40
0.1671198077207134
 40
1.0
 40
1.0
 40
1.0
 40
1.0
 10
587.4403802313888
 20
140.256751831274
 30
0.0
 10
587.4439984481722
 20
140.2536254936763
 30
0.0
 10
587.4656488846639
 20
140.2349183299936
 30
0.0
 10
587.4805936969323
 20
140.2249691138655
 30
0.0
 10
587.4930409350478
 20
140.2166826088237
 30
0.0
  0
LINE
  5
1DC2D
330
18
100
AcDbEntity
  8
1
  6
CONTINUOUS
 62
     7
100
AcDbLine
 10
585.7535706468904
 20
138.2663217742252
 30
0.0
 11
585.7622561612212
 21
138.1976087946701
 31
0.0
  0
LINE
  5
1DC2E
330
18
100
AcDbEntity
  8
1
  6
CONTINUOUS
 62
     7
100
AcDbLine
 10
586.3627263912045
 20
139.489893372755
 30
0.0
 11
586.3974591353023
 21
139.5865087766456
 31
0.0
  0
LINE
  5
1DC2F
330
18
100
AcDbEntity
  8
1
  6
CONTINUOUS
 62
     7
100
AcDbLine
 10
588.9779155709826
 20
147.6480071801948
 30
0.0
 11
589.3563640871131
 21
148.2368861694145
 31
0.0
  0
LWPOLYLINE
  5
1DC30
330
18
100
AcDbEntity
  8
1
  6
CONTINUOUS
 62
     7
100
AcDbPolyline
 90
        3
 70
   128
 43
0.0
 10
588.9779155709826
 20
147.6480071801948
 10
588.7235806890809
 20
147.8114580173301
 10
588.5237468042457
 20
147.9398874003696
  0
LINE
  5
1DC31
330
18
100
AcDbEntity
  8
1
  6
CONTINUOUS
 62
     7
100
AcDbLine
 10
588.5237468042457
 20
147.9398874003696
 30
0.0
 11
588.9021953203761
 21
148.528762664299
 31
0.0
  0
LWPOLYLINE
  5
1DC32
330
18
100
AcDbEntity
  8
1
  6
CONTINUOUS
 62
     7
100
AcDbPolyline
 90
        3
 70
   128
 43
0.0
 10
589.3563640871131
 20
148.2368861694145
 10
589.1020292052114
 20
148.4003370065498
 10
588.9021953203761
 20
148.528762664299
  0
LINE
  5
1DC33
330
18
100
AcDbEntity
  8
1
  6
CONTINUOUS
 62
     7
100
AcDbLine
 10
584.4016050555789
 20
150.5890270132827
 30
0.0
 11
584.7800535717093
 21
151.1779022772121
 31
0.0
  0
LWPOLYLINE
  5
1DC34
330
18
100
AcDbEntity
  8
1
  6
CONTINUOUS
 62
     7
100
AcDbPolyline
 90
        3
 70
   128
 43
0.0
 10
584.4016050555789
 20
150.5890270132827
 10
584.147268311032
 20
150.752477850418
 10
583.9474344261968
 20
150.8809035081672
  0
LINE
  5
1DC35
330
18
100
AcDbEntity
  8
1
  6
CONTINUOUS
 62
     7
100
AcDbLine
 10
583.9474344261968
 20
150.8809035081672
 30
0.0
 11
584.3258829423272
 21
151.4697787720966
 31
0.0
  0
LWPOLYLINE
  5
1DC36
330
18
100
AcDbEntity
  8
1
  6
CONTINUOUS
 62
     7
100
AcDbPolyline
 90
        3
 70
   128
 43
0.0
 10
584.7800535717093
 20
151.1779022772121
 10
584.5257168271625
 20
151.3413531143474
 10
584.3258829423272
 20
151.4697787720966
  0
LWPOLYLINE
  5
1DC37
330
18
100
AcDbEntity
  8
1
  6
CONTINUOUS
 62
     7
100
AcDbPolyline
 90
        9
 70
   128
 43
0.0
 10
585.6424526878678
 20
149.7915801961231
 10
585.6422105439984
 20
149.7917366583156
 10
585.6071518369996
 20
149.8142672140407
 10
585.5142244705045
 20
149.8739873428154
 10
585.3675318517768
 20
149.9682632643985
 10
585.1735485353553
 20
150.0929263789463
 10
584.9408408262813
 20
150.242478157978
 10
584.6796830751979
 20
150.4103136617946
 10
584.4016050555789
 20
150.5890270132827
  0
LWPOLYLINE
  5
1DC38
330
18
100
AcDbEntity
  8
1
  6
CONTINUOUS
 62
     7
100
AcDbPolyline
 90
        9
 70
   128
 43
0.0
 10
586.0209012039983
 20
150.3804591853427
 10
586.0206590601289
 20
150.3806156475353
 10
585.98560035313
 20
150.4031462032604
 10
585.8926729866349
 20
150.462866332035
 10
585.7459803679072
 20
150.5571385283279
 10
585.5519970514857
 20
150.6818053681659
 10
585.3192893424117
 20
150.8313571471977
 10
585.0581315913283
 20
150.9991926510143
 10
584.7800535717093
 20
151.1779022772121
  0
LWPOLYLINE
  5
1DC39
330
18
100
AcDbEntity
  8
1
  6
CONTINUOUS
 62
     7
100
AcDbPolyline
 90
        9
 70
   128
 43
0.0
 10
588.5237468042457
 20
147.9398874003696
 10
588.2456687846267
 20
148.1185970265674
 10
587.9845091708981
 20
148.286432530384
 10
587.7518014618241
 20
148.4359843094158
 10
587.5578200080478
 20
148.5606474239635
 10
587.4111255266749
 20
148.6549233455467
 10
587.318200022825
 20
148.7146434743213
 10
587.2831413158261
 20
148.7371740300464
 10
587.2828973093116
 20
148.737330492239
  0
LWPOLYLINE
  5
1DC3A
330
18
100
AcDbEntity
  8
1
  6
CONTINUOUS
 62
     7
100
AcDbPolyline
 90
        9
 70
   128
 43
0.0
 10
588.9021953203761
 20
148.528762664299
 10
588.6241173007571
 20
148.7074722904968
 10
588.3629576870286
 20
148.8753077943134
 10
588.1302499779546
 20
149.0248632986354
 10
587.9362685241782
 20
149.1495264131832
 10
587.7895740428054
 20
149.2438023347663
 10
587.6966485389554
 20
149.303522463541
 10
587.6615898319566
 20
149.3260530192661
 10
587.661345825442
 20
149.3262094814586
  0
LWPOLYLINE
  5
1DC3B
330
18
100
AcDbEntity
  8
1
  6
CONTINUOUS
 62
     7
100
AcDbPolyline
 90
        9
 70
   128
 43
0.0
 10
587.2828973093116
 20
148.737330492239
 10
587.2338445493066
 20
148.7688538987445
 10
586.9938669362151
 20
148.9230809171009
 10
586.7334747322881
 20
149.0904246825981
 10
586.4626759299123
 20
149.264455344181
 10
586.1918771275365
 20
149.438486005764
 10
585.9314849236094
 20
149.6058297712612
 10
585.6915054478728
 20
149.7600567896175
 10
585.6424526878678
 20
149.7915801961231
  0
LWPOLYLINE
  5
1DC3C
330
18
100
AcDbEntity
  8
1
  6
CONTINUOUS
 62
     7
100
AcDbPolyline
 90
        9
 70
   128
 43
0.0
 10
587.661345825442
 20
149.3262094814586
 10
587.612293065437
 20
149.3577328879642
 10
587.3723154523456
 20
149.5119561810302
 10
587.1119232484185
 20
149.6792999465274
 10
586.8411244460427
 20
149.8533343334007
 10
586.5703256436669
 20
150.0273649949836
 10
586.3099334397399
 20
150.1947087604808
 10
586.0699539640033
 20
150.3489320535469
 10
586.0209012039983
 20
150.3804591853427
  0
LINE
  5
1DC3D
330
18
100
AcDbEntity
  8
1
  6
CONTINUOUS
 62
     7
100
AcDbLine
 10
586.4603122332179
 20
149.1916817982006
 30
0.0
 11
586.5626236059749
 21
149.2002238888549
 31
0.0
  0
SPLINE
  5
1DC3E
330
18
100
AcDbEntity
  8
1
  6
CONTINUOUS
 62
     7
100
AcDbSpline
210
0.0
220
0.0
230
1.0
 70
     8
 71
     3
 72
     9
 73
     5
 74
     0
 42
0.000000001
 43
0.00000001
 40
0.0
 40
0.0
 40
0.0
 40
0.0
 40
0.3915658368912726
 40
1.0
 40
1.0
 40
1.0
 40
1.0
 10
585.4319626101338
 20
149.9264729578304
 30
0.0
 10
585.4311753338044
 20
149.9204172337225
 30
0.0
 10
585.42916474898
 20
149.9049518290896
 30
0.0
 10
585.421687332829
 20
149.8783028903449
 30
0.0
 10
585.4171378173911
 20
149.8620887656021
 30
0.0
  0
SPLINE
  5
1DC3F
330
18
100
AcDbEntity
  8
1
  6
CONTINUOUS
 62
     7
100
AcDbSpline
210
0.0
220
0.0
230
1.0
 70
     8
 71
     3
 72
     9
 73
     5
 74
     0
 42
0.000000001
 43
0.00000001
 40
0.0
 40
0.0
 40
0.0
 40
0.0
 40
0.0352912148583072
 40
1.0
 40
1.0
 40
1.0
 40
1.0
 10
587.9849673816049
 20
149.192523713808
 30
0.0
 10
587.9840212415556
 20
149.1920301828338
 30
0.0
 10
587.9572117351948
 20
149.1780456550633
 30
0.0
 10
587.9436604756274
 20
149.1653880756929
 30
0.0
 10
587.9305874564731
 20
149.1531771976757
 30
0.0
  0
SPLINE
  5
1DC40
330
18
100
AcDbEntity
  8
1
  6
CONTINUOUS
 62
     7
100
AcDbSpline
210
0.0
220
0.0
230
1.0
 70
     8
 71
     3
 72
     9
 73
     5
 74
     0
 42
0.000000001
 43
0.00000001
 40
0.0
 40
0.0
 40
0.0
 40
0.0
 40
0.1671191681560088
 40
1.0
 40
1.0
 40
1.0
 40
1.0
 10
587.8864092388236
 20
149.2558610994625
 30
0.0
 10
587.8850676383896
 20
149.2512715586082
 30
0.0
 10
587.8770398313533
 20
149.2238088749145
 30
0.0
 10
587.8742006243045
 20
149.2060815057377
 30
0.0
 10
587.871835903176
 20
149.1913167197514
 30
0.0
  0
LINE
  5
1DC41
330
18
100
AcDbEntity
  8
1
  6
CONTINUOUS
 62
     7
100
AcDbLine
 10
585.3751221307599
 20
149.9633831341075
 30
0.0
 11
585.3162271537864
 21
149.9269386191177
 31
0.0
  0
LINE
  5
1DC42
330
18
100
AcDbEntity
  8
1
  6
CONTINUOUS
 62
     7
100
AcDbLine
 10
586.741174907335
 20
149.9175657887268
 30
0.0
 11
586.843486280092
 21
149.9261078793811
 31
0.0
  0
LWPOLYLINE
  5
1DC43
330
18
100
AcDbEntity
  8
1
  6
CONTINUOUS
 62
     7
100
AcDbPolyline
 90
        9
 70
   128
 43
0.0
 10
601.8053897292399
 20
136.70312104712
 10
601.8055792533838
 20
136.7029031176376
 10
601.8328693331265
 20
136.6714076508092
 10
601.905207020142
 20
136.5879257578659
 10
602.0193983436608
 20
136.4561417509126
 10
602.1704011232638
 20
136.2818763960409
 10
602.3515484863007
 20
136.0728205550718
 10
602.5548431658232
 20
135.838205497365
 10
602.7713090748572
 20
135.5883912552404
  0
LINE
  5
1DC44
330
18
100
AcDbEntity
  8
1
  6
CONTINUOUS
 62
     7
100
AcDbLine
 10
602.7713090748572
 20
135.5883912552404
 30
0.0
 11
602.2422843248629
 21
135.1299886960792
 31
0.0
  0
LWPOLYLINE
  5
1DC45
330
18
100
AcDbEntity
  8
1
  6
CONTINUOUS
 62
     7
100
AcDbPolyline
 90
        9
 70
   128
 43
0.0
 10
601.2763649792456
 20
136.2447184879589
 10
601.2765545033895
 20
136.2445005584764
 10
601.3038450487935
 20
136.2130050916481
 10
601.3761822701478
 20
136.1295231987047
 10
601.4903735936665
 20
135.9977391917514
 10
601.6413763732695
 20
135.8234738368797
 10
601.8225237363064
 20
135.6144179959106
 10
602.0258184158289
 20
135.3798029382038
 10
602.2422843248629
 20
135.1299886960792
  0
LINE
  5
1DC46
330
18
100
AcDbEntity
  8
1
  6
CONTINUOUS
 62
     7
100
AcDbLine
 10
599.2089504011952
 20
139.6995713372039
 30
0.0
 11
598.679925651201
 21
139.2411706406879
 31
0.0
  0
LINE
  5
1DC47
330
18
100
AcDbEntity
  8
1
  6
CONTINUOUS
 62
     7
100
AcDbLine
 10
599.5624916263902
 20
139.2915626425552
 30
0.0
 11
599.0334668763959
 21
138.8331619460392
 31
0.0
  0
LWPOLYLINE
  5
1DC48
330
18
100
AcDbEntity
  8
1
  6
CONTINUOUS
 62
     7
100
AcDbPolyline
 90
        3
 70
   128
 43
0.0
 10
599.2089504011952
 20
139.6995713372039
 10
599.4069332824134
 20
139.4710881073284
 10
599.5624916263902
 20
139.2915626425552
  0
LWPOLYLINE
  5
1DC49
330
18
100
AcDbEntity
  8
1
  6
CONTINUOUS
 62
     7
100
AcDbPolyline
 90
        3
 70
   128
 43
0.0
 10
598.679925651201
 20
139.2411706406879
 10
598.8779085324192
 20
139.012683685522
 10
599.0334668763959
 20
138.8331619460392
  0
LINE
  5
1DC4A
330
18
100
AcDbEntity
  8
1
  6
CONTINUOUS
 62
     7
100
AcDbLine
 10
603.1248505328828
 20
135.1803825605917
 30
0.0
 11
602.5958257828885
 21
134.7219800014305
 31
0.0
  0
LWPOLYLINE
  5
1DC4B
330
18
100
AcDbEntity
  8
1
  6
CONTINUOUS
 62
     7
100
AcDbPolyline
 90
        3
 70
   128
 43
0.0
 10
602.7713090748572
 20
135.5883912552404
 10
602.9692924217367
 20
135.3599061627197
 10
603.1248505328828
 20
135.1803825605917
  0
LWPOLYLINE
  5
1DC4C
330
18
100
AcDbEntity
  8
1
  6
CONTINUOUS
 62
     7
100
AcDbPolyline
 90
        3
 70
   128
 43
0.0
 10
602.2422843248629
 20
135.1299886960792
 10
602.4402676717424
 20
134.9015036035585
 10
602.5958257828885
 20
134.7219800014305
  0
LWPOLYLINE
  5
1DC4D
330
18
100
AcDbEntity
  8
1
  6
CONTINUOUS
 62
     7
100
AcDbPolyline
 90
        9
 70
   128
 43
0.0
 10
599.5624916263902
 20
139.2915626425552
 10
599.7789575354242
 20
139.0417484004306
 10
599.9822517492854
 20
138.8071333427238
 10
600.1633995779836
 20
138.5980775017547
 10
600.3144023575866
 20
138.423812146883
 10
600.428593215444
 20
138.2920300025749
 10
600.5009309024596
 20
138.2085462469863
 10
600.5282214478635
 20
138.1770526428031
 10
600.5284109720075
 20
138.1768328506755
  0
LWPOLYLINE
  5
1DC4E
330
18
100
AcDbEntity
  8
1
  6
CONTINUOUS
 62
     7
100
AcDbPolyline
 90
        9
 70
   128
 43
0.0
 10
599.0334668763959
 20
138.8331619460392
 10
599.2499327854299
 20
138.5833477039146
 10
599.4532274649524
 20
138.3487326462078
 10
599.6343748279893
 20
138.1396768052387
 10
599.7853776075923
 20
137.9654114503669
 10
599.8995684654498
 20
137.8336255807685
 10
599.9719061524653
 20
137.7501455504703
 10
599.9991966978693
 20
137.7186482209968
 10
599.9993862220132
 20
137.7184321541595
  0
LWPOLYLINE
  5
1DC4F
330
18
100
AcDbEntity
  8
1
  6
CONTINUOUS
 62
     7
100
AcDbPolyline
 90
        9
 70
   128
 43
0.0
 10
600.5284109720075
 20
138.1768328506755
 10
600.5665951975667
 20
138.132766391735
 10
600.7534031392121
 20
137.9171801168727
 10
600.9561013066256
 20
137.6832505125808
 10
601.166900117793
 20
137.4399778802204
 10
601.3776993946218
 20
137.1967015225696
 10
601.5803975620353
 20
136.962775643568
 10
601.7672050380194
 20
136.7471893687057
 10
601.8053897292399
 20
136.70312104712
  0
LWPOLYLINE
  5
1DC50
330
18
100
AcDbEntity
  8
1
  6
CONTINUOUS
 62
     7
100
AcDbPolyline
 90
        9
 70
   128
 43
0.0
 10
599.9993862220132
 20
137.7184321541595
 10
600.0375709132337
 20
137.6743619699287
 10
600.2243783892178
 20
137.4587756950664
 10
600.4270765566313
 20
137.2248498160648
 10
600.6378753677988
 20
136.9815753210592
 10
600.8486746446275
 20
136.7382989634084
 10
601.051372812041
 20
136.5043730844068
 10
601.2381802880251
 20
136.2887868095445
 10
601.2763649792456
 20
136.2447184879589
  0
LINE
  5
1DC51
330
18
100
AcDbEntity
  8
1
  6
CONTINUOUS
 62
     7
100
AcDbLine
 10
601.1896709547424
 20
137.5091378946113
 30
0.0
 11
601.0890969642484
 21
137.5297685522842
 31
0.0
  0
SPLINE
  5
1DC52
330
18
100
AcDbEntity
  8
1
  6
CONTINUOUS
 62
     7
100
AcDbSpline
210
0.0
220
0.0
230
1.0
 70
     8
 71
     3
 72
     9
 73
     5
 74
     0
 42
0.000000001
 43
0.00000001
 40
0.0
 40
0.0
 40
0.0
 40
0.0
 40
0.391562719497403
 40
1.0
 40
1.0
 40
1.0
 40
1.0
 10
601.9693499998235
 20
136.5143903900194
 30
0.0
 10
601.9718115801137
 20
136.5199784997901
 30
0.0
 10
601.9780981343941
 20
136.5342498016595
 30
0.0
 10
601.9927805785559
 20
136.5577142086415
 30
0.0
 10
602.0017139249527
 20
136.5719908286142
 30
0.0
  0
SPLINE
  5
1DC53
330
18
100
AcDbEntity
  8
1
  6
CONTINUOUS
 62
     7
100
AcDbSpline
210
0.0
220
0.0
230
1.0
 70
     8
 71
     3
 72
     9
 73
     5
 74
     0
 42
0.000000001
 43
0.00000001
 40
0.0
 40
0.0
 40
0.0
 40
0.0
 40
0.0353024274930811
 40
1.0
 40
1.0
 40
1.0
 40
1.0
 10
599.7265371129894
 20
137.9378741044807
 30
0.0
 10
599.7275843941921
 20
137.9380817075924
 30
0.0
 10
599.7572503768803
 20
137.9439624111725
 30
0.0
 10
599.7738171427227
 20
137.9522819569969
 30
0.0
 10
599.7897990615153
 20
137.9603078026581
 30
0.0
  0
SPLINE
  5
1DC54
330
18
100
AcDbEntity
  8
1
  6
CONTINUOUS
 62
     7
100
AcDbSpline
210
0.0
220
0.0
230
1.0
 70
     8
 71
     3
 72
     9
 73
     5
 74
     0
 42
0.000000001
 43
0.00000001
 40
0.0
 40
0.0
 40
0.0
 40
0.0
 40
0.1671212334291602
 40
0.9999999999999999
 40
0.9999999999999999
 40
0.9999999999999999
 40
0.9999999999999999
 10
599.8032580697023
 20
137.8493351299572
 30
0.0
 10
599.805838475566
 20
137.8533610353888
 30
0.0
 10
599.8212787988019
 20
137.8774507656347
 30
0.0
 10
599.8289973412858
 20
137.8936593228383
 30
0.0
 10
599.8354259514296
 20
137.9071590859699
 30
0.0
  0
LINE
  5
1DC55
330
18
100
AcDbEntity
  8
1
  6
CONTINUOUS
 62
     7
100
AcDbLine
 10
602.0134891019248
 20
136.462960894804
 30
0.0
 11
602.0802658618474
 21
136.4813377518463
 31
0.0
  0
LINE
  5
1DC56
330
18
100
AcDbEntity
  8
1
  6
CONTINUOUS
 62
     7
100
AcDbLine
 10
600.7156789870047
 20
136.8917846489954
 30
0.0
 11
600.6151049965107
 21
136.9124134440231
 31
0.0
  0
LINE
  5
1DC57
330
18
100
AcDbEntity
  8
1
  6
CONTINUOUS
 62
     7
100
AcDbLine
 10
590.008615852245
 20
133.3710519034671
 30
0.0
 11
589.3718743332707
 21
133.6618424762296
 31
0.0
  0
LWPOLYLINE
  5
1DC58
330
18
100
AcDbEntity
  8
1
  6
CONTINUOUS
 62
     7
100
AcDbPolyline
 90
        9
 70
   128
 43
0.0
 10
589.9846100815618
 20
135.0035504807043
 10
589.9844908722722
 20
135.0032859850931
 10
589.9671794482553
 20
134.9653792936611
 10
589.9212913223588
 20
134.8648989010858
 10
589.8488530525052
 20
134.7062816281127
 10
589.7530628004157
 20
134.4965328831481
 10
589.6381506332242
 20
134.2449100125837
 10
589.5091903963172
 20
133.9625236947345
 10
589.3718743332707
 20
133.6618424762296
  0
LWPOLYLINE
  5
1DC59
330
18
100
AcDbEntity
  8
1
  6
CONTINUOUS
 62
     7
100
AcDbPolyline
 90
        9
 70
   128
 43
0.0
 10
590.6213534631812
 20
134.7127599079418
 10
590.6212323912465
 20
134.7124954123306
 10
590.6039209672296
 20
134.6745887208986
 10
590.5580328413331
 20
134.5741083283233
 10
590.4855945714795
 20
134.4154910553503
 10
590.3898061820352
 20
134.2057423103857
 10
590.2748940148437
 20
133.9541194398212
 10
590.1459319152915
 20
133.671733121972
 10
590.008615852245
 20
133.3710519034671
  0
LINE
  5
1DC5A
330
18
100
AcDbEntity
  8
1
  6
CONTINUOUS
 62
     7
100
AcDbLine
 10
592.268420719453
 20
138.3193326551723
 30
0.0
 11
591.6316782691562
 21
138.6101250905799
 31
0.0
  0
LINE
  5
1DC5B
330
18
100
AcDbEntity
  8
1
  6
CONTINUOUS
 62
     7
100
AcDbLine
 10
592.0441498615825
 20
137.8282499868679
 30
0.0
 11
591.4074074112856
 21
138.1190386969852
 31
0.0
  0
LWPOLYLINE
  5
1DC5C
330
18
100
AcDbEntity
  8
1
  6
CONTINUOUS
 62
     7
100
AcDbPolyline
 90
        3
 70
   128
 43
0.0
 10
591.6316782691562
 20
138.6101250905799
 10
591.5060866260015
 20
138.3351167101669
 10
591.4074074112856
 20
138.1190386969852
  0
LWPOLYLINE
  5
1DC5D
330
18
100
AcDbEntity
  8
1
  6
CONTINUOUS
 62
     7
100
AcDbPolyline
 90
        3
 70
   128
 43
0.0
 10
592.268420719453
 20
138.3193326551723
 10
592.1428290762984
 20
138.0443280000495
 10
592.0441498615825
 20
137.8282499868679
  0
LINE
  5
1DC5E
330
18
100
AcDbEntity
  8
1
  6
CONTINUOUS
 62
     7
100
AcDbLine
 10
589.7843440630519
 20
132.8799673725175
 30
0.0
 11
589.1476025440776
 21
133.17075794528
 31
0.0
  0
LWPOLYLINE
  5
1DC5F
330
18
100
AcDbEntity
  8
1
  6
CONTINUOUS
 62
     7
100
AcDbPolyline
 90
        3
 70
   128
 43
0.0
 10
589.3718743332707
 20
133.6618424762296
 10
589.2462817587935
 20
133.3868340958166
 10
589.1476025440776
 20
133.17075794528
  0
LWPOLYLINE
  5
1DC60
330
18
100
AcDbEntity
  8
1
  6
CONTINUOUS
 62
     7
100
AcDbPolyline
 90
        3
 70
   128
 43
0.0
 10
590.008615852245
 20
133.3710519034671
 10
589.8830232777678
 20
133.0960435230541
 10
589.7843440630519
 20
132.8799673725175
  0
LWPOLYLINE
  5
1DC61
330
18
100
AcDbEntity
  8
1
  6
CONTINUOUS
 62
     7
100
AcDbPolyline
 90
        9
 70
   128
 43
0.0
 10
591.4074074112856
 20
138.1190386969852
 10
591.2700904169166
 20
137.8183593411254
 10
591.141129248687
 20
137.5359711606311
 10
591.0262170814955
 20
137.2843501527118
 10
590.9304277607285
 20
137.0745995451021
 10
590.8579904221975
 20
136.9159841347742
 10
590.8121013649785
 20
136.8155037421989
 10
590.7947899409616
 20
136.7775951881218
 10
590.794670731672
 20
136.7773325551557
  0
LWPOLYLINE
  5
1DC62
330
18
100
AcDbEntity
  8
1
  6
CONTINUOUS
 62
     7
100
AcDbPolyline
 90
        9
 70
   128
 43
0.0
 10
592.0441498615825
 20
137.8282499868679
 10
591.9068328672134
 20
137.5275669057178
 10
591.7778716989839
 20
137.2451824505138
 10
591.6629595317924
 20
136.9935595799493
 10
591.5671702110254
 20
136.7838108349847
 10
591.4947319411718
 20
136.6251935620117
 10
591.448844746598
 20
136.5247131694364
 10
591.4315323912584
 20
136.4868046153593
 10
591.4314122506463
 20
136.4865419823932
  0
LWPOLYLINE
  5
1DC63
330
18
100
AcDbEntity
  8
1
  6
CONTINUOUS
 62
     7
100
AcDbPolyline
 90
        9
 70
   128
 43
0.0
 10
590.794670731672
 20
136.7773325551557
 10
590.7704470315063
 20
136.7242918718862
 10
590.6519455471122
 20
136.464808638792
 10
590.5233615645253
 20
136.1832511980342
 10
590.3896404066169
 20
135.89044151793
 10
590.2559192487084
 20
135.5976318378257
 10
590.1273352661216
 20
135.316074397068
 10
590.0088337817275
 20
135.0565893013286
 10
589.9846100815618
 20
135.0035504807043
  0
LWPOLYLINE
  5
1DC64
330
18
100
AcDbEntity
  8
1
  6
CONTINUOUS
 62
     7
100
AcDbPolyline
 90
        9
 70
   128
 43
0.0
 10
591.4314122506463
 20
136.4865419823932
 10
591.4071894818031
 20
136.4335012991237
 10
591.2886870660865
 20
136.1740180660295
 10
591.1601040148222
 20
135.8924606252718
 10
591.0263828569138
 20
135.5996509451675
 10
590.8926607676827
 20
135.3068412650632
 10
590.764078647741
 20
135.0252838243055
 10
590.6455753007018
 20
134.7657987285661
 10
590.6213534631812
 20
134.7127599079418
  0
LINE
  5
1DC65
330
18
100
AcDbEntity
  8
1
  6
CONTINUOUS
 62
     7
100
AcDbLine
 10
591.0987531402194
 20
135.6076677698898
 30
0.0
 11
591.0757373654329
 21
135.707723479371
 31
0.0
  0
SPLINE
  5
1DC66
330
18
100
AcDbEntity
  8
1
  6
CONTINUOUS
 62
     7
100
AcDbSpline
210
0.0
220
0.0
230
1.0
 70
     8
 71
     3
 72
     9
 73
     5
 74
     0
 42
0.000000001
 43
0.00000001
 40
0.0
 40
0.0
 40
0.0
 40
0.0
 40
0.3915578747234463
 40
1.0
 40
1.0
 40
1.0
 40
1.0
 10
590.517790392884
 20
134.4852135885763
 30
0.0
 10
590.5238950654042
 20
134.485296441232
 30
0.0
 10
590.5394857939128
 20
134.4855080387021
 30
0.0
 10
590.5669306838266
 20
134.4818994820832
 30
0.0
 10
590.5836293109738
 20
134.4797038842248
 30
0.0
  0
SPLINE
  5
1DC67
330
18
100
AcDbEntity
  8
1
  6
CONTINUOUS
 62
     7
100
AcDbSpline
210
0.0
220
0.0
230
1.0
 70
     8
 71
     3
 72
     9
 73
     5
 74
     0
 42
0.000000001
 43
0.00000001
 40
0.0
 40
0.0
 40
0.0
 40
0.0
 40
0.035299311441234
 40
1.0
 40
1.0
 40
1.0
 40
1.0
 10
590.880938210436
 20
137.1166860122489
 30
0.0
 10
590.8815616660887
 20
137.1158194760042
 30
0.0
 10
590.8992236438229
 20
137.0912712281965
 30
0.0
 10
590.9136782492884
 20
137.0796598798194
 30
0.0
 10
590.9276226171338
 20
137.0684584040451
 30
0.0
  0
SPLINE
  5
1DC68
330
18
100
AcDbEntity
  8
1
  6
CONTINUOUS
 62
     7
100
AcDbSpline
210
0.0
220
0.0
230
1.0
 70
     8
 71
     3
 72
     9
 73
     5
 74
     0
 42
0.000000001
 43
0.00000001
 40
0.0
 40
0.0
 40
0.0
 40
0.0
 40
0.1671221245642765
 40
1.0
 40
1.0
 40
1.0
 40
1.0
 10
590.8322700866544
 20
137.0101166326808
 30
0.0
 10
590.8370043796641
 20
137.0094422481901
 30
0.0
 10
590.8653327235144
 20
137.005406968645
 30
0.0
 10
590.8832832257796
 20
137.0051178294852
 30
0.0
 10
590.8982338019692
 20
137.0048770118761
 30
0.0
  0
LINE
  5
1DC69
330
18
100
AcDbEntity
  8
1
  6
CONTINUOUS
 62
     7
100
AcDbLine
 10
590.4893440761649
 20
134.4236997325229
 30
0.0
 11
590.5337998279416
 21
134.3705901313829
 31
0.0
  0
LINE
  5
1DC6A
330
18
100
AcDbEntity
  8
1
  6
CONTINUOUS
 62
     7
100
AcDbLine
 10
590.3402858980977
 20
135.7823689837265
 30
0.0
 11
590.3172691919887
 21
135.8824228305625
 31
0.0
  0
LINE
  5
1DC6B
330
18
100
AcDbEntity
  8
1
  6
CONTINUOUS
 62
     7
100
AcDbLine
 10
591.6316782691562
 20
150.2084550816822
 30
0.0
 11
592.268420719453
 21
150.4992475170898
 31
0.0
  0
LINE
  5
1DC6C
330
18
100
AcDbEntity
  8
1
  6
CONTINUOUS
 62
     7
100
AcDbLine
 10
591.4074074112856
 20
150.6995414752769
 30
0.0
 11
592.0441498615825
 21
150.9903339106845
 31
0.0
  0
LWPOLYLINE
  5
1DC6D
330
18
100
AcDbEntity
  8
1
  6
CONTINUOUS
 62
     7
100
AcDbPolyline
 90
        3
 70
   128
 43
0.0
 10
591.6316782691562
 20
150.2084550816822
 10
591.5060866260015
 20
150.4834634620952
 10
591.4074074112856
 20
150.6995414752769
  0
LWPOLYLINE
  5
1DC6E
330
18
100
AcDbEntity
  8
1
  6
CONTINUOUS
 62
     7
100
AcDbPolyline
 90
        3
 70
   128
 43
0.0
 10
592.268420719453
 20
150.4992475170898
 10
592.1428290762984
 20
150.7742558975029
 10
592.0441498615825
 20
150.9903339106845
  0
LINE
  5
1DC6F
330
18
100
AcDbEntity
  8
1
  6
CONTINUOUS
 62
     7
100
AcDbLine
 10
589.3718743332707
 20
155.1567395586776
 30
0.0
 11
590.008615852245
 21
155.447528268795
 31
0.0
  0
LINE
  5
1DC70
330
18
100
AcDbEntity
  8
1
  6
CONTINUOUS
 62
     7
100
AcDbLine
 10
589.1476025440776
 20
155.6478222269821
 30
0.0
 11
589.7843440630519
 21
155.9386146623897
 31
0.0
  0
LWPOLYLINE
  5
1DC71
330
18
100
AcDbEntity
  8
1
  6
CONTINUOUS
 62
     7
100
AcDbPolyline
 90
        3
 70
   128
 43
0.0
 10
589.3718743332707
 20
155.1567395586776
 10
589.2462817587935
 20
155.4317479390907
 10
589.1476025440776
 20
155.6478222269821
  0
LWPOLYLINE
  5
1DC72
330
18
100
AcDbEntity
  8
1
  6
CONTINUOUS
 62
     7
100
AcDbPolyline
 90
        3
 70
   128
 43
0.0
 10
590.008615852245
 20
155.447528268795
 10
589.8830232777678
 20
155.722536649208
 10
589.7843440630519
 20
155.9386146623897
  0
LWPOLYLINE
  5
1DC73
330
18
100
AcDbEntity
  8
1
  6
CONTINUOUS
 62
     7
100
AcDbPolyline
 90
        9
 70
   128
 43
0.0
 10
589.9846100815618
 20
153.815031554203
 10
589.9844908722722
 20
153.8152960498142
 10
589.9671794482553
 20
153.853200878601
 10
589.9212913223588
 20
153.9536831338214
 10
589.8488530525052
 20
154.1122985441494
 10
589.7530628004157
 20
154.3220510144043
 10
589.6381506332242
 20
154.5736720223236
 10
589.5091903963172
 20
154.8560564775276
 10
589.3718743332707
 20
155.1567395586776
  0
LWPOLYLINE
  5
1DC74
330
18
100
AcDbEntity
  8
1
  6
CONTINUOUS
 62
     7
100
AcDbPolyline
 90
        9
 70
   128
 43
0.0
 10
590.6213534631812
 20
154.1058202643203
 10
590.6212323912465
 20
154.1060847599315
 10
590.6039209672296
 20
154.1439933140087
 10
590.5580328413331
 20
154.2444718439388
 10
590.4855945714795
 20
154.403090979557
 10
590.3898061820352
 20
154.6128397245216
 10
590.2748940148437
 20
154.8644607324409
 10
590.1459319152915
 20
155.1468489129352
 10
590.008615852245
 20
155.447528268795
  0
LWPOLYLINE
  5
1DC75
330
18
100
AcDbEntity
  8
1
  6
CONTINUOUS
 62
     7
100
AcDbPolyline
 90
        9
 70
   128
 43
0.0
 10
591.4074074112856
 20
150.6995414752769
 10
591.2700904169166
 20
151.000224556427
 10
591.141129248687
 20
151.282609011631
 10
591.0262170814955
 20
151.5342300195503
 10
590.9304277607285
 20
151.7439824898052
 10
590.8579904221975
 20
151.9025979001331
 10
590.8121013649785
 20
152.0030764300632
 10
590.7947899409616
 20
152.0409849841404
 10
590.794670731672
 20
152.0412494797515
  0
LWPOLYLINE
  5
1DC76
330
18
100
AcDbEntity
  8
1
  6
CONTINUOUS
 62
     7
100
AcDbPolyline
 90
        9
 70
   128
 43
0.0
 10
592.0441498615825
 20
150.9903339106845
 10
591.9068328672134
 20
151.2910132665443
 10
591.7778716989839
 20
151.5733977217483
 10
591.6629595317924
 20
151.8250224549579
 10
591.5671702110254
 20
152.0347711999225
 10
591.4947319411718
 20
152.1933866102504
 10
591.448844746598
 20
152.2938688654708
 10
591.4315323912584
 20
152.331777419548
 10
591.4314122506463
 20
152.3320381898689
  0
LWPOLYLINE
  5
1DC77
330
18
100
AcDbEntity
  8
1
  6
CONTINUOUS
 62
     7
100
AcDbPolyline
 90
        9
 70
   128
 43
0.0
 10
590.794670731672
 20
152.0412494797515
 10
590.7704470315063
 20
152.094290163021
 10
590.6519455471122
 20
152.3537715334701
 10
590.5233615645253
 20
152.6353289742279
 10
590.3896404066169
 20
152.9281405169773
 10
590.2559192487084
 20
153.2209483344364
 10
590.1273352661216
 20
153.5025057751941
 10
590.0088337817275
 20
153.7619908709335
 10
589.9846100815618
 20
153.815031554203
  0
LWPOLYLINE
  5
1DC78
330
18
100
AcDbEntity
  8
1
  6
CONTINUOUS
 62
     7
100
AcDbPolyline
 90
        9
 70
   128
 43
0.0
 10
591.4314122506463
 20
152.3320381898689
 10
591.4071894818031
 20
152.3850788731384
 10
591.2886870660865
 20
152.6445639688777
 10
591.1601040148222
 20
152.9261214096355
 10
591.0263828569138
 20
153.2189292270946
 10
590.8926607676827
 20
153.511740769844
 10
590.764078647741
 20
153.7932982106018
 10
590.6455753007018
 20
154.0527833063411
 10
590.6213534631812
 20
154.1058202643203
  0
LINE
  5
1DC79
330
18
100
AcDbEntity
  8
1
  6
CONTINUOUS
 62
     7
100
AcDbLine
 10
590.3483064481103
 20
152.8681968707847
 30
0.0
 11
590.438994915136
 21
152.8200661201286
 31
0.0
  0
SPLINE
  5
1DC7A
330
18
100
AcDbEntity
  8
1
  6
CONTINUOUS
 62
     7
100
AcDbSpline
210
0.0
220
0.0
230
1.0
 70
     8
 71
     3
 72
     9
 73
     5
 74
     0
 42
0.000000001
 43
0.00000001
 40
0.0
 40
0.0
 40
0.0
 40
0.0
 40
0.3915562609151136
 40
0.9999999999999999
 40
0.9999999999999999
 40
0.9999999999999999
 40
0.9999999999999999
 10
589.8804640033328
 20
154.0423077900219
 30
0.0
 10
589.876527775342
 20
154.0376412103147
 30
0.0
 10
589.8664749977881
 20
154.0257231791835
 30
0.0
 10
589.8457764939398
 20
154.0073425018489
 30
0.0
 10
589.8331826188647
 20
153.9961588938045
 30
0.0
  0
SPLINE
  5
1DC7B
330
18
100
AcDbEntity
  8
1
  6
CONTINUOUS
 62
     7
100
AcDbSpline
210
0.0
220
0.0
230
1.0
 70
     8
 71
     3
 72
     9
 73
     5
 74
     0
 42
0.000000001
 43
0.00000001
 40
0.0
 40
0.0
 40
0.0
 40
0.0
 40
0.0353060792807772
 40
1.0
 40
1.0
 40
1.0
 40
1.0
 10
591.6313849025452
 20
152.0446134168911
 30
0.0
 10
591.6303213608845
 20
152.0447090500359
 30
0.0
 10
591.6001978897358
 20
152.0474177377969
 30
0.0
 10
591.581959515846
 20
152.0441075355799
 30
0.0
 10
591.5643650674307
 20
152.0409142036247
 30
0.0
  0
SPLINE
  5
1DC7C
330
18
100
AcDbEntity
  8
1
  6
CONTINUOUS
 62
     7
100
AcDbSpline
210
0.0
220
0.0
230
1.0
 70
     8
 71
     3
 72
     9
 73
     5
 74
     0
 42
0.000000001
 43
0.00000001
 40
0.0
 40
0.0
 40
0.0
 40
0.0
 40
0.167120613659363
 40
1.0
 40
1.0
 40
1.0
 40
1.0
 10
591.5827158474409
 20
152.1511827964592
 30
0.0
 10
591.5791058105918
 20
152.1480468686527
 30
0.0
 10
591.557504424802
 20
152.1292824102307
 30
0.0
 10
591.5455313704005
 20
152.1159043034314
 30
0.0
 10
591.5355592601978
 20
152.1047619540501
 30
0.0
  0
LINE
  5
1DC7D
330
18
100
AcDbEntity
  8
1
  6
CONTINUOUS
 62
     7
100
AcDbLine
 10
589.8526006945455
 20
154.1040917296218
 30
0.0
 11
589.7833531358325
 21
154.1052726466465
 31
0.0
  0
LINE
  5
1DC7E
330
18
100
AcDbEntity
  8
1
  6
CONTINUOUS
 62
     7
100
AcDbLine
 10
590.977027417072
 20
153.3270036239433
 30
0.0
 11
591.0677158840978
 21
153.2788765985775
 31
0.0
  0
LINE
  5
1DC7F
330
18
100
AcDbEntity
  8
1
  6
CONTINUOUS
 62
     7
100
AcDbLine
 10
596.0226220645987
 20
156.3122128505516
 30
0.0
 11
596.7154971891129
 21
156.2125911373901
 31
0.0
  0
LWPOLYLINE
  5
1DC80
330
18
100
AcDbEntity
  8
1
  6
CONTINUOUS
 62
     7
100
AcDbPolyline
 90
        3
 70
   128
 43
0.0
 10
596.0226220645987
 20
156.3122128505516
 10
596.0656482362234
 20
156.611465420227
 10
596.0994543143594
 20
156.8465908427047
  0
LINE
  5
1DC81
330
18
100
AcDbEntity
  8
1
  6
CONTINUOUS
 62
     7
100
AcDbLine
 10
596.0994543143594
 20
156.8465908427047
 30
0.0
 11
596.7923294388735
 21
156.7469691295433
 31
0.0
  0
LWPOLYLINE
  5
1DC82
330
18
100
AcDbEntity
  8
1
  6
CONTINUOUS
 62
     7
100
AcDbPolyline
 90
        3
 70
   128
 43
0.0
 10
596.7154971891129
 20
156.2125911373901
 10
596.7585233607375
 20
156.5118437070655
 10
596.7923294388735
 20
156.7469691295433
  0
LINE
  5
1DC83
330
18
100
AcDbEntity
  8
1
  6
CONTINUOUS
 62
     7
100
AcDbLine
 10
595.2484480672562
 20
150.9277117807674
 30
0.0
 11
595.9413222604477
 21
150.8280900676059
 31
0.0
  0
LINE
  5
1DC84
330
18
100
AcDbEntity
  8
1
  6
CONTINUOUS
 62
     7
100
AcDbLine
 10
595.3252793856942
 20
151.4620860476303
 30
0.0
 11
596.0181545102083
 21
151.3624680597591
 31
0.0
  0
LWPOLYLINE
  5
1DC85
330
18
100
AcDbEntity
  8
1
  6
CONTINUOUS
 62
     7
100
AcDbPolyline
 90
        3
 70
   128
 43
0.0
 10
595.2484480672562
 20
150.9277117807674
 10
595.2914733075582
 20
151.2269606251525
 10
595.3252793856942
 20
151.4620860476303
  0
LWPOLYLINE
  5
1DC86
330
18
100
AcDbEntity
  8
1
  6
CONTINUOUS
 62
     7
100
AcDbPolyline
 90
        3
 70
   128
 43
0.0
 10
595.9413222604477
 20
150.8280900676059
 10
595.9843484320724
 20
151.1273426372814
 10
596.0181545102083
 20
151.3624680597591
  0
LWPOLYLINE
  5
1DC87
330
18
100
AcDbEntity
  8
1
  6
CONTINUOUS
 62
     7
100
AcDbPolyline
 90
        9
 70
   128
 43
0.0
 10
595.8127075442159
 20
154.8522268791008
 10
595.8127494537317
 20
154.8525137264537
 10
595.8186801158869
 20
154.8937601406383
 10
595.8343999096238
 20
155.0031011361885
 10
595.859215930947
 20
155.1757012862968
 10
595.8920320131862
 20
155.4039386470127
 10
595.9313999497377
 20
155.6777437586593
 10
595.9755800300323
 20
155.9850243289279
 10
596.0226220645987
 20
156.3122128505516
  0
LWPOLYLINE
  5
1DC88
330
18
100
AcDbEntity
  8
1
  6
CONTINUOUS
 62
     7
100
AcDbPolyline
 90
        9
 70
   128
 43
0.0
 10
596.50558266873
 20
154.7526051659393
 10
596.5056236469233
 20
154.7528920132923
 10
596.511555240401
 20
154.7941421527671
 10
596.5272750341379
 20
154.903479423027
 10
596.5520910554611
 20
155.0760795731353
 10
596.5849071377003
 20
155.3043206591415
 10
596.6242741429293
 20
155.5781257707881
 10
596.6684542232239
 20
155.8854026157665
 10
596.7154971891129
 20
156.2125911373901
  0
LWPOLYLINE
  5
1DC89
330
18
100
AcDbEntity
  8
1
  6
CONTINUOUS
 62
     7
100
AcDbPolyline
 90
        9
 70
   128
 43
0.0
 10
595.3252793856942
 20
151.4620860476303
 10
595.3723223515832
 20
151.7892745692539
 10
595.4165024318778
 20
152.0965551395225
 10
595.4558694371068
 20
152.3703602511692
 10
595.488685519346
 20
152.5986013371753
 10
595.5135015406692
 20
152.7712014872837
 10
595.5292222657287
 20
152.8805387575435
 10
595.5351529278838
 20
152.9217888970184
 10
595.5351939060771
 20
152.9220757443714
  0
LWPOLYLINE
  5
1DC8A
330
18
100
AcDbEntity
  8
1
  6
CONTINUOUS
 62
     7
100
AcDbPolyline
 90
        9
 70
   128
 43
0.0
 10
596.0181545102083
 20
151.3624680597591
 10
596.0651974760973
 20
151.6896565813827
 10
596.1093775563919
 20
151.996933426361
 10
596.1487445616209
 20
152.2707385380077
 10
596.18156064386
 20
152.4989796240139
 10
596.2063766651833
 20
152.6715797741222
 10
596.2220964589202
 20
152.7809170443821
 10
596.2280280523979
 20
152.8221671838569
 10
596.2280690305912
 20
152.8224540312099
  0
LWPOLYLINE
  5
1DC8B
330
18
100
AcDbEntity
  8
1
  6
CONTINUOUS
 62
     7
100
AcDbPolyline
 90
        9
 70
   128
 43
0.0
 10
595.5351939060771
 20
152.9220757443714
 10
595.5434919902169
 20
152.9797879416751
 10
595.584089272567
 20
153.2621500451374
 10
595.6281398990237
 20
153.5685290951538
 10
595.6739507251465
 20
153.8871494490909
 10
595.7197615512692
 20
154.2057735283184
 10
595.763812177726
 20
154.5121488530445
 10
595.804409460076
 20
154.7945109565067
 10
595.8127075442159
 20
154.8522268791008
  0
LWPOLYLINE
  5
1DC8C
330
18
100
AcDbEntity
  8
1
  6
CONTINUOUS
 62
     7
100
AcDbPolyline
 90
        9
 70
   128
 43
0.0
 10
596.2280690305912
 20
152.8224540312099
 10
596.236367114731
 20
152.880169953804
 10
596.2769643970811
 20
153.1625283319759
 10
596.3210150235378
 20
153.4689073819923
 10
596.3668258496606
 20
153.7875277359294
 10
596.4126366757833
 20
154.1061518151569
 10
596.4566873022401
 20
154.4125308651733
 10
596.4972845845901
 20
154.6948892433452
 10
596.50558266873
 20
154.7526051659393
  0
LINE
  5
1DC8D
330
18
100
AcDbEntity
  8
1
  6
CONTINUOUS
 62
     7
100
AcDbLine
 10
595.6067707025492
 20
153.8590682108211
 30
0.0
 11
595.6570425638043
 21
153.7695494849491
 31
0.0
  0
SPLINE
  5
1DC8E
330
18
100
AcDbEntity
  8
1
  6
CONTINUOUS
 62
     7
100
AcDbSpline
210
0.0
220
0.0
230
1.0
 70
     8
 71
     3
 72
     9
 73
     5
 74
     0
 42
0.000000001
 43
0.00000001
 40
0.0
 40
0.0
 40
0.0
 40
0.0
 40
0.3915591674840734
 40
1.0
 40
1.0
 40
1.0
 40
1.0
 10
595.847969279536
 20
155.0997314412403
 30
0.0
 10
595.8421346163046
 20
155.0979331088072
 30
0.0
 10
595.8272335139535
 20
155.0933403611908
 30
0.0
 10
595.7998844876053
 20
155.0890685513274
 30
0.0
 10
595.7832442232453
 20
155.0864694077777
 30
0.0
  0
SPLINE
  5
1DC8F
330
18
100
AcDbEntity
  8
1
  6
CONTINUOUS
 62
     7
100
AcDbSpline
210
0.0
220
0.0
230
1.0
 70
     8
 71
     3
 72
     9
 73
     5
 74
     0
 42
0.000000001
 43
0.00000001
 40
0.0
 40
0.0
 40
0.0
 40
0.0
 40
0.0353144991079741
 40
1.0
 40
1.0
 40
1.0
 40
1.0
 10
596.2409017243468
 20
152.4725412387657
 30
0.0
 10
596.240059190303
 20
152.473197960768
 30
0.0
 10
596.216201169798
 20
152.4917943452262
 30
0.0
 10
596.1990583078242
 20
152.4988532101574
 30
0.0
 10
596.1825208374345
 20
152.5056627948093
 30
0.0
  0
SPLINE
  5
1DC90
330
18
100
AcDbEntity
  8
1
  6
CONTINUOUS
 62
     7
100
AcDbSpline
210
0.0
220
0.0
230
1.0
 70
     8
 71
     3
 72
     9
 73
     5
 74
     0
 42
0.000000001
 43
0.00000001
 40
0.0
 40
0.0
 40
0.0
 40
0.0
 40
0.1671240174300097
 40
1.0
 40
1.0
 40
1.0
 40
1.0
 10
596.2575751924002
 20
152.5885058004665
 30
0.0
 10
596.2528424167327
 20
152.5878191462139
 30
0.0
 10
596.2245234728715
 20
152.583710495266
 30
0.0
 10
596.2072194228965
 20
152.578930561283
 30
0.0
 10
596.1928072952711
 20
152.5749494690704
 30
0.0
  0
LINE
  5
1DC91
330
18
100
AcDbEntity
  8
1
  6
CONTINUOUS
 62
     7
100
AcDbLine
 10
595.8579325684392
 20
155.1667680401611
 30
0.0
 11
595.800315366038
 21
155.2052018601703
 31
0.0
  0
LINE
  5
1DC92
330
18
100
AcDbEntity
  8
1
  6
CONTINUOUS
 62
     7
100
AcDbLine
 10
596.3837340110027
 20
153.9051277000713
 30
0.0
 11
596.4340058722579
 21
153.8156126994895
 31
0.0
  0
LINE
  5
1DC93
330
18
100
AcDbEntity
  8
1
  6
CONTINUOUS
 62
     7
100
AcDbLine
 10
582.6898397513711
 20
144.0592897493648
 30
0.0
 11
582.6898397513711
 21
144.7592904228973
 31
0.0
  0
LINE
  5
1DC94
330
18
100
AcDbEntity
  8
1
  6
CONTINUOUS
 62
     7
100
AcDbLine
 10
582.6898397513711
 20
144.0592897493648
 30
0.0
 11
582.1499669560277
 21
144.0592897493648
 31
0.0
  0
LINE
  5
1DC95
330
18
100
AcDbEntity
  8
1
  6
CONTINUOUS
 62
     7
100
AcDbLine
 10
582.1499669560277
 20
144.0592897493648
 30
0.0
 11
582.1499669560277
 21
144.7592904228973
 31
0.0
  0
LINE
  5
1DC96
330
18
100
AcDbEntity
  8
1
  6
CONTINUOUS
 62
     7
100
AcDbLine
 10
582.6898397513711
 20
144.7592904228973
 30
0.0
 11
582.1499669560277
 21
144.7592904228973
 31
0.0
  0
LINE
  5
1DC97
330
18
100
AcDbEntity
  8
1
  6
CONTINUOUS
 62
     7
100
AcDbLine
 10
588.1297116735064
 20
144.0592897493648
 30
0.0
 11
588.1297116735064
 21
144.7592904228973
 31
0.0
  0
LINE
  5
1DC98
330
18
100
AcDbEntity
  8
1
  6
CONTINUOUS
 62
     7
100
AcDbLine
 10
588.1297116735064
 20
144.0592897493648
 30
0.0
 11
587.589838878163
 21
144.0592897493648
 31
0.0
  0
LINE
  5
1DC99
330
18
100
AcDbEntity
  8
1
  6
CONTINUOUS
 62
     7
100
AcDbLine
 10
587.589838878163
 20
144.0592897493648
 30
0.0
 11
587.589838878163
 21
144.7592904228973
 31
0.0
  0
LINE
  5
1DC9A
330
18
100
AcDbEntity
  8
1
  6
CONTINUOUS
 62
     7
100
AcDbLine
 10
588.1297116735064
 20
144.7592904228973
 30
0.0
 11
587.589838878163
 21
144.7592904228973
 31
0.0
  0
LINE
  5
1DC9B
330
18
100
AcDbEntity
  8
1
  6
CONTINUOUS
 62
     7
100
AcDbLine
 10
584.1648386427247
 20
144.7592904228973
 30
0.0
 11
582.6898397513711
 21
144.7592904228973
 31
0.0
  0
LINE
  5
1DC9C
330
18
100
AcDbEntity
  8
1
  6
CONTINUOUS
 62
     7
100
AcDbLine
 10
584.1648386427247
 20
144.0592897493648
 30
0.0
 11
582.6898397513711
 21
144.0592897493648
 31
0.0
  0
LINE
  5
1DC9D
330
18
100
AcDbEntity
  8
1
  6
CONTINUOUS
 62
     7
100
AcDbLine
 10
587.589838878163
 20
144.7592904228973
 30
0.0
 11
586.1148399868094
 21
144.7592904228973
 31
0.0
  0
LINE
  5
1DC9E
330
18
100
AcDbEntity
  8
1
  6
CONTINUOUS
 62
     7
100
AcDbLine
 10
587.589838878163
 20
144.0592897493648
 30
0.0
 11
586.1148399868094
 21
144.0592897493648
 31
0.0
  0
LINE
  5
1DC9F
330
18
100
AcDbEntity
  8
1
  6
CONTINUOUS
 62
     7
100
AcDbLine
 10
586.1148399868094
 20
144.7592904228973
 30
0.0
 11
584.1648386427247
 21
144.7592904228973
 31
0.0
  0
LINE
  5
1DCA0
330
18
100
AcDbEntity
  8
1
  6
CONTINUOUS
 62
     7
100
AcDbLine
 10
586.1148399868094
 20
144.0592897493648
 30
0.0
 11
584.1648386427247
 21
144.0592897493648
 31
0.0
  0
LINE
  5
1DCA1
330
18
100
AcDbEntity
  8
1
  6
CONTINUOUS
 62
     7
100
AcDbLine
 10
585.1771974572026
 20
143.9967905540275
 30
0.0
 11
585.2586490669333
 21
144.0592897493648
 31
0.0
  0
SPLINE
  5
1DCA2
330
18
100
AcDbEntity
  8
1
  6
CONTINUOUS
 62
     7
100
AcDbSpline
210
0.0
220
0.0
230
1.0
 70
     8
 71
     3
 72
     9
 73
     5
 74
     0
 42
0.000000001
 43
0.00000001
 40
0.0
 40
0.0
 40
0.0
 40
0.0
 40
0.3915617915931918
 40
1.0
 40
1.0
 40
1.0
 40
1.0
 10
583.9148362734401
 20
144.0589693743991
 30
0.0
 10
583.9174467241066
 20
144.0534496211746
 30
0.0
 10
583.924113489666
 20
144.0393528595826
 30
0.0
 10
583.9322329339415
 20
144.0128909754191
 30
0.0
 10
583.9371731140697
 20
143.9967905540275
 30
0.0
  0
SPLINE
  5
1DCA3
330
18
100
AcDbEntity
  8
1
  6
CONTINUOUS
 62
     7
100
AcDbSpline
210
0.0
220
0.0
230
1.0
 70
     8
 71
     3
 72
     9
 73
     5
 74
     0
 42
0.000000001
 43
0.00000001
 40
0.0
 40
0.0
 40
0.0
 40
0.0
 40
0.035307510556773
 40
1.0
 40
1.0
 40
1.0
 40
1.0
 10
586.459364146837
 20
144.8217896182346
 30
0.0
 10
586.458834539924
 20
144.8208623002211
 30
0.0
 10
586.4438347026509
 20
144.7945982561438
 30
0.0
 10
586.4392814643589
 20
144.7766270807888
 30
0.0
 10
586.434888989576
 20
144.7592904228974
 30
0.0
  0
SPLINE
  5
1DCA4
330
18
100
AcDbEntity
  8
1
  6
CONTINUOUS
 62
     7
100
AcDbSpline
210
0.0
220
0.0
230
1.0
 70
     8
 71
     3
 72
     9
 73
     5
 74
     0
 42
0.000000001
 43
0.00000001
 40
0.0
 40
0.0
 40
0.0
 40
0.0
 40
0.1671188014031693
 40
0.9999999999999999
 40
0.9999999999999999
 40
0.9999999999999999
 40
0.9999999999999999
 10
586.3422074922406
 20
144.8217896182346
 30
0.0
 10
586.3435600483948
 20
144.8172032523889
 30
0.0
 10
586.351653429527
 20
144.7897595069384
 30
0.0
 10
586.358850180316
 20
144.7733106999462
 30
0.0
 10
586.3648442187392
 20
144.759610797863
 30
0.0
  0
LINE
  5
1DCA5
330
18
100
AcDbEntity
  8
1
  6
CONTINUOUS
 62
     7
100
AcDbLine
 10
583.8470620670402
 20
144.0592897493648
 30
0.0
 11
583.8172206291043
 21
143.9967905540275
 31
0.0
  0
LINE
  5
1DCA6
330
18
100
AcDbEntity
  8
1
  6
CONTINUOUS
 62
     7
100
AcDbLine
 10
585.021031425246
 20
144.7592904228973
 30
0.0
 11
585.1024830349767
 21
144.8217896182346
 31
0.0
  0
LINE
  5
1DCA7
330
18
100
AcDbEntity
  8
1
  6
CONTINUOUS
 62
     7
100
AcDbLine
 10
600.8366419569635
 20
146.5862696428108
 30
0.0
 11
601.0338546344125
 21
145.9146258790302
 31
0.0
  0
LWPOLYLINE
  5
1DCA8
330
18
100
AcDbEntity
  8
1
  6
CONTINUOUS
 62
     7
100
AcDbPolyline
 90
        3
 70
   128
 43
0.0
 10
600.8366419569635
 20
146.5862696428108
 10
601.126724258908
 20
146.6714484054851
 10
601.354645901271
 20
146.7383695204067
  0
LINE
  5
1DCA9
330
18
100
AcDbEntity
  8
1
  6
CONTINUOUS
 62
     7
100
AcDbLine
 10
601.354645901271
 20
146.7383695204067
 30
0.0
 11
601.55185857872
 21
146.0667257566261
 31
0.0
  0
LWPOLYLINE
  5
1DCAA
330
18
100
AcDbEntity
  8
1
  6
CONTINUOUS
 62
     7
100
AcDbPolyline
 90
        3
 70
   128
 43
0.0
 10
601.0338546344125
 20
145.9146258790302
 10
601.323936936357
 20
145.9998009164142
 10
601.55185857872
 20
146.0667257566261
  0
LINE
  5
1DCAB
330
18
100
AcDbEntity
  8
1
  6
CONTINUOUS
 62
     7
100
AcDbLine
 10
606.0561614736495
 20
148.1188615221786
 30
0.0
 11
606.2533742675138
 21
147.4472140331077
 31
0.0
  0
LWPOLYLINE
  5
1DCAC
330
18
100
AcDbEntity
  8
1
  6
CONTINUOUS
 62
     7
100
AcDbPolyline
 90
        3
 70
   128
 43
0.0
 10
606.0561614736495
 20
148.1188615221786
 10
606.3462437173863
 20
148.2040365595626
 10
606.5741654761647
 20
148.2709613997745
  0
LINE
  5
1DCAD
330
18
100
AcDbEntity
  8
1
  6
CONTINUOUS
 62
     7
100
AcDbLine
 10
606.5741654470609
 20
148.2709613997745
 30
0.0
 11
606.7713782409252
 21
147.5993139107036
 31
0.0
  0
LWPOLYLINE
  5
1DCAE
330
18
100
AcDbEntity
  8
1
  6
CONTINUOUS
 62
     7
100
AcDbPolyline
 90
        3
 70
   128
 43
0.0
 10
606.2533742675138
 20
147.4472140331077
 10
606.5434565039747
 20
147.532392795782
 10
606.771378270029
 20
147.5993139107036
  0
LWPOLYLINE
  5
1DCAF
330
18
100
AcDbEntity
  8
1
  6
CONTINUOUS
 62
     7
100
AcDbPolyline
 90
        9
 70
   128
 43
0.0
 10
604.8381221349397
 20
147.0316616256046
 10
604.8383999018976
 20
147.0317398567009
 10
604.8783854217314
 20
147.0434819717216
 10
604.9843735395976
 20
147.074603046875
 10
605.1516847088047
 20
147.1237284500408
 10
605.3729319115215
 20
147.1886937875556
 10
605.6383469709241
 20
147.2666268605995
 10
605.9362114043021
 20
147.3540892262268
 10
606.2533742675138
 20
147.4472140331077
  0
LWPOLYLINE
  5
1DCB0
330
18
100
AcDbEntity
  8
1
  6
CONTINUOUS
 62
     7
100
AcDbPolyline
 90
        9
 70
   128
 43
0.0
 10
604.6409093410754
 20
147.7033053893852
 10
604.6411871080333
 20
147.7033873457717
 10
604.6811726278671
 20
147.7151257355022
 10
604.7871607457333
 20
147.7462468106555
 10
604.9544719149404
 20
147.7953759391117
 10
605.1757191176572
 20
147.8603375513362
 10
605.4411341770598
 20
147.9382706243801
 10
605.7389986104378
 20
148.0257329900074
 10
606.0561614736495
 20
148.1188615221786
  0
LWPOLYLINE
  5
1DCB1
330
18
100
AcDbEntity
  8
1
  6
CONTINUOUS
 62
     7
100
AcDbPolyline
 90
        9
 70
   128
 43
0.0
 10
601.55185857872
 20
146.0667257566261
 10
601.8690214128279
 20
146.1598542887973
 10
602.1668858462059
 20
146.2473129291343
 10
602.4323006727778
 20
146.3252460021781
 10
602.6535479919099
 20
146.390211339693
 10
602.820859161117
 20
146.4393367428588
 10
602.9268473953986
 20
146.4704578180122
 10
602.9668327988171
 20
146.4821999330329
 10
602.9671107986056
 20
146.4822818894195
  0
LWPOLYLINE
  5
1DCB2
330
18
100
AcDbEntity
  8
1
  6
CONTINUOUS
 62
     7
100
AcDbPolyline
 90
        9
 70
   128
 43
0.0
 10
601.354645901271
 20
146.7383695204067
 10
601.6718087353789
 20
146.8314980525779
 10
601.9696731687569
 20
146.9189604182052
 10
602.2350879953289
 20
146.996893491249
 10
602.456335314461
 20
147.0618551034736
 10
602.623646483668
 20
147.1109842319297
 10
602.7296344851189
 20
147.1421053070831
 10
602.7696201213681
 20
147.1538436968135
 10
602.7698981211566
 20
147.1539256532001
  0
LWPOLYLINE
  5
1DCB3
330
18
100
AcDbEntity
  8
1
  6
CONTINUOUS
 62
     7
100
AcDbPolyline
 90
        9
 70
   128
 43
0.0
 10
602.9671107986056
 20
146.4822818894195
 10
603.0230579067999
 20
146.4987104196357
 10
603.2967659280681
 20
146.5790761072444
 10
603.5937565480405
 20
146.6662814278411
 10
603.902616408565
 20
146.7569698948669
 10
604.2114762690895
 20
146.8476583618927
 10
604.5084667726466
 20
146.9348636824894
 10
604.7821749103301
 20
147.0152330953884
 10
604.8381221349397
 20
147.0316616256046
  0
LWPOLYLINE
  5
1DCB4
330
18
100
AcDbEntity
  8
1
  6
CONTINUOUS
 62
     7
100
AcDbPolyline
 90
        9
 70
   128
 43
0.0
 10
602.7698981211566
 20
147.1539256532001
 10
602.8258449965202
 20
147.1703541834163
 10
603.0995532506191
 20
147.2507235963153
 10
603.3965436377608
 20
147.3379251916217
 10
603.7054034982854
 20
147.4286173839378
 10
604.0142633588099
 20
147.5193058509635
 10
604.3112539787822
 20
147.6065111715602
 10
604.5849621164658
 20
147.686876859169
 10
604.6409093410754
 20
147.7033053893852
  0
LINE
  5
1DCB5
330
18
100
AcDbEntity
  8
1
  6
CONTINUOUS
 62
     7
100
AcDbLine
 10
603.6519511704379
 20
147.478059436779
 30
0.0
 11
603.591407286846
 21
147.3951419253158
 31
0.0
  0
SPLINE
  5
1DCB6
330
18
100
AcDbEntity
  8
1
  6
CONTINUOUS
 62
     7
100
AcDbSpline
210
0.0
220
0.0
230
1.0
 70
     8
 71
     3
 72
     9
 73
     5
 74
     0
 42
0.000000001
 43
0.00000001
 40
0.0
 40
0.0
 40
0.0
 40
0.0
 40
0.3915634441302104
 40
1.0
 40
1.0
 40
1.0
 40
1.0
 10
604.880696033039
 20
147.774048652153
 30
0.0
 10
604.8766358064191
 20
147.7786090874711
 30
0.0
 10
604.8662665375798
 20
147.7902558215738
 30
0.0
 10
604.8510213134776
 20
147.8133575186654
 30
0.0
 10
604.8417455618315
 20
147.8274134356784
 30
0.0
  0
SPLINE
  5
1DCB7
330
18
100
AcDbEntity
  8
1
  6
CONTINUOUS
 62
     7
100
AcDbSpline
210
0.0
220
0.0
230
1.0
 70
     8
 71
     3
 72
     9
 73
     5
 74
     0
 42
0.000000001
 43
0.00000001
 40
0.0
 40
0.0
 40
0.0
 40
0.0
 40
0.0353050432036136
 40
1.0
 40
1.0
 40
1.0
 40
1.0
 10
602.654151023277
 20
146.3252497274684
 30
0.0
 10
602.6543976763471
 20
146.3262886452192
 30
0.0
 10
602.6613840173267
 20
146.3557155388441
 30
0.0
 10
602.6606929453702
 20
146.3742422949014
 30
0.0
 10
602.660026271739
 20
146.3921149630355
 30
0.0
  0
SPLINE
  5
1DCB8
330
18
100
AcDbEntity
  8
1
  6
CONTINUOUS
 62
     7
100
AcDbSpline
210
0.0
220
0.0
230
1.0
 70
     8
 71
     3
 72
     9
 73
     5
 74
     0
 42
0.000000001
 43
0.00000001
 40
0.0
 40
0.0
 40
0.0
 40
0.0
 40
0.1671237777522722
 40
1.0
 40
1.0
 40
1.0
 40
1.0
 10
602.7665618908637
 20
146.3582557995128
 30
0.0
 10
602.7639713001448
 20
146.3622756563381
 30
0.0
 10
602.7484702699882
 20
146.3863288274628
 30
0.0
 10
602.7369331224767
 20
146.400083056408
 30
0.0
 10
602.727324106642
 20
146.4115386266518
 30
0.0
  0
LINE
  5
1DCB9
330
18
100
AcDbEntity
  8
1
  6
CONTINUOUS
 62
     7
100
AcDbLine
 10
604.9458141074562
 20
147.7928315658378
 30
0.0
 11
604.9568389876791
 21
147.8612092692661
 31
0.0
  0
LINE
  5
1DCBA
330
18
100
AcDbEntity
  8
1
  6
CONTINUOUS
 62
     7
100
AcDbLine
 10
604.016612852835
 20
146.7904416281986
 30
0.0
 11
603.9560689692431
 21
146.7075278420257
 31
0.0
  0
LINE
  5
1DCBB
330
18
100
AcDbEntity
  8
1
  6
CONTINUOUS
 62
     7
100
AcDbLine
 10
596.7154971891129
 20
132.605989034872
 30
0.0
 11
596.0226220645987
 21
132.5063691843557
 31
0.0
  0
LWPOLYLINE
  5
1DCBC
330
18
100
AcDbEntity
  8
1
  6
CONTINUOUS
 62
     7
100
AcDbPolyline
 90
        3
 70
   128
 43
0.0
 10
596.7154971891129
 20
132.605989034872
 10
596.7585233607375
 20
132.3067383278417
 10
596.7923294388735
 20
132.0716110427188
  0
LINE
  5
1DCBD
330
18
100
AcDbEntity
  8
1
  6
CONTINUOUS
 62
     7
100
AcDbLine
 10
596.7923294388735
 20
132.0716110427188
 30
0.0
 11
596.0994543143594
 21
131.9719911922025
 31
0.0
  0
LWPOLYLINE
  5
1DCBE
330
18
100
AcDbEntity
  8
1
  6
CONTINUOUS
 62
     7
100
AcDbPolyline
 90
        3
 70
   128
 43
0.0
 10
596.0226220645987
 20
132.5063691843557
 10
596.0656482362234
 20
132.2071166146802
 10
596.0994543143594
 20
131.9719911922025
  0
LWPOLYLINE
  5
1DCBF
330
18
100
AcDbEntity
  8
1
  6
CONTINUOUS
 62
     7
100
AcDbPolyline
 90
        9
 70
   128
 43
0.0
 10
595.8127075442159
 20
133.9663551558065
 10
595.8127494537317
 20
133.9660683084535
 10
595.8186801158869
 20
133.9248200316238
 10
595.8343999096238
 20
133.8154808987188
 10
595.859215930947
 20
133.6428807486105
 10
595.8920320131862
 20
133.4146415252494
 10
595.9313999497377
 20
133.1408364136028
 10
595.9755800300323
 20
132.8335558433342
 10
596.0226220645987
 20
132.5063691843557
  0
LWPOLYLINE
  5
1DCC0
330
18
100
AcDbEntity
  8
1
  6
CONTINUOUS
 62
     7
100
AcDbPolyline
 90
        9
 70
   128
 43
0.0
 10
596.50558266873
 20
134.0659750063228
 10
596.5056236469233
 20
134.065690021615
 10
596.511555240401
 20
134.0244398821401
 10
596.5272750341379
 20
133.9151007492351
 10
596.5520910554611
 20
133.7425024617719
 10
596.5849071377003
 20
133.5142613757658
 10
596.6242741429293
 20
133.2404562641191
 10
596.6684542232239
 20
132.9331775564956
 10
596.7154971891129
 20
132.605989034872
  0
LINE
  5
1DCC1
330
18
100
AcDbEntity
  8
1
  6
CONTINUOUS
 62
     7
100
AcDbLine
 10
595.9413222604477
 20
137.9904901046562
 30
0.0
 11
595.2484480672562
 21
137.890872116785
 31
0.0
  0
LINE
  5
1DCC2
330
18
100
AcDbEntity
  8
1
  6
CONTINUOUS
 62
     7
100
AcDbLine
 10
596.0181545102083
 20
137.4561158377933
 30
0.0
 11
595.3252793856942
 21
137.3564941246318
 31
0.0
  0
LWPOLYLINE
  5
1DCC3
330
18
100
AcDbEntity
  8
1
  6
CONTINUOUS
 62
     7
100
AcDbPolyline
 90
        3
 70
   128
 43
0.0
 10
595.2484480672562
 20
137.890872116785
 10
595.2914733075582
 20
137.5916195471096
 10
595.3252793856942
 20
137.3564941246318
  0
LWPOLYLINE
  5
1DCC4
330
18
100
AcDbEntity
  8
1
  6
CONTINUOUS
 62
     7
100
AcDbPolyline
 90
        3
 70
   128
 43
0.0
 10
595.9413222604477
 20
137.9904901046562
 10
595.9843484320724
 20
137.691241260271
 10
596.0181545102083
 20
137.4561158377933
  0
LWPOLYLINE
  5
1DCC5
330
18
100
AcDbEntity
  8
1
  6
CONTINUOUS
 62
     7
100
AcDbPolyline
 90
        9
 70
   128
 43
0.0
 10
595.3252793856942
 20
137.3564941246318
 10
595.3723223515832
 20
137.0293056030082
 10
595.4165024318778
 20
136.7220268953847
 10
595.4558694371068
 20
136.4482217837381
 10
595.488685519346
 20
136.2199806977319
 10
595.5135015406692
 20
136.0473824102687
 10
595.5292222657287
 20
135.9380432773637
 10
595.5351529278838
 20
135.8967931378889
 10
595.5351939060771
 20
135.8965062905359
  0
LWPOLYLINE
  5
1DCC6
330
18
100
AcDbEntity
  8
1
  6
CONTINUOUS
 62
     7
100
AcDbPolyline
 90
        9
 70
   128
 43
0.0
 10
596.0181545102083
 20
137.4561158377933
 10
596.0651974760973
 20
137.1289254535245
 10
596.1093775563919
 20
136.8216467459011
 10
596.1487445616209
 20
136.5478416342544
 10
596.18156064386
 20
136.3196024108934
 10
596.2063766651833
 20
136.1470022607851
 10
596.2220964589202
 20
136.0376631278801
 10
596.2280280523979
 20
135.9964148510503
 10
596.2280690305912
 20
135.9961280036974
  0
LWPOLYLINE
  5
1DCC7
330
18
100
AcDbEntity
  8
1
  6
CONTINUOUS
 62
     7
100
AcDbPolyline
 90
        9
 70
   128
 43
0.0
 10
595.5351939060771
 20
135.8965062905359
 10
595.5434919902169
 20
135.838792230587
 10
595.584089272567
 20
135.5564319897699
 10
595.6281398990237
 20
135.2500529397535
 10
595.6739507251465
 20
134.9314307231712
 10
595.7197615512692
 20
134.6128085065889
 10
595.763812177726
 20
134.3064313192176
 10
595.804409460076
 20
134.0240710784006
 10
595.8127075442159
 20
133.9663551558065
  0
LWPOLYLINE
  5
1DCC8
330
18
100
AcDbEntity
  8
1
  6
CONTINUOUS
 62
     7
100
AcDbPolyline
 90
        9
 70
   128
 43
0.0
 10
596.2280690305912
 20
135.9961280036974
 10
596.236367114731
 20
135.9384120811033
 10
596.2769643970811
 20
135.6560518402862
 10
596.3210150235378
 20
135.349674652915
 10
596.3668258496606
 20
135.0310524363327
 10
596.4126366757833
 20
134.7124283571052
 10
596.4566873022401
 20
134.406051169734
 10
596.4972845845901
 20
134.1236909289169
 10
596.50558266873
 20
134.0659750063228
  0
LINE
  5
1DCC9
330
18
100
AcDbEntity
  8
1
  6
CONTINUOUS
 62
     7
100
AcDbLine
 10
596.4233729624235
 20
135.0769237984228
 30
0.0
 11
596.3499176883184
 21
135.1486505378294
 31
0.0
  0
SPLINE
  5
1DCCA
330
18
100
AcDbEntity
  8
1
  6
CONTINUOUS
 62
     7
100
AcDbSpline
210
0.0
220
0.0
230
1.0
 70
     8
 71
     3
 72
     9
 73
     5
 74
     0
 42
0.000000001
 43
0.00000001
 40
0.0
 40
0.0
 40
0.0
 40
0.0
 40
0.391561664639224
 40
1.0
 40
1.0
 40
1.0
 40
1.0
 10
596.541479566046
 20
133.8185617137956
 30
0.0
 10
596.546571367525
 20
133.8219318981972
 30
0.0
 10
596.5595751979273
 20
133.8305389317909
 30
0.0
 10
596.584613283398
 20
133.8423403211341
 30
0.0
 10
596.5998474144423
 20
133.849520738821
 30
0.0
  0
SPLINE
  5
1DCCB
330
18
100
AcDbEntity
  8
1
  6
CONTINUOUS
 62
     7
100
AcDbSpline
210
0.0
220
0.0
230
1.0
 70
     8
 71
     3
 72
     9
 73
     5
 74
     0
 42
0.000000001
 43
0.00000001
 40
0.0
 40
0.0
 40
0.0
 40
0.0
 40
0.0353014487601706
 40
1.0
 40
1.0
 40
1.0
 40
1.0
 10
595.4242994644725
 20
136.2286289591598
 30
0.0
 10
595.4252925565996
 20
136.2282371089067
 30
0.0
 10
595.4534243234815
 20
136.2171369907286
 30
0.0
 10
595.4718604288147
 20
136.2151827653388
 30
0.0
 10
595.4896457129204
 20
136.2132975269365
 30
0.0
  0
SPLINE
  5
1DCCC
330
18
100
AcDbEntity
  8
1
  6
CONTINUOUS
 62
     7
100
AcDbSpline
210
0.0
220
0.0
230
1.0
 70
     8
 71
     3
 72
     9
 73
     5
 74
     0
 42
0.000000001
 43
0.00000001
 40
0.0
 40
0.0
 40
0.0
 40
0.0
 40
0.1671220674710254
 40
1.0
 40
1.0
 40
1.0
 40
1.0
 10
595.4409720012032
 20
136.1126662601041
 30
0.0
 10
595.445319612529
 20
136.1146579179365
 30
0.0
 10
595.4713341981052
 20
136.1265753018135
 30
0.0
 10
595.4865904299357
 20
136.1360391856799
 30
0.0
 10
595.4992970087611
 20
136.1439214457082
 30
0.0
  0
LINE
  5
1DCCD
330
18
100
AcDbEntity
  8
1
  6
CONTINUOUS
 62
     7
100
AcDbLine
 10
596.5508067616307
 20
133.7514338452625
 30
0.0
 11
596.6169176259124
 21
133.7307901490736
 31
0.0
  0
LINE
  5
1DCCE
330
18
100
AcDbEntity
  8
1
  6
CONTINUOUS
 62
     7
100
AcDbLine
 10
595.6908588864886
 20
134.8138307590293
 30
0.0
 11
595.6174036123836
 21
134.8855593610811
 31
0.0
  0
LINE
  5
1DCCF
330
18
100
AcDbEntity
  8
1
  6
CONTINUOUS
 62
     7
100
AcDbLine
 10
606.2533742675138
 20
141.3713661391544
 30
0.0
 11
606.0561614736495
 21
140.6997223753738
 31
0.0
  0
LINE
  5
1DCD0
330
18
100
AcDbEntity
  8
1
  6
CONTINUOUS
 62
     7
100
AcDbLine
 10
606.7713782409252
 20
141.2192662615585
 30
0.0
 11
606.574165432509
 21
140.5476224977779
 31
0.0
  0
LWPOLYLINE
  5
1DCD1
330
18
100
AcDbEntity
  8
1
  6
CONTINUOUS
 62
     7
100
AcDbPolyline
 90
        3
 70
   128
 43
0.0
 10
606.0561614736495
 20
140.6997223753738
 10
606.3462437173863
 20
140.6145436126995
 10
606.5741654761647
 20
140.5476224977779
  0
LWPOLYLINE
  5
1DCD2
330
18
100
AcDbEntity
  8
1
  6
CONTINUOUS
 62
     7
100
AcDbPolyline
 90
        3
 70
   128
 43
0.0
 10
606.2533742675138
 20
141.3713661391544
 10
606.5434565039747
 20
141.2861911017704
 10
606.771378270029
 20
141.2192662615585
  0
LINE
  5
1DCD3
330
18
100
AcDbEntity
  8
1
  6
CONTINUOUS
 62
     7
100
AcDbLine
 10
601.0338546344125
 20
142.9039542932319
 30
0.0
 11
600.8366419569635
 21
142.2323105294513
 31
0.0
  0
LINE
  5
1DCD4
330
18
100
AcDbEntity
  8
1
  6
CONTINUOUS
 62
     7
100
AcDbLine
 10
601.55185857872
 20
142.751854415636
 30
0.0
 11
601.354645901271
 21
142.0802106518554
 31
0.0
  0
LWPOLYLINE
  5
1DCD5
330
18
100
AcDbEntity
  8
1
  6
CONTINUOUS
 62
     7
100
AcDbPolyline
 90
        3
 70
   128
 43
0.0
 10
600.8366419569635
 20
142.2323105294513
 10
601.126724258908
 20
142.1471354920673
 10
601.354645901271
 20
142.0802106518554
  0
LWPOLYLINE
  5
1DCD6
330
18
100
AcDbEntity
  8
1
  6
CONTINUOUS
 62
     7
100
AcDbPolyline
 90
        3
 70
   128
 43
0.0
 10
601.0338546344125
 20
142.9039542932319
 10
601.323936936357
 20
142.8187792558479
 10
601.55185857872
 20
142.751854415636
  0
LWPOLYLINE
  5
1DCD7
330
18
100
AcDbEntity
  8
1
  6
CONTINUOUS
 62
     7
100
AcDbPolyline
 90
        9
 70
   128
 43
0.0
 10
604.6409093410754
 20
141.1152747828769
 10
604.6411871080333
 20
141.1151928264904
 10
604.6811726278671
 20
141.1034544367599
 10
604.7871607457333
 20
141.0723333616066
 10
604.9544719149404
 20
141.0232042331504
 10
605.1757191176572
 20
140.9582426209259
 10
605.4411341770598
 20
140.880309547882
 10
605.7389986104378
 20
140.7928471822547
 10
606.0561614736495
 20
140.6997223753738
  0
LWPOLYLINE
  5
1DCD8
330
18
100
AcDbEntity
  8
1
  6
CONTINUOUS
 62
     7
100
AcDbPolyline
 90
        9
 70
   128
 43
0.0
 10
604.8381221349397
 20
141.7869222719478
 10
604.8383999018976
 20
141.7868403155612
 10
604.8783854217314
 20
141.7750982005405
 10
604.9843735395976
 20
141.7439771253871
 10
605.1516847088047
 20
141.6948517222213
 10
605.3729319115215
 20
141.6298863847065
 10
605.6383469709241
 20
141.5519533116626
 10
605.9362114043021
 20
141.4644946713256
 10
606.2533742675138
 20
141.3713661391544
  0
LWPOLYLINE
  5
1DCD9
330
18
100
AcDbEntity
  8
1
  6
CONTINUOUS
 62
     7
100
AcDbPolyline
 90
        9
 70
   128
 43
0.0
 10
601.354645901271
 20
142.0802106518554
 10
601.6718087353789
 20
141.9870821196842
 10
601.9696731687569
 20
141.8996234793472
 10
602.2350879953289
 20
141.8216904063034
 10
602.456335314461
 20
141.7567250687885
 10
602.623646483668
 20
141.7075996656227
 10
602.7296344851189
 20
141.6764785904693
 10
602.7696201213681
 20
141.6647364754486
 10
602.7698981211566
 20
141.664654519062
  0
LWPOLYLINE
  5
1DCDA
330
18
100
AcDbEntity
  8
1
  6
CONTINUOUS
 62
     7
100
AcDbPolyline
 90
        9
 70
   128
 43
0.0
 10
601.55185857872
 20
142.751854415636
 10
601.8690214128279
 20
142.6587296087551
 10
602.1668858462059
 20
142.5712672431278
 10
602.4323006727778
 20
142.493334170084
 10
602.6535479919099
 20
142.4283688325691
 10
602.820859161117
 20
142.3792434294033
 10
602.9268473953986
 20
142.3481223542499
 10
602.9668327988171
 20
142.3363802392292
 10
602.9671107986056
 20
142.3362982828426
  0
LWPOLYLINE
  5
1DCDB
330
18
100
AcDbEntity
  8
1
  6
CONTINUOUS
 62
     7
100
AcDbPolyline
 90
        9
 70
   128
 43
0.0
 10
602.7698981211566
 20
141.664654519062
 10
602.8258449965202
 20
141.6482259888458
 10
603.0995532506191
 20
141.5678603012371
 10
603.3965436377608
 20
141.4806549806404
 10
603.7054034982854
 20
141.3899665136146
 10
604.0142633588099
 20
141.2992743212986
 10
604.3112539787822
 20
141.2120727259922
 10
604.5849621164658
 20
141.1317033130931
 10
604.6409093410754
 20
141.1152747828769
  0
LWPOLYLINE
  5
1DCDC
330
18
100
AcDbEntity
  8
1
  6
CONTINUOUS
 62
     7
100
AcDbPolyline
 90
        9
 70
   128
 43
0.0
 10
602.9671107986056
 20
142.3362982828426
 10
603.0230579067999
 20
142.3198734779167
 10
603.2967659280681
 20
142.2395040650177
 10
603.5937565480405
 20
142.152298744421
 10
603.902616408565
 20
142.0616102773952
 10
604.2114762690895
 20
141.9709218103694
 10
604.5084667726466
 20
141.8837164897728
 10
604.7821749103301
 20
141.8033470768737
 10
604.8381221349397
 20
141.7869222719478
  0
LINE
  5
1DCDD
330
18
100
AcDbEntity
  8
1
  6
CONTINUOUS
 62
     7
100
AcDbLine
 10
603.8843806468927
 20
142.132103945713
 30
0.0
 11
603.7886201971256
 21
142.0950820107269
 31
0.0
  0
SPLINE
  5
1DCDE
330
18
100
AcDbEntity
  8
1
  6
CONTINUOUS
 62
     7
100
AcDbSpline
210
0.0
220
0.0
230
1.0
 70
     8
 71
     3
 72
     9
 73
     5
 74
     0
 42
0.000000001
 43
0.00000001
 40
0.0
 40
0.0
 40
0.0
 40
0.0
 40
0.3915633459241915
 40
1.0
 40
1.0
 40
1.0
 40
1.0
 10
605.0780896198982
 20
141.7167936820793
 30
0.0
 10
605.0771394117925
 20
141.7228260788544
 30
0.0
 10
605.0747127083856
 20
141.7382320070083
 30
0.0
 10
605.0743783548298
 20
141.7659097770296
 30
0.0
 10
605.0741749218711
 20
141.7827499468135
 30
0.0
  0
SPLINE
  5
1DCDF
330
18
100
AcDbEntity
  8
1
  6
CONTINUOUS
 62
     7
100
AcDbSpline
210
0.0
220
0.0
230
1.0
 70
     8
 71
     3
 72
     9
 73
     5
 74
     0
 42
0.000000001
 43
0.00000001
 40
0.0
 40
0.0
 40
0.0
 40
0.0
 40
0.0352885307978209
 40
1.0
 40
1.0
 40
1.0
 40
1.0
 10
602.4217217796528
 20
141.7017509598541
 30
0.0
 10
602.4224907493317
 20
141.7024906404257
 30
0.0
 10
602.4442816729419
 20
141.7234515746134
 30
0.0
 10
602.4537140611773
 20
141.7394182299337
 30
0.0
 10
602.46281359429
 20
141.754821445446
 30
0.0
  0
SPLINE
  5
1DCE0
330
18
100
AcDbEntity
  8
1
  6
CONTINUOUS
 62
     7
100
AcDbSpline
210
0.0
220
0.0
230
1.0
 70
     8
 71
     3
 72
     9
 73
     5
 74
     0
 42
0.000000001
 43
0.00000001
 40
0.0
 40
0.0
 40
0.0
 40
0.0
 40
0.1671230644166653
 40
1.0
 40
1.0
 40
1.0
 40
1.0
 10
602.5341324144089
 20
141.6687448878097
 30
0.0
 10
602.5341263505761
 20
141.6735269475689
 30
0.0
 10
602.5340900669381
 20
141.7021409499264
 30
0.0
 10
602.5318207851092
 20
141.7199481649555
 30
0.0
 10
602.5299307526135
 20
141.7347793836402
 30
0.0
  0
LINE
  5
1DCE1
330
18
100
AcDbEntity
  8
1
  6
CONTINUOUS
 62
     7
100
AcDbLine
 10
605.1430269013205
 20
141.6973923702049
 30
0.0
 11
605.1892683477187
 21
141.7489541132259
 31
0.0
  0
LINE
  5
1DCE2
330
18
100
AcDbEntity
  8
1
  6
CONTINUOUS
 62
     7
100
AcDbLine
 10
603.819400175386
 20
141.3564947802829
 30
0.0
 11
603.7236394927883
 21
141.3194728452968
 31
0.0
  0
LINE
  5
1DCE3
330
18
100
AcDbEntity
  8
1
  6
CONTINUOUS
 62
     7
100
AcDbLine
 10
598.679925651201
 20
149.5774132568645
 30
0.0
 11
599.2089504011952
 21
149.1190088350582
 31
0.0
  0
LWPOLYLINE
  5
1DCE4
330
18
100
AcDbEntity
  8
1
  6
CONTINUOUS
 62
     7
100
AcDbPolyline
 90
        3
 70
   128
 43
0.0
 10
598.679925651201
 20
149.5774132568645
 10
598.8779085324192
 20
149.8058964867401
 10
599.0334668763959
 20
149.9854219515132
  0
LINE
  5
1DCE5
330
18
100
AcDbEntity
  8
1
  6
CONTINUOUS
 62
     7
100
AcDbLine
 10
599.0334668763959
 20
149.9854182262229
 30
0.0
 11
599.5624916263902
 21
149.5270175297069
 31
0.0
  0
LWPOLYLINE
  5
1DCE6
330
18
100
AcDbEntity
  8
1
  6
CONTINUOUS
 62
     7
100
AcDbPolyline
 90
        3
 70
   128
 43
0.0
 10
599.2089504011952
 20
149.1190088350582
 10
599.4069332824134
 20
149.3474920649337
 10
599.5624916263902
 20
149.5270175297069
  0
LINE
  5
1DCE7
330
18
100
AcDbEntity
  8
1
  6
CONTINUOUS
 62
     7
100
AcDbLine
 10
602.2422843248629
 20
153.6885914761829
 30
0.0
 11
602.7713090748572
 21
153.2301907796669
 31
0.0
  0
LWPOLYLINE
  5
1DCE8
330
18
100
AcDbEntity
  8
1
  6
CONTINUOUS
 62
     7
100
AcDbPolyline
 90
        3
 70
   128
 43
0.0
 10
602.2422843248629
 20
153.6885914761829
 10
602.4402676717424
 20
153.9170784313488
 10
602.5958257828885
 20
154.0966001708316
  0
LINE
  5
1DCE9
330
18
100
AcDbEntity
  8
1
  6
CONTINUOUS
 62
     7
100
AcDbLine
 10
602.5958257828885
 20
154.0966001708316
 30
0.0
 11
603.1248505328828
 21
153.6381994743156
 31
0.0
  0
LWPOLYLINE
  5
1DCEA
330
18
100
AcDbEntity
  8
1
  6
CONTINUOUS
 62
     7
100
AcDbPolyline
 90
        3
 70
   128
 43
0.0
 10
602.7713090748572
 20
153.2301907796669
 10
602.9692924217367
 20
153.4586740095424
 10
603.1248505328828
 20
153.6381994743156
  0
LWPOLYLINE
  5
1DCEB
330
18
100
AcDbEntity
  8
1
  6
CONTINUOUS
 62
     7
100
AcDbPolyline
 90
        9
 70
   128
 43
0.0
 10
601.2763649792456
 20
152.5738616843032
 10
601.2765545033895
 20
152.5740814764308
 10
601.3038450487935
 20
152.605575080614
 10
601.3761822701478
 20
152.6890588362026
 10
601.4903735936665
 20
152.8208409805107
 10
601.6413763732695
 20
152.9951063353824
 10
601.8225237363064
 20
153.2041621763515
 10
602.0258184158289
 20
153.4387772340583
 10
602.2422843248629
 20
153.6885914761829
  0
LWPOLYLINE
  5
1DCEC
330
18
100
AcDbEntity
  8
1
  6
CONTINUOUS
 62
     7
100
AcDbPolyline
 90
        9
 70
   128
 43
0.0
 10
601.8053897292399
 20
152.1154609877872
 10
601.8055792533838
 20
152.1156770546245
 10
601.8328693331265
 20
152.147174384098
 10
601.905207020142
 20
152.2306544143962
 10
602.0193983436608
 20
152.3624402839946
 10
602.1704011232638
 20
152.5367056388664
 10
602.3515484863007
 20
152.7457614798355
 10
602.5548431658232
 20
152.9803765375423
 10
602.7713090748572
 20
153.2301907796669
  0
LWPOLYLINE
  5
1DCED
330
18
100
AcDbEntity
  8
1
  6
CONTINUOUS
 62
     7
100
AcDbPolyline
 90
        9
 70
   128
 43
0.0
 10
599.0334668763959
 20
149.9854182262229
 10
599.2499327854299
 20
150.2352361936378
 10
599.4532274649524
 20
150.4698512513446
 10
599.6343748279893
 20
150.6789033670234
 10
599.7853776075923
 20
150.8531724471855
 10
599.8995684654498
 20
150.9849545914936
 10
599.9719061524653
 20
151.0684383470821
 10
599.9991966978693
 20
151.0999319512653
 10
599.9993862220132
 20
151.1001517433929
  0
LWPOLYLINE
  5
1DCEE
330
18
100
AcDbEntity
  8
1
  6
CONTINUOUS
 62
     7
100
AcDbPolyline
 90
        9
 70
   128
 43
0.0
 10
599.5624916263902
 20
149.5270175297069
 10
599.7789575354242
 20
149.7768317718315
 10
599.9822517492854
 20
150.0114468295383
 10
600.1633995779836
 20
150.2205026705074
 10
600.3144023575866
 20
150.3947680253791
 10
600.428593215444
 20
150.5265538949775
 10
600.5009309024596
 20
150.6100339252758
 10
600.5282214478635
 20
150.641527529459
 10
600.5284109720075
 20
150.6417473215866
  0
LWPOLYLINE
  5
1DCEF
330
18
100
AcDbEntity
  8
1
  6
CONTINUOUS
 62
     7
100
AcDbPolyline
 90
        9
 70
   128
 43
0.0
 10
599.9993862220132
 20
151.1001517433929
 10
600.0375709132337
 20
151.1442182023334
 10
600.2243783892178
 20
151.3598044771957
 10
600.4270765566313
 20
151.5937303561973
 10
600.6378753677988
 20
151.8370067138481
 10
600.8486746446275
 20
152.0802830714988
 10
601.051372812041
 20
152.3142089505004
 10
601.2381802880251
 20
152.5297952253627
 10
601.2763649792456
 20
152.5738616843032
  0
LWPOLYLINE
  5
1DCF0
330
18
100
AcDbEntity
  8
1
  6
CONTINUOUS
 62
     7
100
AcDbPolyline
 90
        9
 70
   128
 43
0.0
 10
600.5284109720075
 20
150.6417473215866
 10
600.5665951975667
 20
150.6858137805271
 10
600.7534031392121
 20
150.9014037806797
 10
600.9561013066256
 20
151.1353296596813
 10
601.166900117793
 20
151.3786022920417
 10
601.3776993946218
 20
151.6218786496925
 10
601.5803975620353
 20
151.8558045286941
 10
601.7672050380194
 20
152.0713945288467
 10
601.8053897292399
 20
152.1154609877872
  0
LINE
  5
1DCF1
330
18
100
AcDbEntity
  8
1
  6
CONTINUOUS
 62
     7
100
AcDbLine
 10
600.566177499392
 20
151.8497025031852
 30
0.0
 11
600.5600722142541
 21
151.7472160417842
 31
0.0
  0
SPLINE
  5
1DCF2
330
18
100
AcDbEntity
  8
1
  6
CONTINUOUS
 62
     7
100
AcDbSpline
210
0.0
220
0.0
230
1.0
 70
     8
 71
     3
 72
     9
 73
     5
 74
     0
 42
0.000000001
 43
0.00000001
 40
0.0
 40
0.0
 40
0.0
 40
0.0
 40
0.3915609956233629
 40
1.0
 40
1.0
 40
1.0
 40
1.0
 10
601.4398400307679
 20
152.7630132992076
 30
0.0
 10
601.4339588730377
 20
152.764654685257
 30
0.0
 10
601.4189390988623
 20
152.7688465891179
 30
0.0
 10
601.3936234797128
 20
152.7800405745041
 30
0.0
 10
601.3782204696023
 20
152.7868514318276
 30
0.0
  0
SPLINE
  5
1DCF3
330
18
100
AcDbEntity
  8
1
  6
CONTINUOUS
 62
     7
100
AcDbSpline
210
0.0
220
0.0
230
1.0
 70
     8
 71
     3
 72
     9
 73
     5
 74
     0
 42
0.000000001
 43
0.00000001
 40
0.0
 40
0.0
 40
0.0
 40
0.0
 40
0.0353107870751282
 40
1.0
 40
1.0
 40
1.0
 40
1.0
 10
600.3500305683398
 20
150.340445842247
 30
0.0
 10
600.3496764369869
 20
150.3414534842454
 30
0.0
 10
600.3396474520179
 20
150.369989863121
 30
0.0
 10
600.3290485031504
 20
150.3851992966388
 30
0.0
 10
600.3188238115096
 20
150.399871673088
 30
0.0
  0
SPLINE
  5
1DCF4
330
18
100
AcDbEntity
  8
1
  6
CONTINUOUS
 62
     7
100
AcDbSpline
210
0.0
220
0.0
230
1.0
 70
     8
 71
     3
 72
     9
 73
     5
 74
     0
 42
0.000000001
 43
0.00000001
 40
0.0
 40
0.0
 40
0.0
 40
0.0
 40
0.1671207753894969
 40
0.9999999999999999
 40
0.9999999999999999
 40
0.9999999999999999
 40
0.9999999999999999
 10
600.4267515250527
 20
150.4289885420608
 30
0.0
 10
600.422398997356
 20
150.4309689536933
 30
0.0
 10
600.3963547925792
 20
150.4428191358614
 30
0.0
 10
600.3792129800298
 20
150.4481551645423
 30
0.0
 10
600.3649359204852
 20
150.4525994319725
 30
0.0
  0
LINE
  5
1DCF5
330
18
100
AcDbEntity
  8
1
  6
CONTINUOUS
 62
     7
100
AcDbLine
 10
601.4844643519306
 20
152.8140236992645
 30
0.0
 11
601.456772406497
 21
152.8775026459503
 31
0.0
  0
LINE
  5
1DCF6
330
18
100
AcDbEntity
  8
1
  6
CONTINUOUS
 62
     7
100
AcDbLine
 10
601.244703736999
 20
151.4683929641056
 30
0.0
 11
601.2385984518611
 21
151.3659065027046
 31
0.0
  0
ARC
  5
1DCF7
330
18
100
AcDbEntity
  8
1
  6
CONTINUOUS
 62
     7
100
AcDbCircle
 10
575.664839514966
 20
144.4092905960165
 30
0.0
 40
3.000000000000014
100
AcDbArc
 50
270.0
 51
90.0
  0
LINE
  5
1DCF8
330
18
100
AcDbEntity
  8
1
  6
CONTINUOUS
 62
     7
100
AcDbLine
 10
575.6648400434339
 20
147.4092905778694
 30
0.0
 11
572.3107376703107
 21
147.4092905778694
 31
0.0
  0
ARC
  5
1DCF9
330
18
100
AcDbEntity
  8
1
  6
CONTINUOUS
 62
     7
100
AcDbCircle
 10
575.664839514966
 20
144.4092905960165
 30
0.0
 40
4.499999999999991
100
AcDbArc
 50
127.0586040132376
 51
138.1896851042235
  0
LINE
  5
1DCFA
330
18
100
AcDbEntity
  8
1
  6
CONTINUOUS
 62
     7
100
AcDbLine
 10
585.0528658934915
 20
157.137703653078
 30
0.0
 11
572.952996344217
 21
148.000378664236
 31
0.0
  0
ARC
  5
1DCFB
330
18
100
AcDbEntity
  8
1
  6
CONTINUOUS
 62
     7
100
AcDbCircle
 10
594.664839514966
 20
144.4092905960165
 30
0.0
 40
15.94999999999999
100
AcDbArc
 50
52.94139598676455
 51
127.0586040132365
  0
LINE
  5
1DCFC
330
18
100
AcDbEntity
  8
1
  6
CONTINUOUS
 62
     7
100
AcDbLine
 10
572.952996344217
 20
140.8182015080261
 30
0.0
 11
585.0528658934915
 21
131.6808783818292
 31
0.0
  0
ARC
  5
1DCFD
330
18
100
AcDbEntity
  8
1
  6
CONTINUOUS
 62
     7
100
AcDbCircle
 10
575.664839514966
 20
144.4092905960165
 30
0.0
 40
4.5
100
AcDbArc
 50
221.8103148957806
 51
232.9413959867642
  0
LINE
  5
1DCFE
330
18
100
AcDbEntity
  8
1
  6
CONTINUOUS
 62
     7
100
AcDbLine
 10
572.3107376703107
 20
141.4092895943927
 30
0.0
 11
575.6648400434339
 21
141.4092895943927
 31
0.0
  0
CIRCLE
  5
1DCFF
330
18
100
AcDbEntity
  8
1
  6
CONTINUOUS
 62
     7
100
AcDbCircle
 10
594.664839514966
 20
144.4092905960165
 30
0.0
 40
12.8
  0
LINE
  5
1DD00
330
18
100
AcDbEntity
  8
1
  6
CONTINUOUS
 62
     7
100
AcDbLine
 10
613.6648392871999
 20
141.4092895943927
 30
0.0
 11
617.0189411946618
 21
141.4092895943927
 31
0.0
  0
LINE
  5
1DD01
330
18
100
AcDbEntity
  8
1
  6
CONTINUOUS
 62
     7
100
AcDbLine
 10
617.0189411946618
 20
147.4092905778694
 30
0.0
 11
613.6648392871999
 21
147.4092905778694
 31
0.0
  0
ARC
  5
1DD02
330
18
100
AcDbEntity
  8
1
  6
CONTINUOUS
 62
     7
100
AcDbCircle
 10
613.664839514966
 20
144.4092905960165
 30
0.0
 40
3.000000000000014
100
AcDbArc
 50
90.0
 51
270.0
  0
LINE
  5
1DD03
330
18
100
AcDbEntity
  8
1
  6
CONTINUOUS
 62
     7
100
AcDbLine
 10
616.3766815894329
 20
148.000378664236
 30
0.0
 11
604.2768132043117
 21
157.137703653078
 31
0.0
  0
ARC
  5
1DD04
330
18
100
AcDbEntity
  8
1
  6
CONTINUOUS
 62
     7
100
AcDbCircle
 10
613.664839514966
 20
144.4092905960165
 30
0.0
 40
4.500000000000019
100
AcDbArc
 50
307.0586040132358
 51
318.1896851042214
  0
ARC
  5
1DD05
330
18
100
AcDbEntity
  8
1
  6
CONTINUOUS
 62
     7
100
AcDbCircle
 10
613.664839514966
 20
144.4092905960165
 30
0.0
 40
4.500000000000007
100
AcDbArc
 50
41.81031489577885
 51
52.94139598676421
  0
LINE
  5
1DD06
330
18
100
AcDbEntity
  8
1
  6
CONTINUOUS
 62
     7
100
AcDbLine
 10
604.2768132043117
 20
131.6808783818292
 30
0.0
 11
616.3766815894329
 21
140.8182015080261
 31
0.0
  0
ARC
  5
1DD07
330
18
100
AcDbEntity
  8
1
  6
CONTINUOUS
 62
     7
100
AcDbCircle
 10
594.664839514966
 20
144.4092905960165
 30
0.0
 40
15.95000000000002
100
AcDbArc
 50
232.9413959867646
 51
307.0586040132364
  0
ARC
  5
1DD08
330
18
100
AcDbEntity
  8
1
  6
CONTINUOUS
 62
     7
100
AcDbCircle
 10
603.8040100886441
 20
141.7257879921018
 30
0.0
 40
1.550000000000027
100
AcDbArc
 50
2.94430246007135
 51
144.328424812656
  0
LINE
  5
1DD09
330
18
100
AcDbEntity
  8
1
  6
CONTINUOUS
 62
     7
100
AcDbLine
 10
602.544832146638
 20
142.6296537179756
 30
0.0
 11
600.9979572714352
 21
143.0838560123252
 31
0.0
  0
LINE
  5
1DD0A
330
18
100
AcDbEntity
  8
1
  6
CONTINUOUS
 62
     7
100
AcDbLine
 10
600.9979572714352
 20
143.0838560123252
 30
0.0
 11
600.7091811494016
 21
142.100375648241
 31
0.0
  0
LINE
  5
1DD0B
330
18
100
AcDbEntity
  8
1
  6
CONTINUOUS
 62
     7
100
AcDbLine
 10
600.7091811494016
 20
142.100375648241
 30
0.0
 11
602.256056257435
 21
141.6461733538913
 31
0.0
  0
ARC
  5
1DD0C
330
18
100
AcDbEntity
  8
1
  6
CONTINUOUS
 62
     7
100
AcDbCircle
 10
603.8040100886441
 20
141.7257879921018
 30
0.0
 40
1.549999999999997
100
AcDbArc
 50
182.944302460065
 51
324.3284248126585
  0
LINE
  5
1DD0D
330
18
100
AcDbEntity
  8
1
  6
CONTINUOUS
 62
     7
100
AcDbLine
 10
605.0631881094583
 20
140.8219230730342
 30
0.0
 11
606.6100630428688
 21
140.3677207786846
 31
0.0
  0
LINE
  5
1DD0E
330
18
100
AcDbEntity
  8
1
  6
CONTINUOUS
 62
     7
100
AcDbLine
 10
606.6100630428688
 20
140.3677207786846
 30
0.0
 11
606.8988389320717
 21
141.3512011427688
 31
0.0
  0
LINE
  5
1DD0F
330
18
100
AcDbEntity
  8
1
  6
CONTINUOUS
 62
     7
100
AcDbLine
 10
606.8988389320717
 20
141.3512011427688
 30
0.0
 11
605.3519639986613
 21
141.8054034371185
 31
0.0
  0
ARC
  5
1DD10
330
18
100
AcDbEntity
  8
1
  6
CONTINUOUS
 62
     7
100
AcDbCircle
 10
600.9023880057948
 20
137.2107759002922
 30
0.0
 40
1.550000000000027
100
AcDbArc
 50
330.2170297327935
 51
111.6011520853859
  0
LINE
  5
1DD11
330
18
100
AcDbEntity
  8
1
  6
CONTINUOUS
 62
     7
100
AcDbLine
 10
600.3317659356677
 20
138.6519191224384
 30
0.0
 11
599.2760130771481
 21
139.8703237433242
 31
0.0
  0
LINE
  5
1DD12
330
18
100
AcDbEntity
  8
1
  6
CONTINUOUS
 62
     7
100
AcDbLine
 10
599.2760130771481
 20
139.8703237433242
 30
0.0
 11
598.501369693228
 21
139.1990897614765
 31
0.0
  0
LINE
  5
1DD13
330
18
100
AcDbEntity
  8
1
  6
CONTINUOUS
 62
     7
100
AcDbLine
 10
598.501369693228
 20
139.1990897614765
 30
0.0
 11
599.5571225517475
 21
137.9806851405906
 31
0.0
  0
ARC
  5
1DD14
330
18
100
AcDbEntity
  8
1
  6
CONTINUOUS
 62
     7
100
AcDbCircle
 10
600.9023880057948
 20
137.2107759002922
 30
0.0
 40
1.549999999999974
100
AcDbArc
 50
150.2170297327953
 51
291.6011520853867
  0
LINE
  5
1DD15
330
18
100
AcDbEntity
  8
1
  6
CONTINUOUS
 62
     7
100
AcDbLine
 10
601.4730100155854
 20
135.7696340788412
 30
0.0
 11
602.5287628741049
 21
134.5512294579553
 31
0.0
  0
LINE
  5
1DD16
330
18
100
AcDbEntity
  8
1
  6
CONTINUOUS
 62
     7
100
AcDbLine
 10
602.5287628741049
 20
134.5512294579553
 30
0.0
 11
603.3034064908558
 21
135.2224615771579
 31
0.0
  0
LINE
  5
1DD17
330
18
100
AcDbEntity
  8
1
  6
CONTINUOUS
 62
     7
100
AcDbLine
 10
603.3034064908558
 20
135.2224615771579
 30
0.0
 11
602.2476533995056
 21
136.4408661980438
 31
0.0
  0
ARC
  5
1DD18
330
18
100
AcDbEntity
  8
1
  6
CONTINUOUS
 62
     7
100
AcDbCircle
 10
596.020388349519
 20
134.9812413621006
 30
0.0
 40
1.550000000000044
100
AcDbArc
 50
297.4897570055269
 51
78.87387935810989
  0
LINE
  5
1DD19
330
18
100
AcDbEntity
  8
1
  6
CONTINUOUS
 62
     7
100
AcDbLine
 10
596.3194904484832
 20
136.5021081079053
 30
0.0
 11
596.0900535442912
 21
138.0978790480899
 31
0.0
  0
LINE
  5
1DD1A
330
18
100
AcDbEntity
  8
1
  6
CONTINUOUS
 62
     7
100
AcDbLine
 10
596.0900535442912
 20
138.0978790480899
 30
0.0
 11
595.0754865639889
 21
137.9520041305828
 31
0.0
  0
LINE
  5
1DD1B
330
18
100
AcDbEntity
  8
1
  6
CONTINUOUS
 62
     7
100
AcDbLine
 10
595.0754865639889
 20
137.9520041305828
 30
0.0
 11
595.3049234681808
 21
136.3562369156885
 31
0.0
  0
ARC
  5
1DD1C
330
18
100
AcDbEntity
  8
1
  6
CONTINUOUS
 62
     7
100
AcDbCircle
 10
596.020388349519
 20
134.9812413621006
 30
0.0
 40
1.549999999999974
100
AcDbArc
 50
117.489757005519
 51
258.8738793581181
  0
LINE
  5
1DD1D
330
18
100
AcDbEntity
  8
1
  6
CONTINUOUS
 62
     7
100
AcDbLine
 10
595.7212861263239
 20
133.4603731889534
 30
0.0
 11
595.9507230305159
 21
131.8646041114139
 31
0.0
  0
LINE
  5
1DD1E
330
18
100
AcDbEntity
  8
1
  6
CONTINUOUS
 62
     7
100
AcDbLine
 10
595.9507230305159
 20
131.8646041114139
 30
0.0
 11
596.9652900108182
 21
132.0104771662759
 31
0.0
  0
LINE
  5
1DD1F
330
18
100
AcDbEntity
  8
1
  6
CONTINUOUS
 62
     7
100
AcDbLine
 10
596.9652900108182
 20
132.0104771662759
 30
0.0
 11
596.7358531066262
 21
133.6062462438154
 31
0.0
  0
ARC
  5
1DD20
330
18
100
AcDbEntity
  8
1
  6
CONTINUOUS
 62
     7
100
AcDbCircle
 10
590.708011516123
 20
135.7450458402648
 30
0.0
 40
1.550000000000046
100
AcDbArc
 50
264.762484278255
 51
46.14660663083261
  0
LINE
  5
1DD21
330
18
100
AcDbEntity
  8
1
  6
CONTINUOUS
 62
     7
100
AcDbLine
 10
591.7818754547321
 20
136.8627739507961
 30
0.0
 11
592.4515988313639
 21
138.329264279108
 31
0.0
  0
LINE
  5
1DD22
330
18
100
AcDbEntity
  8
1
  6
CONTINUOUS
 62
     7
100
AcDbLine
 10
592.4515988313639
 20
138.329264279108
 30
0.0
 11
591.5192266562068
 21
138.7550649602222
 31
0.0
  0
LINE
  5
1DD23
330
18
100
AcDbEntity
  8
1
  6
CONTINUOUS
 62
     7
100
AcDbLine
 10
591.5192266562068
 20
138.7550649602222
 30
0.0
 11
590.8495023482525
 21
137.2885746319103
 31
0.0
  0
ARC
  5
1DD24
330
18
100
AcDbEntity
  8
1
  6
CONTINUOUS
 62
     7
100
AcDbCircle
 10
590.708011516123
 20
135.7450458402648
 30
0.0
 40
1.549999999999971
100
AcDbArc
 50
84.76248427824639
 51
226.1466066308475
  0
LINE
  5
1DD25
330
18
100
AcDbEntity
  8
1
  6
CONTINUOUS
 62
     7
100
AcDbLine
 10
589.6341478087985
 20
134.6273185123014
 30
0.0
 11
588.9644244321668
 21
133.1608281839895
 31
0.0
  0
LINE
  5
1DD26
330
18
100
AcDbEntity
  8
1
  6
CONTINUOUS
 62
     7
100
AcDbLine
 10
588.9644244321668
 20
133.1608281839895
 30
0.0
 11
589.8967975386464
 21
132.7350275028753
 31
0.0
  0
LINE
  5
1DD27
330
18
100
AcDbEntity
  8
1
  6
CONTINUOUS
 62
     7
100
AcDbLine
 10
589.8967975386464
 20
132.7350275028753
 30
0.0
 11
590.5665209152781
 21
134.2015178311872
 31
0.0
  0
ARC
  5
1DD28
330
18
100
AcDbEntity
  8
1
  6
CONTINUOUS
 62
     7
100
AcDbCircle
 10
586.6518996147489
 20
139.2596868097521
 30
0.0
 40
1.550000000000046
100
AcDbArc
 50
232.0352115509802
 51
13.41933390356525
  0
LINE
  5
1DD29
330
18
100
AcDbEntity
  8
1
  6
CONTINUOUS
 62
     7
100
AcDbLine
 10
588.1595810511195
 20
139.619403089981
 30
0.0
 11
589.5158325889194
 21
140.4910167116928
 31
0.0
  0
LINE
  5
1DD2A
330
18
100
AcDbEntity
  8
1
  6
CONTINUOUS
 62
     7
100
AcDbLine
 10
589.5158325889194
 20
140.4910167116928
 30
0.0
 11
588.9616751679265
 21
141.3532984812068
 31
0.0
  0
LINE
  5
1DD2B
330
18
100
AcDbEntity
  8
1
  6
CONTINUOUS
 62
     7
100
AcDbLine
 10
588.9616751679265
 20
141.3532984812068
 30
0.0
 11
587.6054236301267
 21
140.4816885847854
 31
0.0
  0
ARC
  5
1DD2C
330
18
100
AcDbEntity
  8
1
  6
CONTINUOUS
 62
     7
100
AcDbCircle
 10
586.6518996147489
 20
139.2596868097521
 30
0.0
 40
1.54999999999996
100
AcDbArc
 50
52.0352115509671
 51
193.4193339035744
  0
LINE
  5
1DD2D
330
18
100
AcDbEntity
  8
1
  6
CONTINUOUS
 62
     7
100
AcDbLine
 10
585.1442174621903
 20
138.8999675769615
 30
0.0
 11
583.7879659243905
 21
138.02835768054
 31
0.0
  0
LINE
  5
1DD2E
330
18
100
AcDbEntity
  8
1
  6
CONTINUOUS
 62
     7
100
AcDbLine
 10
583.7879659243905
 20
138.02835768054
 30
0.0
 11
584.3421233453834
 21
137.1660740483808
 31
0.0
  0
LINE
  5
1DD2F
330
18
100
AcDbEntity
  8
1
  6
CONTINUOUS
 62
     7
100
AcDbLine
 10
584.3421233453834
 20
137.1660740483808
 30
0.0
 11
585.6983748831832
 21
138.0376820821571
 31
0.0
  0
ARC
  5
1DD30
330
18
100
AcDbEntity
  8
1
  6
CONTINUOUS
 62
     7
100
AcDbCircle
 10
585.139839514966
 20
144.4092905960165
 30
0.0
 40
1.55
100
AcDbArc
 50
19.30793882370131
 51
160.6920611762957
  0
LINE
  5
1DD31
330
18
100
AcDbEntity
  8
1
  6
CONTINUOUS
 62
     7
100
AcDbLine
 10
583.6770193287217
 20
144.9217913110065
 30
0.0
 11
582.0648403474175
 21
144.9217913110065
 31
0.0
  0
LINE
  5
1DD32
330
18
100
AcDbEntity
  8
1
  6
CONTINUOUS
 62
     7
100
AcDbLine
 10
582.0648403474175
 20
144.9217913110065
 30
0.0
 11
582.0648403474175
 21
143.8967888612556
 31
0.0
  0
LINE
  5
1DD33
330
18
100
AcDbEntity
  8
1
  6
CONTINUOUS
 62
     7
100
AcDbLine
 10
582.0648403474175
 20
143.8967888612556
 30
0.0
 11
583.6770193287217
 21
143.8967888612556
 31
0.0
  0
ARC
  5
1DD34
330
18
100
AcDbEntity
  8
1
  6
CONTINUOUS
 62
     7
100
AcDbCircle
 10
585.139839514966
 20
144.4092905960165
 30
0.0
 40
1.550000000000004
100
AcDbArc
 50
199.3079388237043
 51
340.6920611762987
  0
LINE
  5
1DD35
330
18
100
AcDbEntity
  8
1
  6
CONTINUOUS
 62
     7
100
AcDbLine
 10
586.6026593008124
 20
143.8967888612556
 30
0.0
 11
588.2148401447618
 21
143.8967888612556
 31
0.0
  0
LINE
  5
1DD36
330
18
100
AcDbEntity
  8
1
  6
CONTINUOUS
 62
     7
100
AcDbLine
 10
588.2148401447618
 20
143.8967888612556
 30
0.0
 11
588.2148401447618
 21
144.9217913110065
 31
0.0
  0
LINE
  5
1DD37
330
18
100
AcDbEntity
  8
1
  6
CONTINUOUS
 62
     7
100
AcDbLine
 10
588.2148401447618
 20
144.9217913110065
 30
0.0
 11
586.6026593008124
 21
144.9217913110065
 31
0.0
  0
ARC
  5
1DD38
330
18
100
AcDbEntity
  8
1
  6
CONTINUOUS
 62
     7
100
AcDbCircle
 10
586.651899614749
 20
149.5588943822811
 30
0.0
 40
1.550000000000003
100
AcDbArc
 50
166.5806660964327
 51
307.9647884490264
  0
LINE
  5
1DD39
330
18
100
AcDbEntity
  8
1
  6
CONTINUOUS
 62
     7
100
AcDbLine
 10
587.6054236301267
 20
148.3368915874767
 30
0.0
 11
588.9616751679265
 21
147.4652816910553
 31
0.0
  0
LINE
  5
1DD3A
330
18
100
AcDbEntity
  8
1
  6
CONTINUOUS
 62
     7
100
AcDbLine
 10
588.9616751679265
 20
147.4652816910553
 30
0.0
 11
589.5158325889194
 21
148.3275671858596
 31
0.0
  0
LINE
  5
1DD3B
330
18
100
AcDbEntity
  8
1
  6
CONTINUOUS
 62
     7
100
AcDbLine
 10
589.5158325889194
 20
148.3275671858596
 30
0.0
 11
588.1595810511195
 21
149.1991770822811
 31
0.0
  0
ARC
  5
1DD3C
330
18
100
AcDbEntity
  8
1
  6
CONTINUOUS
 62
     7
100
AcDbCircle
 10
586.651899614749
 20
149.5588943822811
 30
0.0
 40
1.550000000000003
100
AcDbArc
 50
346.5806660964307
 51
127.9647884490264
  0
LINE
  5
1DD3D
330
18
100
AcDbEntity
  8
1
  6
CONTINUOUS
 62
     7
100
AcDbLine
 10
585.6983748831832
 20
150.780898090105
 30
0.0
 11
584.3421233453834
 21
151.6525079865264
 31
0.0
  0
LINE
  5
1DD3E
330
18
100
AcDbEntity
  8
1
  6
CONTINUOUS
 62
     7
100
AcDbLine
 10
584.3421233453834
 20
151.6525079865264
 30
0.0
 11
583.7879659243905
 21
150.7902224917221
 31
0.0
  0
LINE
  5
1DD3F
330
18
100
AcDbEntity
  8
1
  6
CONTINUOUS
 62
     7
100
AcDbLine
 10
583.7879659243905
 20
150.7902224917221
 30
0.0
 11
585.1442174621903
 21
149.9186125953006
 31
0.0
  0
ARC
  5
1DD40
330
18
100
AcDbEntity
  8
1
  6
CONTINUOUS
 62
     7
100
AcDbCircle
 10
590.7080115161231
 20
153.0735353517684
 30
0.0
 40
1.550000000000015
100
AcDbArc
 50
133.8533933691577
 51
275.2375157217492
  0
LINE
  5
1DD41
330
18
100
AcDbEntity
  8
1
  6
CONTINUOUS
 62
     7
100
AcDbLine
 10
590.8495023482525
 20
151.5300055403518
 30
0.0
 11
591.5192266562068
 21
150.0635152120399
 31
0.0
  0
LINE
  5
1DD42
330
18
100
AcDbEntity
  8
1
  6
CONTINUOUS
 62
     7
100
AcDbLine
 10
591.5192266562068
 20
150.0635152120399
 30
0.0
 11
592.4515988313639
 21
150.4893158931541
 31
0.0
  0
LINE
  5
1DD43
330
18
100
AcDbEntity
  8
1
  6
CONTINUOUS
 62
     7
100
AcDbLine
 10
592.4515988313639
 20
150.4893158931541
 30
0.0
 11
591.7818754547321
 21
151.955806221466
 31
0.0
  0
ARC
  5
1DD44
330
18
100
AcDbEntity
  8
1
  6
CONTINUOUS
 62
     7
100
AcDbCircle
 10
590.7080115161231
 20
153.0735353517684
 30
0.0
 40
1.549999999999988
100
AcDbArc
 50
313.8533933691577
 51
95.23751572174932
  0
LINE
  5
1DD45
330
18
100
AcDbEntity
  8
1
  6
CONTINUOUS
 62
     7
100
AcDbLine
 10
590.5665209152781
 20
154.61706420372
 30
0.0
 11
589.8967975386464
 21
156.083554532032
 31
0.0
  0
LINE
  5
1DD46
330
18
100
AcDbEntity
  8
1
  6
CONTINUOUS
 62
     7
100
AcDbLine
 10
589.8967975386464
 20
156.083554532032
 30
0.0
 11
588.9644244321668
 21
155.6577538509178
 31
0.0
  0
LINE
  5
1DD47
330
18
100
AcDbEntity
  8
1
  6
CONTINUOUS
 62
     7
100
AcDbLine
 10
588.9644244321668
 20
155.6577538509178
 30
0.0
 11
589.6341478087985
 21
154.1912635226059
 31
0.0
  0
ARC
  5
1DD48
330
18
100
AcDbEntity
  8
1
  6
CONTINUOUS
 62
     7
100
AcDbCircle
 10
596.0203883495191
 20
153.8373398299324
 30
0.0
 40
1.550000000000015
100
AcDbArc
 50
101.126120641886
 51
242.5102429944815
  0
LINE
  5
1DD49
330
18
100
AcDbEntity
  8
1
  6
CONTINUOUS
 62
     7
100
AcDbLine
 10
595.3049234681808
 20
152.4623451192188
 30
0.0
 11
595.0754865639889
 21
150.8665760416793
 31
0.0
  0
LINE
  5
1DD4A
330
18
100
AcDbEntity
  8
1
  6
CONTINUOUS
 62
     7
100
AcDbLine
 10
595.0754865639889
 20
150.8665760416793
 30
0.0
 11
596.0900535442912
 21
150.7207011241722
 31
0.0
  0
LINE
  5
1DD4B
330
18
100
AcDbEntity
  8
1
  6
CONTINUOUS
 62
     7
100
AcDbLine
 10
596.0900535442912
 20
150.7207011241722
 30
0.0
 11
596.3194904484832
 21
152.3164739270019
 31
0.0
  0
ARC
  5
1DD4C
330
18
100
AcDbEntity
  8
1
  6
CONTINUOUS
 62
     7
100
AcDbCircle
 10
596.0203883495191
 20
153.8373398299324
 30
0.0
 40
1.549999999999992
100
AcDbArc
 50
281.1261206418862
 51
62.51024299447683
  0
LINE
  5
1DD4D
330
18
100
AcDbEntity
  8
1
  6
CONTINUOUS
 62
     7
100
AcDbLine
 10
596.7358531066262
 20
155.2123357910919
 30
0.0
 11
596.9652900108182
 21
156.8081048686313
 31
0.0
  0
LINE
  5
1DD4E
330
18
100
AcDbEntity
  8
1
  6
CONTINUOUS
 62
     7
100
AcDbLine
 10
596.9652900108182
 20
156.8081048686313
 30
0.0
 11
595.9507230305159
 21
156.9539760608482
 31
0.0
  0
LINE
  5
1DD4F
330
18
100
AcDbEntity
  8
1
  6
CONTINUOUS
 62
     7
100
AcDbLine
 10
595.9507230305159
 20
156.9539760608482
 30
0.0
 11
595.7212861263239
 21
155.3582069833087
 31
0.0
  0
ARC
  5
1DD50
330
18
100
AcDbEntity
  8
1
  6
CONTINUOUS
 62
     7
100
AcDbCircle
 10
603.8040100886441
 20
147.0927931999311
 30
0.0
 40
1.550000000000037
100
AcDbArc
 50
35.67157518733819
 51
177.0556975399307
  0
LINE
  5
1DD51
330
18
100
AcDbEntity
  8
1
  6
CONTINUOUS
 62
     7
100
AcDbLine
 10
602.256056257435
 20
147.1724105436611
 30
0.0
 11
600.7091811494016
 21
146.7182045240211
 31
0.0
  0
LINE
  5
1DD52
330
18
100
AcDbEntity
  8
1
  6
CONTINUOUS
 62
     7
100
AcDbLine
 10
600.7091811494016
 20
146.7182045240211
 30
0.0
 11
600.9979572714352
 21
145.7347241599369
 31
0.0
  0
LINE
  5
1DD53
330
18
100
AcDbEntity
  8
1
  6
CONTINUOUS
 62
     7
100
AcDbLine
 10
600.9979572714352
 20
145.7347241599369
 30
0.0
 11
602.544832146638
 21
146.1889301795768
 31
0.0
  0
ARC
  5
1DD54
330
18
100
AcDbEntity
  8
1
  6
CONTINUOUS
 62
     7
100
AcDbCircle
 10
603.8040100886441
 20
147.0927931999311
 30
0.0
 40
1.549999999999985
100
AcDbArc
 50
215.6715751873415
 51
357.055697539935
  0
LINE
  5
1DD55
330
18
100
AcDbEntity
  8
1
  6
CONTINUOUS
 62
     7
100
AcDbLine
 10
605.3519639986613
 20
147.0131767351436
 30
0.0
 11
606.8988389320717
 21
147.4673790294933
 31
0.0
  0
LINE
  5
1DD56
330
18
100
AcDbEntity
  8
1
  6
CONTINUOUS
 62
     7
100
AcDbLine
 10
606.8988389320717
 20
147.4673790294933
 30
0.0
 11
606.6100630428688
 21
148.4508593935775
 31
0.0
  0
LINE
  5
1DD57
330
18
100
AcDbEntity
  8
1
  6
CONTINUOUS
 62
     7
100
AcDbLine
 10
606.6100630428688
 20
148.4508593935775
 30
0.0
 11
605.0631881094583
 21
147.9966570992279
 31
0.0
  0
ARC
  5
1DD58
330
18
100
AcDbEntity
  8
1
  6
CONTINUOUS
 62
     7
100
AcDbCircle
 10
600.9023880057949
 20
151.6078052917408
 30
0.0
 40
1.550000000000012
100
AcDbArc
 50
68.3988479146184
 51
209.7829702672056
  0
LINE
  5
1DD59
330
18
100
AcDbEntity
  8
1
  6
CONTINUOUS
 62
     7
100
AcDbLine
 10
599.5571225517475
 20
150.8378950316715
 30
0.0
 11
598.501369693228
 21
149.6194904107856
 31
0.0
  0
LINE
  5
1DD5A
330
18
100
AcDbEntity
  8
1
  6
CONTINUOUS
 62
     7
100
AcDbLine
 10
598.501369693228
 20
149.6194904107856
 30
0.0
 11
599.2760130771481
 21
148.9482601542282
 31
0.0
  0
LINE
  5
1DD5B
330
18
100
AcDbEntity
  8
1
  6
CONTINUOUS
 62
     7
100
AcDbLine
 10
599.2760130771481
 20
148.9482601542282
 30
0.0
 11
600.3317659356677
 21
150.166664775114
 31
0.0
  0
ARC
  5
1DD5C
330
18
100
AcDbEntity
  8
1
  6
CONTINUOUS
 62
     7
100
AcDbCircle
 10
600.9023880057949
 20
151.6078052917408
 30
0.0
 40
1.549999999999998
100
AcDbArc
 50
248.398847914609
 51
29.7829702672056
  0
LINE
  5
1DD5D
330
18
100
AcDbEntity
  8
1
  6
CONTINUOUS
 62
     7
100
AcDbLine
 10
602.2476533995056
 20
152.3777139742183
 30
0.0
 11
603.3034064908558
 21
153.5961185951042
 31
0.0
  0
LINE
  5
1DD5E
330
18
100
AcDbEntity
  8
1
  6
CONTINUOUS
 62
     7
100
AcDbLine
 10
603.3034064908558
 20
153.5961185951042
 30
0.0
 11
602.5287628741049
 21
154.2673525769519
 31
0.0
  0
LINE
  5
1DD5F
330
18
100
AcDbEntity
  8
1
  6
CONTINUOUS
 62
     7
100
AcDbLine
 10
602.5287628741049
 20
154.2673525769519
 30
0.0
 11
601.4730100155854
 21
153.0489479560661
 31
0.0
  0
LINE
  5
1DD60
330
18
100
AcDbEntity
  8
1
  6
CONTINUOUS
 62
     7
100
AcDbLine
 10
598.5974812516057
 20
143.1643185574817
 30
0.0
 11
600.1648394026839
 21
143.5842891592788
 31
0.0
  0
LINE
  5
1DD61
330
18
100
AcDbEntity
  8
1
  6
CONTINUOUS
 62
     7
100
AcDbLine
 10
600.1648394026839
 20
143.5842891592788
 30
0.0
 11
600.1648394026839
 21
145.2342910129833
 31
0.0
  0
LINE
  5
1DD62
330
18
100
AcDbEntity
  8
1
  6
CONTINUOUS
 62
     7
100
AcDbLine
 10
600.1648394026839
 20
145.2342910129833
 30
0.0
 11
598.5974812516057
 21
145.6542616147804
 31
0.0
  0
ARC
  5
1DD63
330
18
100
AcDbEntity
  8
1
  6
CONTINUOUS
 62
     7
100
AcDbCircle
 10
594.664839514966
 20
144.4092905960165
 30
0.0
 40
4.125
100
AcDbArc
 50
17.56643894805975
 51
342.4335610519403
  0
CIRCLE
  5
1DD64
330
18
100
AcDbEntity
  8
1
  6
CONTINUOUS
 62
     7
100
AcDbCircle
 10
613.664839514966
 20
144.4092905960165
 30
0.0
 40
1.825000000000017
  0
ARC
  5
1DD65
330
18
100
AcDbEntity
  8
1
  6
CONTINUOUS
 62
     7
100
AcDbCircle
 10
613.664839514966
 20
144.4092905960165
 30
0.0
 40
4.500000000000011
100
AcDbArc
 50
318.1896851042193
 51
41.81031489577885
  0
CIRCLE
  5
1DD66
102
{ACAD_REACTORS
102
}
330
18
100
AcDbEntity
  8
1
  6
CONTINUOUS
 62
     7
100
AcDbCircle
 10
575.664839514966
 20
144.4092905960165
 30
0.0
 40
1.825000000000003
  0
ARC
  5
1DD67
330
18
100
AcDbEntity
  8
1
  6
CONTINUOUS
 62
     7
100
AcDbCircle
 10
575.664839514966
 20
144.4092905960165
 30
0.0
 40
4.5
100
AcDbArc
 50
138.1896851042217
 51
221.8103148957806
  0
LINE
  5
1DD68
330
18
100
AcDbEntity
  8
1
  6
CONTINUOUS
 62
     7
100
AcDbLine
 10
601.8739024744415
 20
135.3069791008043
 30
0.0
 11
601.9494774387264
 21
135.3724659789609
 31
0.0
  0
LWPOLYLINE
  5
1DD69
330
18
100
AcDbEntity
  8
1
  6
CONTINUOUS
 62
     7
100
AcDbPolyline
 90
        9
 70
   128
 43
0.0
 10
601.9494774387264
 20
135.3724659789609
 10
601.9515240200841
 20
135.3701041449117
 10
601.9535706014418
 20
135.3677423108625
 10
601.9556171827995
 20
135.3653804768133
 10
601.9576637641572
 20
135.363018642764
 10
601.959710345515
 20
135.3606568087148
 10
601.9617564612114
 20
135.3582949746656
 10
601.9638025769078
 20
135.3559331406164
 10
601.9658486926043
 20
135.3535713065671
  0
LINE
  5
1DD6A
330
18
100
AcDbEntity
  8
1
  6
CONTINUOUS
 62
     7
100
AcDbLine
 10
601.9658486926043
 20
135.3535713065671
 30
0.0
 11
602.0130830452823
 21
135.3945010710763
 31
0.0
  0
LINE
  5
1DD6B
330
18
100
AcDbEntity
  8
1
  6
CONTINUOUS
 62
     7
100
AcDbLine
 10
602.5421077952766
 20
135.8529036302375
 30
0.0
 11
602.5893421479547
 21
135.8938315321016
 31
0.0
  0
LWPOLYLINE
  5
1DD6C
330
18
100
AcDbEntity
  8
1
  6
CONTINUOUS
 62
     7
100
AcDbPolyline
 90
        9
 70
   128
 43
0.0
 10
602.5893421479547
 20
135.8938315321016
 10
602.5872962650889
 20
135.8961933661508
 10
602.5852499165618
 20
135.8985552002
 10
602.5832035680347
 20
135.9009170342493
 10
602.5811572195076
 20
135.9032788682985
 10
602.5791106381499
 20
135.9056407023477
 10
602.5770640567922
 20
135.9080025363969
 10
602.5750174754345
 20
135.9103643704462
 10
602.5729706612461
 20
135.9127262044954
  0
LINE
  5
1DD6D
330
18
100
AcDbEntity
  8
1
  6
CONTINUOUS
 62
     7
100
AcDbLine
 10
602.5729706612461
 20
135.9127262044954
 30
0.0
 11
602.648545625531
 21
135.9782112200069
 31
0.0
  0
LINE
  5
1DD6E
330
18
100
AcDbEntity
  8
1
  6
CONTINUOUS
 62
     7
100
AcDbLine
 10
599.9308734768116
 20
139.1145741004753
 30
0.0
 11
599.8552985125267
 21
139.0490872223186
 31
0.0
  0
LWPOLYLINE
  5
1DD6F
330
18
100
AcDbEntity
  8
1
  6
CONTINUOUS
 62
     7
100
AcDbPolyline
 90
        9
 70
   128
 43
0.0
 10
599.8552985125267
 20
139.0490872223186
 10
599.853251931169
 20
139.0514490563678
 10
599.8512053498113
 20
139.0538108904171
 10
599.8491587684535
 20
139.0561727244663
 10
599.8471121870958
 20
139.0585345585155
 10
599.8450656057381
 20
139.0608963925647
 10
599.8430194900417
 20
139.063258226614
 10
599.8409733743453
 20
139.0656200606632
 10
599.8389272586488
 20
139.0679818947124
  0
LINE
  5
1DD70
330
18
100
AcDbEntity
  8
1
  6
CONTINUOUS
 62
     7
100
AcDbLine
 10
599.8389272586488
 20
139.0679818947124
 30
0.0
 11
599.7916929059708
 21
139.0270521302032
 31
0.0
  0
LINE
  5
1DD71
330
18
100
AcDbEntity
  8
1
  6
CONTINUOUS
 62
     7
100
AcDbLine
 10
599.2626681559765
 20
138.5686477083969
 30
0.0
 11
599.2154338032984
 21
138.527721669178
 31
0.0
  0
LWPOLYLINE
  5
1DD72
330
18
100
AcDbEntity
  8
1
  6
CONTINUOUS
 62
     7
100
AcDbPolyline
 90
        9
 70
   128
 43
0.0
 10
599.2154338032984
 20
138.527721669178
 10
599.2174799189949
 20
138.5253598351287
 10
599.2195260346913
 20
138.5229980010795
 10
599.221572616049
 20
138.5206361670303
 10
599.2236187317454
 20
138.5182743329811
 10
599.2256653131031
 20
138.5159124989318
 10
599.2277118944609
 20
138.5135506648826
 10
599.2297584758186
 20
138.5111888308334
 10
599.2318050571763
 20
138.5088269967842
  0
LINE
  5
1DD73
330
18
100
AcDbEntity
  8
1
  6
CONTINUOUS
 62
     7
100
AcDbLine
 10
599.2318050571763
 20
138.5088269967842
 30
0.0
 11
599.1562305585527
 21
138.4433401186275
 31
0.0
  0
LINE
  5
1DD74
330
18
100
AcDbEntity
  8
1
  6
CONTINUOUS
 62
     7
100
AcDbLine
 10
605.9393459450499
 20
147.1856465000915
 30
0.0
 11
605.9111726804682
 21
147.281598802309
 31
0.0
  0
LWPOLYLINE
  5
1DD75
330
18
100
AcDbEntity
  8
1
  6
CONTINUOUS
 62
     7
100
AcDbPolyline
 90
        9
 70
   128
 43
0.0
 10
605.9111726804682
 20
147.281598802309
 10
605.9141714227432
 20
147.2824779708194
 10
605.9171701068104
 20
147.2833571393299
 10
605.92016873267
 20
147.2842400331306
 10
605.923167300322
 20
147.285119201641
 10
605.926165693351
 20
147.2859983701515
 10
605.9291640281723
 20
147.2868812639522
 10
605.932162130163
 20
147.2877604324626
 10
605.935159999323
 20
147.2886396009731
  0
LINE
  5
1DD76
330
18
100
AcDbEntity
  8
1
  6
CONTINUOUS
 62
     7
100
AcDbLine
 10
605.935159999323
 20
147.2886396009731
 30
0.0
 11
605.9175517162354
 21
147.3486093241977
 31
0.0
  0
LINE
  5
1DD77
330
18
100
AcDbEntity
  8
1
  6
CONTINUOUS
 62
     7
100
AcDbLine
 10
605.7203389223711
 20
148.0202530879783
 30
0.0
 11
605.7027306392835
 21
148.080222811203
 31
0.0
  0
LWPOLYLINE
  5
1DD78
330
18
100
AcDbEntity
  8
1
  6
CONTINUOUS
 62
     7
100
AcDbPolyline
 90
        9
 70
   128
 43
0.0
 10
605.7027306392835
 20
148.080222811203
 10
605.6997327701234
 20
148.0793436426925
 10
605.6967346681328
 20
148.0784607488918
 10
605.6937363333114
 20
148.0775815803813
 10
605.6907379402825
 20
148.0767024118709
 10
605.6877393726305
 20
148.0758195180702
 10
605.6847407467709
 20
148.0749403495597
 10
605.6817420627036
 20
148.0740611810493
 10
605.6787433204287
 20
148.0731782872486
  0
LINE
  5
1DD79
330
18
100
AcDbEntity
  8
1
  6
CONTINUOUS
 62
     7
100
AcDbLine
 10
605.6787433204287
 20
148.0731782872486
 30
0.0
 11
605.650570055847
 21
148.1691268641758
 31
0.0
  0
LINE
  5
1DD7A
330
18
100
AcDbEntity
  8
1
  6
CONTINUOUS
 62
     7
100
AcDbLine
 10
595.2178019666159
 20
151.8563968498516
 30
0.0
 11
595.3167838611686
 21
151.8421662409114
 31
0.0
  0
LWPOLYLINE
  5
1DD7B
330
18
100
AcDbEntity
  8
1
  6
CONTINUOUS
 62
     7
100
AcDbPolyline
 90
        9
 70
   128
 43
0.0
 10
595.3167838611686
 20
151.8421662409114
 10
595.3163386889779
 20
151.8390705246734
 10
595.3158944481098
 20
151.8359785337257
 10
595.3154492759191
 20
151.832886542778
 10
595.3150050350511
 20
151.8297908265399
 10
595.3145598628604
 20
151.8266988355922
 10
595.3141156219923
 20
151.8236068446445
 10
595.3136704498016
 20
151.8205111284065
 10
595.3132262089335
 20
151.8174191374588
  0
LINE
  5
1DD7C
330
18
100
AcDbEntity
  8
1
  6
CONTINUOUS
 62
     7
100
AcDbLine
 10
595.3132262089335
 20
151.8174191374588
 30
0.0
 11
595.3750893109524
 21
151.808523144226
 31
0.0
  0
LINE
  5
1DD7D
330
18
100
AcDbEntity
  8
1
  6
CONTINUOUS
 62
     7
100
AcDbLine
 10
596.0679644354665
 20
151.7089051563549
 30
0.0
 11
596.1298284688079
 21
151.7000091631221
 31
0.0
  0
LWPOLYLINE
  5
1DD7E
330
18
100
AcDbEntity
  8
1
  6
CONTINUOUS
 62
     7
100
AcDbPolyline
 90
        9
 70
   128
 43
0.0
 10
596.1298284688079
 20
151.7000091631221
 10
596.1302736409986
 20
151.7031011540699
 10
596.1307178818666
 20
151.7061968703079
 10
596.1311630540573
 20
151.7092888612556
 10
596.1316072949254
 20
151.7123808522033
 10
596.1320524671161
 20
151.7154765684413
 10
596.1324967079842
 20
151.7185685593891
 10
596.1329418801748
 20
151.7216605503368
 10
596.1333861210429
 20
151.7247562665748
  0
LINE
  5
1DD7F
330
18
100
AcDbEntity
  8
1
  6
CONTINUOUS
 62
     7
100
AcDbLine
 10
596.1333861210429
 20
151.7247562665748
 30
0.0
 11
596.2323689469182
 21
151.7105256576347
 31
0.0
  0
LINE
  5
1DD80
330
18
100
AcDbEntity
  8
1
  6
CONTINUOUS
 62
     7
100
AcDbLine
 10
596.8229755395138
 20
155.8182840604591
 30
0.0
 11
596.7239927136385
 21
155.8325146693992
 31
0.0
  0
LWPOLYLINE
  5
1DD81
330
18
100
AcDbEntity
  8
1
  6
CONTINUOUS
 62
     7
100
AcDbPolyline
 90
        9
 70
   128
 43
0.0
 10
596.7239927136385
 20
155.8325146693992
 10
596.7244378858292
 20
155.8356066603469
 10
596.7248821266973
 20
155.838702376585
 10
596.7253272988879
 20
155.8417943675327
 10
596.7257724710786
 20
155.8448863584804
 10
596.7262167119467
 20
155.8479820747184
 10
596.7266618841373
 20
155.8510740656662
 10
596.7271061250054
 20
155.8541660566139
 10
596.7275512971961
 20
155.8572617728519
  0
LINE
  5
1DD82
330
18
100
AcDbEntity
  8
1
  6
CONTINUOUS
 62
     7
100
AcDbLine
 10
596.7275512971961
 20
155.8572617728519
 30
0.0
 11
596.6656872638547
 21
155.8661540407943
 31
0.0
  0
LINE
  5
1DD83
330
18
100
AcDbEntity
  8
1
  6
CONTINUOUS
 62
     7
100
AcDbLine
 10
595.9728121393406
 20
155.9657757539558
 30
0.0
 11
595.9109481059992
 21
155.9746680218982
 31
0.0
  0
LWPOLYLINE
  5
1DD84
330
18
100
AcDbEntity
  8
1
  6
CONTINUOUS
 62
     7
100
AcDbPolyline
 90
        9
 70
   128
 43
0.0
 10
595.9109481059992
 20
155.9746680218982
 10
595.9105038651311
 20
155.9715760309505
 10
595.9100586929404
 20
155.9684840400028
 10
595.9096144520723
 20
155.9653920490551
 10
595.9091692798817
 20
155.962296332817
 10
595.9087250390136
 20
155.9592043418693
 10
595.9082798668229
 20
155.9561123509216
 10
595.9078346946322
 20
155.9530166346836
 10
595.9073904537642
 20
155.9499246437358
  0
LINE
  5
1DD85
330
18
100
AcDbEntity
  8
1
  6
CONTINUOUS
 62
     7
100
AcDbLine
 10
595.9073904537642
 20
155.9499246437358
 30
0.0
 11
595.8084085592114
 21
155.964155252676
 31
0.0
  0
LINE
  5
1DD86
330
18
100
AcDbEntity
  8
1
  6
CONTINUOUS
 62
     7
100
AcDbLine
 10
583.0648386486852
 20
144.9217913110065
 30
0.0
 11
583.0648386486852
 21
144.8217896182346
 31
0.0
  0
LINE
  5
1DD87
330
18
100
AcDbEntity
  8
1
  6
CONTINUOUS
 62
     7
100
AcDbLine
 10
583.0648386486852
 20
144.8217896182346
 30
0.0
 11
583.0398400881373
 21
144.8217896182346
 31
0.0
  0
LINE
  5
1DD88
330
18
100
AcDbEntity
  8
1
  6
CONTINUOUS
 62
     7
100
AcDbLine
 10
583.0398400881373
 20
144.8217896182346
 30
0.0
 11
583.0398400881373
 21
144.7592904228973
 31
0.0
  0
LINE
  5
1DD89
330
18
100
AcDbEntity
  8
1
  6
CONTINUOUS
 62
     7
100
AcDbLine
 10
583.0398400881373
 20
144.0592897493648
 30
0.0
 11
583.0398400881373
 21
143.9967905540275
 31
0.0
  0
LINE
  5
1DD8A
330
18
100
AcDbEntity
  8
1
  6
CONTINUOUS
 62
     7
100
AcDbLine
 10
583.0398400881373
 20
143.9967905540275
 30
0.0
 11
583.0648386486852
 21
143.9967905540275
 31
0.0
  0
LINE
  5
1DD8B
330
18
100
AcDbEntity
  8
1
  6
CONTINUOUS
 62
     7
100
AcDbLine
 10
583.0648386486852
 20
143.9967905540275
 30
0.0
 11
583.0648386486852
 21
143.8967888612556
 31
0.0
  0
LINE
  5
1DD8C
330
18
100
AcDbEntity
  8
1
  6
CONTINUOUS
 62
     7
100
AcDbLine
 10
595.8084085592114
 20
132.8544249195861
 30
0.0
 11
595.9073904537642
 21
132.8686573911714
 31
0.0
  0
LWPOLYLINE
  5
1DD8D
330
18
100
AcDbEntity
  8
1
  6
CONTINUOUS
 62
     7
100
AcDbPolyline
 90
        9
 70
   128
 43
0.0
 10
595.9073904537642
 20
132.8686573911714
 10
595.9078346946322
 20
132.8655635375785
 10
595.9082798668229
 20
132.8624696839857
 10
595.9087250390136
 20
132.8593758303928
 10
595.9091692798817
 20
132.8562838394451
 10
595.9096144520723
 20
132.8531899858522
 10
595.9100586929404
 20
132.8500961322593
 10
595.9105038651311
 20
132.8470041413116
 10
595.9109481059992
 20
132.8439121503639
  0
LINE
  5
1DD8E
330
18
100
AcDbEntity
  8
1
  6
CONTINUOUS
 62
     7
100
AcDbLine
 10
595.9109481059992
 20
132.8439121503639
 30
0.0
 11
595.9728121393406
 21
132.8528062809515
 31
0.0
  0
LINE
  5
1DD8F
330
18
100
AcDbEntity
  8
1
  6
CONTINUOUS
 62
     7
100
AcDbLine
 10
596.6656872638547
 20
132.9524261314678
 30
0.0
 11
596.7275512971961
 21
132.9613221247005
 31
0.0
  0
LWPOLYLINE
  5
1DD90
330
18
100
AcDbEntity
  8
1
  6
CONTINUOUS
 62
     7
100
AcDbPolyline
 90
        9
 70
   128
 43
0.0
 10
596.7275512971961
 20
132.9613221247005
 10
596.7271061250054
 20
132.9644141156482
 10
596.7266618841373
 20
132.9675061065959
 10
596.7262167119467
 20
132.9705999601888
 10
596.7257724710786
 20
132.9736938137817
 10
596.7253272988879
 20
132.9767858047294
 10
596.7248821266973
 20
132.9798796583223
 10
596.7244378858292
 20
132.9829735119152
 10
596.7239927136385
 20
132.986067365508
  0
LINE
  5
1DD91
330
18
100
AcDbEntity
  8
1
  6
CONTINUOUS
 62
     7
100
AcDbLine
 10
596.7239927136385
 20
132.986067365508
 30
0.0
 11
596.8229755395138
 21
133.0002979744482
 31
0.0
  0
LINE
  5
1DD92
330
18
100
AcDbEntity
  8
1
  6
CONTINUOUS
 62
     7
100
AcDbLine
 10
588.6745782204949
 20
139.9503727812576
 30
0.0
 11
588.6205149450385
 21
140.0345010120678
 31
0.0
  0
LWPOLYLINE
  5
1DD93
330
18
100
AcDbEntity
  8
1
  6
CONTINUOUS
 62
     7
100
AcDbPolyline
 90
        9
 70
   128
 43
0.0
 10
588.6205149450385
 20
140.0345010120678
 10
588.6231449999892
 20
140.036188568573
 10
588.6257731922948
 20
140.0378798503685
 10
588.6284032472455
 20
140.0395674068737
 10
588.6310314395511
 20
140.0412586886692
 10
588.6336596318566
 20
140.0429462451744
 10
588.6362896868073
 20
140.0446375269699
 10
588.6389178791129
 20
140.0463250834751
 10
588.6415460714185
 20
140.0480163652706
  0
LINE
  5
1DD94
330
18
100
AcDbEntity
  8
1
  6
CONTINUOUS
 62
     7
100
AcDbLine
 10
588.6415460714185
 20
140.0480163652706
 30
0.0
 11
588.6077558257663
 21
140.1005951125431
 31
0.0
  0
LINE
  5
1DD95
330
18
100
AcDbEntity
  8
1
  6
CONTINUOUS
 62
     7
100
AcDbLine
 10
588.2293073096358
 20
140.6894703764724
 30
0.0
 11
588.1955170639836
 21
140.7420491237449
 31
0.0
  0
LWPOLYLINE
  5
1DD96
330
18
100
AcDbEntity
  8
1
  6
CONTINUOUS
 62
     7
100
AcDbPolyline
 90
        9
 70
   128
 43
0.0
 10
588.1955170639836
 20
140.7420491237449
 10
588.1928888716781
 20
140.7403615672397
 10
588.1902606793725
 20
140.7386702854442
 10
588.1876324870669
 20
140.736982728939
 10
588.1850024321162
 20
140.7352914471435
 10
588.1823742398107
 20
140.7336038906383
 10
588.1797441848599
 20
140.7319126088428
 10
588.1771159925544
 20
140.7302250523376
 10
588.1744859376037
 20
140.7285337705421
  0
LINE
  5
1DD97
330
18
100
AcDbEntity
  8
1
  6
CONTINUOUS
 62
     7
100
AcDbLine
 10
588.1744859376037
 20
140.7285337705421
 30
0.0
 11
588.1204226621472
 21
140.812658276062
 31
0.0
  0
LINE
  5
1DD98
330
18
100
AcDbEntity
  8
1
  6
CONTINUOUS
 62
     7
100
AcDbLine
 10
601.6686743692541
 20
146.9999370534229
 30
0.0
 11
601.6968473427975
 21
146.9039884764957
 31
0.0
  0
ARC
  5
1DD99
330
18
100
AcDbEntity
  8
1
  6
CONTINUOUS
 62
     7
100
AcDbCircle
 10
602.8060572274934
 20
143.0826824713079
 30
0.0
 40
3.979035832157273
100
AcDbArc
 50
106.1864193299367
 51
106.5464076630416
  0
LINE
  5
1DD9A
330
18
100
AcDbEntity
  8
1
  6
CONTINUOUS
 62
     7
100
AcDbLine
 10
601.6728601985657
 20
146.8969439525413
 30
0.0
 11
601.6904682488226
 21
146.836977954607
 31
0.0
  0
LINE
  5
1DD9B
330
18
100
AcDbEntity
  8
1
  6
CONTINUOUS
 62
     7
100
AcDbLine
 10
601.8876813919329
 20
146.1653304655361
 30
0.0
 11
601.9052894421899
 21
146.1053644676017
 31
0.0
  0
LWPOLYLINE
  5
1DD9C
330
18
100
AcDbEntity
  8
1
  6
CONTINUOUS
 62
     7
100
AcDbPolyline
 90
        9
 70
   128
 43
0.0
 10
601.9052894421899
 20
146.1053644676017
 10
601.9082873695576
 20
146.1062436361122
 10
601.9112857625865
 20
146.1071228046226
 10
601.9142836899542
 20
146.1080056984233
 10
601.9172820829832
 20
146.1088848669338
 10
601.9202809416735
 20
146.1097640354442
 10
601.9232793347024
 20
146.110646929245
 10
601.9262781933927
 20
146.1115260977554
 10
601.929277052083
 20
146.1124089915561
  0
LINE
  5
1DD9D
330
18
100
AcDbEntity
  8
1
  6
CONTINUOUS
 62
     7
100
AcDbLine
 10
601.929277052083
 20
146.1124089915561
 30
0.0
 11
601.9574500256264
 21
146.0164566893386
 31
0.0
  0
LINE
  5
1DD9E
330
18
100
AcDbEntity
  8
1
  6
CONTINUOUS
 62
     7
100
AcDbLine
 10
599.1562305585527
 20
150.3752400536346
 30
0.0
 11
599.2318050571763
 21
150.3097531754779
 31
0.0
  0
LWPOLYLINE
  5
1DD9F
330
18
100
AcDbEntity
  8
1
  6
CONTINUOUS
 62
     7
100
AcDbPolyline
 90
        9
 70
   128
 43
0.0
 10
599.2318050571763
 20
150.3097531754779
 10
599.2297584758186
 20
150.3073913414287
 10
599.2277118944609
 20
150.3050295073795
 10
599.2256653131031
 20
150.3026676733303
 10
599.2236187317454
 20
150.300305839281
 10
599.221572616049
 20
150.2979440052318
 10
599.2195260346913
 20
150.2955821711826
 10
599.2174799189949
 20
150.2932240624237
 10
599.2154338032984
 20
150.2908622283744
  0
LINE
  5
1DDA0
330
18
100
AcDbEntity
  8
1
  6
CONTINUOUS
 62
     7
100
AcDbLine
 10
599.2154338032984
 20
150.2908622283744
 30
0.0
 11
599.2626681559765
 21
150.2499324638652
 31
0.0
  0
LINE
  5
1DDA1
330
18
100
AcDbEntity
  8
1
  6
CONTINUOUS
 62
     7
100
AcDbLine
 10
599.7916929059708
 20
149.7915317673492
 30
0.0
 11
599.8389272586488
 21
149.75060200284
 31
0.0
  0
ARC
  5
1DDA2
330
18
100
AcDbEntity
  8
1
  6
CONTINUOUS
 62
     7
100
AcDbCircle
 10
616.3174375021143
 20
135.4893670997027
 30
0.0
 40
21.7927538600898
100
AcDbArc
 50
139.0599027457106
 51
139.1256321645243
  0
LINE
  5
1DDA3
330
18
100
AcDbEntity
  8
1
  6
CONTINUOUS
 62
     7
100
AcDbLine
 10
599.8552985125267
 20
149.7694966752338
 30
0.0
 11
599.9308734768116
 21
149.7040097970771
 31
0.0
  0
LINE
  5
1DDA4
330
18
100
AcDbEntity
  8
1
  6
CONTINUOUS
 62
     7
100
AcDbLine
 10
601.9574500256264
 20
142.8021234829235
 30
0.0
 11
601.929277052083
 21
142.7061749059963
 31
0.0
  0
LWPOLYLINE
  5
1DDA5
330
18
100
AcDbEntity
  8
1
  6
CONTINUOUS
 62
     7
100
AcDbPolyline
 90
        9
 70
   128
 43
0.0
 10
601.929277052083
 20
142.7061749059963
 10
601.9262781933927
 20
142.7070540745067
 10
601.9232793347024
 20
142.7079332430172
 10
601.9202809416735
 20
142.7088161368179
 10
601.9172820829832
 20
142.7096953053283
 10
601.9142836899542
 20
142.7105744738388
 10
601.9112857625865
 20
142.7114573676395
 10
601.9082873695576
 20
142.7123365361499
 10
601.9052894421899
 20
142.7132157046604
  0
LINE
  5
1DDA6
330
18
100
AcDbEntity
  8
1
  6
CONTINUOUS
 62
     7
100
AcDbLine
 10
601.9052894421899
 20
142.7132157046604
 30
0.0
 11
601.8876813919329
 21
142.653249706726
 31
0.0
  0
LINE
  5
1DDA7
330
18
100
AcDbEntity
  8
1
  6
CONTINUOUS
 62
     7
100
AcDbLine
 10
601.6904682488226
 20
141.9816022176551
 30
0.0
 11
601.6728601985657
 21
141.9216362197208
 31
0.0
  0
LWPOLYLINE
  5
1DDA8
330
18
100
AcDbEntity
  8
1
  6
CONTINUOUS
 62
     7
100
AcDbPolyline
 90
        9
 70
   128
 43
0.0
 10
601.6728601985657
 20
141.9216362197208
 10
601.6758581259334
 20
141.9207570512104
 10
601.678856053301
 20
141.9198741574096
 10
601.68185444633
 20
141.9189949888992
 10
601.684852839359
 20
141.9181158203887
 10
601.687851232388
 20
141.917232926588
 10
601.6908500910782
 20
141.9163537580776
 10
601.6938489497685
 20
141.9154708642768
 10
601.6968473427975
 20
141.9145916957664
  0
LINE
  5
1DDA9
330
18
100
AcDbEntity
  8
1
  6
CONTINUOUS
 62
     7
100
AcDbLine
 10
601.6968473427975
 20
141.9145916957664
 30
0.0
 11
601.6686743692541
 21
141.8186431188392
 31
0.0
  0
LINE
  5
1DDAA
330
18
100
AcDbEntity
  8
1
  6
CONTINUOUS
 62
     7
100
AcDbLine
 10
596.2323689469182
 20
137.1080563772726
 30
0.0
 11
596.1333861210429
 21
137.0938257683324
 31
0.0
  0
LWPOLYLINE
  5
1DDAB
330
18
100
AcDbEntity
  8
1
  6
CONTINUOUS
 62
     7
100
AcDbPolyline
 90
        9
 70
   128
 43
0.0
 10
596.1333861210429
 20
137.0938257683324
 10
596.1329418801748
 20
137.0969196219253
 10
596.1324967079842
 20
137.1000134755182
 10
596.1320524671161
 20
137.1031054664659
 10
596.1316072949254
 20
137.1061993200588
 10
596.1311630540573
 20
137.1092931736517
 10
596.1307178818666
 20
137.1123851645994
 10
596.1302736409986
 20
137.1154790181922
 10
596.1298284688079
 20
137.11857100914
  0
LINE
  5
1DDAC
330
18
100
AcDbEntity
  8
1
  6
CONTINUOUS
 62
     7
100
AcDbLine
 10
596.1298284688079
 20
137.11857100914
 30
0.0
 11
596.0679644354665
 21
137.1096768785524
 31
0.0
  0
LINE
  5
1DDAD
330
18
100
AcDbEntity
  8
1
  6
CONTINUOUS
 62
     7
100
AcDbLine
 10
595.3750893109524
 20
137.0100570280361
 30
0.0
 11
595.3132262089335
 21
137.0011610348033
 31
0.0
  0
LWPOLYLINE
  5
1DDAE
330
18
100
AcDbEntity
  8
1
  6
CONTINUOUS
 62
     7
100
AcDbPolyline
 90
        9
 70
   128
 43
0.0
 10
595.3132262089335
 20
137.0011610348033
 10
595.3136704498016
 20
136.9980690438556
 10
595.3141156219923
 20
136.9949751902627
 10
595.3145598628604
 20
136.991883199315
 10
595.3150050350511
 20
136.9887893457222
 10
595.3154492759191
 20
136.9856954921293
 10
595.3158944481098
 20
136.9826035011816
 10
595.3163386889779
 20
136.9795096475887
 10
595.3167838611686
 20
136.9764157939958
  0
LINE
  5
1DDAF
330
18
100
AcDbEntity
  8
1
  6
CONTINUOUS
 62
     7
100
AcDbLine
 10
595.3167838611686
 20
136.9764157939958
 30
0.0
 11
595.2178019666159
 21
136.9621851850557
 31
0.0
  0
LINE
  5
1DDB0
330
18
100
AcDbEntity
  8
1
  6
CONTINUOUS
 62
     7
100
AcDbLine
 10
591.1038111531221
 20
150.9731491465377
 30
0.0
 11
591.1947743603074
 21
151.0146898586559
 31
0.0
  0
LWPOLYLINE
  5
1DDB1
330
18
100
AcDbEntity
  8
1
  6
CONTINUOUS
 62
     7
100
AcDbPolyline
 90
        9
 70
   128
 43
0.0
 10
591.1947743603074
 20
151.0146898586559
 10
591.1960726239764
 20
151.0118474621582
 10
591.1973708876454
 20
151.0090050656604
 10
591.1986691513144
 20
151.0061626691627
 10
591.1999674149835
 20
151.003320272665
 10
591.2012656786525
 20
151.0004778761673
 10
591.2025639423215
 20
150.9976354796695
 10
591.2038622059905
 20
150.9947930831718
 10
591.2051595383369
 20
150.9919506866741
  0
LINE
  5
1DDB2
330
18
100
AcDbEntity
  8
1
  6
CONTINUOUS
 62
     7
100
AcDbLine
 10
591.2051595383369
 20
150.9919506866741
 30
0.0
 11
591.2620121249043
 21
151.0179122347641
 31
0.0
  0
LINE
  5
1DDB3
330
18
100
AcDbEntity
  8
1
  6
CONTINUOUS
 62
     7
100
AcDbLine
 10
591.8987545752012
 20
151.3087046701717
 30
0.0
 11
591.955606230446
 21
151.3346662182617
 31
0.0
  0
LWPOLYLINE
  5
1DDB4
330
18
100
AcDbEntity
  8
1
  6
CONTINUOUS
 62
     7
100
AcDbPolyline
 90
        9
 70
   128
 43
0.0
 10
591.955606230446
 20
151.3346662182617
 10
591.954307966777
 20
151.3375086147594
 10
591.9530106344306
 20
151.3403510112571
 10
591.9517123707616
 20
151.3431934077549
 10
591.9504141070926
 20
151.3460358042526
 10
591.9491158434236
 20
151.3488782007503
 10
591.9478175797545
 20
151.351720597248
 10
591.9465193160855
 20
151.3545629937458
 10
591.9452210524165
 20
151.3574091155338
  0
LINE
  5
1DDB5
330
18
100
AcDbEntity
  8
1
  6
CONTINUOUS
 62
     7
100
AcDbLine
 10
591.9452210524165
 20
151.3574091155338
 30
0.0
 11
592.0361842596018
 21
151.3989498276519
 31
0.0
  0
LINE
  5
1DDB6
330
18
100
AcDbEntity
  8
1
  6
CONTINUOUS
 62
     7
100
AcDbLine
 10
590.3122121104085
 20
155.1739205975341
 30
0.0
 11
590.2212479719007
 21
155.132379885416
 31
0.0
  0
LWPOLYLINE
  5
1DDB7
330
18
100
AcDbEntity
  8
1
  6
CONTINUOUS
 62
     7
100
AcDbPolyline
 90
        9
 70
   128
 43
0.0
 10
590.2212479719007
 20
155.132379885416
 10
590.2199497082316
 20
155.1352222819137
 10
590.2186514445626
 20
155.1380646784114
 10
590.2173531808936
 20
155.1409108001995
 10
590.2160549172246
 20
155.1437531966972
 10
590.2147566535556
 20
155.1465955931949
 10
590.2134583898866
 20
155.1494379896926
 10
590.2121619888627
 20
155.1522803861904
 10
590.2108637251937
 20
155.1551227826881
  0
LINE
  5
1DDB8
330
18
100
AcDbEntity
  8
1
  6
CONTINUOUS
 62
     7
100
AcDbLine
 10
590.2108637251937
 20
155.1551227826881
 30
0.0
 11
590.1540120699489
 21
155.1291575093078
 31
0.0
  0
LINE
  5
1DDB9
330
18
100
AcDbEntity
  8
1
  6
CONTINUOUS
 62
     7
100
AcDbLine
 10
589.5172686883294
 20
154.8383687991905
 30
0.0
 11
589.4604170330846
 21
154.8124035258102
 31
0.0
  0
LWPOLYLINE
  5
1DDBA
330
18
100
AcDbEntity
  8
1
  6
CONTINUOUS
 62
     7
100
AcDbPolyline
 90
        9
 70
   128
 43
0.0
 10
589.4604170330846
 20
154.8124035258102
 10
589.4617152967536
 20
154.8095611293125
 10
589.4630135604226
 20
154.8067187328147
 10
589.4643118240916
 20
154.803876336317
 10
589.4656082251155
 20
154.8010339398193
 10
589.4669064887845
 20
154.7981915433216
 10
589.4682047524535
 20
154.7953491468238
 10
589.4695030161225
 20
154.7925067503261
 10
589.4708012797915
 20
154.7896643538284
  0
LINE
  5
1DDBB
330
18
100
AcDbEntity
  8
1
  6
CONTINUOUS
 62
     7
100
AcDbLine
 10
589.4708012797915
 20
154.7896643538284
 30
0.0
 11
589.3798390039289
 21
154.7481199164199
 31
0.0
  0
LINE
  5
1DDBC
330
18
100
AcDbEntity
  8
1
  6
CONTINUOUS
 62
     7
100
AcDbLine
 10
605.650570055847
 20
140.6494533080864
 30
0.0
 11
605.6787433204287
 21
140.7454018850135
 31
0.0
  0
ARC
  5
1DDBD
330
18
100
AcDbEntity
  8
1
  6
CONTINUOUS
 62
     7
100
AcDbCircle
 10
604.8651378840996
 20
137.9306309305278
 30
0.0
 40
2.929998179562717
100
AcDbArc
 50
73.3892591769807
 51
73.87813936657975
  0
LINE
  5
1DDBE
330
18
100
AcDbEntity
  8
1
  6
CONTINUOUS
 62
     7
100
AcDbLine
 10
605.7027306392835
 20
140.7383573610591
 30
0.0
 11
605.7203389223711
 21
140.7983270842838
 31
0.0
  0
LINE
  5
1DDBF
330
18
100
AcDbEntity
  8
1
  6
CONTINUOUS
 62
     7
100
AcDbLine
 10
605.9175517162354
 20
141.4699708480644
 30
0.0
 11
605.935159999323
 21
141.529940571289
 31
0.0
  0
LWPOLYLINE
  5
1DDC0
330
18
100
AcDbEntity
  8
1
  6
CONTINUOUS
 62
     7
100
AcDbPolyline
 90
        9
 70
   128
 43
0.0
 10
605.935159999323
 20
141.529940571289
 10
605.932162130163
 20
141.5308197397995
 10
605.9291640281723
 20
141.5317026336002
 10
605.926165693351
 20
141.5325818021106
 10
605.923167300322
 20
141.5334609706211
 10
605.92016873267
 20
141.5343438644218
 10
605.9171701068104
 20
141.5352230329322
 10
605.9141714227432
 20
141.5361022014427
 10
605.9111726804682
 20
141.5369850952434
  0
LINE
  5
1DDC1
330
18
100
AcDbEntity
  8
1
  6
CONTINUOUS
 62
     7
100
AcDbLine
 10
605.9111726804682
 20
141.5369850952434
 30
0.0
 11
605.9393459450499
 21
141.6329336721706
 31
0.0
  0
LINE
  5
1DDC2
330
18
100
AcDbEntity
  8
1
  6
CONTINUOUS
 62
     7
100
AcDbLine
 10
602.648545625531
 20
152.8403689522552
 30
0.0
 11
602.5729706612461
 21
152.9058558304119
 31
0.0
  0
LWPOLYLINE
  5
1DDC3
330
18
100
AcDbEntity
  8
1
  6
CONTINUOUS
 62
     7
100
AcDbPolyline
 90
        9
 70
   128
 43
0.0
 10
602.5729706612461
 20
152.9058558304119
 10
602.5750174754345
 20
152.9082176644611
 10
602.5770640567922
 20
152.9105794985103
 10
602.5791106381499
 20
152.9129413325595
 10
602.5811572195076
 20
152.9153031666088
 10
602.5832035680347
 20
152.917665000658
 10
602.5852499165618
 20
152.9200268347072
 10
602.5872962650889
 20
152.9223886687564
 10
602.5893421479547
 20
152.9247505028057
  0
LINE
  5
1DDC4
330
18
100
AcDbEntity
  8
1
  6
CONTINUOUS
 62
     7
100
AcDbLine
 10
602.5893421479547
 20
152.9247505028057
 30
0.0
 11
602.5421077952766
 21
152.9656765420246
 31
0.0
  0
LINE
  5
1DDC5
330
18
100
AcDbEntity
  8
1
  6
CONTINUOUS
 62
     7
100
AcDbLine
 10
602.0130830452823
 20
153.4240809638309
 30
0.0
 11
601.9658486926043
 21
153.4650107283401
 31
0.0
  0
LWPOLYLINE
  5
1DDC6
330
18
100
AcDbEntity
  8
1
  6
CONTINUOUS
 62
     7
100
AcDbPolyline
 90
        9
 70
   128
 43
0.0
 10
601.9658486926043
 20
153.4650107283401
 10
601.9638025769078
 20
153.4626488942909
 10
601.9617564612114
 20
153.4602870602417
 10
601.959710345515
 20
153.4579252261924
 10
601.9576637641572
 20
153.4555633921432
 10
601.9556171827995
 20
153.453201558094
 10
601.9535706014418
 20
153.4508397240448
 10
601.9515240200841
 20
153.4484778899955
 10
601.9494774387264
 20
153.4461160559463
  0
LINE
  5
1DDC7
330
18
100
AcDbEntity
  8
1
  6
CONTINUOUS
 62
     7
100
AcDbLine
 10
601.9494774387264
 20
153.4461160559463
 30
0.0
 11
601.8739024744415
 21
153.511602934103
 31
0.0
  0
LINE
  5
1DDC8
330
18
100
AcDbEntity
  8
1
  6
CONTINUOUS
 62
     7
100
AcDbLine
 10
589.3798390039289
 20
134.0704602558422
 30
0.0
 11
589.4708012797915
 21
134.0289176810789
 31
0.0
  0
LWPOLYLINE
  5
1DDC9
330
18
100
AcDbEntity
  8
1
  6
CONTINUOUS
 62
     7
100
AcDbPolyline
 90
        9
 70
   128
 43
0.0
 10
589.4708012797915
 20
134.0289176810789
 10
589.4695030161225
 20
134.0260752845811
 10
589.4682047524535
 20
134.0232328880834
 10
589.4669064887845
 20
134.0203904915857
 10
589.4656082251155
 20
134.0175462324428
 10
589.4643118240916
 20
134.0147038359451
 10
589.4630135604226
 20
134.0118614394474
 10
589.4617152967536
 20
134.0090190429496
 10
589.4604170330846
 20
134.0061766464519
  0
LINE
  5
1DDCA
330
18
100
AcDbEntity
  8
1
  6
CONTINUOUS
 62
     7
100
AcDbLine
 10
589.4604170330846
 20
134.0061766464519
 30
0.0
 11
589.5172686883294
 21
133.9802132357168
 31
0.0
  0
LINE
  5
1DDCB
330
18
100
AcDbEntity
  8
1
  6
CONTINUOUS
 62
     7
100
AcDbLine
 10
590.1540120699489
 20
133.6894226629543
 30
0.0
 11
590.2108637251937
 21
133.6634592522192
 31
0.0
  0
LWPOLYLINE
  5
1DDCC
330
18
100
AcDbEntity
  8
1
  6
CONTINUOUS
 62
     7
100
AcDbPolyline
 90
        9
 70
   128
 43
0.0
 10
590.2108637251937
 20
133.6634592522192
 10
590.2121619888627
 20
133.6663016487169
 10
590.2134583898866
 20
133.6691440452146
 10
590.2147566535556
 20
133.6719864417123
 10
590.2160549172246
 20
133.6748288382101
 10
590.2173531808936
 20
133.6776730973529
 10
590.2186514445626
 20
133.6805154938507
 10
590.2199497082316
 20
133.6833578903484
 10
590.2212479719007
 20
133.6862002868461
  0
LINE
  5
1DDCD
330
18
100
AcDbEntity
  8
1
  6
CONTINUOUS
 62
     7
100
AcDbLine
 10
590.2212479719007
 20
133.6862002868461
 30
0.0
 11
590.3122121104085
 21
133.644659574728
 31
0.0
  0
LINE
  5
1DDCE
330
18
100
AcDbEntity
  8
1
  6
CONTINUOUS
 62
     7
100
AcDbLine
 10
585.1833777138078
 20
151.1118677813816
 30
0.0
 11
585.1293125757062
 21
151.0277395505714
 31
0.0
  0
LWPOLYLINE
  5
1DDCF
330
18
100
AcDbEntity
  8
1
  6
CONTINUOUS
 62
     7
100
AcDbPolyline
 90
        9
 70
   128
 43
0.0
 10
585.1293125757062
 20
151.0277395505714
 10
585.1266843834006
 20
151.0294308323669
 10
585.1240543284499
 20
151.0311221141624
 10
585.1214261361444
 20
151.0328096706676
 10
585.1187960811936
 20
151.0345009524631
 10
585.1161678888881
 20
151.0361885089683
 10
585.1135378339374
 20
151.0378797907638
 10
585.1109096416318
 20
151.039567347269
 10
585.1082814493262
 20
151.0412586290645
  0
LINE
  5
1DDD0
330
18
100
AcDbEntity
  8
1
  6
CONTINUOUS
 62
     7
100
AcDbLine
 10
585.1082814493262
 20
151.0412586290645
 30
0.0
 11
585.074491203674
 21
150.988679881792
 31
0.0
  0
LINE
  5
1DDD1
330
18
100
AcDbEntity
  8
1
  6
CONTINUOUS
 62
     7
100
AcDbLine
 10
584.6960426875436
 20
150.3998008925724
 30
0.0
 11
584.6622524418914
 21
150.3472221452999
 31
0.0
  0
LWPOLYLINE
  5
1DDD2
330
18
100
AcDbEntity
  8
1
  6
CONTINUOUS
 62
     7
100
AcDbPolyline
 90
        9
 70
   128
 43
0.0
 10
584.6622524418914
 20
150.3472221452999
 10
584.664880634197
 20
150.3455345887947
 10
584.6675106891477
 20
150.3438433069992
 10
584.6701388814532
 20
150.342155750494
 10
584.6727670737588
 20
150.3404644686985
 10
584.6753971287095
 20
150.3387769121933
 10
584.6780253210151
 20
150.3370856303978
 10
584.6806553759658
 20
150.3353980738925
 10
584.6832835682713
 20
150.333706792097
  0
LINE
  5
1DDD3
330
18
100
AcDbEntity
  8
1
  6
CONTINUOUS
 62
     7
100
AcDbLine
 10
584.6832835682713
 20
150.333706792097
 30
0.0
 11
584.6292202928149
 21
150.2495822865772
 31
0.0
  0
LINE
  5
1DDD4
330
18
100
AcDbEntity
  8
1
  6
CONTINUOUS
 62
     7
100
AcDbLine
 10
592.0361842596018
 20
137.4196303446102
 30
0.0
 11
591.9452210524165
 21
137.4611747820186
 31
0.0
  0
LWPOLYLINE
  5
1DDD5
330
18
100
AcDbEntity
  8
1
  6
CONTINUOUS
 62
     7
100
AcDbPolyline
 90
        9
 70
   128
 43
0.0
 10
591.9452210524165
 20
137.4611747820186
 10
591.9465193160855
 20
137.4640171785163
 10
591.9478175797545
 20
137.4668595750141
 10
591.9491158434236
 20
137.4697019715118
 10
591.9504141070926
 20
137.4725443680095
 10
591.9517123707616
 20
137.4753867645072
 10
591.9530106344306
 20
137.478229161005
 10
591.954307966777
 20
137.4810715575027
 10
591.955606230446
 20
137.4839139540004
  0
LINE
  5
1DDD6
330
18
100
AcDbEntity
  8
1
  6
CONTINUOUS
 62
     7
100
AcDbLine
 10
591.955606230446
 20
137.4839139540004
 30
0.0
 11
591.8987545752012
 21
137.5098792273807
 31
0.0
  0
LINE
  5
1DDD7
330
18
100
AcDbEntity
  8
1
  6
CONTINUOUS
 62
     7
100
AcDbLine
 10
591.2620121249043
 20
137.800667937498
 30
0.0
 11
591.2051595383369
 21
137.8266332108783
 31
0.0
  0
LWPOLYLINE
  5
1DDD8
330
18
100
AcDbEntity
  8
1
  6
CONTINUOUS
 62
     7
100
AcDbPolyline
 90
        9
 70
   128
 43
0.0
 10
591.2051595383369
 20
137.8266332108783
 10
591.2038622059905
 20
137.8237908143806
 10
591.2025639423215
 20
137.8209484178829
 10
591.2012656786525
 20
137.8181060213851
 10
591.1999674149835
 20
137.8152636248874
 10
591.1986691513144
 20
137.8124212283897
 10
591.1973708876454
 20
137.8095751066017
 10
591.1960726239764
 20
137.8067327101039
 10
591.1947743603074
 20
137.8038903136062
  0
LINE
  5
1DDD9
330
18
100
AcDbEntity
  8
1
  6
CONTINUOUS
 62
     7
100
AcDbLine
 10
591.1947743603074
 20
137.8038903136062
 30
0.0
 11
591.1038111531221
 21
137.8454310257244
 31
0.0
  0
LINE
  5
1DDDA
330
18
100
AcDbEntity
  8
1
  6
CONTINUOUS
 62
     7
100
AcDbLine
 10
587.214839980849
 20
143.8967888612556
 30
0.0
 11
587.214839980849
 21
143.9967905540275
 31
0.0
  0
LINE
  5
1DDDB
330
18
100
AcDbEntity
  8
1
  6
CONTINUOUS
 62
     7
100
AcDbLine
 10
587.214839980849
 20
143.9967905540275
 30
0.0
 11
587.239840404042
 21
143.9967905540275
 31
0.0
  0
LINE
  5
1DDDC
330
18
100
AcDbEntity
  8
1
  6
CONTINUOUS
 62
     7
100
AcDbLine
 10
587.239840404042
 20
143.9967905540275
 30
0.0
 11
587.239840404042
 21
144.0592897493648
 31
0.0
  0
LINE
  5
1DDDD
330
18
100
AcDbEntity
  8
1
  6
CONTINUOUS
 62
     7
100
AcDbLine
 10
587.239840404042
 20
144.7592904228973
 30
0.0
 11
587.239840404042
 21
144.8217896182346
 31
0.0
  0
LINE
  5
1DDDE
330
18
100
AcDbEntity
  8
1
  6
CONTINUOUS
 62
     7
100
AcDbLine
 10
587.239840404042
 20
144.8217896182346
 30
0.0
 11
587.214839980849
 21
144.8217896182346
 31
0.0
  0
LINE
  5
1DDDF
330
18
100
AcDbEntity
  8
1
  6
CONTINUOUS
 62
     7
100
AcDbLine
 10
587.214839980849
 20
144.8217896182346
 30
0.0
 11
587.214839980849
 21
144.9217913110065
 31
0.0
  0
LINE
  5
1DDE0
330
18
100
AcDbEntity
  8
1
  6
CONTINUOUS
 62
     7
100
AcDbLine
 10
584.6292202928149
 20
138.5689978856849
 30
0.0
 11
584.6832835682713
 21
138.4848733801651
 31
0.0
  0
LWPOLYLINE
  5
1DDE1
330
18
100
AcDbEntity
  8
1
  6
CONTINUOUS
 62
     7
100
AcDbPolyline
 90
        9
 70
   128
 43
0.0
 10
584.6832835682713
 20
138.4848733801651
 10
584.6806553759658
 20
138.4831858236599
 10
584.6780253210151
 20
138.4814945418644
 10
584.6753971287095
 20
138.4798069853591
 10
584.6727670737588
 20
138.4781157035636
 10
584.6701388814532
 20
138.4764244217681
 10
584.6675106891477
 20
138.4747368652629
 10
584.664880634197
 20
138.4730455834674
 10
584.6622524418914
 20
138.4713580269622
  0
LINE
  5
1DDE2
330
18
100
AcDbEntity
  8
1
  6
CONTINUOUS
 62
     7
100
AcDbLine
 10
584.6622524418914
 20
138.4713580269622
 30
0.0
 11
584.6960426875436
 21
138.4187792796897
 31
0.0
  0
LINE
  5
1DDE3
330
18
100
AcDbEntity
  8
1
  6
CONTINUOUS
 62
     7
100
AcDbLine
 10
585.074491203674
 20
137.8299040157604
 30
0.0
 11
585.1082814493262
 21
137.7773252684879
 31
0.0
  0
LWPOLYLINE
  5
1DDE4
330
18
100
AcDbEntity
  8
1
  6
CONTINUOUS
 62
     7
100
AcDbPolyline
 90
        9
 70
   128
 43
0.0
 10
585.1082814493262
 20
137.7773252684879
 10
585.1109096416318
 20
137.7790128249931
 10
585.1135378339374
 20
137.7807041067886
 10
585.1161678888881
 20
137.7823916632938
 10
585.1187960811936
 20
137.7840829450893
 10
585.1214261361444
 20
137.7857705015945
 10
585.1240543284499
 20
137.78746178339
 10
585.1266843834006
 20
137.7891493398952
 10
585.1293125757062
 20
137.7908406216907
  0
LINE
  5
1DDE5
330
18
100
AcDbEntity
  8
1
  6
CONTINUOUS
 62
     7
100
AcDbLine
 10
585.1293125757062
 20
137.7908406216907
 30
0.0
 11
585.1833777138078
 21
137.7067161161708
 31
0.0
  0
LINE
  5
1DDE6
330
18
100
AcDbEntity
  8
1
  6
CONTINUOUS
 62
     7
100
AcDbLine
 10
588.1204226621472
 20
148.0059218962001
 30
0.0
 11
588.1744859376037
 21
148.09004640172
 31
0.0
  0
LWPOLYLINE
  5
1DDE7
330
18
100
AcDbEntity
  8
1
  6
CONTINUOUS
 62
     7
100
AcDbPolyline
 90
        9
 70
   128
 43
0.0
 10
588.1744859376037
 20
148.09004640172
 10
588.1771159925544
 20
148.0883588452148
 10
588.1797441848599
 20
148.0866675634193
 10
588.1823742398107
 20
148.0849800069141
 10
588.1850024321162
 20
148.0832887251186
 10
588.1876324870669
 20
148.0816011686134
 10
588.1902606793725
 20
148.0799098868179
 10
588.1928888716781
 20
148.0782223303127
 10
588.1955170639836
 20
148.0765310485172
  0
LINE
  5
1DDE8
330
18
100
AcDbEntity
  8
1
  6
CONTINUOUS
 62
     7
100
AcDbLine
 10
588.1955170639836
 20
148.0765310485172
 30
0.0
 11
588.2293073096358
 21
148.1291097957897
 31
0.0
  0
LINE
  5
1DDE9
330
18
100
AcDbEntity
  8
1
  6
CONTINUOUS
 62
     7
100
AcDbLine
 10
588.6077558257663
 20
148.7179887850093
 30
0.0
 11
588.6415460714185
 21
148.7705675322818
 31
0.0
  0
LINE
  5
1DDEA
330
18
100
AcDbEntity
  8
1
  6
CONTINUOUS
 62
     7
100
AcDbLine
 10
588.6415460714185
 20
148.7705675322818
 30
0.0
 11
588.6205149450385
 21
148.7840828854847
 31
0.0
  0
LINE
  5
1DDEB
330
18
100
AcDbEntity
  8
1
  6
CONTINUOUS
 62
     7
100
AcDbLine
 10
588.6205149450385
 20
148.7840828854847
 30
0.0
 11
588.6745782204949
 21
148.8682073910045
 31
0.0
  0
LINE
  5
1DDEC
330
18
100
AcDbEntity
  8
1
  6
CONTINUOUS
 62
     7
100
AcDbLine
 10
599.5571225517475
 20
150.8378950316715
 30
0.0
 11
601.4730100155854
 21
153.0489479560661
 31
0.0
  0
LINE
  5
1DDED
330
18
100
AcDbEntity
  8
1
  6
CONTINUOUS
 62
     7
100
AcDbLine
 10
590.8495023482525
 20
137.2885746319103
 30
0.0
 11
589.6341478087985
 21
134.6273185123014
 31
0.0
  0
LINE
  5
1DDEE
330
18
100
AcDbEntity
  8
1
  6
CONTINUOUS
 62
     7
100
AcDbLine
 10
595.3049234681808
 20
136.3562369156885
 30
0.0
 11
595.7212861263239
 21
133.4603731889534
 31
0.0
  0
LINE
  5
1DDEF
330
18
100
AcDbEntity
  8
1
  6
CONTINUOUS
 62
     7
100
AcDbLine
 10
602.256056257435
 20
147.1724105436611
 30
0.0
 11
605.0631881094583
 21
147.9966570992279
 31
0.0
  0
LINE
  5
1DDF0
330
18
100
AcDbEntity
  8
1
  6
CONTINUOUS
 62
     7
100
AcDbLine
 10
599.5571225517475
 20
137.9806851405906
 30
0.0
 11
601.4730100155854
 21
135.7696340788412
 31
0.0
  0
LINE
  5
1DDF1
330
18
100
AcDbEntity
  8
1
  6
CONTINUOUS
 62
     7
100
AcDbLine
 10
595.3049234681808
 20
152.4623451192188
 30
0.0
 11
595.7212861263239
 21
155.3582069833087
 31
0.0
  0
LINE
  5
1DDF2
330
18
100
AcDbEntity
  8
1
  6
CONTINUOUS
 62
     7
100
AcDbLine
 10
600.3317659356677
 20
150.166664775114
 30
0.0
 11
602.2476533995056
 21
152.3777139742183
 31
0.0
  0
LINE
  5
1DDF3
330
18
100
AcDbEntity
  8
1
  6
CONTINUOUS
 62
     7
100
AcDbLine
 10
602.544832146638
 20
146.1889301795768
 30
0.0
 11
605.3519639986613
 21
147.0131767351436
 31
0.0
  0
LINE
  5
1DDF4
330
18
100
AcDbEntity
  8
1
  6
CONTINUOUS
 62
     7
100
AcDbLine
 10
587.6054236301267
 20
148.3368915874767
 30
0.0
 11
585.1442174621903
 21
149.9186125953006
 31
0.0
  0
LINE
  5
1DDF5
330
18
100
AcDbEntity
  8
1
  6
CONTINUOUS
 62
     7
100
AcDbLine
 10
586.6026593008124
 20
144.9217913110065
 30
0.0
 11
583.6770193287217
 21
144.9217913110065
 31
0.0
  0
LINE
  5
1DDF6
330
18
100
AcDbEntity
  8
1
  6
CONTINUOUS
 62
     7
100
AcDbLine
 10
591.7818754547321
 20
136.8627739507961
 30
0.0
 11
590.5665209152781
 21
134.2015178311872
 31
0.0
  0
LINE
  5
1DDF7
330
18
100
AcDbEntity
  8
1
  6
CONTINUOUS
 62
     7
100
AcDbLine
 10
586.6026593008124
 20
143.8967888612556
 30
0.0
 11
583.6770193287217
 21
143.8967888612556
 31
0.0
  0
LINE
  5
1DDF8
330
18
100
AcDbEntity
  8
1
  6
CONTINUOUS
 62
     7
100
AcDbLine
 10
590.8495023482525
 20
151.5300055403518
 30
0.0
 11
589.6341478087985
 21
154.1912635226059
 31
0.0
  0
LINE
  5
1DDF9
330
18
100
AcDbEntity
  8
1
  6
CONTINUOUS
 62
     7
100
AcDbLine
 10
600.3317659356677
 20
138.6519191224384
 30
0.0
 11
602.2476533995056
 21
136.4408661980438
 31
0.0
  0
LINE
  5
1DDFA
330
18
100
AcDbEntity
  8
1
  6
CONTINUOUS
 62
     7
100
AcDbLine
 10
602.544832146638
 20
142.6296537179756
 30
0.0
 11
605.3519639986613
 21
141.8054034371185
 31
0.0
  0
LINE
  5
1DDFB
330
18
100
AcDbEntity
  8
1
  6
CONTINUOUS
 62
     7
100
AcDbLine
 10
591.7818754547321
 20
151.955806221466
 30
0.0
 11
590.5665209152781
 21
154.61706420372
 31
0.0
  0
LINE
  5
1DDFC
330
18
100
AcDbEntity
  8
1
  6
CONTINUOUS
 62
     7
100
AcDbLine
 10
596.3194904484832
 20
136.5021081079053
 30
0.0
 11
596.7358531066262
 21
133.6062462438154
 31
0.0
  0
LINE
  5
1DDFD
330
18
100
AcDbEntity
  8
1
  6
CONTINUOUS
 62
     7
100
AcDbLine
 10
602.256056257435
 20
141.6461733538913
 30
0.0
 11
605.0631881094583
 21
140.8219230730342
 31
0.0
  0
LINE
  5
1DDFE
330
18
100
AcDbEntity
  8
1
  6
CONTINUOUS
 62
     7
100
AcDbLine
 10
596.3194904484832
 20
152.3164739270019
 30
0.0
 11
596.7358531066262
 21
155.2123357910919
 31
0.0
  0
LINE
  5
1DDFF
330
18
100
AcDbEntity
  8
1
  6
CONTINUOUS
 62
     7
100
AcDbLine
 10
588.1595810511195
 20
139.619403089981
 30
0.0
 11
585.6983748831832
 21
138.0376820821571
 31
0.0
  0
LINE
  5
1DE00
330
18
100
AcDbEntity
  8
1
  6
CONTINUOUS
 62
     7
100
AcDbLine
 10
587.6054236301267
 20
140.4816885847854
 30
0.0
 11
585.1442174621903
 21
138.8999675769615
 31
0.0
  0
LINE
  5
1DE01
330
18
100
AcDbEntity
  8
1
  6
CONTINUOUS
 62
     7
100
AcDbLine
 10
588.1595810511195
 20
149.1991770822811
 30
0.0
 11
585.6983748831832
 21
150.780898090105
 31
0.0
  0
LINE
  5
1DE02
330
18
100
AcDbEntity
  8
1
  6
CONTINUOUS
 62
     7
100
AcDbLine
 10
601.6968473427975
 20
141.9145916957664
 30
0.0
 11
605.6787433204287
 21
140.7454018850135
 31
0.0
  0
LINE
  5
1DE03
330
18
100
AcDbEntity
  8
1
  6
CONTINUOUS
 62
     7
100
AcDbLine
 10
595.9073904537642
 20
155.9499246437358
 30
0.0
 11
595.3167838611686
 21
151.8421662409114
 31
0.0
  0
LINE
  5
1DE04
330
18
100
AcDbEntity
  8
1
  6
CONTINUOUS
 62
     7
100
AcDbLine
 10
585.1293125757062
 20
137.7908406216907
 30
0.0
 11
588.6205149450385
 21
140.0345010120678
 31
0.0
  0
LINE
  5
1DE05
330
18
100
AcDbEntity
  8
1
  6
CONTINUOUS
 62
     7
100
AcDbLine
 10
601.929277052083
 20
146.1124089915561
 30
0.0
 11
605.9111726804682
 21
147.281598802309
 31
0.0
  0
LINE
  5
1DE06
330
18
100
AcDbEntity
  8
1
  6
CONTINUOUS
 62
     7
100
AcDbLine
 10
589.4708012797915
 20
154.7896643538284
 30
0.0
 11
591.1947743603074
 21
151.0146898586559
 31
0.0
  0
LINE
  5
1DE07
330
18
100
AcDbEntity
  8
1
  6
CONTINUOUS
 62
     7
100
AcDbLine
 10
599.8552985125267
 20
149.7694966752338
 30
0.0
 11
602.5729706612461
 21
152.9058558304119
 31
0.0
  0
LINE
  5
1DE08
330
18
100
AcDbEntity
  8
1
  6
CONTINUOUS
 62
     7
100
AcDbLine
 10
596.1333861210429
 20
151.7247562665748
 30
0.0
 11
596.7239927136385
 21
155.8325146693992
 31
0.0
  0
LINE
  5
1DE09
330
18
100
AcDbEntity
  8
1
  6
CONTINUOUS
 62
     7
100
AcDbLine
 10
599.2318050571763
 20
138.5088269967842
 30
0.0
 11
601.9494774387264
 21
135.3724659789609
 31
0.0
  0
LINE
  5
1DE0A
330
18
100
AcDbEntity
  8
1
  6
CONTINUOUS
 62
     7
100
AcDbLine
 10
584.6832835682713
 20
150.333706792097
 30
0.0
 11
588.1744859376037
 21
148.09004640172
 31
0.0
  0
LINE
  5
1DE0B
330
18
100
AcDbEntity
  8
1
  6
CONTINUOUS
 62
     7
100
AcDbLine
 10
605.6787433204287
 20
148.0731782872486
 30
0.0
 11
601.6968473427975
 21
146.9039884764957
 31
0.0
  0
LINE
  5
1DE0C
330
18
100
AcDbEntity
  8
1
  6
CONTINUOUS
 62
     7
100
AcDbLine
 10
601.9494774387264
 20
153.4461160559463
 30
0.0
 11
599.2318050571763
 21
150.3097531754779
 31
0.0
  0
LINE
  5
1DE0D
330
18
100
AcDbEntity
  8
1
  6
CONTINUOUS
 62
     7
100
AcDbLine
 10
588.1744859376037
 20
140.7285337705421
 30
0.0
 11
584.6832835682713
 21
138.4848733801651
 31
0.0
  0
LINE
  5
1DE0E
330
18
100
AcDbEntity
  8
1
  6
CONTINUOUS
 62
     7
100
AcDbLine
 10
590.2212479719007
 20
133.6862002868461
 30
0.0
 11
591.9452210524165
 21
137.4611747820186
 31
0.0
  0
LINE
  5
1DE0F
330
18
100
AcDbEntity
  8
1
  6
CONTINUOUS
 62
     7
100
AcDbLine
 10
591.9452210524165
 20
151.3574091155338
 30
0.0
 11
590.2212479719007
 21
155.132379885416
 31
0.0
  0
LINE
  5
1DE10
330
18
100
AcDbEntity
  8
1
  6
CONTINUOUS
 62
     7
100
AcDbLine
 10
588.6205149450385
 20
148.7840828854847
 30
0.0
 11
585.1293125757062
 21
151.0277395505714
 31
0.0
  0
LINE
  5
1DE11
330
18
100
AcDbEntity
  8
1
  6
CONTINUOUS
 62
     7
100
AcDbLine
 10
587.214839980849
 20
144.8217896182346
 30
0.0
 11
583.0648386486852
 21
144.8217896182346
 31
0.0
  0
LINE
  5
1DE12
330
18
100
AcDbEntity
  8
1
  6
CONTINUOUS
 62
     7
100
AcDbLine
 10
583.0648386486852
 20
143.9967905540275
 30
0.0
 11
587.214839980849
 21
143.9967905540275
 31
0.0
  0
LINE
  5
1DE13
330
18
100
AcDbEntity
  8
1
  6
CONTINUOUS
 62
     7
100
AcDbLine
 10
595.3167838611686
 20
136.9764157939958
 30
0.0
 11
595.9073904537642
 21
132.8686573911714
 31
0.0
  0
LINE
  5
1DE14
330
18
100
AcDbEntity
  8
1
  6
CONTINUOUS
 62
     7
100
AcDbLine
 10
591.1947743603074
 20
137.8038903136062
 30
0.0
 11
589.4708012797915
 21
134.0289176810789
 31
0.0
  0
LINE
  5
1DE15
330
18
100
AcDbEntity
  8
1
  6
CONTINUOUS
 62
     7
100
AcDbLine
 10
605.9111726804682
 20
141.5369850952434
 30
0.0
 11
601.929277052083
 21
142.7061749059963
 31
0.0
  0
LINE
  5
1DE16
330
18
100
AcDbEntity
  8
1
  6
CONTINUOUS
 62
     7
100
AcDbLine
 10
596.7239927136385
 20
132.986067365508
 30
0.0
 11
596.1333861210429
 21
137.0938257683324
 31
0.0
  0
LINE
  5
1DE17
330
18
100
AcDbEntity
  8
1
  6
CONTINUOUS
 62
     7
100
AcDbLine
 10
602.5729706612461
 20
135.9127262044954
 30
0.0
 11
599.8552985125267
 21
139.0490872223186
 31
0.0
  0
LINE
  5
1DE18
330
18
100
AcDbEntity
  8
1
  6
CONTINUOUS
 62
     7
100
AcDbLine
 10
591.0580431678378
 20
208.3615719138796
 30
0.0
 11
591.0591486477339
 21
208.3615681885893
 31
0.0
  0
LINE
  5
1DE19
330
18
100
AcDbEntity
  8
1
  6
CONTINUOUS
 62
     7
100
AcDbLine
 10
580.6648390003526
 20
216.5580152332003
 30
0.0
 11
580.6648390003526
 21
208.3580179869349
 31
0.0
  0
LINE
  5
1DE1A
330
18
100
AcDbEntity
  8
1
  6
CONTINUOUS
 62
     7
100
AcDbLine
 10
608.6648393989586
 20
208.3580179869349
 30
0.0
 11
608.6648393989586
 21
216.5580152332003
 31
0.0
  0
LINE
  5
1DE1B
330
18
100
AcDbEntity
  8
1
  6
CONTINUOUS
 62
     7
100
AcDbLine
 10
593.9753552534663
 20
208.3580179869349
 30
0.0
 11
593.9753552534663
 21
208.0580166339094
 31
0.0
  0
LINE
  5
1DE1C
330
18
100
AcDbEntity
  8
1
  6
CONTINUOUS
 62
     7
100
AcDbLine
 10
595.3138976925098
 20
208.0580166339094
 30
0.0
 11
595.3138976925098
 21
208.3580179869349
 31
0.0
  0
LINE
  5
1DE1D
330
18
100
AcDbEntity
  8
1
  6
CONTINUOUS
 62
     7
100
AcDbLine
 10
600.3246115156495
 20
208.0580166339094
 30
0.0
 11
600.3246115156495
 21
208.3580179869349
 31
0.0
  0
LINE
  5
1DE1E
330
18
100
AcDbEntity
  8
1
  6
CONTINUOUS
 62
     7
100
AcDbLine
 10
598.7547467098617
 20
208.3580179869349
 30
0.0
 11
598.7547467098617
 21
208.0580166339094
 31
0.0
  0
LINE
  5
1DE1F
330
18
100
AcDbEntity
  8
1
  6
CONTINUOUS
 62
     7
100
AcDbLine
 10
587.5008416929328
 20
208.3580179869349
 30
0.0
 11
587.5008416929328
 21
208.0580166339094
 31
0.0
  0
LINE
  5
1DE20
330
18
100
AcDbEntity
  8
1
  6
CONTINUOUS
 62
     7
100
AcDbLine
 10
588.7866126009309
 20
208.0580166339094
 30
0.0
 11
588.7866126009309
 21
208.3580179869349
 31
0.0
  0
LINE
  5
1DE21
330
18
100
AcDbEntity
  8
1
  6
CONTINUOUS
 62
     7
100
AcDbLine
 10
589.2580927916848
 20
208.0580166339094
 30
0.0
 11
589.2580927916848
 21
208.3580179869349
 31
0.0
  0
LINE
  5
1DE22
330
18
100
AcDbEntity
  8
1
  6
CONTINUOUS
 62
     7
100
AcDbLine
 10
592.6923904203855
 20
208.3580179869349
 30
0.0
 11
592.7798788630449
 21
207.3580159603769
 31
0.0
  0
LINE
  5
1DE23
330
18
100
AcDbEntity
  8
1
  6
CONTINUOUS
 62
     7
100
AcDbLine
 10
598.727774211117
 20
207.3580159603769
 30
0.0
 11
598.7890161209785
 21
208.0580166339094
 31
0.0
  0
LINE
  5
1DE24
330
18
100
AcDbEntity
  8
1
  6
CONTINUOUS
 62
     7
100
AcDbLine
 10
588.6310835936152
 20
208.0580166339094
 30
0.0
 11
588.6923255034768
 21
207.3580159603769
 31
0.0
  0
LINE
  5
1DE25
330
18
100
AcDbEntity
  8
1
  6
CONTINUOUS
 62
     7
100
AcDbLine
 10
618.1648395591461
 20
216.5580152332003
 30
0.0
 11
618.1648395591461
 21
219.7580172478373
 31
0.0
  0
LINE
  5
1DE26
330
18
100
AcDbEntity
  8
1
  6
CONTINUOUS
 62
     7
100
AcDbLine
 10
571.1648383745038
 20
219.7580172478373
 30
0.0
 11
571.1648383745038
 21
216.5580152332003
 31
0.0
  0
LINE
  5
1DE27
102
{ACAD_REACTORS
102
}
330
18
100
AcDbEntity
  8
1
  6
CONTINUOUS
 62
     7
100
AcDbLine
 10
572.4772767731034
 20
216.5580152332003
 30
0.0
 11
572.6648376890504
 21
215.8580145596678
 31
0.0
  0
LINE
  5
1DE28
330
18
100
AcDbEntity
  8
1
  6
CONTINUOUS
 62
     7
100
AcDbLine
 10
578.664838672527
 20
215.8580145596678
 30
0.0
 11
578.8524033137643
 21
216.5580152332003
 31
0.0
  0
LINE
  5
1DE29
330
18
100
AcDbEntity
  8
1
  6
CONTINUOUS
 62
     7
100
AcDbLine
 10
610.4772750855469
 20
216.5580152332003
 30
0.0
 11
610.6648397267842
 21
215.8580145596678
 31
0.0
  0
LINE
  5
1DE2A
330
18
100
AcDbEntity
  8
1
  6
CONTINUOUS
 62
     7
100
AcDbLine
 10
616.664839313277
 20
215.8580145596678
 30
0.0
 11
616.8524039545142
 21
216.5580152332003
 31
0.0
  0
LINE
  5
1DE2B
330
18
100
AcDbEntity
  8
1
  6
CONTINUOUS
 62
     7
100
AcDbLine
 10
582.2302953907334
 20
208.3580179869349
 30
0.0
 11
582.2302953907334
 21
208.0580166339094
 31
0.0
  0
LINE
  5
1DE2C
330
18
100
AcDbEntity
  8
1
  6
CONTINUOUS
 62
     7
100
AcDbLine
 10
586.3215991863095
 20
207.7507584153826
 30
0.0
 11
585.6628691413486
 21
207.7507584153826
 31
0.0
  0
LINE
  5
1DE2D
330
18
100
AcDbEntity
  8
1
  6
CONTINUOUS
 62
     7
100
AcDbLine
 10
586.3215991863095
 20
207.7507584153826
 30
0.0
 11
586.3215991863095
 21
200.0507584571058
 31
0.0
  0
LINE
  5
1DE2E
330
18
100
AcDbEntity
  8
1
  6
CONTINUOUS
 62
     7
100
AcDbLine
 10
586.3215991863095
 20
200.0507584571058
 30
0.0
 11
585.6628691413486
 21
200.0507584571058
 31
0.0
  0
LINE
  5
1DE2F
330
18
100
AcDbEntity
  8
1
  6
CONTINUOUS
 62
     7
100
AcDbLine
 10
585.6628691413486
 20
207.7507584153826
 30
0.0
 11
585.6628691413486
 21
200.0507584571058
 31
0.0
  0
LWPOLYLINE
  5
1DE30
330
18
100
AcDbEntity
  8
1
  6
CONTINUOUS
 62
     7
100
AcDbPolyline
 90
        3
 70
   128
 43
0.0
 10
586.3215991863095
 20
200.0507584571058
 10
586.5110413738572
 20
199.4907579182799
 10
586.6598890730226
 20
199.0507564305479
  0
LINE
  5
1DE31
330
18
100
AcDbEntity
  8
1
  6
CONTINUOUS
 62
     7
100
AcDbLine
 10
586.6598890730226
 20
199.0507564305479
 30
0.0
 11
586.0011590280616
 21
199.0507564305479
 31
0.0
  0
LWPOLYLINE
  5
1DE32
330
18
100
AcDbEntity
  8
1
  6
CONTINUOUS
 62
     7
100
AcDbPolyline
 90
        3
 70
   128
 43
0.0
 10
585.6628691413486
 20
200.0507584571058
 10
585.8523113288962
 20
199.4907579182799
 10
586.0011590280616
 20
199.0507564305479
  0
SPLINE
  5
1DE33
330
18
100
AcDbEntity
  8
1
  6
CONTINUOUS
 62
     7
100
AcDbSpline
210
0.0
220
0.0
230
1.0
 70
     8
 71
     3
 72
    12
 73
     8
 74
     0
 42
0.000000001
 43
0.00000001
 40
0.0
 40
0.0
 40
0.0
 40
0.0
 40
0.2336862687331475
 40
0.4793572214743627
 40
0.7117312459146766
 40
0.8699549327777241
 40
1.0
 40
1.0
 40
1.0
 40
1.0
 10
586.2879356005275
 20
208.3507685720141
 30
0.0
 10
586.3166121894984
 20
208.2824883039681
 30
0.0
 10
586.3754360565789
 20
208.1424259898687
 30
0.0
 10
586.4064540631099
 20
207.9430906137439
 30
0.0
 10
586.4388090267911
 20
207.8216989382704
 30
0.0
 10
586.4089339484616
 20
207.75763242631
 30
0.0
 10
586.377502107764
 20
207.7528954024187
 30
0.0
 10
586.3633224376523
 20
207.7507584153826
 30
0.0
  0
SPLINE
  5
1DE34
330
18
100
AcDbEntity
  8
1
  6
CONTINUOUS
 62
     7
100
AcDbSpline
210
0.0
220
0.0
230
1.0
 70
     8
 71
     3
 72
    12
 73
     8
 74
     0
 42
0.000000001
 43
0.00000001
 40
0.0
 40
0.0
 40
0.0
 40
0.0
 40
0.2167213297182427
 40
0.4680807526229274
 40
0.7600300033290237
 40
0.9365011143836539
 40
1.0
 40
1.0
 40
1.0
 40
1.0
 10
585.6978347160899
 20
208.3507536708529
 30
0.0
 10
585.7167611708738
 20
208.2840639548001
 30
0.0
 10
585.7576390540581
 20
208.140025652143
 30
0.0
 10
585.7659260821569
 20
207.9353148369254
 30
0.0
 10
585.7897916311259
 20
207.8049413128891
 30
0.0
 10
585.7399289749609
 20
207.7525808998895
 30
0.0
 10
585.7119966524998
 20
207.7511397583868
 30
0.0
 10
585.7046054312074
 20
207.7507584153826
 30
0.0
  0
LINE
  5
1DE35
330
18
100
AcDbEntity
  8
1
  6
CONTINUOUS
 62
     7
100
AcDbLine
 10
586.2879151114308
 20
208.3507573961432
 30
0.0
 11
585.6978347160899
 21
208.3507536708529
 31
0.0
  0
LWPOLYLINE
  5
1DE36
330
18
100
AcDbEntity
  8
1
  6
CONTINUOUS
 62
     7
100
AcDbPolyline
 90
       22
 70
   128
 43
0.0
 10
586.731775999912
 20
201.0507567583735
 10
586.7428587385499
 20
200.8333748935873
 10
586.7751272031152
 20
200.6353086589987
 10
586.8257110574328
 20
200.4741563259775
 10
586.8901157387578
 20
200.3642379104311
 10
586.9626192011916
 20
200.315321123522
 10
587.0367804178082
 20
200.3317496537382
 10
587.1060093500697
 20
200.4120631872828
 10
587.164151818403
 20
200.5491315185244
 10
587.2060464330995
 20
200.7307692228968
 10
587.2279660412156
 20
200.940838342827
 10
587.2279660412156
 20
201.1606751739199
 10
587.2060464330995
 20
201.3707480191404
 10
587.164151818403
 20
201.5523857235129
 10
587.1060093500697
 20
201.6894503294642
 10
587.0367804178082
 20
201.769767588299
 10
586.9626192011916
 20
201.7861961185152
 10
586.8901157387578
 20
201.7372756063158
 10
586.8257110574328
 20
201.6273571907694
 10
586.7751272031152
 20
201.4662048577482
 10
586.7428587385499
 20
201.2681386231596
 10
586.731775999912
 20
201.0507567583735
  0
LWPOLYLINE
  5
1DE37
330
18
100
AcDbEntity
  8
1
  6
CONTINUOUS
 62
     7
100
AcDbPolyline
 90
        3
 70
   128
 43
0.0
 10
587.3026394852483
 20
199.0507564305479
 10
587.492081672796
 20
199.6107569693739
 10
587.6409293719613
 20
200.0507584571058
  0
LINE
  5
1DE38
330
18
100
AcDbEntity
  8
1
  6
CONTINUOUS
 62
     7
100
AcDbLine
 10
586.6598890730226
 20
199.0507564305479
 30
0.0
 11
587.3026394852483
 21
199.0507564305479
 31
0.0
  0
LINE
  5
1DE39
330
18
100
AcDbEntity
  8
1
  6
CONTINUOUS
 62
     7
100
AcDbLine
 10
586.3638849564874
 20
207.7507584153826
 30
0.0
 11
587.5986436017835
 21
207.7507584153826
 31
0.0
  0
LINE
  5
1DE3A
330
18
100
AcDbEntity
  8
1
  6
CONTINUOUS
 62
     7
100
AcDbLine
 10
587.6409293719613
 20
207.7507584153826
 30
0.0
 11
587.5986436017835
 21
207.7507584153826
 31
0.0
  0
LINE
  5
1DE3B
330
18
100
AcDbEntity
  8
1
  6
CONTINUOUS
 62
     7
100
AcDbLine
 10
587.6409293719613
 20
200.0507584571058
 30
0.0
 11
587.6409293719613
 21
207.7507584153826
 31
0.0
  0
LWPOLYLINE
  5
1DE3C
330
18
100
AcDbEntity
  8
1
  6
CONTINUOUS
 62
     7
100
AcDbPolyline
 90
       22
 70
   128
 43
0.0
 10
586.731775999912
 20
204.0507553874666
 10
586.7428587385499
 20
203.8333735226805
 10
586.7751272031152
 20
203.6353072880919
 10
586.8257110574328
 20
203.4741549550707
 10
586.8901157387578
 20
203.3642365395243
 10
586.9626192011916
 20
203.3153197526152
 10
587.0367804178082
 20
203.3317482828314
 10
587.1060093500697
 20
203.4120618163759
 10
587.164151818403
 20
203.5491301476175
 10
587.2060464330995
 20
203.73076785199
 10
587.2279660412156
 20
203.9408369719202
 10
587.2279660412156
 20
204.1606775283034
 10
587.2060464330995
 20
204.3707466482336
 10
587.164151818403
 20
204.552384352606
 10
587.1060093500697
 20
204.6894526838476
 10
587.0367804178082
 20
204.7697662173922
 10
586.9626192011916
 20
204.7861947476084
 10
586.8901157387578
 20
204.7372779606993
 10
586.8257110574328
 20
204.6273595451529
 10
586.7751272031152
 20
204.4662072121317
 10
586.7428587385499
 20
204.2681409775431
 10
586.731775999912
 20
204.0507553874666
  0
LINE
  5
1DE3D
330
18
100
AcDbEntity
  8
1
  6
CONTINUOUS
 62
     7
100
AcDbLine
 10
586.3638849564874
 20
207.7507584153826
 30
0.0
 11
586.3215991863095
 21
207.7507584153826
 31
0.0
  0
SPLINE
  5
1DE3E
330
18
100
AcDbEntity
  8
1
  6
CONTINUOUS
 62
     7
100
AcDbSpline
210
0.0
220
0.0
230
1.0
 70
     8
 71
     3
 72
    11
 73
     7
 74
     0
 42
0.000000001
 43
0.00000001
 40
0.0
 40
0.0
 40
0.0
 40
0.0
 40
0.2489524344324736
 40
0.497431231677862
 40
0.9055836764596396
 40
1.0
 40
1.0
 40
1.0
 40
1.0
 10
587.5991949447476
 20
207.7507584153826
 30
0.0
 10
587.5796884467386
 20
207.7552242720953
 30
0.0
 10
587.540712562239
 20
207.7641474891354
 30
0.0
 10
587.5197445915873
 20
207.8508345024923
 30
0.0
 10
587.5299638864559
 20
207.9453429542274
 30
0.0
 10
587.5442020752708
 20
208.04019670048
 30
0.0
 10
587.546876967796
 20
208.0580166339094
 30
0.0
  0
LWPOLYLINE
  5
1DE3F
330
18
100
AcDbEntity
  8
1
  6
CONTINUOUS
 62
     7
100
AcDbPolyline
 90
        3
 70
   128
 43
0.0
 10
587.6277269431436
 20
199.0507564305479
 10
588.1857847430789
 20
199.6107569693739
 10
588.6242588617885
 20
200.0507584571058
  0
LINE
  5
1DE40
330
18
100
AcDbEntity
  8
1
  6
CONTINUOUS
 62
     7
100
AcDbLine
 10
587.3633077004039
 20
199.0507564305479
 30
0.0
 11
587.6277269431436
 21
199.0507564305479
 31
0.0
  0
LINE
  5
1DE41
330
18
100
AcDbEntity
  8
1
  6
CONTINUOUS
 62
     7
100
AcDbLine
 10
588.6242588617885
 20
200.0507584571058
 30
0.0
 11
588.6242588617885
 21
207.3580159603769
 31
0.0
  0
CIRCLE
  5
1DE42
330
18
100
AcDbEntity
  8
1
  6
CONTINUOUS
 62
     7
100
AcDbCircle
 10
600.8214748902918
 20
201.053580142229
 30
0.0
 40
0.7330559678084504
  0
LINE
  5
1DE43
330
18
100
AcDbEntity
  8
1
  6
CONTINUOUS
 62
     7
100
AcDbLine
 10
598.9218311020219
 20
207.7507584153826
 30
0.0
 11
599.0442823254549
 21
207.7507584153826
 31
0.0
  0
LINE
  5
1DE44
330
18
100
AcDbEntity
  8
1
  6
CONTINUOUS
 62
     7
100
AcDbLine
 10
602.6198480845475
 20
207.7507584153826
 30
0.0
 11
599.0442823254549
 21
207.7507584153826
 31
0.0
  0
LINE
  5
1DE45
330
18
100
AcDbEntity
  8
1
  6
CONTINUOUS
 62
     7
100
AcDbLine
 10
602.6198480845475
 20
207.7507584153826
 30
0.0
 11
602.7422986094886
 21
207.7507584153826
 31
0.0
  0
LINE
  5
1DE46
330
18
100
AcDbEntity
  8
1
  6
CONTINUOUS
 62
     7
100
AcDbLine
 10
602.7422990751498
 20
207.7507584153826
 30
0.0
 11
602.7422990751498
 21
200.0507584571058
 31
0.0
  0
LWPOLYLINE
  5
1DE47
330
18
100
AcDbEntity
  8
1
  6
CONTINUOUS
 62
     7
100
AcDbPolyline
 90
        3
 70
   128
 43
0.0
 10
602.7422990751498
 20
200.0507584571058
 10
602.1937191122257
 20
199.4907579182799
 10
601.7626923144841
 20
199.0507564305479
  0
LINE
  5
1DE48
330
18
100
AcDbEntity
  8
1
  6
CONTINUOUS
 62
     7
100
AcDbLine
 10
601.7626918488228
 20
199.0507564305479
 30
0.0
 11
599.9014390268409
 21
199.0507564305479
 31
0.0
  0
LWPOLYLINE
  5
1DE49
330
18
100
AcDbEntity
  8
1
  6
CONTINUOUS
 62
     7
100
AcDbPolyline
 90
        3
 70
   128
 43
0.0
 10
599.9014385611796
 20
199.0507564305479
 10
599.3528583654248
 20
199.6107569693739
 10
598.9218311020219
 20
200.0507584571058
  0
LINE
  5
1DE4A
330
18
100
AcDbEntity
  8
1
  6
CONTINUOUS
 62
     7
100
AcDbLine
 10
598.9218311020219
 20
200.0507584571058
 30
0.0
 11
598.9218311020219
 21
207.7507584153826
 31
0.0
  0
CIRCLE
  5
1DE4B
330
18
100
AcDbEntity
  8
1
  6
CONTINUOUS
 62
     7
100
AcDbCircle
 10
600.8214753395694
 20
204.053582514533
 30
0.0
 40
0.7330555329608845
  0
SPLINE
  5
1DE4C
330
18
100
AcDbEntity
  8
1
  6
CONTINUOUS
 62
     7
100
AcDbSpline
210
0.0
220
0.0
230
1.0
 70
     8
 71
     3
 72
    12
 73
     8
 74
     0
 42
0.000000001
 43
0.00000001
 40
0.0
 40
0.0
 40
0.0
 40
0.0
 40
0.2167219276026814
 40
0.4680794349842091
 40
0.7600299576824202
 40
0.9365001389623567
 40
1.0
 40
1.0
 40
1.0
 40
1.0
 10
601.8739015431189
 20
208.3507536708529
 30
0.0
 10
601.9000488885466
 20
208.2840641364339
 30
0.0
 10
601.9565223373087
 20
208.140027028904
 30
0.0
 10
602.1255223452209
 20
207.9353131378755
 30
0.0
 10
602.3380322454765
 20
207.8049420483187
 30
0.0
 10
602.5171451806361
 20
207.7525807508122
 30
0.0
 10
602.5982610707262
 20
207.7511397317677
 30
0.0
 10
602.6197256156289
 20
207.7507584153826
 30
0.0
  0
SPLINE
  5
1DE4D
330
18
100
AcDbEntity
  8
1
  6
CONTINUOUS
 62
     7
100
AcDbSpline
210
0.0
220
0.0
230
1.0
 70
     8
 71
     3
 72
    11
 73
     7
 74
     0
 42
0.000000001
 43
0.00000001
 40
0.0
 40
0.0
 40
0.0
 40
0.0
 40
0.2578403075643885
 40
0.5165674486562961
 40
0.8346250979029834
 40
1.0
 40
1.0
 40
1.0
 40
1.0
 10
599.0444052600348
 20
207.7507584153826
 30
0.0
 10
599.0980363655253
 20
207.7547888386466
 30
0.0
 10
599.2054830389861
 20
207.7628635476871
 30
0.0
 10
599.3660712041694
 20
207.8431266287001
 30
0.0
 10
599.4886595219926
 20
207.9395514084329
 30
0.0
 10
599.5333904511955
 20
208.0278209649769
 30
0.0
 10
599.5486922198021
 20
208.0580166339094
 30
0.0
  0
LINE
  5
1DE4E
330
18
100
AcDbEntity
  8
1
  6
CONTINUOUS
 62
     7
100
AcDbLine
 10
602.1626790621364
 20
208.3507573961432
 30
0.0
 11
601.8739010774576
 21
208.3507536708529
 31
0.0
  0
SPLINE
  5
1DE4F
330
18
100
AcDbEntity
  8
1
  6
CONTINUOUS
 62
     7
100
AcDbSpline
210
0.0
220
0.0
230
1.0
 70
     8
 71
     3
 72
    12
 73
     8
 74
     0
 42
0.000000001
 43
0.00000001
 40
0.0
 40
0.0
 40
0.0
 40
0.0
 40
0.2336861946548434
 40
0.47935898119858
 40
0.7117324814940246
 40
0.8699552495556812
 40
1.0
 40
1.0
 40
1.0
 40
1.0
 10
602.1626907036685
 20
208.3507685720141
 30
0.0
 10
602.1729034352612
 20
208.2824881422494
 30
0.0
 10
602.1938527455906
 20
208.1424249378477
 30
0.0
 10
602.3090900777125
 20
207.9430917253829
 30
0.0
 10
602.469887341421
 20
207.8216990160567
 30
0.0
 10
602.6286038154614
 20
207.7576323761433
 30
0.0
 10
602.7194057741295
 20
207.7528953895477
 30
0.0
 10
602.7603688285732
 20
207.7507584153826
 30
0.0
  0
LINE
  5
1DE50
330
18
100
AcDbEntity
  8
1
  6
CONTINUOUS
 62
     7
100
AcDbLine
 10
602.8829448492312
 20
200.0507584571058
 30
0.0
 11
602.7422990751498
 21
200.0507584571058
 31
0.0
  0
LINE
  5
1DE51
330
18
100
AcDbEntity
  8
1
  6
CONTINUOUS
 62
     7
100
AcDbLine
 10
601.9033378557348
 20
199.0507564305479
 30
0.0
 11
601.7626918488228
 21
199.0507564305479
 31
0.0
  0
LWPOLYLINE
  5
1DE52
330
18
100
AcDbEntity
  8
1
  6
CONTINUOUS
 62
     7
100
AcDbPolyline
 90
        3
 70
   128
 43
0.0
 10
602.8829448492312
 20
200.0507584571058
 10
602.3343651191377
 20
199.4907579182799
 10
601.9033378557348
 20
199.0507564305479
  0
ARC
  5
1DE53
330
18
100
AcDbEntity
  8
1
  6
CONTINUOUS
 62
     7
100
AcDbCircle
 10
600.9854454372479
 20
201.0507567583735
 30
0.0
 40
0.7386819930962862
100
AcDbArc
 50
96.45597645674884
 51
263.5440235432511
  0
ARC
  5
1DE54
330
18
100
AcDbEntity
  8
1
  6
CONTINUOUS
 62
     7
100
AcDbCircle
 10
600.9854465564032
 20
204.0507572501118
 30
0.0
 40
0.7386839697676598
100
AcDbArc
 50
96.45604646839219
 51
263.5439535316078
  0
LINE
  5
1DE55
330
18
100
AcDbEntity
  8
1
  6
CONTINUOUS
 62
     7
100
AcDbLine
 10
602.8829448492312
 20
207.7507584153826
 30
0.0
 11
602.7422990751498
 21
207.7507584153826
 31
0.0
  0
LINE
  5
1DE56
330
18
100
AcDbEntity
  8
1
  6
CONTINUOUS
 62
     7
100
AcDbLine
 10
602.8829448492312
 20
207.7507584153826
 30
0.0
 11
602.8829448492312
 21
200.0507584571058
 31
0.0
  0
LINE
  5
1DE57
330
18
100
AcDbEntity
  8
1
  6
CONTINUOUS
 62
     7
100
AcDbLine
 10
591.4862503864848
 20
207.7507584153826
 30
0.0
 11
590.8040659138047
 21
207.7507584153826
 31
0.0
  0
LINE
  5
1DE58
330
18
100
AcDbEntity
  8
1
  6
CONTINUOUS
 62
     7
100
AcDbLine
 10
591.4862503864848
 20
207.7507584153826
 30
0.0
 11
591.4862503864848
 21
200.0507584571058
 31
0.0
  0
LINE
  5
1DE59
330
18
100
AcDbEntity
  8
1
  6
CONTINUOUS
 62
     7
100
AcDbLine
 10
591.4862503864848
 20
200.0507584571058
 30
0.0
 11
590.8040659138047
 21
200.0507584571058
 31
0.0
  0
LINE
  5
1DE5A
330
18
100
AcDbEntity
  8
1
  6
CONTINUOUS
 62
     7
100
AcDbLine
 10
590.8040659138047
 20
207.7507584153826
 30
0.0
 11
590.8040659138047
 21
200.0507584571058
 31
0.0
  0
LWPOLYLINE
  5
1DE5B
330
18
100
AcDbEntity
  8
1
  6
CONTINUOUS
 62
     7
100
AcDbPolyline
 90
        3
 70
   128
 43
0.0
 10
591.4862503864848
 20
200.0507584571058
 10
591.3607108973944
 20
199.4907579182799
 10
591.2620726608717
 20
199.0507564305479
  0
LINE
  5
1DE5C
330
18
100
AcDbEntity
  8
1
  6
CONTINUOUS
 62
     7
100
AcDbLine
 10
591.2620726608717
 20
199.0507564305479
 30
0.0
 11
590.5798891195142
 21
199.0507564305479
 31
0.0
  0
LWPOLYLINE
  5
1DE5D
330
18
100
AcDbEntity
  8
1
  6
CONTINUOUS
 62
     7
100
AcDbPolyline
 90
        3
 70
   128
 43
0.0
 10
590.8040659138047
 20
200.0507584571058
 10
590.6785273560369
 20
199.4907579182799
 10
590.5798891195142
 20
199.0507564305479
  0
SPLINE
  5
1DE5E
330
18
100
AcDbEntity
  8
1
  6
CONTINUOUS
 62
     7
100
AcDbSpline
210
0.0
220
0.0
230
1.0
 70
     8
 71
     3
 72
    12
 73
     8
 74
     0
 42
0.000000001
 43
0.00000001
 40
0.0
 40
0.0
 40
0.0
 40
0.0
 40
0.2336869969877599
 40
0.479359678213854
 40
0.7117334020576713
 40
0.8699560432569414
 40
1.0
 40
1.0
 40
1.0
 40
1.0
 10
591.0619109504902
 20
208.3507685720141
 30
0.0
 10
591.0938433712089
 20
208.282488213899
 30
0.0
 10
591.1593460098562
 20
208.1424254337005
 30
0.0
 10
591.2507917016502
 20
207.9430915060417
 30
0.0
 10
591.3683536218387
 20
207.8216991365286
 30
0.0
 10
591.4275883161764
 20
207.7576324496223
 30
0.0
 10
591.4482995968852
 20
207.7528954081056
 30
0.0
 10
591.4576429509603
 20
207.7507584153826
 30
0.0
  0
SPLINE
  5
1DE5F
330
18
100
AcDbEntity
  8
1
  6
CONTINUOUS
 62
     7
100
AcDbSpline
210
0.0
220
0.0
230
1.0
 70
     8
 71
     3
 72
    12
 73
     8
 74
     0
 42
0.000000001
 43
0.00000001
 40
0.0
 40
0.0
 40
0.0
 40
0.0
 40
0.2167216371140647
 40
0.468079525082723
 40
0.7600301906002118
 40
0.9364995157543112
 40
1.0
 40
1.0
 40
1.0
 40
1.0
 10
590.3618795433127
 20
208.3507536708529
 30
0.0
 10
590.3935543128135
 20
208.284064095374
 30
0.0
 10
590.4619660840721
 20
208.1400266783729
 30
0.0
 10
590.5618909623939
 20
207.9353132839293
 30
0.0
 10
590.6998948104787
 20
207.8049423305022
 30
0.0
 10
590.7519034639139
 20
207.7525806563673
 30
0.0
 10
590.7705392176837
 20
207.7511397152573
 30
0.0
 10
590.7754705854737
 20
207.7507584153826
 30
0.0
  0
LINE
  5
1DE60
330
18
100
AcDbEntity
  8
1
  6
CONTINUOUS
 62
     7
100
AcDbLine
 10
591.0618867361032
 20
208.3507573961432
 30
0.0
 11
590.3618795433127
 21
208.3507536708529
 31
0.0
  0
LWPOLYLINE
  5
1DE61
330
18
100
AcDbEntity
  8
1
  6
CONTINUOUS
 62
     7
100
AcDbPolyline
 90
       22
 70
   128
 43
0.0
 10
590.5322501071774
 20
201.0507567583735
 10
590.524905697354
 20
200.8333748935873
 10
590.5035225310409
 20
200.6353086589987
 10
590.4700023689353
 20
200.4741563259775
 10
590.4273217179858
 20
200.3642379104311
 10
590.3792747863614
 20
200.315321123522
 10
590.3301307567441
 20
200.3317496537382
 10
590.2842538067185
 20
200.4120631872828
 10
590.2457231291615
 20
200.5491315185244
 10
590.2179604032123
 20
200.7307692228968
 10
590.2034354963386
 20
200.940838342827
 10
590.2034354963386
 20
201.1606751739199
 10
590.2179604032123
 20
201.3707480191404
 10
590.2457231291615
 20
201.5523857235129
 10
590.2842538067185
 20
201.6894503294642
 10
590.3301307567441
 20
201.769767588299
 10
590.3792747863614
 20
201.7861961185152
 10
590.4273217179858
 20
201.7372756063158
 10
590.4700023689353
 20
201.6273571907694
 10
590.5035225310409
 20
201.4662048577482
 10
590.524905697354
 20
201.2681386231596
 10
590.5322501071774
 20
201.0507567583735
  0
LINE
  5
1DE62
330
18
100
AcDbEntity
  8
1
  6
CONTINUOUS
 62
     7
100
AcDbLine
 10
590.7456906148278
 20
207.7507584153826
 30
0.0
 11
589.9577954419934
 21
207.7507584153826
 31
0.0
  0
LINE
  5
1DE63
330
18
100
AcDbEntity
  8
1
  6
CONTINUOUS
 62
     7
100
AcDbLine
 10
590.5798891195142
 20
199.0507564305479
 30
0.0
 11
590.1539506026589
 21
199.0507564305479
 31
0.0
  0
LWPOLYLINE
  5
1DE64
330
18
100
AcDbEntity
  8
1
  6
CONTINUOUS
 62
     7
100
AcDbPolyline
 90
        3
 70
   128
 43
0.0
 10
590.1539506026589
 20
199.0507564305479
 10
590.0284101822459
 20
199.6107569693739
 10
589.9297719457232
 20
200.0507584571058
  0
LINE
  5
1DE65
330
18
100
AcDbEntity
  8
1
  6
CONTINUOUS
 62
     7
100
AcDbLine
 10
589.9297719457232
 20
200.0507584571058
 30
0.0
 11
589.9297719457232
 21
207.7507584153826
 31
0.0
  0
LWPOLYLINE
  5
1DE66
330
18
100
AcDbEntity
  8
1
  6
CONTINUOUS
 62
     7
100
AcDbPolyline
 90
       22
 70
   128
 43
0.0
 10
590.5322501071774
 20
204.0507553874666
 10
590.524905697354
 20
203.8333735226805
 10
590.5035225310409
 20
203.6353072880919
 10
590.4700023689353
 20
203.4741549550707
 10
590.4273217179858
 20
203.3642365395243
 10
590.3792747863614
 20
203.3153197526152
 10
590.3301307567441
 20
203.3317482828314
 10
590.2842538067185
 20
203.4120618163759
 10
590.2457231291615
 20
203.5491301476175
 10
590.2179604032123
 20
203.73076785199
 10
590.2034354963386
 20
203.9408369719202
 10
590.2034354963386
 20
204.1606775283034
 10
590.2179604032123
 20
204.3707466482336
 10
590.2457231291615
 20
204.552384352606
 10
590.2842538067185
 20
204.6894526838476
 10
590.3301307567441
 20
204.7697662173922
 10
590.3792747863614
 20
204.7861947476084
 10
590.4273217179858
 20
204.7372779606993
 10
590.4700023689353
 20
204.6273595451529
 10
590.5035225310409
 20
204.4662072121317
 10
590.524905697354
 20
204.2681409775431
 10
590.5322501071774
 20
204.0507553874666
  0
LINE
  5
1DE67
330
18
100
AcDbEntity
  8
1
  6
CONTINUOUS
 62
     7
100
AcDbLine
 10
590.7760442801797
 20
207.7507584153826
 30
0.0
 11
590.8040659138047
 21
207.7507584153826
 31
0.0
  0
SPLINE
  5
1DE68
330
18
100
AcDbEntity
  8
1
  6
CONTINUOUS
 62
     7
100
AcDbSpline
210
0.0
220
0.0
230
1.0
 70
     8
 71
     3
 72
    12
 73
     8
 74
     0
 42
0.000000001
 43
0.00000001
 40
0.0
 40
0.0
 40
0.0
 40
0.0
 40
0.1692610371058637
 40
0.339104716553798
 40
0.5478970408930052
 40
0.7555771545067476
 40
0.9999999999999999
 40
0.9999999999999999
 40
0.9999999999999999
 40
0.9999999999999999
 10
589.9583803125703
 20
207.7507584153826
 30
0.0
 10
589.9704161905928
 20
207.754839630008
 30
0.0
 10
589.9945293773907
 20
207.7630161079051
 30
0.0
 10
590.0697383517528
 20
207.8424557736981
 30
0.0
 10
590.1735067997171
 20
207.9623297780955
 30
0.0
 10
590.2587823935279
 20
208.1470263492018
 30
0.0
 10
590.3206582010156
 20
208.27926951522
 30
0.0
 10
590.3541104503953
 20
208.3507648467238
 30
0.0
  0
LINE
  5
1DE69
330
18
100
AcDbEntity
  8
1
  6
CONTINUOUS
 62
     7
100
AcDbLine
 10
589.8924929657065
 20
201.0507567583735
 30
0.0
 11
589.9196019032084
 21
200.8402219771559
 31
0.0
  0
LWPOLYLINE
  5
1DE6A
330
18
100
AcDbEntity
  8
1
  6
CONTINUOUS
 62
     7
100
AcDbPolyline
 90
        3
 70
   128
 43
0.0
 10
589.9250818052375
 20
201.2810951828177
 10
589.9214347460353
 20
201.2681386231596
 10
589.8924929657065
 20
201.0507567583735
  0
LWPOLYLINE
  5
1DE6B
330
18
100
AcDbEntity
  8
1
  6
CONTINUOUS
 62
     7
100
AcDbPolyline
 90
        3
 70
   128
 43
0.0
 10
591.3830952354753
 20
199.0507564305479
 10
591.8777541824662
 20
199.6107569693739
 10
592.2664146506273
 20
200.0507584571058
  0
LINE
  5
1DE6C
330
18
100
AcDbEntity
  8
1
  6
CONTINUOUS
 62
     7
100
AcDbLine
 10
589.7047886260831
 20
199.0507564305479
 30
0.0
 11
590.1235969373071
 21
199.0507564305479
 31
0.0
  0
LINE
  5
1DE6D
330
18
100
AcDbEntity
  8
1
  6
CONTINUOUS
 62
     7
100
AcDbLine
 10
591.2924263262236
 20
199.0507564305479
 30
0.0
 11
591.3830952354753
 21
199.0507564305479
 31
0.0
  0
LWPOLYLINE
  5
1DE6E
330
18
100
AcDbEntity
  8
1
  6
CONTINUOUS
 62
     7
100
AcDbPolyline
 90
        3
 70
   128
 43
0.0
 10
588.8214682796084
 20
200.0507584571058
 10
589.3161272265994
 20
199.4907579182799
 10
589.7047867634379
 20
199.0507564305479
  0
LINE
  5
1DE6F
330
18
100
AcDbEntity
  8
1
  6
CONTINUOUS
 62
     7
100
AcDbLine
 10
588.8214682796084
 20
207.3580159603769
 30
0.0
 11
588.8214682796084
 21
200.0507584571058
 31
0.0
  0
LINE
  5
1DE70
330
18
100
AcDbEntity
  8
1
  6
CONTINUOUS
 62
     7
100
AcDbLine
 10
592.2664155819499
 20
200.0507584571058
 30
0.0
 11
592.2664155819499
 21
207.3580159603769
 31
0.0
  0
LINE
  5
1DE71
330
18
100
AcDbEntity
  8
1
  6
CONTINUOUS
 62
     7
100
AcDbLine
 10
589.8924929657065
 20
204.0507553874666
 30
0.0
 11
589.9196019032084
 21
203.8402206062491
 31
0.0
  0
LWPOLYLINE
  5
1DE72
330
18
100
AcDbEntity
  8
1
  6
CONTINUOUS
 62
     7
100
AcDbPolyline
 90
        3
 70
   128
 43
0.0
 10
589.9250818052375
 20
204.2810938119108
 10
589.9214347460353
 20
204.2681409775431
 10
589.8924929657065
 20
204.0507553874666
  0
LINE
  5
1DE73
330
18
100
AcDbEntity
  8
1
  6
CONTINUOUS
 62
     7
100
AcDbLine
 10
591.3830952354753
 20
199.0507564305479
 30
0.0
 11
591.7112355687701
 21
199.0507564305479
 31
0.0
  0
LINE
  5
1DE74
330
18
100
AcDbEntity
  8
1
  6
CONTINUOUS
 62
     7
100
AcDbLine
 10
592.2664155819499
 20
200.0507584571058
 30
0.0
 11
592.5945549839222
 21
200.0507584571058
 31
0.0
  0
LWPOLYLINE
  5
1DE75
330
18
100
AcDbEntity
  8
1
  6
CONTINUOUS
 62
     7
100
AcDbPolyline
 90
        3
 70
   128
 43
0.0
 10
591.7112355687701
 20
199.0507564305479
 10
592.2058945157611
 20
199.6107569693739
 10
592.5945549839222
 20
200.0507584571058
  0
LINE
  5
1DE76
330
18
100
AcDbEntity
  8
1
  6
CONTINUOUS
 62
     7
100
AcDbLine
 10
592.5945549839222
 20
200.0507584571058
 30
0.0
 11
592.5945549839222
 21
207.3580159603769
 31
0.0
  0
ARC
  5
1DE77
330
18
100
AcDbEntity
  8
1
  6
CONTINUOUS
 62
     7
100
AcDbCircle
 10
594.8605867199193
 20
201.0507567583735
 30
0.0
 40
1.22388465597488
100
AcDbArc
 50
331.7372534060167
 51
28.2627465939821
  0
ARC
  5
1DE78
330
18
100
AcDbEntity
  8
1
  6
CONTINUOUS
 62
     7
100
AcDbCircle
 10
594.8605965642931
 20
204.0507572501118
 30
0.0
 40
1.223875103206084
100
AcDbArc
 50
331.7371119836306
 51
28.26288801636935
  0
LWPOLYLINE
  5
1DE79
330
18
100
AcDbEntity
  8
1
  6
CONTINUOUS
 62
     7
100
AcDbPolyline
 90
        3
 70
   128
 43
0.0
 10
595.9644348927819
 20
201.0507567583735
 10
595.9804778554522
 20
200.8333748935873
 10
596.0203887530648
 20
200.6564347802813
  0
LWPOLYLINE
  5
1DE7A
330
18
100
AcDbEntity
  8
1
  6
CONTINUOUS
 62
     7
100
AcDbPolyline
 90
        3
 70
   128
 43
0.0
 10
596.0203887530648
 20
201.445082461756
 10
595.9804778554522
 20
201.2681386231596
 10
595.9644348927819
 20
201.0507567583735
  0
LWPOLYLINE
  5
1DE7B
330
18
100
AcDbEntity
  8
1
  6
CONTINUOUS
 62
     7
100
AcDbPolyline
 90
        3
 70
   128
 43
0.0
 10
595.9644348927819
 20
204.0507553874666
 10
595.9804778554522
 20
203.8333735226805
 10
596.0203887530648
 20
203.6564334093744
  0
LWPOLYLINE
  5
1DE7C
330
18
100
AcDbEntity
  8
1
  6
CONTINUOUS
 62
     7
100
AcDbPolyline
 90
        3
 70
   128
 43
0.0
 10
596.0203887530648
 20
204.4450810908491
 10
595.9804778554522
 20
204.2681409775431
 10
595.9644348927819
 20
204.0507553874666
  0
LINE
  5
1DE7D
330
18
100
AcDbEntity
  8
1
  6
CONTINUOUS
 62
     7
100
AcDbLine
 10
583.8058678069198
 20
200.0507584571058
 30
0.0
 11
583.3797337123239
 21
200.0507584571058
 31
0.0
  0
LWPOLYLINE
  5
1DE7E
330
18
100
AcDbEntity
  8
1
  6
CONTINUOUS
 62
     7
100
AcDbPolyline
 90
        3
 70
   128
 43
0.0
 10
583.8058678069198
 20
200.0507584571058
 10
584.2501440652692
 20
199.4907579182799
 10
584.5992205300414
 20
199.0507564305479
  0
LINE
  5
1DE7F
330
18
100
AcDbEntity
  8
1
  6
CONTINUOUS
 62
     7
100
AcDbLine
 10
584.5992205300414
 20
199.0507564305479
 30
0.0
 11
584.1730864354455
 21
199.0507564305479
 31
0.0
  0
LWPOLYLINE
  5
1DE80
102
{ACAD_REACTORS
102
}
330
18
100
AcDbEntity
  8
1
  6
CONTINUOUS
 62
     7
100
AcDbPolyline
 90
        3
 70
   128
 43
0.0
 10
583.3797337123239
 20
200.0507584571058
 10
583.8240118333184
 20
199.4907579182799
 10
584.1730864354455
 20
199.0507564305479
  0
LINE
  5
1DE81
330
18
100
AcDbEntity
  8
1
  6
CONTINUOUS
 62
     7
100
AcDbLine
 10
583.8058678069198
 20
207.7507584153826
 30
0.0
 11
583.3797337123239
 21
207.7507584153826
 31
0.0
  0
LINE
  5
1DE82
330
18
100
AcDbEntity
  8
1
  6
CONTINUOUS
 62
     7
100
AcDbLine
 10
583.8058678069198
 20
207.7507584153826
 30
0.0
 11
583.8058678069198
 21
200.0507584571058
 31
0.0
  0
LINE
  5
1DE83
330
18
100
AcDbEntity
  8
1
  6
CONTINUOUS
 62
     7
100
AcDbLine
 10
583.3797337123239
 20
207.7507584153826
 30
0.0
 11
583.3797337123239
 21
200.0507584571058
 31
0.0
  0
SPLINE
  5
1DE84
330
18
100
AcDbEntity
  8
1
  6
CONTINUOUS
 62
     7
100
AcDbSpline
210
0.0
220
0.0
230
1.0
 70
     8
 71
     3
 72
    11
 73
     7
 74
     0
 42
0.000000001
 43
0.00000001
 40
0.0
 40
0.0
 40
0.0
 40
0.0
 40
0.225219454889956
 40
0.5710240919520208
 40
0.8064788399874523
 40
1.0
 40
1.0
 40
1.0
 40
1.0
 10
584.1965781160676
 20
208.0717964827234
 30
0.0
 10
584.1919178673096
 20
208.0295287213063
 30
0.0
 10
584.1801022170296
 20
207.9223625349132
 30
0.0
 10
584.1198666258675
 20
207.8222644259093
 30
0.0
 10
584.0116534978396
 20
207.757538812694
 30
0.0
 10
583.9379327251978
 20
207.7528662973637
 30
0.0
 10
583.904675544151
 20
207.7507584153826
 30
0.0
  0
SPLINE
  5
1DE85
330
18
100
AcDbEntity
  8
1
  6
CONTINUOUS
 62
     7
100
AcDbSpline
210
0.0
220
0.0
230
1.0
 70
     8
 71
     3
 72
    11
 73
     7
 74
     0
 42
0.000000001
 43
0.00000001
 40
0.0
 40
0.0
 40
0.0
 40
0.0
 40
0.1949958883849121
 40
0.6368306654808567
 40
0.9038983318692299
 40
1.0
 40
1.0
 40
1.0
 40
1.0
 10
583.8344500967347
 20
208.0580166339094
 30
0.0
 10
583.8228113139481
 20
208.0228319565801
 30
0.0
 10
583.7848005956262
 20
207.9079234748478
 30
0.0
 10
583.696153351564
 20
207.8060411939718
 30
0.0
 10
583.5616246105773
 20
207.7525164342213
 30
0.0
 10
583.495932349795
 20
207.7511262778038
 30
0.0
 10
583.4785489001357
 20
207.7507584153826
 30
0.0
  0
LINE
  5
1DE86
330
18
100
AcDbEntity
  8
1
  6
CONTINUOUS
 62
     7
100
AcDbLine
 10
584.1735595473134
 20
208.3507573961432
 30
0.0
 11
583.8807498672091
 21
208.3507536708529
 31
0.0
  0
LWPOLYLINE
  5
1DE87
330
18
100
AcDbEntity
  8
1
  6
CONTINUOUS
 62
     7
100
AcDbPolyline
 90
        9
 70
   128
 43
0.0
 10
584.7678085424983
 20
201.0507567583735
 10
584.7938017555558
 20
200.8333748935873
 10
584.8694754400336
 20
200.6353086589987
 10
584.9881035842978
 20
200.4741563259775
 10
585.139145479449
 20
200.3642379104311
 10
585.3091807671868
 20
200.315321123522
 10
585.4831033953511
 20
200.3317496537382
 10
585.6454552718484
 20
200.4120631872828
 10
585.6689432271802
 20
200.4300973176176
  0
LWPOLYLINE
  5
1DE88
330
18
100
AcDbEntity
  8
1
  6
CONTINUOUS
 62
     7
100
AcDbPolyline
 90
        9
 70
   128
 43
0.0
 10
585.6681571909272
 20
201.6720532237703
 10
585.6454552718484
 20
201.6894503294642
 10
585.4831033953511
 20
201.769767588299
 10
585.3091807671868
 20
201.7861961185152
 10
585.139145479449
 20
201.7372756063158
 10
584.9881035842978
 20
201.6273571907694
 10
584.8694754400336
 20
201.4662048577482
 10
584.7938017555558
 20
201.2681386231596
 10
584.7678085424983
 20
201.0507567583735
  0
LINE
  5
1DE89
330
18
100
AcDbEntity
  8
1
  6
CONTINUOUS
 62
     7
100
AcDbLine
 10
584.5992205300414
 20
199.0507564305479
 30
0.0
 11
585.9994696089112
 21
199.0507564305479
 31
0.0
  0
LINE
  5
1DE8A
330
18
100
AcDbEntity
  8
1
  6
CONTINUOUS
 62
     7
100
AcDbLine
 10
583.90503689731
 20
207.7507584153826
 30
0.0
 11
585.6325154759967
 21
207.7507584153826
 31
0.0
  0
LWPOLYLINE
  5
1DE8B
330
18
100
AcDbEntity
  8
1
  6
CONTINUOUS
 62
     7
100
AcDbPolyline
 90
        9
 70
   128
 43
0.0
 10
584.7678085424983
 20
204.0507553874666
 10
584.7938017555558
 20
203.8333735226805
 10
584.8694754400336
 20
203.6353072880919
 10
584.9881035842978
 20
203.4741549550707
 10
585.139145479449
 20
203.3642365395243
 10
585.3091807671868
 20
203.3153197526152
 10
585.4831033953511
 20
203.3317482828314
 10
585.6454552718484
 20
203.4120618163759
 10
585.6689432271802
 20
203.4300959467108
  0
LWPOLYLINE
  5
1DE8C
330
18
100
AcDbEntity
  8
1
  6
CONTINUOUS
 62
     7
100
AcDbPolyline
 90
        9
 70
   128
 43
0.0
 10
585.6681571909272
 20
204.6720518528635
 10
585.6454552718484
 20
204.6894526838476
 10
585.4831033953511
 20
204.7697662173922
 10
585.3091807671868
 20
204.7861947476084
 10
585.139145479449
 20
204.7372779606993
 10
584.9881035842978
 20
204.6273595451529
 10
584.8694754400336
 20
204.4662072121317
 10
584.7938017555558
 20
204.2681409775431
 10
584.7678085424983
 20
204.0507553874666
  0
LINE
  5
1DE8D
330
18
100
AcDbEntity
  8
1
  6
CONTINUOUS
 62
     7
100
AcDbLine
 10
583.90503689731
 20
207.7507584153826
 30
0.0
 11
583.8058678069198
 21
207.7507584153826
 31
0.0
  0
ARC
  5
1DE8E
330
18
100
AcDbEntity
  8
1
  6
CONTINUOUS
 62
     7
100
AcDbCircle
 10
584.7230865635323
 20
204.0507572501118
 30
0.0
 40
0.8034083727580302
100
AcDbArc
 50
301.2472391544068
 51
58.75276084559325
  0
ARC
  5
1DE8F
330
18
100
AcDbEntity
  8
1
  6
CONTINUOUS
 62
     7
100
AcDbCircle
 10
584.7230914952552
 20
201.0507567583735
 30
0.0
 40
0.803404222077847
100
AcDbArc
 50
301.2470073695966
 51
58.75299263040343
  0
ARC
  5
1DE90
330
18
100
AcDbEntity
  8
1
  6
CONTINUOUS
 62
     7
100
AcDbCircle
 10
604.5689479516899
 20
201.0507567583735
 30
0.0
 40
0.9392591660597767
100
AcDbArc
 50
133.006179654971
 51
226.993820345029
  0
ARC
  5
1DE91
330
18
100
AcDbEntity
  8
1
  6
CONTINUOUS
 62
     7
100
AcDbCircle
 10
604.5689545864592
 20
204.0507572501118
 30
0.0
 40
0.9392650536071236
100
AcDbArc
 50
133.0063981231392
 51
226.9936018768608
  0
ARC
  5
1DE92
330
18
100
AcDbEntity
  8
1
  6
CONTINUOUS
 62
     7
100
AcDbCircle
 10
602.9516161156895
 20
201.0227244462078
 30
0.0
 40
1.005029900180895
100
AcDbArc
 50
328.0086355377576
 51
1.59830220196778
  0
ARC
  5
1DE93
330
18
100
AcDbEntity
  8
1
  6
CONTINUOUS
 62
     7
100
AcDbCircle
 10
602.9516161156895
 20
201.0787890705391
 30
0.0
 40
1.005029900180899
100
AcDbArc
 50
358.4016977980322
 51
31.99136446224235
  0
ARC
  5
1DE94
330
18
100
AcDbEntity
  8
1
  6
CONTINUOUS
 62
     7
100
AcDbCircle
 10
602.9516161156895
 20
204.022723075301
 30
0.0
 40
1.005029900180895
100
AcDbArc
 50
328.0086355377576
 51
1.59830220196778
  0
ARC
  5
1DE95
330
18
100
AcDbEntity
  8
1
  6
CONTINUOUS
 62
     7
100
AcDbCircle
 10
602.9516151309423
 20
204.0787909711104
 30
0.0
 40
1.005030975798165
100
AcDbArc
 50
358.4015129328395
 51
31.99135666227987
  0
LWPOLYLINE
  5
1DE96
330
18
100
AcDbEntity
  8
1
  6
CONTINUOUS
 62
     7
100
AcDbPolyline
 90
       22
 70
   128
 43
0.0
 10
596.303523854264
 20
201.0507567583735
 10
596.2800806024158
 20
200.8333748935873
 10
596.2118370094382
 20
200.6353086589987
 10
596.104854122647
 20
200.4741563259775
 10
595.9686388828837
 20
200.3642379104311
 10
595.8152956896507
 20
200.315321123522
 10
595.6584479295694
 20
200.3317496537382
 10
595.5120337762916
 20
200.4120631872828
 10
595.3890610122168
 20
200.5491315185244
 10
595.3004587077581
 20
200.7307692228968
 10
595.2540974699938
 20
200.940838342827
 10
595.2540974699938
 20
201.1606751739199
 10
595.3004587077581
 20
201.3707480191404
 10
595.3890610122168
 20
201.5523857235129
 10
595.5120337762916
 20
201.6894503294642
 10
595.6584479295694
 20
201.769767588299
 10
595.8152956896507
 20
201.7861961185152
 10
595.9686388828837
 20
201.7372756063158
 10
596.104854122647
 20
201.6273571907694
 10
596.2118370094382
 20
201.4662048577482
 10
596.2800806024158
 20
201.2681386231596
 10
596.303523854264
 20
201.0507567583735
  0
LINE
  5
1DE97
330
18
100
AcDbEntity
  8
1
  6
CONTINUOUS
 62
     7
100
AcDbLine
 10
594.3806947776162
 20
207.7507584153826
 30
0.0
 11
594.470128753134
 21
207.7507584153826
 31
0.0
  0
LINE
  5
1DE98
330
18
100
AcDbEntity
  8
1
  6
CONTINUOUS
 62
     7
100
AcDbLine
 10
597.081598230549
 20
207.7507584153826
 30
0.0
 11
594.470128753134
 21
207.7507584153826
 31
0.0
  0
LINE
  5
1DE99
330
18
100
AcDbEntity
  8
1
  6
CONTINUOUS
 62
     7
100
AcDbLine
 10
597.081598230549
 20
207.7507584153826
 30
0.0
 11
597.1710322060668
 21
207.7507584153826
 31
0.0
  0
LINE
  5
1DE9A
330
18
100
AcDbEntity
  8
1
  6
CONTINUOUS
 62
     7
100
AcDbLine
 10
597.1710322060668
 20
207.7507584153826
 30
0.0
 11
597.1710322060668
 21
200.0507584571058
 31
0.0
  0
LWPOLYLINE
  5
1DE9B
330
18
100
AcDbEntity
  8
1
  6
CONTINUOUS
 62
     7
100
AcDbPolyline
 90
        3
 70
   128
 43
0.0
 10
597.1710322060668
 20
200.0507584571058
 10
596.770368852564
 20
199.4907579182799
 10
596.4555613332474
 20
199.0507564305479
  0
LINE
  5
1DE9C
330
18
100
AcDbEntity
  8
1
  6
CONTINUOUS
 62
     7
100
AcDbLine
 10
596.4555613332474
 20
199.0507564305479
 30
0.0
 11
595.0961665817582
 21
199.0507564305479
 31
0.0
  0
LWPOLYLINE
  5
1DE9D
330
18
100
AcDbEntity
  8
1
  6
CONTINUOUS
 62
     7
100
AcDbPolyline
 90
        3
 70
   128
 43
0.0
 10
595.0961656504356
 20
199.0507564305479
 10
594.6955022969329
 20
199.6107569693739
 10
594.3806947776162
 20
200.0507584571058
  0
LINE
  5
1DE9E
330
18
100
AcDbEntity
  8
1
  6
CONTINUOUS
 62
     7
100
AcDbLine
 10
594.3806947776162
 20
200.0507584571058
 30
0.0
 11
594.3806947776162
 21
207.7507584153826
 31
0.0
  0
LWPOLYLINE
  5
1DE9F
330
18
100
AcDbEntity
  8
1
  6
CONTINUOUS
 62
     7
100
AcDbPolyline
 90
       22
 70
   128
 43
0.0
 10
596.303523854264
 20
204.0507553874666
 10
596.2800806024158
 20
203.8333735226805
 10
596.2118370094382
 20
203.6353072880919
 10
596.104854122647
 20
203.4741549550707
 10
595.9686388828837
 20
203.3642365395243
 10
595.8152956896507
 20
203.3153197526152
 10
595.6584479295694
 20
203.3317482828314
 10
595.5120337762916
 20
203.4120618163759
 10
595.3890610122168
 20
203.5491301476175
 10
595.3004587077581
 20
203.73076785199
 10
595.2540974699938
 20
203.9408369719202
 10
595.2540974699938
 20
204.1606775283034
 10
595.3004587077581
 20
204.3707466482336
 10
595.3890610122168
 20
204.552384352606
 10
595.5120337762916
 20
204.6894526838476
 10
595.6584479295694
 20
204.7697662173922
 10
595.8152956896507
 20
204.7861947476084
 10
595.9686388828837
 20
204.7372779606993
 10
596.104854122647
 20
204.6273595451529
 10
596.2118370094382
 20
204.4662072121317
 10
596.2800806024158
 20
204.2681409775431
 10
596.303523854264
 20
204.0507553874666
  0
SPLINE
  5
1DEA0
330
18
100
AcDbEntity
  8
1
  6
CONTINUOUS
 62
     7
100
AcDbSpline
210
0.0
220
0.0
230
1.0
 70
     8
 71
     3
 72
    12
 73
     8
 74
     0
 42
0.000000001
 43
0.00000001
 40
0.0
 40
0.0
 40
0.0
 40
0.0
 40
0.2167217647628695
 40
0.4680791119472162
 40
0.7600295962061228
 40
0.9364991593884051
 40
1.0
 40
1.0
 40
1.0
 40
1.0
 10
596.3920842492067
 20
208.3507536708529
 30
0.0
 10
596.4264514163684
 20
208.2840641374277
 30
0.0
 10
596.5006781702101
 20
208.1400270232228
 30
0.0
 10
596.6605116737859
 20
207.9353130584297
 30
0.0
 10
596.8688417717191
 20
207.8049422446395
 30
0.0
 10
597.0062093052412
 20
207.7525806328074
 30
0.0
 10
597.0654962448906
 20
207.7511397112727
 30
0.0
 10
597.0811847233259
 20
207.7507584153826
 30
0.0
  0
SPLINE
  5
1DEA1
330
18
100
AcDbEntity
  8
1
  6
CONTINUOUS
 62
     7
100
AcDbSpline
210
0.0
220
0.0
230
1.0
 70
     8
 71
     3
 72
    11
 73
     7
 74
     0
 42
0.000000001
 43
0.00000001
 40
0.0
 40
0.0
 40
0.0
 40
0.0
 40
0.2578391227923436
 40
0.5165670479634031
 40
0.8346248247096042
 40
1.0
 40
1.0
 40
1.0
 40
1.0
 10
594.4705497109377
 20
207.7507584153826
 30
0.0
 10
594.5095931731429
 20
207.7547888996921
 30
0.0
 10
594.5878146850499
 20
207.7628637618739
 30
0.0
 10
594.7277346751575
 20
207.8431264520827
 30
0.0
 10
594.8527164877045
 20
207.9395515092923
 30
0.0
 10
594.9043548084255
 20
208.0278209721657
 30
0.0
 10
594.9220195048534
 20
208.0580166339094
 30
0.0
  0
SPLINE
  5
1DEA2
330
18
100
AcDbEntity
  8
1
  6
CONTINUOUS
 62
     7
100
AcDbSpline
210
0.0
220
0.0
230
1.0
 70
     8
 71
     3
 72
    12
 73
     8
 74
     0
 42
0.000000001
 43
0.00000001
 40
0.0
 40
0.0
 40
0.0
 40
0.0
 40
0.2336864362572091
 40
0.4793581948257202
 40
0.7117322931678666
 40
0.8699541465903982
 40
1.0
 40
1.0
 40
1.0
 40
1.0
 10
596.9797916346275
 20
208.3507685720141
 30
0.0
 10
597.0048406905216
 20
208.282488258329
 30
0.0
 10
597.0562235196143
 20
208.1424256666168
 30
0.0
 10
597.1790646132257
 20
207.9430908678099
 30
0.0
 10
597.3445082125526
 20
207.8216995551748
 30
0.0
 10
597.4740484174229
 20
207.7576320974628
 30
0.0
 10
597.5403261439149
 20
207.752895314439
 30
0.0
 10
597.5702259325468
 20
207.7507584153826
 30
0.0
  0
LINE
  5
1DEA3
330
18
100
AcDbEntity
  8
1
  6
CONTINUOUS
 62
     7
100
AcDbLine
 10
596.9797702142083
 20
208.3507573961432
 30
0.0
 11
596.3920842492067
 21
208.3507536708529
 31
0.0
  0
LINE
  5
1DEA4
330
18
100
AcDbEntity
  8
1
  6
CONTINUOUS
 62
     7
100
AcDbLine
 10
597.6600817971909
 20
200.0507584571058
 30
0.0
 11
597.1710322060668
 21
200.0507584571058
 31
0.0
  0
LWPOLYLINE
  5
1DEA5
330
18
100
AcDbEntity
  8
1
  6
CONTINUOUS
 62
     7
100
AcDbPolyline
 90
        3
 70
   128
 43
0.0
 10
597.6600817971909
 20
200.0507584571058
 10
597.2594184436881
 20
199.4907579182799
 10
596.9446109243714
 20
199.0507564305479
  0
LINE
  5
1DEA6
330
18
100
AcDbEntity
  8
1
  6
CONTINUOUS
 62
     7
100
AcDbLine
 10
596.9446109243714
 20
199.0507564305479
 30
0.0
 11
596.4555613332474
 21
199.0507564305479
 31
0.0
  0
LINE
  5
1DEA7
330
18
100
AcDbEntity
  8
1
  6
CONTINUOUS
 62
     7
100
AcDbLine
 10
597.6600817971909
 20
207.7507584153826
 30
0.0
 11
597.1710322060668
 21
207.7507584153826
 31
0.0
  0
LINE
  5
1DEA8
330
18
100
AcDbEntity
  8
1
  6
CONTINUOUS
 62
     7
100
AcDbLine
 10
597.6600817971909
 20
207.7507584153826
 30
0.0
 11
597.6600817971909
 21
200.0507584571058
 31
0.0
  0
ARC
  5
1DEA9
330
18
100
AcDbEntity
  8
1
  6
CONTINUOUS
 62
     7
100
AcDbCircle
 10
596.5873500406993
 20
204.0507572501118
 30
0.0
 40
0.8651855066644657
100
AcDbArc
 50
130.9428595496061
 51
229.0571404503939
  0
ARC
  5
1DEAA
330
18
100
AcDbEntity
  8
1
  6
CONTINUOUS
 62
     7
100
AcDbCircle
 10
596.587350533023
 20
201.0507586210186
 30
0.0
 40
0.8651858292872721
100
AcDbArc
 50
130.9428841770826
 51
229.0571158229173
  0
LWPOLYLINE
  5
1DEAB
330
18
100
AcDbEntity
  8
1
  6
CONTINUOUS
 62
     7
100
AcDbPolyline
 90
       22
 70
   128
 43
0.0
 10
604.6181007855618
 20
201.0507567583735
 10
604.5875400173524
 20
200.8333748935873
 10
604.4985731001058
 20
200.6353086589987
 10
604.3591050998353
 20
200.4741563259775
 10
604.1815286603802
 20
200.3642379104311
 10
603.9816218995535
 20
200.315321123522
 10
603.7771474671596
 20
200.3317496537382
 10
603.5862738368147
 20
200.4120631872828
 10
603.4259610910946
 20
200.5491315185244
 10
603.3104535759472
 20
200.7307692228968
 10
603.2500146989756
 20
200.940838342827
 10
603.2500146989756
 20
201.1606751739199
 10
603.3104535759472
 20
201.3707480191404
 10
603.4259610910946
 20
201.5523857235129
 10
603.5862738368147
 20
201.6894503294642
 10
603.7771474671596
 20
201.769767588299
 10
603.9816218995535
 20
201.7861961185152
 10
604.1815286603802
 20
201.7372756063158
 10
604.3591050998353
 20
201.6273571907694
 10
604.4985731001058
 20
201.4662048577482
 10
604.5875400173524
 20
201.2681386231596
 10
604.6181007855618
 20
201.0507567583735
  0
LINE
  5
1DEAC
330
18
100
AcDbEntity
  8
1
  6
CONTINUOUS
 62
     7
100
AcDbLine
 10
605.6324390679644
 20
207.7507584153826
 30
0.0
 11
602.9132987474137
 21
207.7507584153826
 31
0.0
  0
LINE
  5
1DEAD
330
18
100
AcDbEntity
  8
1
  6
CONTINUOUS
 62
     7
100
AcDbLine
 10
605.6324390679644
 20
207.7507584153826
 30
0.0
 11
605.749029187397
 21
207.7507584153826
 31
0.0
  0
LINE
  5
1DEAE
330
18
100
AcDbEntity
  8
1
  6
CONTINUOUS
 62
     7
100
AcDbLine
 10
605.7490296530583
 20
207.7507584153826
 30
0.0
 11
605.7490296530583
 21
200.0507584571058
 31
0.0
  0
LWPOLYLINE
  5
1DEAF
330
18
100
AcDbEntity
  8
1
  6
CONTINUOUS
 62
     7
100
AcDbPolyline
 90
        3
 70
   128
 43
0.0
 10
605.7490296530583
 20
200.0507584571058
 10
605.2267040227586
 20
199.4907579182799
 10
604.8163053215527
 20
199.0507564305479
  0
LINE
  5
1DEB0
330
18
100
AcDbEntity
  8
1
  6
CONTINUOUS
 62
     7
100
AcDbLine
 10
604.8163048558914
 20
199.0507564305479
 30
0.0
 11
603.044128148728
 21
199.0507564305479
 31
0.0
  0
LWPOLYLINE
  5
1DEB1
330
18
100
AcDbEntity
  8
1
  6
CONTINUOUS
 62
     7
100
AcDbPolyline
 90
        3
 70
   128
 43
0.0
 10
603.044127450236
 20
199.0507564305479
 10
602.521801703521
 20
199.6107569693739
 10
602.4877162286126
 20
199.6473020672018
  0
LWPOLYLINE
  5
1DEB2
330
18
100
AcDbEntity
  8
1
  6
CONTINUOUS
 62
     7
100
AcDbPolyline
 90
       22
 70
   128
 43
0.0
 10
604.6181007855618
 20
204.0507553874666
 10
604.5875400173524
 20
203.8333735226805
 10
604.4985731001058
 20
203.6353072880919
 10
604.3591050998353
 20
203.4741549550707
 10
604.1815286603802
 20
203.3642365395243
 10
603.9816218995535
 20
203.3153197526152
 10
603.7771474671596
 20
203.3317482828314
 10
603.5862738368147
 20
203.4120618163759
 10
603.4259610910946
 20
203.5491301476175
 10
603.3104535759472
 20
203.73076785199
 10
603.2500146989756
 20
203.9408369719202
 10
603.2500146989756
 20
204.1606775283034
 10
603.3104535759472
 20
204.3707466482336
 10
603.4259610910946
 20
204.552384352606
 10
603.5862738368147
 20
204.6894526838476
 10
603.7771474671596
 20
204.7697662173922
 10
603.9816218995535
 20
204.7861947476084
 10
604.1815286603802
 20
204.7372779606993
 10
604.3591050998353
 20
204.6273595451529
 10
604.4985731001058
 20
204.4662072121317
 10
604.5875400173524
 20
204.2681409775431
 10
604.6181007855618
 20
204.0507553874666
  0
LINE
  5
1DEB3
330
18
100
AcDbEntity
  8
1
  6
CONTINUOUS
 62
     7
100
AcDbLine
 10
602.7917152837896
 20
199.0507564305479
 30
0.0
 11
603.044127450236
 21
199.0507564305479
 31
0.0
  0
LINE
  5
1DEB4
330
18
100
AcDbEntity
  8
1
  6
CONTINUOUS
 62
     7
100
AcDbLine
 10
602.7917152837896
 20
199.0507564305479
 30
0.0
 11
602.3584160589659
 21
199.5153075813467
 31
0.0
  0
SPLINE
  5
1DEB5
330
18
100
AcDbEntity
  8
1
  6
CONTINUOUS
 62
     7
100
AcDbSpline
210
0.0
220
0.0
230
1.0
 70
     8
 71
     3
 72
    10
 73
     6
 74
     0
 42
0.000000001
 43
0.00000001
 40
0.0
 40
0.0
 40
0.0
 40
0.0
 40
0.2360208879169921
 40
0.755364224216355
 40
1.0
 40
1.0
 40
1.0
 40
1.0
 10
602.3503400952601
 20
207.9292966782267
 30
0.0
 10
602.3759591348031
 20
207.9533742066984
 30
0.0
 10
602.4579506318283
 20
208.030432232264
 30
0.0
 10
602.5233228022931
 20
208.1886294598625
 30
0.0
 10
602.53680927268
 20
208.3114254052343
 30
0.0
 10
602.5411278110975
 20
208.3507462202723
 30
0.0
  0
LINE
  5
1DEB6
330
18
100
AcDbEntity
  8
1
  6
CONTINUOUS
 62
     7
100
AcDbLine
 10
602.6275568743282
 20
208.3507573961432
 30
0.0
 11
602.5411301394039
 21
208.3507573961432
 31
0.0
  0
SPLINE
  5
1DEB7
330
18
100
AcDbEntity
  8
1
  6
CONTINUOUS
 62
     7
100
AcDbSpline
210
0.0
220
0.0
230
1.0
 70
     8
 71
     3
 72
    11
 73
     7
 74
     0
 42
0.000000001
 43
0.00000001
 40
0.0
 40
0.0
 40
0.0
 40
0.0
 40
0.0388274311969428
 40
0.3424838548411583
 40
0.644525253139181
 40
1.0
 40
1.0
 40
1.0
 40
1.0
 10
602.478076574304
 20
207.8306286393816
 30
0.0
 10
602.4845394071436
 20
207.8341011024208
 30
0.0
 10
602.5415459057931
 20
207.8647305437921
 30
0.0
 10
602.6003847128751
 20
207.9652475319184
 30
0.0
 10
602.6664813105666
 20
208.1461454905803
 30
0.0
 10
602.6512047982429
 20
208.2789606336741
 30
0.0
 10
602.6429458157205
 20
208.3507648467238
 30
0.0
  0
SPLINE
  5
1DEB8
330
18
100
AcDbEntity
  8
1
  6
CONTINUOUS
 62
     7
100
AcDbSpline
210
0.0
220
0.0
230
1.0
 70
     8
 71
     3
 72
    11
 73
     7
 74
     0
 42
0.000000001
 43
0.00000001
 40
0.0
 40
0.0
 40
0.0
 40
0.0
 40
0.1949958523571434
 40
0.6368327233097393
 40
0.903900191463121
 40
1.0
 40
1.0
 40
1.0
 40
1.0
 10
605.162571520456
 20
208.0580166339094
 30
0.0
 10
605.1807237554556
 20
208.0228319345374
 30
0.0
 10
605.2400067458843
 20
207.9079229882751
 30
0.0
 10
605.3725616535471
 20
207.8060415870203
 30
0.0
 10
605.5349409784636
 20
207.7525165323612
 30
0.0
 10
605.612201978575
 20
207.7511262943586
 30
0.0
 10
605.6326464618602
 20
207.7507584153826
 30
0.0
  0
ARC
  5
1DEB9
330
18
100
AcDbEntity
  8
1
  6
CONTINUOUS
 62
     7
100
AcDbCircle
 10
603.6445713241557
 20
201.029369935925
 30
0.0
 40
0.7214343693396492
100
AcDbArc
 50
282.767917097421
 51
1.698774367821119
  0
ARC
  5
1DEBA
330
18
100
AcDbEntity
  8
1
  6
CONTINUOUS
 62
     7
100
AcDbCircle
 10
603.6406756403137
 20
201.0691254084683
 30
0.0
 40
0.7252456320013765
100
AcDbArc
 50
358.5486866343638
 51
76.98462190038096
  0
ARC
  5
1DEBB
330
18
100
AcDbEntity
  8
1
  6
CONTINUOUS
 62
     7
100
AcDbCircle
 10
603.6445854860159
 20
204.0293612084962
 30
0.0
 40
0.7214204318285694
100
AcDbArc
 50
282.7670146726607
 51
1.699391714748716
  0
ARC
  5
1DEBC
330
18
100
AcDbEntity
  8
1
  6
CONTINUOUS
 62
     7
100
AcDbCircle
 10
603.6406885061364
 20
204.0691340053288
 30
0.0
 40
0.725233022837438
100
AcDbArc
 50
358.5478736568537
 51
76.98543487789024
  0
LINE
  5
1DEBD
330
18
100
AcDbEntity
  8
1
  6
CONTINUOUS
 62
     7
100
AcDbLine
 10
600.4370510214054
 20
200.5564479886706
 30
0.0
 11
600.4370510214054
 21
201.5247217177565
 31
0.0
  0
LINE
  5
1DEBE
330
18
100
AcDbEntity
  8
1
  6
CONTINUOUS
 62
     7
100
AcDbLine
 10
600.4370510214054
 20
203.5564466177637
 30
0.0
 11
600.4370510214054
 21
204.5247203468496
 31
0.0
  0
LINE
  5
1DEBF
330
18
100
AcDbEntity
  8
1
  6
CONTINUOUS
 62
     7
100
AcDbLine
 10
601.1358125702524
 20
200.3911270558054
 30
0.0
 11
601.1358125702524
 21
201.7118095218355
 31
0.0
  0
LINE
  5
1DEC0
330
18
100
AcDbEntity
  8
1
  6
CONTINUOUS
 62
     7
100
AcDbLine
 10
601.1358125702524
 20
203.3911256848986
 30
0.0
 11
601.1358125702524
 21
204.711811876219
 31
0.0
  0
ARC
  5
1DEC1
330
18
100
AcDbEntity
  8
1
  6
CONTINUOUS
 62
     7
100
AcDbCircle
 10
593.5696509247398
 20
200.9838089752098
 30
0.0
 40
7.726262929506133
100
AcDbArc
 50
356.1960524722734
 51
0.4964720278910303
  0
ARC
  5
1DEC2
330
18
100
AcDbEntity
  8
1
  6
CONTINUOUS
 62
     7
100
AcDbCircle
 10
610.0385212616158
 20
201.0507567583735
 30
0.0
 40
8.832352705891077
100
AcDbArc
 50
175.9938900046737
 51
184.0061099953278
  0
ARC
  5
1DEC3
330
18
100
AcDbEntity
  8
1
  6
CONTINUOUS
 62
     7
100
AcDbCircle
 10
593.5696509247398
 20
201.1177045415371
 30
0.0
 40
7.726262929506133
100
AcDbArc
 50
359.503527972109
 51
3.803947527726597
  0
LINE
  5
1DEC4
330
18
100
AcDbEntity
  8
1
  6
CONTINUOUS
 62
     7
100
AcDbLine
 10
601.3677249298477
 20
204.5356205462629
 30
0.0
 11
601.3677249298477
 21
203.5701705872233
 31
0.0
  0
LINE
  5
1DEC5
330
18
100
AcDbEntity
  8
1
  6
CONTINUOUS
 62
     7
100
AcDbLine
 10
601.3677249298477
 20
201.5356181918795
 30
0.0
 11
601.3677249298477
 21
200.5701719581301
 31
0.0
  0
ARC
  5
1DEC6
330
18
100
AcDbEntity
  8
1
  6
CONTINUOUS
 62
     7
100
AcDbCircle
 10
593.5741081611764
 20
203.9836822127211
 30
0.0
 40
7.721806948656087
100
AcDbArc
 50
356.1948142793388
 51
0.4976889715803858
  0
ARC
  5
1DEC7
330
18
100
AcDbEntity
  8
1
  6
CONTINUOUS
 62
     7
100
AcDbCircle
 10
610.038451563194
 20
204.0507572501118
 30
0.0
 40
8.832283047640896
100
AcDbArc
 50
175.9938704705228
 51
184.0061295294787
  0
ARC
  5
1DEC8
330
18
100
AcDbEntity
  8
1
  6
CONTINUOUS
 62
     7
100
AcDbCircle
 10
593.5740930434332
 20
204.1178314198675
 30
0.0
 40
7.72182209065153
100
AcDbArc
 50
359.5022907998292
 51
3.805184700006552
  0
LINE
  5
1DECA
330
18
100
AcDbEntity
  8
1
  6
CONTINUOUS
 62
     7
100
AcDbLine
 10
585.0528658934915
 20
220.3580162285978
 30
0.0
 11
604.2768132043117
 21
220.3580162285978
 31
0.0
  0
LINE
  5
1DECC
330
18
100
AcDbEntity
  8
1
  6
CONTINUOUS
 62
     7
100
AcDbLine
 10
585.0528658934915
 20
216.5580152332003
 30
0.0
 11
604.2768132043117
 21
216.5580152332003
 31
0.0
  0
LINE
  5
1DECD
102
{ACAD_REACTORS
102
}
330
18
100
AcDbEntity
  8
1
  6
CONTINUOUS
 62
     7
100
AcDbLine
 10
608.6648393989586
 20
208.3580179869349
 30
0.0
 11
580.6648390003526
 21
208.3580179869349
 31
0.0
  0
LINE
  5
1DECE
330
18
100
AcDbEntity
  8
1
  6
CONTINUOUS
 62
     7
100
AcDbLine
 10
572.952996344217
 20
220.3580162285978
 30
0.0
 11
572.952996344217
 21
216.5580152332003
 31
0.0
  0
LINE
  5
1DECF
330
18
100
AcDbEntity
  8
1
  6
CONTINUOUS
 62
     7
100
AcDbLine
 10
572.952996344217
 20
216.5580152332003
 30
0.0
 11
585.0528658934915
 21
216.5580152332003
 31
0.0
  0
LINE
  5
1DED0
330
18
100
AcDbEntity
  8
1
  6
CONTINUOUS
 62
     7
100
AcDbLine
 10
572.952996344217
 20
220.3580162285978
 30
0.0
 11
585.0528658934915
 21
220.3580162285978
 31
0.0
  0
LINE
  5
1DED1
330
18
100
AcDbEntity
  8
1
  6
CONTINUOUS
 62
     7
100
AcDbLine
 10
616.3766815894329
 20
220.3580162285978
 30
0.0
 11
616.3766815894329
 21
216.5580152332003
 31
0.0
  0
LINE
  5
1DED2
330
18
100
AcDbEntity
  8
1
  6
CONTINUOUS
 62
     7
100
AcDbLine
 10
604.2768132043117
 20
216.5580152332003
 30
0.0
 11
616.3766815894329
 21
216.5580152332003
 31
0.0
  0
LINE
  5
1DED3
330
18
100
AcDbEntity
  8
1
  6
CONTINUOUS
 62
     7
100
AcDbLine
 10
604.2768132043117
 20
220.3580162285978
 30
0.0
 11
616.3766815894329
 21
220.3580162285978
 31
0.0
  0
LINE
  5
1DED4
330
18
100
AcDbEntity
  8
1
  6
CONTINUOUS
 62
     7
100
AcDbLine
 10
595.2064994358503
 20
208.0580166339094
 30
0.0
 11
595.2064994358503
 21
208.3580179869349
 31
0.0
  0
SPLINE
  5
1DED5
330
18
100
AcDbEntity
  8
1
  6
CONTINUOUS
 62
     7
100
AcDbSpline
210
0.0
220
0.0
230
1.0
 70
    24
 71
     3
 72
    11
 73
     7
 74
     0
 42
0.000000001
 43
0.00000001
 40
0.0
 40
0.0
 40
0.0
 40
0.0
 40
0.280153040340004
 40
0.5592369147772124
 40
0.7793390672183416
 40
1.0
 40
1.0
 40
1.0
 40
1.0
 10
594.6103458860003
 20
208.0580166339094
 30
0.0
 10
594.6881088006768
 20
208.0580166339094
 30
0.0
 10
594.8433378584622
 20
208.0580166339094
 30
0.0
 10
595.037925364374
 20
208.0580166339094
 30
0.0
 10
595.1587311763068
 20
208.0580166339094
 30
0.0
 10
595.1905632309027
 20
208.0580166339094
 30
0.0
 10
595.2064994358503
 20
208.0580166339094
 30
0.0
  0
LINE
  5
1DED6
330
18
100
AcDbEntity
  8
1
  6
CONTINUOUS
 62
     7
100
AcDbLine
 10
594.6103458860003
 20
208.0580166339094
 30
0.0
 11
594.6103458860003
 21
208.3580179869349
 31
0.0
  0
SPLINE
  5
1DED7
330
18
100
AcDbEntity
  8
1
  6
CONTINUOUS
 62
     7
100
AcDbSpline
210
0.0
220
0.0
230
1.0
 70
    24
 71
     3
 72
    13
 73
     9
 74
     0
 42
0.000000001
 43
0.00000001
 40
0.0
 40
0.0
 40
0.0
 40
0.0
 40
0.1145387818813574
 40
0.4094066964295565
 40
0.5571438659329786
 40
0.7047132472890664
 40
0.8522981181567768
 40
1.0
 40
1.0
 40
1.0
 40
1.0
 10
593.9817320191347
 20
208.0580166339094
 30
0.0
 10
593.9799879710062
 20
208.0580166339094
 30
0.0
 10
593.9737540564232
 20
208.0580166339094
 30
0.0
 10
594.0209565858233
 20
208.0580166339094
 30
0.0
 10
594.1368676695598
 20
208.0580166339094
 30
0.0
 10
594.2671864071907
 20
208.0580166339094
 30
0.0
 10
594.4301497507387
 20
208.0580166339094
 30
0.0
 10
594.5502646419164
 20
208.0580166339094
 30
0.0
 10
594.6103458860003
 20
208.0580166339094
 30
0.0
  0
LINE
  5
1DED8
330
18
100
AcDbEntity
  8
1
  6
CONTINUOUS
 62
     7
100
AcDbLine
 10
595.3106660031759
 20
208.0580166339094
 30
0.0
 11
595.3106660031759
 21
208.3580179869349
 31
0.0
  0
SPLINE
  5
1DED9
330
18
100
AcDbEntity
  8
1
  6
CONTINUOUS
 62
     7
100
AcDbSpline
210
0.0
220
0.0
230
1.0
 70
    24
 71
     3
 72
     9
 73
     5
 74
     0
 42
0.000000001
 43
0.00000001
 40
0.0
 40
0.0
 40
0.0
 40
0.0
 40
0.0023188351954175
 40
0.9999999999999999
 40
0.9999999999999999
 40
0.9999999999999999
 40
0.9999999999999999
 10
595.2671778955543
 20
208.0580166339094
 30
0.0
 10
595.2672605297234
 20
208.0580166339094
 30
0.0
 10
595.3028965979357
 20
208.0580166339081
 30
0.0
 10
595.3067858097764
 20
208.0580166339087
 30
0.0
 10
595.3106660031759
 20
208.0580166339094
 30
0.0
  0
LINE
  5
1DEDA
330
18
100
AcDbEntity
  8
1
  6
CONTINUOUS
 62
     7
100
AcDbLine
 10
600.015626159408
 20
208.0580166339094
 30
0.0
 11
600.015626159408
 21
208.3580179869349
 31
0.0
  0
SPLINE
  5
1DEDB
330
18
100
AcDbEntity
  8
1
  6
CONTINUOUS
 62
     7
100
AcDbSpline
210
0.0
220
0.0
230
1.0
 70
    24
 71
     3
 72
    13
 73
     9
 74
     0
 42
0.000000001
 43
0.00000001
 40
0.0
 40
0.0
 40
0.0
 40
0.0
 40
0.2504929546441638
 40
0.5002017747850588
 40
0.6252432936164454
 40
0.7501326252495211
 40
0.8749653027439753
 40
1.0
 40
1.0
 40
1.0
 40
1.0
 10
598.9699530051136
 20
208.0580166339094
 30
0.0
 10
599.0258131186882
 20
208.0580166339094
 30
0.0
 10
599.1373584832651
 20
208.0580166339094
 30
0.0
 10
599.3292680201245
 20
208.0580166339094
 30
0.0
 10
599.5241349592708
 20
208.0580166339094
 30
0.0
 10
599.6890606364501
 20
208.0580166339094
 30
0.0
 10
599.8616041542326
 20
208.0580166339094
 30
0.0
 10
599.9642578255795
 20
208.0580166339094
 30
0.0
 10
600.015626159408
 20
208.0580166339094
 30
0.0
  0
LINE
  5
1DEDC
330
18
100
AcDbEntity
  8
1
  6
CONTINUOUS
 62
     7
100
AcDbLine
 10
598.9699530051136
 20
208.0580166339094
 30
0.0
 11
598.9699530051136
 21
208.3580179869349
 31
0.0
  0
LINE
  5
1DEDD
330
18
100
AcDbEntity
  8
1
  6
CONTINUOUS
 62
     7
100
AcDbLine
 10
600.3145043374085
 20
208.0580166339094
 30
0.0
 11
600.3145043374085
 21
208.3580179869349
 31
0.0
  0
SPLINE
  5
1DEDE
330
18
100
AcDbEntity
  8
1
  6
CONTINUOUS
 62
     7
100
AcDbSpline
210
0.0
220
0.0
230
1.0
 70
    24
 71
     3
 72
     9
 73
     5
 74
     0
 42
0.000000001
 43
0.00000001
 40
0.0
 40
0.0
 40
0.0
 40
0.0
 40
0.559503638866801
 40
1.0
 40
1.0
 40
1.0
 40
1.0
 10
600.015626159408
 20
208.0580166339094
 30
0.0
 10
600.0974134608246
 20
208.0580166339094
 30
0.0
 10
600.243591779847
 20
208.0580166339094
 30
0.0
 10
600.2928196428774
 20
208.0580166339094
 30
0.0
 10
600.3145043374085
 20
208.0580166339094
 30
0.0
  0
SPLINE
  5
1DEDF
330
18
100
AcDbEntity
  8
1
  6
CONTINUOUS
 62
     7
100
AcDbSpline
210
0.0
220
0.0
230
1.0
 70
    24
 71
     3
 72
    10
 73
     6
 74
     0
 42
0.000000001
 43
0.00000001
 40
0.0
 40
0.0
 40
0.0
 40
0.0
 40
0.0701160688063385
 40
0.534404197876738
 40
1.0
 40
1.0
 40
1.0
 40
1.0
 10
598.7585842245304
 20
208.0580166339094
 30
0.0
 10
598.7574883522284
 20
208.0580166339094
 30
0.0
 10
598.7491359336101
 20
208.0580166339094
 30
0.0
 10
598.8188536995798
 20
208.0580166339094
 30
0.0
 10
598.9195393726683
 20
208.0580166339094
 30
0.0
 10
598.9699530051136
 20
208.0580166339094
 30
0.0
  0
LINE
  5
1DEE0
330
18
100
AcDbEntity
  8
1
  6
CONTINUOUS
 62
     7
100
AcDbLine
 10
601.1177020714664
 20
208.0580166339094
 30
0.0
 11
601.1177020714664
 21
208.3580179869349
 31
0.0
  0
LINE
  5
1DEE1
330
18
100
AcDbEntity
  8
1
  6
CONTINUOUS
 62
     7
100
AcDbLine
 10
600.345199332484
 20
208.0580166339094
 30
0.0
 11
601.1177020714664
 21
208.0580166339094
 31
0.0
  0
LINE
  5
1DEE2
330
18
100
AcDbEntity
  8
1
  6
CONTINUOUS
 62
     7
100
AcDbLine
 10
601.3316440963232
 20
208.0580166339094
 30
0.0
 11
601.3316440963232
 21
208.3580179869349
 31
0.0
  0
LINE
  5
1DEE3
330
18
100
AcDbEntity
  8
1
  6
CONTINUOUS
 62
     7
100
AcDbLine
 10
601.1177020714664
 20
208.0580166339094
 30
0.0
 11
601.3316440963232
 21
208.0580166339094
 31
0.0
  0
LINE
  5
1DEE4
330
18
100
AcDbEntity
  8
1
  6
CONTINUOUS
 62
     7
100
AcDbLine
 10
588.6684203156316
 20
208.0580166339094
 30
0.0
 11
588.6684203156316
 21
208.3580179869349
 31
0.0
  0
SPLINE
  5
1DEE5
330
18
100
AcDbEntity
  8
1
  6
CONTINUOUS
 62
     7
100
AcDbSpline
210
0.0
220
0.0
230
1.0
 70
    24
 71
     3
 72
    11
 73
     7
 74
     0
 42
0.000000001
 43
0.00000001
 40
0.0
 40
0.0
 40
0.0
 40
0.0
 40
0.2802409281102449
 40
0.5595152127334628
 40
0.779661570767077
 40
1.0
 40
1.0
 40
1.0
 40
1.0
 10
587.7801993497693
 20
208.0580166339094
 30
0.0
 10
587.8595819010409
 20
208.0580166339094
 30
0.0
 10
588.0180731869553
 20
208.0580166339094
 30
0.0
 10
588.2883222206157
 20
208.0580166339094
 30
0.0
 10
588.5189246341997
 20
208.0580166339094
 30
0.0
 10
588.6185739379599
 20
208.0580166339094
 30
0.0
 10
588.6684203156316
 20
208.0580166339094
 30
0.0
  0
LINE
  5
1DEE6
330
18
100
AcDbEntity
  8
1
  6
CONTINUOUS
 62
     7
100
AcDbLine
 10
587.7801993497693
 20
208.0580166339094
 30
0.0
 11
587.7801993497693
 21
208.3580179869349
 31
0.0
  0
SPLINE
  5
1DEE7
330
18
100
AcDbEntity
  8
1
  6
CONTINUOUS
 62
     7
100
AcDbSpline
210
0.0
220
0.0
230
1.0
 70
    24
 71
     3
 72
    10
 73
     6
 74
     0
 42
0.000000001
 43
0.00000001
 40
0.0
 40
0.0
 40
0.0
 40
0.0
 40
0.2849833260392475
 40
0.642045813526596
 40
1.0
 40
1.0
 40
1.0
 40
1.0
 10
587.5156925627076
 20
208.0580166339094
 30
0.0
 10
587.514460273187
 20
208.0580166339094
 30
0.0
 10
587.5116840183839
 20
208.0580166339094
 30
0.0
 10
587.6160860171072
 20
208.0580166339094
 30
0.0
 10
587.7254494430862
 20
208.0580166339094
 30
0.0
 10
587.7801993497693
 20
208.0580166339094
 30
0.0
  0
SPLINE
  5
1DEE8
330
18
100
AcDbEntity
  8
1
  6
CONTINUOUS
 62
     7
100
AcDbSpline
210
0.0
220
0.0
230
1.0
 70
    24
 71
     3
 72
     9
 73
     5
 74
     0
 42
0.000000001
 43
0.00000001
 40
0.0
 40
0.0
 40
0.0
 40
0.0
 40
0.5517511479324934
 40
1.0
 40
1.0
 40
1.0
 40
1.0
 10
588.6684203156316
 20
208.0580166339094
 30
0.0
 10
588.7052158883306
 20
208.0580166339094
 30
0.0
 10
588.7719045990599
 20
208.0580166339094
 30
0.0
 10
588.7779382473208
 20
208.0580166339094
 30
0.0
 10
588.7806428232276
 20
208.0580166339094
 30
0.0
  0
LINE
  5
1DEE9
330
18
100
AcDbEntity
  8
1
  6
CONTINUOUS
 62
     7
100
AcDbLine
 10
589.1539970048749
 20
208.0580166339094
 30
0.0
 11
589.1539970048749
 21
208.3580179869349
 31
0.0
  0
SPLINE
  5
1DEEA
330
18
100
AcDbEntity
  8
1
  6
CONTINUOUS
 62
     7
100
AcDbSpline
210
0.0
220
0.0
230
1.0
 70
    24
 71
     3
 72
     9
 73
     5
 74
     0
 42
0.000000001
 43
0.00000001
 40
0.0
 40
0.0
 40
0.0
 40
0.0
 40
0.3765835086706893
 40
1.0
 40
1.0
 40
1.0
 40
1.0
 10
588.8292299219453
 20
208.0580166339094
 30
0.0
 10
588.8776178114528
 20
208.0580166339094
 30
0.0
 10
589.0061096024989
 20
208.0580166339094
 30
0.0
 10
589.0972060051571
 20
208.0580166339094
 30
0.0
 10
589.1539970048749
 20
208.0580166339094
 30
0.0
  0
SPLINE
  5
1DEEB
330
18
100
AcDbEntity
  8
1
  6
CONTINUOUS
 62
     7
100
AcDbSpline
210
0.0
220
0.0
230
1.0
 70
    24
 71
     3
 72
     9
 73
     5
 74
     0
 42
0.000000001
 43
0.00000001
 40
0.0
 40
0.0
 40
0.0
 40
0.0
 40
0.7476719280647836
 40
1.0
 40
1.0
 40
1.0
 40
1.0
 10
589.1539970048749
 20
208.0580166339094
 30
0.0
 10
589.2006865078637
 20
208.0580166339094
 30
0.0
 10
589.2631330184739
 20
208.0580166339094
 30
0.0
 10
589.2490672599987
 20
208.0580166339094
 30
0.0
 10
589.2455180742824
 20
208.0580166339094
 30
0.0
  0
LINE
  5
1DEEC
330
18
100
AcDbEntity
  8
1
  6
CONTINUOUS
 62
     7
100
AcDbLine
 10
594.27224505777
 20
207.3580159603769
 30
0.0
 11
592.7798788630449
 21
207.3580159603769
 31
0.0
  0
LINE
  5
1DEED
330
18
100
AcDbEntity
  8
1
  6
CONTINUOUS
 62
     7
100
AcDbLine
 10
598.727774211117
 20
207.3580159603769
 30
0.0
 11
597.6574917891108
 21
207.3580159603769
 31
0.0
  0
LINE
  5
1DEEE
330
18
100
AcDbEntity
  8
1
  6
CONTINUOUS
 62
     7
100
AcDbLine
 10
594.66635283167
 20
207.8139393388445
 30
0.0
 11
594.6848582112276
 21
208.0580166339094
 31
0.0
  0
LINE
  5
1DEEF
330
18
100
AcDbEntity
  8
1
  6
CONTINUOUS
 62
     7
100
AcDbLine
 10
594.3806947776162
 20
207.3580159603769
 30
0.0
 11
594.27224505777
 21
207.3580159603769
 31
0.0
  0
LINE
  5
1DEF0
330
18
100
AcDbEntity
  8
1
  6
CONTINUOUS
 62
     7
100
AcDbLine
 10
605.2617697146767
 20
208.0580166339094
 30
0.0
 11
605.2617697146767
 21
208.3580179869349
 31
0.0
  0
LINE
  5
1DEF1
330
18
100
AcDbEntity
  8
1
  6
CONTINUOUS
 62
     7
100
AcDbLine
 10
605.1439812741288
 20
208.0580166339094
 30
0.0
 11
605.1439812741288
 21
208.3580179869349
 31
0.0
  0
LINE
  5
1DEF2
330
18
100
AcDbEntity
  8
1
  6
CONTINUOUS
 62
     7
100
AcDbLine
 10
605.1439812741288
 20
208.0580166339094
 30
0.0
 11
605.2617697146767
 21
208.0580166339094
 31
0.0
  0
LINE
  5
1DEF3
330
18
100
AcDbEntity
  8
1
  6
CONTINUOUS
 62
     7
100
AcDbLine
 10
603.4116094102197
 20
208.0580166339094
 30
0.0
 11
603.4116094102197
 21
208.3580179869349
 31
0.0
  0
LINE
  5
1DEF4
330
18
100
AcDbEntity
  8
1
  6
CONTINUOUS
 62
     7
100
AcDbLine
 10
603.4116094102197
 20
208.0580166339094
 30
0.0
 11
605.1439812741288
 21
208.0580166339094
 31
0.0
  0
LINE
  5
1DEF5
330
18
100
AcDbEntity
  8
1
  6
CONTINUOUS
 62
     7
100
AcDbLine
 10
589.938168750056
 20
207.3580159603769
 30
0.0
 11
588.6923255034768
 21
207.3580159603769
 31
0.0
  0
LINE
  5
1DEF6
330
18
100
AcDbEntity
  8
1
  6
CONTINUOUS
 62
     7
100
AcDbLine
 10
591.6635620974981
 20
207.3580159603769
 30
0.0
 11
591.6800791033589
 21
208.3580179869349
 31
0.0
  0
LINE
  5
1DEF7
330
18
100
AcDbEntity
  8
1
  6
CONTINUOUS
 62
     7
100
AcDbLine
 10
591.6635620974981
 20
207.3580159603769
 30
0.0
 11
591.4862503864848
 21
207.3580159603769
 31
0.0
  0
LINE
  5
1DEF8
330
18
100
AcDbEntity
  8
1
  6
CONTINUOUS
 62
     7
100
AcDbLine
 10
605.8919762595602
 20
208.0580166339094
 30
0.0
 11
605.8919762595602
 21
208.3580179869349
 31
0.0
  0
LINE
  5
1DEF9
330
18
100
AcDbEntity
  8
1
  6
CONTINUOUS
 62
     7
100
AcDbLine
 10
605.2617697146767
 20
208.0580166339094
 30
0.0
 11
605.8919762595602
 21
208.0580166339094
 31
0.0
  0
LINE
  5
1DEFA
330
18
100
AcDbEntity
  8
1
  6
CONTINUOUS
 62
     7
100
AcDbLine
 10
606.0097647583158
 20
208.0580166339094
 30
0.0
 11
606.0097647583158
 21
208.3580179869349
 31
0.0
  0
LINE
  5
1DEFB
330
18
100
AcDbEntity
  8
1
  6
CONTINUOUS
 62
     7
100
AcDbLine
 10
605.8919762595602
 20
208.0580166339094
 30
0.0
 11
606.0097647583158
 21
208.0580166339094
 31
0.0
  0
LINE
  5
1DEFC
330
18
100
AcDbEntity
  8
1
  6
CONTINUOUS
 62
     7
100
AcDbLine
 10
583.3449730285489
 20
208.0580166339094
 30
0.0
 11
583.3449730285489
 21
208.3580179869349
 31
0.0
  0
LINE
  5
1DEFD
330
18
100
AcDbEntity
  8
1
  6
CONTINUOUS
 62
     7
100
AcDbLine
 10
583.2600382723891
 20
208.0580166339094
 30
0.0
 11
583.2600382723891
 21
208.3580179869349
 31
0.0
  0
LINE
  5
1DEFE
330
18
100
AcDbEntity
  8
1
  6
CONTINUOUS
 62
     7
100
AcDbLine
 10
583.2600382723891
 20
208.0580166339094
 30
0.0
 11
583.3449730285489
 21
208.0580166339094
 31
0.0
  0
LINE
  5
1DEFF
330
18
100
AcDbEntity
  8
1
  6
CONTINUOUS
 62
     7
100
AcDbLine
 10
584.7199739524209
 20
208.0580166339094
 30
0.0
 11
584.7199739524209
 21
208.3580179869349
 31
0.0
  0
SPLINE
  5
1DF00
330
18
100
AcDbEntity
  8
1
  6
CONTINUOUS
 62
     7
100
AcDbSpline
210
0.0
220
0.0
230
1.0
 70
    24
 71
     3
 72
    11
 73
     7
 74
     0
 42
0.000000001
 43
0.00000001
 40
0.0
 40
0.0
 40
0.0
 40
0.0
 40
0.2797850825298812
 40
0.5598042696266416
 40
0.7799598991047438
 40
1.0
 40
1.0
 40
1.0
 40
1.0
 10
583.3449730285489
 20
208.0580166339094
 30
0.0
 10
583.5020809226993
 20
208.0580166339094
 30
0.0
 10
583.8164281678854
 20
208.0580166339094
 30
0.0
 10
584.1930609195192
 20
208.0580166339094
 30
0.0
 10
584.4994411699976
 20
208.0580166339094
 30
0.0
 10
584.6464758879462
 20
208.0580166339094
 30
0.0
 10
584.7199739524209
 20
208.0580166339094
 30
0.0
  0
LINE
  5
1DF01
330
18
100
AcDbEntity
  8
1
  6
CONTINUOUS
 62
     7
100
AcDbLine
 10
592.7798788630449
 20
207.3580159603769
 30
0.0
 11
591.6635620974981
 21
207.3580159603769
 31
0.0
  0
LINE
  5
1DF02
330
18
100
AcDbEntity
  8
1
  6
CONTINUOUS
 62
     7
100
AcDbLine
 10
585.2692531057679
 20
208.0580166339094
 30
0.0
 11
585.2692531057679
 21
208.3580179869349
 31
0.0
  0
LINE
  5
1DF03
330
18
100
AcDbEntity
  8
1
  6
CONTINUOUS
 62
     7
100
AcDbLine
 10
585.0505021967971
 20
208.0580166339094
 30
0.0
 11
585.0505021967971
 21
208.3580179869349
 31
0.0
  0
LINE
  5
1DF04
330
18
100
AcDbEntity
  8
1
  6
CONTINUOUS
 62
     7
100
AcDbLine
 10
585.0505021967971
 20
208.0580166339094
 30
0.0
 11
585.2692531057679
 21
208.0580166339094
 31
0.0
  0
LINE
  5
1DF05
330
18
100
AcDbEntity
  8
1
  6
CONTINUOUS
 62
     7
100
AcDbLine
 10
584.7199739524209
 20
208.0580166339094
 30
0.0
 11
585.0505021967971
 21
208.0580166339094
 31
0.0
  0
LINE
  5
1DF06
330
18
100
AcDbEntity
  8
1
  6
CONTINUOUS
 62
     7
100
AcDbLine
 10
598.8430328303062
 20
207.3580159603769
 30
0.0
 11
598.8545272135221
 21
208.0580166339094
 31
0.0
  0
LINE
  5
1DF07
330
18
100
AcDbEntity
  8
1
  6
CONTINUOUS
 62
     7
100
AcDbLine
 10
598.9218311020219
 20
207.3580159603769
 30
0.0
 11
598.8430328303062
 21
207.3580159603769
 31
0.0
  0
LINE
  5
1DF08
330
18
100
AcDbEntity
  8
1
  6
CONTINUOUS
 62
     7
100
AcDbLine
 10
598.8430328303062
 20
207.3580159603769
 30
0.0
 11
598.727774211117
 21
207.3580159603769
 31
0.0
  0
LINE
  5
1DF09
330
18
100
AcDbEntity
  8
1
  6
CONTINUOUS
 62
     7
100
AcDbLine
 10
617.0189411946618
 20
219.7580172478373
 30
0.0
 11
617.0189411946618
 21
220.3580162285978
 31
0.0
  0
LINE
  5
1DF0A
330
18
100
AcDbEntity
  8
1
  6
CONTINUOUS
 62
     7
100
AcDbLine
 10
617.0189411946618
 20
219.7580172478373
 30
0.0
 11
618.1648395591461
 21
219.7580172478373
 31
0.0
  0
LINE
  5
1DF0B
330
18
100
AcDbEntity
  8
1
  6
CONTINUOUS
 62
     7
100
AcDbLine
 10
616.3766815894329
 20
216.5580152332003
 30
0.0
 11
618.1648395591461
 21
216.5580152332003
 31
0.0
  0
LINE
  5
1DF0C
330
18
100
AcDbEntity
  8
1
  6
CONTINUOUS
 62
     7
100
AcDbLine
 10
616.3766815894329
 20
220.3580162285978
 30
0.0
 11
617.0189411946618
 21
220.3580162285978
 31
0.0
  0
LINE
  5
1DF0D
330
18
100
AcDbEntity
  8
1
  6
CONTINUOUS
 62
     7
100
AcDbLine
 10
571.1648383745038
 20
219.7580172478373
 30
0.0
 11
572.3107376703107
 21
219.7580172478373
 31
0.0
  0
LINE
  5
1DF0E
102
{ACAD_REACTORS
102
}
330
18
100
AcDbEntity
  8
1
  6
CONTINUOUS
 62
     7
100
AcDbLine
 10
572.3107376703107
 20
219.7580172478373
 30
0.0
 11
572.3107376703107
 21
220.3580162285978
 31
0.0
  0
LINE
  5
1DF0F
330
18
100
AcDbEntity
  8
1
  6
CONTINUOUS
 62
     7
100
AcDbLine
 10
571.1648383745038
 20
216.5580152332003
 30
0.0
 11
572.952996344217
 21
216.5580152332003
 31
0.0
  0
LINE
  5
1DF10
330
18
100
AcDbEntity
  8
1
  6
CONTINUOUS
 62
     7
100
AcDbLine
 10
572.3107376703107
 20
220.3580162285978
 30
0.0
 11
572.952996344217
 21
220.3580162285978
 31
0.0
  0
LINE
  5
1DF11
330
18
100
AcDbEntity
  8
1
  6
CONTINUOUS
 62
     7
100
AcDbLine
 10
578.664838672527
 20
215.8580145596678
 30
0.0
 11
572.6648376890504
 21
215.8580145596678
 31
0.0
  0
LINE
  5
1DF12
330
18
100
AcDbEntity
  8
1
  6
CONTINUOUS
 62
     7
100
AcDbLine
 10
616.664839313277
 20
215.8580145596678
 30
0.0
 11
610.6648397267842
 21
215.8580145596678
 31
0.0
  0
LINE
  5
1DF13
330
18
100
AcDbEntity
  8
1
  6
CONTINUOUS
 62
     7
100
AcDbLine
 10
588.6923255034768
 20
207.3580159603769
 30
0.0
 11
587.6409293719613
 21
207.3580159603769
 31
0.0
  0
LINE
  5
1DF14
330
18
100
AcDbEntity
  8
1
  6
CONTINUOUS
 62
     7
100
AcDbLine
 10
583.0325031288945
 20
208.0580166339094
 30
0.0
 11
583.0325031288945
 21
208.3580179869349
 31
0.0
  0
LINE
  5
1DF15
330
18
100
AcDbEntity
  8
1
  6
CONTINUOUS
 62
     7
100
AcDbLine
 10
583.0325031288945
 20
208.0580166339094
 30
0.0
 11
583.229693920263
 21
208.0580166339094
 31
0.0
  0
SPLINE
  5
1DF16
330
18
100
AcDbEntity
  8
1
  6
CONTINUOUS
 62
     7
100
AcDbSpline
210
0.0
220
0.0
230
1.0
 70
    24
 71
     3
 72
    12
 73
     8
 74
     0
 42
0.000000001
 43
0.00000001
 40
0.0
 40
0.0
 40
0.0
 40
0.0
 40
0.148487756695798
 40
0.2904570235200337
 40
0.4324027824835116
 40
0.7156742705669416
 40
1.0
 40
1.0
 40
1.0
 40
1.0
 10
582.2517679640138
 20
208.0580166339094
 30
0.0
 10
582.247398430931
 20
208.0580166339094
 30
0.0
 10
582.2388511836585
 20
208.0580166339094
 30
0.0
 10
582.3193538302512
 20
208.0580166339094
 30
0.0
 10
582.4589066422167
 20
208.0580166339094
 30
0.0
 10
582.7110669057516
 20
208.0580166339094
 30
0.0
 10
582.9252251304105
 20
208.0580166339094
 30
0.0
 10
583.0325031288945
 20
208.0580166339094
 30
0.0
  0
LINE
  5
1DF17
330
18
100
AcDbEntity
  8
1
  6
CONTINUOUS
 62
     7
100
AcDbLine
 10
607.0997454676823
 20
208.0580166339094
 30
0.0
 11
607.0997454676823
 21
208.3580179869349
 31
0.0
  0
LINE
  5
1DF18
330
18
100
AcDbEntity
  8
1
  6
CONTINUOUS
 62
     7
100
AcDbLine
 10
606.0097647583158
 20
208.0580166339094
 30
0.0
 11
607.0997454676823
 21
208.0580166339094
 31
0.0
  0
LINE
  5
1DF19
330
18
100
AcDbEntity
  8
1
  6
CONTINUOUS
 62
     8
100
AcDbLine
 10
594.27224505777
 20
207.3580159603769
 30
0.0
 11
594.3328639128291
 21
208.0580166339094
 31
0.0
  0
LINE
  5
1DF1A
330
18
100
AcDbEntity
  8
1
  6
CONTINUOUS
 62
     8
100
AcDbLine
 10
597.2521308445417
 20
207.9036070763285
 30
0.0
 11
597.2159675889694
 21
208.3580179869349
 31
0.0
  0
LINE
  5
1DF1B
330
18
100
AcDbEntity
  8
1
  6
CONTINUOUS
 62
     8
100
AcDbLine
 10
590.0351045289123
 20
207.7507584153826
 30
0.0
 11
590.0752575703942
 21
208.3580179869349
 31
0.0
  0
LINE
  5
1DF1C
330
18
100
AcDbEntity
  8
1
  6
CONTINUOUS
 62
     8
100
AcDbLine
 10
602.6398396221035
 20
208.3507573961432
 30
0.0
 11
602.6398396221035
 21
208.3580179869349
 31
0.0
  0
LINE
  5
1DF21
330
18
100
AcDbEntity
  8
OSIE
100
AcDbLine
 10
622.1607552027438
 20
144.4092905960165
 30
0.0
 11
567.1689238271886
 21
144.4092905960165
 31
0.0
  0
LINE
  5
1DF22
330
18
100
AcDbEntity
  8
OSIE
100
AcDbLine
 10
594.6648395149662
 20
124.3490828084702
 30
0.0
 11
594.6648395149662
 21
164.4694983835627
 31
0.0
  0
LINE
  5
1DF24
102
{ACAD_REACTORS
102
}
330
18
100
AcDbEntity
  8
OSIE
100
AcDbLine
 10
613.664839514966
 20
148.5350709829948
 30
0.0
 11
613.664839514966
 21
140.2835102090382
 31
0.0
  0
LINE
  5
1DF28
330
18
100
AcDbEntity
  8
OSIE
100
AcDbLine
 10
582.771617144956
 20
152.0526006675458
 30
0.0
 11
590.53218101026
 21
147.0651894665456
 31
0.0
  0
LINE
  5
1DF3A
330
18
100
AcDbEntity
  8
OSIE
100
AcDbLine
 10
582.7716169980156
 20
136.765980753131
 30
0.0
 11
590.5321805394422
 21
141.7533924580944
 31
0.0
  0
LINE
  5
1DF3C
330
18
100
AcDbEntity
  8
OSIE
100
AcDbLine
 10
588.7919093373581
 20
131.5493676444203
 30
0.0
 11
592.624112492185
 21
139.9407227778571
 31
0.0
  0
LINE
  5
1DF3E
330
18
100
AcDbEntity
  8
OSIE
100
AcDbLine
 10
596.6768155119496
 20
130.4156892089677
 30
0.0
 11
595.3639608555729
 21
139.5467918064941
 31
0.0
  0
LINE
  5
1DF40
330
18
100
AcDbEntity
  8
OSIE
100
AcDbLine
 10
603.9229335234418
 20
133.7248803398405
 30
0.0
 11
597.8818431330734
 21
140.6966698440297
 31
0.0
  0
LINE
  5
1DF42
330
18
100
AcDbEntity
  8
OSIE
100
AcDbLine
 10
608.2296721018096
 20
140.4262962346137
 30
0.0
 11
599.3783494920865
 21
143.0252787381964
 31
0.0
  0
LINE
  5
1DF44
330
18
100
AcDbEntity
  8
OSIE
100
AcDbLine
 10
608.2296721783814
 20
148.3922846966391
 30
0.0
 11
599.3783497374336
 21
145.7933016182606
 31
0.0
  0
LINE
  5
1DF46
330
18
100
AcDbEntity
  8
OSIE
100
AcDbLine
 10
603.9229337288466
 20
155.0937006742082
 30
0.0
 11
597.8818437912192
 21
148.1219107777166
 31
0.0
  0
LINE
  5
1DF48
330
18
100
AcDbEntity
  8
OSIE
100
AcDbLine
 10
596.6768157809726
 20
158.4028919443856
 30
0.0
 11
595.3639617175605
 21
149.2717892616037
 31
0.0
  0
LINE
  5
1DF4A
330
18
100
AcDbEntity
  8
OSIE
100
AcDbLine
 10
588.7919095845865
 20
157.2692136605181
 30
0.0
 11
592.6241132843395
 21
148.8778587759406
 31
0.0
  0
LINE
  5
1DF4C
330
18
100
AcDbEntity
  8
OSIE
100
AcDbLine
 10
594.6648395489016
 20
222.2307172850516
 30
0.0
 11
594.6648395489016
 21
197.8228599009649
 31
0.0
  0
DIMENSION
  5
1DF4E
102
{ACAD_REACTORS
102
}
102
{ACAD_XDICTIONARY
360
1DF4F
102
}
330
18
100
AcDbEntity
  8
WY
100
AcDbDimension
  2
*D170
 10
608.6648393989586
 20
191.3213494405715
 30
0.0
 11
594.6648391996556
 21
192.8213494405715
 31
0.0
 70
    32
  3
STANDARD
100
AcDbAlignedDimension
 13
580.6648390003526
 23
208.3580179869349
 33
0.0
 14
608.6648393989586
 24
208.3580179869349
 34
0.0
100
AcDbRotatedDimension
1001
ACAD
1000
DSTYLE
1002
{
1070
   287
1070
     4
1070
    41
1040
2.5
1070
   147
1040
0.75
1070
   174
1070
     1
1070
   279
1070
     1
1070
    74
1070
     1
1070
   140
1040
1.5
1070
   284
1070
     8
1070
    78
1070
     8
1002
}
  0
DIMENSION
  5
1DF5D
102
{ACAD_XDICTIONARY
360
1DF5E
102
}
330
18
100
AcDbEntity
  8
WY
100
AcDbDimension
  2
*D171
 10
618.164839514966
 20
114.7127801561201
 30
0.0
 11
594.664839514966
 21
116.2127801561201
 31
0.0
 70
    32
  3
STANDARD
100
AcDbAlignedDimension
 13
571.164839514966
 23
144.4092905960164
 33
0.0
 14
618.164839514966
 24
144.4092905960165
 34
0.0
100
AcDbRotatedDimension
1001
ACAD
1000
DSTYLE
1002
{
1070
   287
1070
     4
1070
    41
1040
2.5
1070
   147
1040
0.75
1070
   174
1070
     1
1070
   279
1070
     1
1070
    74
1070
     1
1070
   140
1040
1.5
1070
   284
1070
     8
1070
    78
1070
     8
1002
}
  0
DIMENSION
  5
1DF6C
102
{ACAD_REACTORS
102
}
102
{ACAD_XDICTIONARY
360
1DF6D
102
}
330
18
100
AcDbEntity
  8
WY
100
AcDbDimension
  2
*D172
 10
613.664839514966
 20
119.921774110041
 30
0.0
 11
594.664839514966
 21
121.421774110041
 31
0.0
 70
    32
  3
STANDARD
100
AcDbAlignedDimension
 13
575.664839514966
 23
144.4092905960165
 33
0.0
 14
613.664839514966
 24
144.4092905960165
 34
0.0
100
AcDbRotatedDimension
1001
ACAD
1000
DSTYLE
1002
{
1070
   287
1070
     4
1070
     3
1000
%%p0.1
1070
    41
1040
2.5
1070
   147
1040
0.75
1070
   174
1070
     1
1070
   279
1070
     1
1070
    74
1070
     1
1070
   140
1040
1.5
1070
   284
1070
     8
1070
    78
1070
     8
1002
}
  0
DIMENSION
  5
1DF7C
102
{ACAD_REACTORS
102
}
102
{ACAD_XDICTIONARY
360
1DF7D
102
}
330
18
100
AcDbEntity
  8
WY
100
AcDbDimension
  2
*D173
 10
576.6821218526154
 20
142.8941134956396
 30
0.0
 11
569.4044601985834
 21
153.7337259359385
 31
0.0
 70
   163
  1
%%c3.6
  3
STANDARD
100
AcDbDiametricDimension
 15
574.6475571773167
 25
145.9244676963934
 35
0.0
 40
0.0
1001
ACAD
1000
DSTYLE
1002
{
1070
   287
1070
     4
1070
   271
1070
     1
1070
    41
1040
2.5
1070
   147
1040
0.75
1070
   174
1070
     1
1070
   279
1070
     1
1070
    74
1070
     1
1070
   140
1040
1.5
1070
   284
1070
     8
1070
    78
1070
     8
1002
}
1001
ACAD_DSTYLE_DIMRADIAL_EXT3
1070
   387
1070
     1
1070
   388
1040
0.0
1070
   390
1040
6.283185307179586
  0
DIMENSION
  5
1DF8E
102
{ACAD_REACTORS
102
}
102
{ACAD_XDICTIONARY
360
1DF8F
102
}
330
18
100
AcDbEntity
  8
WY
100
AcDbDimension
  2
*D174
 10
561.2659675511843
 20
208.3580179869349
 30
0.0
 11
559.7659675511843
 21
214.3580171077664
 31
0.0
 70
    32
  3
STANDARD
100
AcDbAlignedDimension
 13
572.3107376703107
 23
220.3580162285978
 33
0.0
 14
580.6648390003526
 24
208.3580179869349
 34
0.0
 50
90.0
100
AcDbRotatedDimension
1001
ACAD
1000
DSTYLE
1002
{
1070
   287
1070
     4
1070
    41
1040
2.5
1070
   147
1040
0.75
1070
   174
1070
     1
1070
   279
1070
     1
1070
    74
1070
     1
1070
   140
1040
1.5
1070
   284
1070
     8
1070
    78
1070
     8
1002
}
  0
DIMENSION
  5
1DF9D
102
{ACAD_REACTORS
102
}
102
{ACAD_XDICTIONARY
360
1DF9E
102
}
330
18
100
AcDbEntity
  8
WY
100
AcDbDimension
  2
*D175
 10
565.1712247326383
 20
215.8580145596678
 30
0.0
 11
563.6712247326383
 21
218.1080153941328
 31
0.0
 70
    32
  3
STANDARD
100
AcDbAlignedDimension
 13
572.3107376703107
 23
220.3580162285978
 33
0.0
 14
572.6648376890504
 24
215.8580145596678
 34
0.0
 50
90.0
100
AcDbRotatedDimension
1001
ACAD
1000
DSTYLE
1002
{
1070
   287
1070
     4
1070
   172
1070
     1
1070
    41
1040
2.5
1070
   147
1040
0.75
1070
   174
1070
     1
1070
   279
1070
     1
1070
    74
1070
     0
1070
   140
1040
1.5
1070
   284
1070
     8
1070
    78
1070
     8
1002
}
  0
DIMENSION
  5
1DFAE
102
{ACAD_REACTORS
102
}
102
{ACAD_XDICTIONARY
360
1DFAF
102
}
330
18
100
AcDbEntity
  8
WY
100
AcDbDimension
  2
*D176
 10
558.0274615958324
 20
199.0507564305479
 30
0.0
 11
556.5274615958324
 21
209.7043863295729
 31
0.0
 70
    32
  3
STANDARD
100
AcDbAlignedDimension
 13
572.3107376703107
 23
220.3580162285978
 33
0.0
 14
584.1730864354455
 24
199.0507564305479
 34
0.0
 50
90.0
100
AcDbRotatedDimension
1001
ACAD
1000
DSTYLE
1002
{
1070
   287
1070
     4
1070
   271
1070
     1
1070
    41
1040
2.5
1070
   147
1040
0.75
1070
   174
1070
     1
1070
   279
1070
     1
1070
    74
1070
     1
1070
   140
1040
1.5
1070
   284
1070
     8
1070
    78
1070
     8
1002
}
  0
CIRCLE
  5
1DFBE
102
{ACAD_REACTORS
102
}
330
18
100
AcDbEntity
  8
OSIE
100
AcDbCircle
 10
594.6648395149662
 20
144.4092905960165
 30
0.0
 40
9.525000822083676
  0
DIMENSION
  5
1DFC2
102
{ACAD_REACTORS
102
}
102
{ACAD_XDICTIONARY
360
1DFC3
102
}
330
18
100
AcDbEntity
  8
WY
100
AcDbDimension
  2
*D177
 10
586.704606659143
 20
139.1785799806442
 30
0.0
 11
630.7527306885081
 21
163.4409577667189
 31
0.0
 70
   163
  1
<>
  3
STANDARD
100
AcDbDiametricDimension
 15
602.6250723707893
 25
149.6400012113887
 35
0.0
 40
0.0
1001
ACAD
1000
DSTYLE
1002
{
1070
   287
1070
     3
1070
     3
1000
%%p0.05
1070
   172
1070
     1
1070
    41
1040
2.5
1070
   147
1040
0.75
1070
   174
1070
     1
1070
   279
1070
     0
1070
    74
1070
     1
1070
   140
1040
1.5
1070
   284
1070
     8
1070
    78
1070
     8
1002
}
1001
ACAD_DSTYLE_DIMRADIAL_EXT3
1070
   387
1070
     1
1070
   388
1040
0.0
1070
   390
1040
6.283185307179586
  0
DIMENSION
  5
1DFD4
102
{ACAD_XDICTIONARY
360
1DFD5
102
}
330
18
100
AcDbEntity
  8
WY
100
AcDbDimension
  2
*D178
 10
629.4430018214483
 20
128.4592905960165
 30
0.0
 11
627.9430018214483
 21
144.4092905960165
 31
0.0
 70
    32
  3
STANDARD
100
AcDbAlignedDimension
 13
594.6648395149659
 23
160.3592905960165
 33
0.0
 14
594.6648395149662
 24
128.4592905960165
 34
0.0
 50
90.0
100
AcDbRotatedDimension
1001
ACAD
1000
DSTYLE
1002
{
1070
   287
1070
     4
1070
     3
1000
-0.2
1070
   271
1070
     0
1070
    41
1040
2.5
1070
   147
1040
0.75
1070
   174
1070
     1
1070
   279
1070
     1
1070
    74
1070
     1
1070
   140
1040
1.5
1070
   284
1070
     8
1070
    78
1070
     8
1002
}
  0
ENDSEC
  0
SECTION
  2
OBJECTS
  0
DICTIONARY
  5
C
330
0
100
AcDbDictionary
  3
ACAD_DETAILVIEWSTYLE
350
F5C4
  3
ACAD_GROUP
350
D
  3
ACAD_IMAGE_VARS
350
F140
  3
ACAD_MLINESTYLE
350
E
  3
ACAD_SCALELIST
350
1D86B
  3
ACAD_SECTIONVIEWSTYLE
350
F5C5
  3
ACDBVARIABLEDICTIONARY
350
C1B
  3
APPDATA
350
F13E
  3
DIMOFFSETDICTIONARY
350
13296
  3
DWGPROPS
350
1DFE4
  0
DICTIONARY
  5
13241
330
2
100
AcDbDictionary
280
     1
  3
ACAD_LAYERSTATES
360
13242
  0
DICTIONARY
  5
1DF4F
330
1DF4E
100
AcDbDictionary
280
     1
  0
DICTIONARY
  5
1DF5E
330
1DF5D
100
AcDbDictionary
280
     1
  0
DICTIONARY
  5
1DF6D
330
1DF6C
100
AcDbDictionary
280
     1
  0
DICTIONARY
  5
1DF7D
330
1DF7C
100
AcDbDictionary
280
     1
  0
DICTIONARY
  5
1DF8F
330
1DF8E
100
AcDbDictionary
280
     1
  0
DICTIONARY
  5
1DF9E
330
1DF9D
100
AcDbDictionary
280
     1
  0
DICTIONARY
  5
1DFAF
330
1DFAE
100
AcDbDictionary
280
     1
  0
DICTIONARY
  5
1DFC3
330
1DFC2
100
AcDbDictionary
280
     1
  0
DICTIONARY
  5
1DFD5
330
1DFD4
100
AcDbDictionary
280
     1
  0
DICTIONARY
  5
F5C4
102
{ACAD_REACTORS
330
C
102
}
330
C
100
AcDbDictionary
  0
DICTIONARY
  5
D
102
{ACAD_REACTORS
330
C
102
}
330
C
100
AcDbDictionary
  0
RASTERVARIABLES
  5
F140
102
{ACAD_REACTORS
330
C
102
}
330
C
100
AcDbRasterVariables
 90
        0
 70
     1
 71
     1
 72
     0
  0
DICTIONARY
  5
E
102
{ACAD_REACTORS
330
C
102
}
330
C
100
AcDbDictionary
  3
STANDARD
350
1B
  0
DICTIONARY
  5
1D86B
102
{ACAD_REACTORS
330
C
102
}
330
C
100
AcDbDictionary
  0
DICTIONARY
  5
F5C5
102
{ACAD_REACTORS
330
C
102
}
330
C
100
AcDbDictionary
  0
DICTIONARY
  5
C1B
102
{ACAD_REACTORS
330
C
102
}
330
C
100
AcDbDictionary
  3
HPTRANSPARENCY
350
13295
  3
SORTENTS
350
C1C
  0
DICTIONARY
  5
F13E
102
{ACAD_REACTORS
330
C
102
}
330
C
100
AcDbDictionary
  0
DICTIONARY
  5
13296
102
{ACAD_REACTORS
330
C
102
}
330
C
100
AcDbDictionary
  3
DIMRAILANGLE
350
173E2
  3
DIMRAILFIRSTOFFSET
350
173E0
  3
DIMRAILOFFSET
350
173E1
  3
DIMRAILSENABLED
350
173E3
  0
XRECORD
  5
1DFE4
102
{ACAD_REACTORS
330
C
102
}
330
C
100
AcDbXrecord
  1
DWGPROPS COOKIE
  2

  3

  4

  6

  7

  8
pikusl
  9

300
=
301
=
302
=
303
=
304
=
305
=
306
=
307
=
308
=
309
=
 40
0.0
 41
2448721.315803356
 42
2457540.353741134
  1

 90
        0
  0
DICTIONARY
  5
13242
102
{ACAD_REACTORS
330
13241
102
}
330
13241
100
AcDbDictionary
  0
MLINESTYLE
  5
1B
102
{ACAD_REACTORS
330
E
102
}
330
E
100
AcDbMlineStyle
  2
STANDARD
 70
     0
  3

 62
     0
 51
90.0
 52
90.0
 71
     2
 49
0.5
 62
   256
  6
BYLAYER
 49
-0.5
 62
   256
  6
BYLAYER
  0
DICTIONARYVAR
  5
13295
102
{ACAD_REACTORS
330
C1B
102
}
330
C1B
100
DictionaryVariables
280
     0
  1
ByLayer
  0
DICTIONARYVAR
  5
C1C
102
{ACAD_REACTORS
330
C1B
102
}
330
C1B
100
DictionaryVariables
280
     0
  1
96
  0
DICTIONARYVAR
  5
173E2
102
{ACAD_REACTORS
330
13296
102
}
330
13296
100
DictionaryVariables
280
     0
  1
0.261799
  0
DICTIONARYVAR
  5
173E0
102
{ACAD_REACTORS
330
13296
102
}
330
13296
100
DictionaryVariables
280
     0
  1
0.400000
  0
DICTIONARYVAR
  5
173E1
102
{ACAD_REACTORS
330
13296
102
}
330
13296
100
DictionaryVariables
280
     0
  1
0.250000
  0
DICTIONARYVAR
  5
173E3
102
{ACAD_REACTORS
330
13296
102
}
330
13296
100
DictionaryVariables
280
     0
  1
1
  0
ENDSEC
  0
EOF
